osu file format v14

[General]
AudioFilename: audio.mp3
AudioLeadIn: 0
PreviewTime: 71190
Countdown: 0
SampleSet: Normal
StackLeniency: 0.7
Mode: 1
LetterboxInBreaks: 0
WidescreenStoryboard: 1

[Editor]
DistanceSpacing: 0.85
BeatDivisor: 8
GridSize: 32
TimelineZoom: 1.2

[Metadata]
Title:just dream it
TitleUnicode:just dream it
Artist:DPR LIVE
ArtistUnicode:DPR LIVE
Creator:clockbite
Version:futsuu
Source:
Tags:korean english hip-hop hip hop hiphop khh electronic future bass dream perfect regime cream archives
BeatmapID:4456300
BeatmapSetID:2086211

[Difficulty]
HPDrainRate:9.5
CircleSize:5
OverallDifficulty:4
ApproachRate:10
SliderMultiplier:1.4
SliderTickRate:1

[Events]
//Background and Video events
0,0,"image.jpg",0,0
//Break Periods
2,56594,58926
//Storyboard Layer 0 (Background)
//Storyboard Layer 1 (Fail)
//Storyboard Layer 2 (Pass)
//Storyboard Layer 3 (Foreground)
//Storyboard Layer 4 (Overlay)
//Storyboard Sound Samples

[TimingPoints]
0,810.810810810811,100,1,0,5,1,8
30446,-100,4,1,0,20,0,0
30649,810.810810810811,4,1,0,20,1,0
30649,-50,4,1,0,20,0,0
31054,-50,4,1,0,21,0,0
31257,-50,4,1,0,21,0,0
31662,-50,4,1,0,21,0,0
32067,-50,4,1,0,22,0,0
32473,-50,4,1,0,22,0,0
32878,-50,4,1,0,22,0,0
33284,-50,4,1,0,22,0,0
33689,-50,4,1,0,23,0,0
33884,-50,4,1,0,23,0,0
33892,-50,4,1,0,23,0,0
34297,-50,4,1,0,24,0,0
34500,-50,4,1,0,24,0,0
34905,-50,4,1,0,24,0,0
35311,-50,4,1,0,25,0,0
35716,-50,4,1,0,25,0,0
36121,-50,4,1,0,25,0,0
36527,-50,4,1,0,25,0,0
36932,-50,4,1,0,26,0,0
37130,-50,4,1,0,26,0,0
37135,-50,4,1,0,26,0,0
37540,-50,4,1,0,27,0,0
37743,-50,4,1,0,27,0,0
38149,-50,4,1,0,27,0,0
38554,-50,4,1,0,28,0,0
38959,-50,4,1,0,28,0,0
39365,-50,4,1,0,28,0,0
39770,-50,4,1,0,29,0,0
40176,-50,4,1,0,29,0,0
40378,-50,4,1,0,29,0,0
40581,-50,4,1,0,29,0,0
40986,-50,4,1,0,30,0,0
41392,-50,4,1,0,30,0,0
41797,-50,4,1,0,30,0,0
42203,-50,4,1,0,31,0,0
42608,-50,4,1,0,31,0,0
43013,-50,4,1,0,31,0,0
43419,-50,4,1,0,32,0,0
43616,-50,4,1,0,32,0,0
43621,-50,4,1,0,32,0,0
44027,-50,4,1,0,32,0,0
44230,-50,4,1,0,33,0,0
44635,-50,4,1,0,33,0,0
45040,-50,4,1,0,33,0,0
45446,-50,4,1,0,34,0,0
45851,-50,4,1,0,34,0,0
46257,-50,4,1,0,34,0,0
46662,-50,4,1,0,35,0,0
46858,-50,4,1,0,35,0,0
46865,-50,4,1,0,35,0,0
47270,-50,4,1,0,36,0,0
47473,-50,4,1,0,36,0,0
47878,-50,4,1,0,36,0,0
48284,-50,4,1,0,36,0,0
48689,-50,4,1,0,37,0,0
49094,-50,4,1,0,37,0,0
49500,-50,4,1,0,37,0,0
49905,-50,4,1,0,38,0,0
50101,-50,4,1,0,38,0,0
50108,-50,4,1,0,38,0,0
50513,-50,4,1,0,39,0,0
50716,-50,4,1,0,39,0,0
51121,-50,4,1,0,39,0,0
51527,-50,4,1,0,40,0,0
51932,-50,4,1,0,40,0,0
52338,-50,4,1,0,40,0,0
52743,-50,4,1,0,40,0,0
53149,-50,4,1,0,41,0,0
53351,-50,4,1,0,41,0,0
53554,-50,4,1,0,41,0,0
53757,-50,4,1,0,42,0,0
53959,-50,4,1,0,42,0,0
54365,-50,4,1,0,42,0,0
54567,-50,4,1,0,43,0,0
54770,-50,4,1,0,43,0,0
55176,-50,4,1,0,43,0,0
55378,-50,4,1,0,43,0,0
55581,-50,4,1,0,44,0,0
55986,-50,4,1,0,44,0,0
56189,-50,4,1,0,44,0,0
56392,-50,4,1,0,45,0,0
56594,-50,4,1,0,5,0,0
59584,-50,4,1,0,60,0,0
59838,405.405405405405,4,1,0,60,1,0
59838,-100,4,1,0,60,0,0
60040,-100,4,1,0,60,0,0
60243,-100,4,1,0,60,0,1
60310,-100,4,1,0,60,0,1
60378,-100,4,1,0,60,0,1
60446,-100,4,1,0,60,0,1
60547,-100,4,1,0,60,0,1
60648,-100,4,1,0,60,0,1
60750,-100,4,1,0,60,0,1
60851,-100,4,1,0,60,0,1
60952,-100,4,1,0,60,0,1
61054,-100,4,1,0,60,0,1
61155,-100,4,1,0,60,0,1
61256,-100,4,1,0,60,0,1
61358,-100,4,1,0,60,0,1
61455,-100,4,1,0,60,0,1
61459,-100,4,1,0,60,0,0
61662,-100,4,1,0,60,0,0
61865,-100,4,1,0,60,0,1
61906,-100,4,1,0,60,0,1
61974,-100,4,1,0,60,0,1
62042,-100,4,1,0,60,0,1
62143,-100,4,1,0,60,0,1
62244,-100,4,1,0,60,0,1
62346,-100,4,1,0,60,0,1
62447,-100,4,1,0,60,0,1
62548,-100,4,1,0,60,0,1
62650,-100,4,1,0,60,0,1
62751,-100,4,1,0,60,0,1
62852,-100,4,1,0,60,0,1
62954,-100,4,1,0,60,0,1
63074,-100,4,1,0,60,0,1
63081,-100,4,1,0,60,0,0
63283,-100,4,1,0,60,0,0
63486,-100,4,1,0,60,0,1
63528,-100,4,1,0,60,0,1
63596,-100,4,1,0,60,0,1
63664,-100,4,1,0,60,0,1
63765,-100,4,1,0,60,0,1
63866,-100,4,1,0,60,0,1
63968,-100,4,1,0,60,0,1
64069,-100,4,1,0,60,0,1
64170,-100,4,1,0,60,0,1
64272,-100,4,1,0,60,0,1
64373,-100,4,1,0,60,0,1
64474,-100,4,1,0,60,0,1
64576,-100,4,1,0,60,0,1
64693,-100,4,1,0,60,0,1
64702,-100,4,1,0,60,0,0
64753,-100,4,1,0,60,0,0
65108,-100,4,1,0,60,0,1
65149,-100,4,1,0,60,0,1
65217,-100,4,1,0,60,0,1
65285,-100,4,1,0,60,0,1
65386,-100,4,1,0,60,0,1
65487,-100,4,1,0,60,0,1
65589,-100,4,1,0,60,0,1
65690,-100,4,1,0,60,0,1
65791,-100,4,1,0,60,0,1
65893,-100,4,1,0,60,0,1
65960,-100,4,1,0,60,0,1
66028,-100,4,1,0,60,0,1
66096,-100,4,1,0,60,0,1
66197,-100,4,1,0,60,0,1
66312,-100,4,1,0,60,0,1
66324,-100,4,1,0,60,0,0
66527,-100,4,1,0,60,0,0
66729,-100,4,1,0,60,0,1
66746,-100,4,1,0,60,0,1
66814,-100,4,1,0,60,0,1
66882,-100,4,1,0,60,0,1
66983,-100,4,1,0,60,0,1
67084,-100,4,1,0,60,0,1
67186,-100,4,1,0,60,0,1
67287,-100,4,1,0,60,0,1
67388,-100,4,1,0,60,0,1
67490,-100,4,1,0,60,0,1
67591,-100,4,1,0,60,0,1
67692,-100,4,1,0,60,0,1
67794,-100,4,1,0,60,0,1
67946,-100,4,1,0,60,0,0
68351,-100,4,1,0,60,0,1
68367,-100,4,1,0,60,0,1
68435,-100,4,1,0,60,0,1
68503,-100,4,1,0,60,0,1
68604,-100,4,1,0,60,0,1
68705,-100,4,1,0,60,0,1
68807,-100,4,1,0,60,0,1
68908,-100,4,1,0,60,0,1
69009,-100,4,1,0,60,0,1
69111,-100,4,1,0,60,0,1
69212,-100,4,1,0,60,0,1
69313,-100,4,1,0,60,0,1
69415,-100,4,1,0,60,0,1
69557,-100,4,1,0,60,0,1
69567,-100,4,1,0,60,0,0
69770,-100,4,1,0,60,0,0
69973,-100,4,1,0,60,0,1
69989,-100,4,1,0,60,0,1
70057,-100,4,1,0,60,0,1
70125,-100,4,1,0,60,0,1
70226,-100,4,1,0,60,0,1
70327,-100,4,1,0,60,0,1
70429,-100,4,1,0,60,0,1
70530,-100,4,1,0,60,0,1
70631,-100,4,1,0,60,0,1
70733,-100,4,1,0,60,0,1
70834,-100,4,1,0,60,0,1
70935,-100,4,1,0,60,0,1
71037,-100,4,1,0,60,0,1
71180,-100,4,1,0,60,0,1
71189,-100,4,1,0,60,0,0
71392,-100,4,1,0,60,0,0
71594,-100,4,1,0,60,0,0
71797,-100,4,1,0,60,0,0
72000,-100,4,1,0,60,0,0
72202,-100,4,1,0,60,0,0
72405,-100,4,1,0,60,0,0
72608,-100,4,1,0,60,0,0
72810,-100,4,1,0,60,0,0
73216,-100,4,1,0,60,0,1
73258,-100,4,1,0,60,0,1
73326,-100,4,1,0,60,0,1
73394,-100,4,1,0,60,0,1
73495,-100,4,1,0,60,0,1
73596,-100,4,1,0,60,0,1
73698,-100,4,1,0,60,0,1
73799,-100,4,1,0,60,0,1
73900,-100,4,1,0,60,0,1
74002,-100,4,1,0,60,0,1
74103,-100,4,1,0,60,0,1
74204,-100,4,1,0,60,0,1
74306,-100,4,1,0,60,0,1
74407,-100,4,1,0,60,0,1
74432,-100,4,1,0,60,0,0
74635,-100,4,1,0,60,0,0
74837,-100,4,1,0,60,0,1
74879,-100,4,1,0,60,0,1
74947,-100,4,1,0,60,0,1
75015,-100,4,1,0,60,0,1
75116,-100,4,1,0,60,0,1
75217,-100,4,1,0,60,0,1
75319,-100,4,1,0,60,0,1
75420,-100,4,1,0,60,0,1
75521,-100,4,1,0,60,0,1
75623,-100,4,1,0,60,0,1
75724,-100,4,1,0,60,0,1
75825,-100,4,1,0,60,0,1
75927,-100,4,1,0,60,0,1
76028,-100,4,1,0,60,0,1
76054,-100,4,1,0,60,0,0
76256,-100,4,1,0,60,0,0
76459,-100,4,1,0,60,0,1
76501,-100,4,1,0,60,0,1
76569,-100,4,1,0,60,0,1
76637,-100,4,1,0,60,0,1
76738,-100,4,1,0,60,0,1
76839,-100,4,1,0,60,0,1
76941,-100,4,1,0,60,0,1
77042,-100,4,1,0,60,0,1
77143,-100,4,1,0,60,0,1
77245,-100,4,1,0,60,0,1
77346,-100,4,1,0,60,0,1
77447,-100,4,1,0,60,0,1
77549,-100,4,1,0,60,0,1
77650,-100,4,1,0,60,0,1
77675,-100,4,1,0,60,0,0
77726,-100,4,1,0,60,0,0
78081,-100,4,1,0,60,0,1
78115,-100,4,1,0,60,0,1
78183,-100,4,1,0,60,0,1
78251,-100,4,1,0,60,0,1
78352,-100,4,1,0,60,0,1
78453,-100,4,1,0,60,0,1
78555,-100,4,1,0,60,0,1
78656,-100,4,1,0,60,0,1
78757,-100,4,1,0,60,0,1
78859,-100,4,1,0,60,0,1
78926,-100,4,1,0,60,0,1
78994,-100,4,1,0,60,0,1
79062,-100,4,1,0,60,0,1
79163,-100,4,1,0,60,0,1
79272,-100,4,1,0,60,0,1
79297,-100,4,1,0,60,0,0
79500,-100,4,1,0,60,0,0
79702,-100,4,1,0,60,0,1
79744,-100,4,1,0,60,0,1
79812,-100,4,1,0,60,0,1
79880,-100,4,1,0,60,0,1
79981,-100,4,1,0,60,0,1
80082,-100,4,1,0,60,0,1
80184,-100,4,1,0,60,0,1
80285,-100,4,1,0,60,0,1
80386,-100,4,1,0,60,0,1
80488,-100,4,1,0,60,0,1
80589,-100,4,1,0,60,0,1
80690,-100,4,1,0,60,0,1
80792,-100,4,1,0,60,0,1
80919,-100,4,1,0,60,0,0
81324,-100,4,1,0,60,0,1
81366,-100,4,1,0,60,0,1
81434,-100,4,1,0,60,0,1
81502,-100,4,1,0,60,0,1
81603,-100,4,1,0,60,0,1
81704,-100,4,1,0,60,0,1
81806,-100,4,1,0,60,0,1
81907,-100,4,1,0,60,0,1
82008,-100,4,1,0,60,0,1
82110,-100,4,1,0,60,0,1
82211,-100,4,1,0,60,0,1
82312,-100,4,1,0,60,0,1
82414,-100,4,1,0,60,0,1
82515,-100,4,1,0,60,0,1
82540,-100,4,1,0,60,0,0
82616,-100,4,1,0,60,0,0
82946,-100,4,1,0,60,0,1
82987,-100,4,1,0,60,0,1
83055,-100,4,1,0,60,0,1
83123,-100,4,1,0,60,0,1
83224,-100,4,1,0,60,0,1
83325,-100,4,1,0,60,0,1
83427,-100,4,1,0,60,0,1
83528,-100,4,1,0,60,0,1
83629,-100,4,1,0,60,0,1
83731,-100,4,1,0,60,0,1
83832,-100,4,1,0,60,0,1
83933,-100,4,1,0,60,0,1
84035,-100,4,1,0,60,0,1
84136,-100,4,1,0,60,0,1
84162,-100,4,1,0,60,0,0
84212,-100,4,1,0,60,0,0
85783,-100,4,1,0,60,0,0
85885,-100,4,1,0,60,0,0
85986,-100,4,1,0,60,0,0
86189,-100,4,1,0,60,0,1
86231,-100,4,1,0,60,0,1
86299,-100,4,1,0,60,0,1
86367,-100,4,1,0,60,0,1
86468,-100,4,1,0,60,0,1
86569,-100,4,1,0,60,0,1
86671,-100,4,1,0,60,0,1
86772,-100,4,1,0,60,0,1
86873,-100,4,1,0,60,0,1
86975,-100,4,1,0,60,0,1
87076,-100,4,1,0,60,0,1
87177,-100,4,1,0,60,0,1
87279,-100,4,1,0,60,0,1
87380,-100,4,1,0,60,0,1
87405,-100,4,1,0,60,0,0
87532,-100,4,1,0,60,0,0
87810,-100,4,1,0,60,0,1
87852,-100,4,1,0,60,0,1
87920,-100,4,1,0,60,0,1
87988,-100,4,1,0,60,0,1
88089,-100,4,1,0,60,0,1
88190,-100,4,1,0,60,0,1
88292,-100,4,1,0,60,0,1
88393,-100,4,1,0,60,0,1
88494,-100,4,1,0,60,0,1
88596,-100,4,1,0,60,0,1
88697,-100,4,1,0,60,0,1
88798,-100,4,1,0,60,0,1
88900,-100,4,1,0,60,0,1
89001,-100,4,1,0,60,0,1
89027,-100,4,1,0,60,0,0
89128,-100,4,1,0,60,0,0
89432,-100,4,1,0,60,0,1
89474,-100,4,1,0,60,0,1
89542,-100,4,1,0,60,0,1
89610,-100,4,1,0,60,0,1
89711,-100,4,1,0,60,0,1
89812,-100,4,1,0,60,0,1
89914,-100,4,1,0,60,0,1
90015,-100,4,1,0,60,0,1
90116,-100,4,1,0,60,0,1
90218,-100,4,1,0,60,0,1
90319,-100,4,1,0,60,0,1
90420,-100,4,1,0,60,0,1
90522,-100,4,1,0,60,0,1
90623,-100,4,1,0,60,0,1
90648,-100,4,1,0,60,0,0
90699,-100,4,1,0,60,0,0
91054,-100,4,1,0,60,0,1
91087,-100,4,1,0,60,0,1
91155,-100,4,1,0,60,0,1
91223,-100,4,1,0,60,0,1
91324,-100,4,1,0,60,0,1
91425,-100,4,1,0,60,0,1
91527,-100,4,1,0,60,0,1
91628,-100,4,1,0,60,0,1
91729,-100,4,1,0,60,0,1
91831,-100,4,1,0,60,0,1
91898,-100,4,1,0,60,0,1
91966,-100,4,1,0,60,0,1
92034,-100,4,1,0,60,0,1
92135,-100,4,1,0,60,0,1
92245,-100,4,1,0,60,0,1
92270,-100,4,1,0,60,0,0
92371,-100,4,1,0,60,0,0
92675,-100,4,1,0,60,0,1
92717,-100,4,1,0,60,0,1
92785,-100,4,1,0,60,0,1
92853,-100,4,1,0,60,0,1
92954,-100,4,1,0,60,0,1
93055,-100,4,1,0,60,0,1
93157,-100,4,1,0,60,0,1
93258,-100,4,1,0,60,0,1
93359,-100,4,1,0,60,0,1
93461,-100,4,1,0,60,0,1
93562,-100,4,1,0,60,0,1
93663,-100,4,1,0,60,0,1
93765,-100,4,1,0,60,0,1
93892,-100,4,1,0,60,0,0
94297,-100,4,1,0,60,0,1
94339,-100,4,1,0,60,0,1
94407,-100,4,1,0,60,0,1
94475,-100,4,1,0,60,0,1
94576,-100,4,1,0,60,0,1
94677,-100,4,1,0,60,0,1
94779,-100,4,1,0,60,0,1
94880,-100,4,1,0,60,0,1
94981,-100,4,1,0,60,0,1
95083,-100,4,1,0,60,0,1
95184,-100,4,1,0,60,0,1
95285,-100,4,1,0,60,0,1
95387,-100,4,1,0,60,0,1
95488,-100,4,1,0,60,0,1
95513,-100,4,1,0,60,0,0
95589,-100,4,1,0,60,0,0
95919,-100,4,1,0,60,0,1
95960,-100,4,1,0,60,0,1
96028,-100,4,1,0,60,0,1
96096,-100,4,1,0,60,0,1
96197,-100,4,1,0,60,0,1
96298,-100,4,1,0,60,0,1
96400,-100,4,1,0,60,0,1
96501,-100,4,1,0,60,0,1
96602,-100,4,1,0,60,0,1
96704,-100,4,1,0,60,0,1
96805,-100,4,1,0,60,0,1
96906,-100,4,1,0,60,0,1
97008,-100,4,1,0,60,0,1
97109,-100,4,1,0,60,0,1
97135,-100,4,1,0,60,0,0
97160,-100,4,1,0,60,0,0
97540,-100,4,1,0,60,0,1
97574,-100,4,1,0,60,0,1
97642,-100,4,1,0,60,0,1
97710,-100,4,1,0,60,0,1
97811,-100,4,1,0,60,0,1
97912,-100,4,1,0,60,0,1
98014,-100,4,1,0,60,0,1
98115,-100,4,1,0,60,0,1
98216,-100,4,1,0,60,0,1
98318,-100,4,1,0,60,0,1
98385,-100,4,1,0,60,0,1
98453,-100,4,1,0,60,0,1
98521,-100,4,1,0,60,0,1
98622,-100,4,1,0,60,0,1
98756,-100,4,1,0,60,0,0

[HitObjects]
165,121,30649,5,4,0:0:0:0:
173,189,31257,1,8,0:0:0:0:
172,206,32067,1,8,0:0:0:0:
172,206,32878,1,8,0:0:0:0:
172,206,33892,1,0,0:0:0:0:
172,206,34500,1,8,0:0:0:0:
221,177,35311,1,8,0:0:0:0:
221,177,36121,1,8,0:0:0:0:
221,177,37135,1,0,0:0:0:0:
221,177,37743,1,8,0:0:0:0:
221,177,38554,1,8,0:0:0:0:
221,177,39365,1,8,0:0:0:0:
221,177,40176,1,8,0:0:0:0:
216,209,40986,1,8,0:0:0:0:
216,209,41797,1,8,0:0:0:0:
216,209,42608,1,8,0:0:0:0:
216,209,43621,1,0,0:0:0:0:
216,209,44230,1,8,0:0:0:0:
216,209,45040,1,8,0:0:0:0:
216,209,45851,1,8,0:0:0:0:
216,209,46865,1,0,0:0:0:0:
216,209,47473,1,8,0:0:0:0:
216,209,48284,1,8,0:0:0:0:
216,209,49094,1,8,0:0:0:0:
216,209,50108,1,0,0:0:0:0:
216,209,50716,1,8,0:0:0:0:
216,209,51527,1,8,0:0:0:0:
216,209,52338,1,8,0:0:0:0:
216,209,53149,1,8,0:0:0:0:
216,209,53554,1,0,0:0:0:0:
216,209,53959,1,8,0:0:0:0:
216,209,54365,1,0,0:0:0:0:
210,208,54770,1,8,0:0:0:0:
210,208,55176,1,0,0:0:0:0:
210,208,55581,1,8,0:0:0:0:
210,208,55986,1,0,0:0:0:0:
210,208,56392,1,8,0:0:0:0:
212,194,59838,5,0,0:0:0:0:
212,194,60243,1,4,0:0:0:0:
226,200,60648,1,8,0:0:0:0:
173,180,60851,1,8,0:0:0:0:
173,180,61054,1,0,0:0:0:0:
173,180,61459,1,8,0:0:0:0:
199,172,61865,1,12,0:0:0:0:
199,172,62270,1,8,0:0:0:0:
199,172,62473,1,0,0:0:0:0:
199,172,62675,1,8,0:0:0:0:
199,172,63081,1,0,0:0:0:0:
199,172,63486,1,4,0:0:0:0:
199,172,63892,1,8,0:0:0:0:
199,172,64094,1,0,0:0:0:0:
199,172,64297,1,0,0:0:0:0:
199,172,64702,1,8,0:0:0:0:
199,172,65108,1,4,0:0:0:0:
199,172,65513,1,8,0:0:0:0:
199,172,65716,1,0,0:0:0:0:
199,172,65919,1,12,0:0:0:0:
199,172,66324,1,0,0:0:0:0:
145,175,66729,1,4,0:0:0:0:
149,171,67135,1,8,0:0:0:0:
149,171,67338,1,8,0:0:0:0:
149,171,67540,1,8,0:0:0:0:
149,171,68351,1,12,0:0:0:0:
149,171,68756,1,0,0:0:0:0:
149,171,68959,1,0,0:0:0:0:
149,171,69162,1,8,0:0:0:0:
149,171,69567,1,0,0:0:0:0:
133,176,69973,1,4,0:0:0:0:
148,179,70378,1,8,0:0:0:0:
148,179,70581,1,8,0:0:0:0:
148,179,70783,1,0,0:0:0:0:
148,179,71189,1,8,0:0:0:0:
165,164,72810,1,0,0:0:0:0:
165,164,73216,1,4,0:0:0:0:
170,162,73621,1,8,0:0:0:0:
170,162,73824,1,8,0:0:0:0:
170,162,74027,1,0,0:0:0:0:
170,162,74432,1,8,0:0:0:0:
194,189,74837,1,12,0:0:0:0:
194,189,75243,1,8,0:0:0:0:
194,189,75446,1,0,0:0:0:0:
194,189,75648,1,8,0:0:0:0:
194,189,76054,1,0,0:0:0:0:
194,189,76459,1,4,0:0:0:0:
194,189,76865,1,8,0:0:0:0:
194,189,77067,1,8,0:0:0:0:
194,189,77270,1,0,0:0:0:0:
194,189,77675,1,8,0:0:0:0:
194,189,78081,1,4,0:0:0:0:
194,189,78486,1,8,0:0:0:0:
194,189,78689,1,0,0:0:0:0:
194,189,78892,1,12,0:0:0:0:
194,189,79297,1,0,0:0:0:0:
177,157,79702,1,4,0:0:0:0:
145,190,80108,1,8,0:0:0:0:
161,190,80310,1,8,0:0:0:0:
161,190,80513,1,8,0:0:0:0:
179,212,81324,1,12,0:0:0:0:
179,212,81729,1,8,0:0:0:0:
179,212,81932,1,0,0:0:0:0:
179,212,82135,1,8,0:0:0:0:
179,212,82540,1,0,0:0:0:0:
179,212,82946,1,4,0:0:0:0:
179,212,83351,1,8,0:0:0:0:
179,212,83554,1,0,0:0:0:0:
179,212,83756,1,0,0:0:0:0:
179,212,84162,1,8,0:0:0:0:
212,194,85783,1,0,0:0:0:0:
212,194,86189,1,4,0:0:0:0:
226,200,86594,1,8,0:0:0:0:
173,180,86797,1,8,0:0:0:0:
173,180,87000,1,0,0:0:0:0:
173,180,87405,1,8,0:0:0:0:
199,172,87810,1,12,0:0:0:0:
199,172,88216,1,0,0:0:0:0:
199,172,88419,1,8,0:0:0:0:
199,172,88621,1,0,0:0:0:0:
199,172,89027,1,0,0:0:0:0:
199,172,89432,1,4,0:0:0:0:
199,172,89837,1,8,0:0:0:0:
199,172,90040,1,0,0:0:0:0:
199,172,90243,1,0,0:0:0:0:
199,172,90648,1,8,0:0:0:0:
199,172,91054,1,4,0:0:0:0:
199,172,91459,1,8,0:0:0:0:
199,172,91662,1,0,0:0:0:0:
199,172,91865,1,12,0:0:0:0:
199,172,92270,1,0,0:0:0:0:
145,175,92675,1,4,0:0:0:0:
149,171,93081,1,8,0:0:0:0:
149,171,93283,1,8,0:0:0:0:
149,171,93486,1,8,0:0:0:0:
149,171,94297,1,12,0:0:0:0:
149,171,94702,1,8,0:0:0:0:
149,171,94905,1,0,0:0:0:0:
149,171,95108,1,8,0:0:0:0:
149,171,95513,1,0,0:0:0:0:
133,176,95919,1,4,0:0:0:0:
148,179,96324,1,8,0:0:0:0:
148,179,96527,1,0,0:0:0:0:
148,179,96729,1,0,0:0:0:0:
148,179,97135,1,8,0:0:0:0:
208,165,97540,1,4,0:0:0:0:
208,165,97946,1,8,0:0:0:0:
208,165,98148,1,0,0:0:0:0:
208,165,98351,1,12,0:0:0:0:
