osu file format v14

[General]
AudioFilename: audio.mp3
AudioLeadIn: 0
PreviewTime: 95351
Countdown: 1
SampleSet: Soft
StackLeniency: 0.7
Mode: 3
LetterboxInBreaks: 0
SpecialStyle: 1
WidescreenStoryboard: 1

[Editor]
DistanceSpacing: 0.8
BeatDivisor: 4
GridSize: 4
TimelineZoom: 1.9

[Metadata]
Title:Our Faith (Faithful MTL Remix)
TitleUnicode:Our Faith (Faithful MTL Remix)
Artist:DOUBLE HELIX
ArtistUnicode:DOUBLE HELIX
Creator:[Crz]Derrick
Version:7K Faith
Source:SOUND VOLTEX II - INFINITE INFECTION
Tags:Kors K Bemani KONAMI Guitar Reflec Beat
BeatmapID:1170031
BeatmapSetID:552488

[Difficulty]
HPDrainRate:8
CircleSize:7
OverallDifficulty:8
ApproachRate:5
SliderMultiplier:1.4
SliderTickRate:1

[Events]
//Background and Video events
0,0,"1438274e9zpgxamhqaszee.jpg",0,0
//Break Periods
//Storyboard Layer 0 (Background)
//Storyboard Layer 1 (Fail)
//Storyboard Layer 2 (Pass)
//Storyboard Layer 3 (Foreground)
//Storyboard Sound Samples

[TimingPoints]
0,324.324324324324,4,2,0,70,1,0
110918,363.636363636364,4,2,0,70,1,0
110918,-89.2857142857143,4,2,0,70,0,0
112373,387.096774193548,4,2,0,70,1,0
112373,-84.0336134453781,4,2,0,70,0,0
112760,444.444444444444,4,2,0,70,1,0
112760,-72.992700729927,4,2,0,70,0,0
113205,428.571428571429,4,2,0,70,1,0
113205,-75.7575757575758,4,2,0,70,0,0
113633,461.538461538462,4,2,0,70,1,0
113633,-70.4225352112676,4,2,0,70,0,0
114095,480,4,2,0,70,1,0
114095,-67.5675675675676,4,2,0,70,0,0

[HitObjects]
109,192,1135,5,0,0:0:0:1:
182,192,1189,1,0,0:0:0:1:
329,192,1243,1,0,0:0:0:1:
256,192,1297,1,0,0:0:0:1:
36,192,1297,1,0,0:0:0:1:
475,192,1297,1,0,0:0:0:1:
109,192,1621,1,0,0:0:0:1:
182,192,1945,1,0,0:0:0:1:
402,192,1945,1,0,0:0:0:1:
109,192,2270,1,0,0:0:0:1:
256,192,2594,1,0,0:0:0:1:
36,192,2594,1,0,0:0:0:1:
109,192,2918,1,0,0:0:0:1:
182,192,3243,1,0,0:0:0:1:
402,192,3243,1,0,0:0:0:1:
109,192,3567,1,0,0:0:0:1:
256,192,3891,1,0,0:0:0:1:
36,192,3891,1,0,0:0:0:1:
109,192,4216,1,0,0:0:0:1:
182,192,4540,1,0,0:0:0:1:
402,192,4540,1,0,0:0:0:1:
109,192,4864,1,0,0:0:0:1:
256,192,5189,1,0,0:0:0:1:
36,192,5189,1,0,0:0:0:1:
109,192,5513,1,0,0:0:0:1:
182,192,5837,1,0,0:0:0:1:
402,192,5837,1,0,0:0:0:1:
109,192,6162,1,0,0:0:0:1:
329,192,6324,1,0,0:0:0:1:
402,192,6324,1,0,0:0:0:1:
109,192,6405,1,0,0:0:0:1:
182,192,6405,1,0,0:0:0:1:
256,192,6486,1,0,0:0:0:1:
36,192,6486,1,0,0:0:0:1:
475,192,6486,1,0,0:0:0:1:
402,192,6810,1,0,0:0:0:1:
109,192,7135,1,0,0:0:0:1:
329,192,7135,1,0,0:0:0:1:
402,192,7459,1,0,0:0:0:1:
182,192,7783,1,0,0:0:0:1:
256,192,7783,1,0,0:0:0:1:
475,192,7783,1,0,0:0:0:1:
402,192,8108,1,0,0:0:0:1:
329,192,8432,1,0,0:0:0:1:
402,192,8756,1,0,0:0:0:1:
109,192,9081,1,0,0:0:0:1:
182,192,9081,1,0,0:0:0:1:
475,192,9081,1,0,0:0:0:1:
256,192,9081,128,0,10216:0:0:0:1:
402,192,9405,1,0,0:0:0:1:
109,192,9729,1,0,0:0:0:1:
329,192,9729,1,0,0:0:0:1:
402,192,10054,1,0,0:0:0:1:
182,192,10378,1,0,0:0:0:1:
36,192,10378,1,0,0:0:0:1:
475,192,10378,1,0,0:0:0:1:
256,192,10378,128,0,10945:0:0:0:1:
402,192,10702,1,0,0:0:0:1:
329,192,11027,1,0,0:0:0:1:
256,192,11027,128,0,11108:0:0:0:1:
256,192,11189,128,0,11270:0:0:0:1:
402,192,11351,1,0,0:0:0:1:
256,192,11351,128,0,11675:0:0:0:1:
109,192,11432,1,0,0:0:0:1:
402,192,11513,1,0,0:0:0:1:
109,192,11594,1,0,0:0:0:1:
182,192,11675,1,0,0:0:0:1:
329,192,11675,1,0,0:0:0:1:
475,192,11675,1,0,0:0:0:1:
36,192,11675,128,0,14270:0:0:0:1:
109,192,12324,1,0,0:0:0:1:
256,192,12324,1,0,0:0:0:1:
475,192,12324,128,0,14270:0:0:0:1:
402,192,12972,128,0,14270:0:0:0:1:
109,192,13621,1,0,0:0:0:1:
256,192,13621,1,0,0:0:0:1:
329,192,13621,128,0,14270:0:0:0:1:
109,192,14270,128,0,14594:0:0:0:1:
256,192,14270,128,0,15243:0:0:0:1:
402,192,14594,128,0,14918:0:0:0:1:
109,192,14918,1,0,0:0:0:1:
329,192,14918,1,0,0:0:0:1:
182,192,14918,128,0,15243:0:0:0:1:
329,192,15243,128,0,15567:0:0:0:1:
36,192,15243,128,0,15567:0:0:0:1:
109,192,15567,128,0,15891:0:0:0:1:
402,192,15567,128,0,16864:0:0:0:1:
182,192,15891,128,0,16216:0:0:0:1:
256,192,16216,1,0,0:0:0:1:
36,192,16216,1,0,0:0:0:1:
475,192,16216,1,0,0:0:0:1:
109,192,16216,128,0,16540:0:0:0:1:
36,192,16540,128,0,16864:0:0:0:1:
109,192,16864,1,0,0:0:0:1:
182,192,16864,1,0,0:0:0:1:
256,192,16864,1,0,0:0:0:1:
329,192,16864,1,0,0:0:0:1:
475,192,16864,128,0,19459:0:0:0:1:
182,192,17513,1,0,0:0:0:1:
329,192,17513,1,0,0:0:0:1:
36,192,17513,128,0,19459:0:0:0:1:
109,192,18162,128,0,19459:0:0:0:1:
256,192,18810,1,0,0:0:0:1:
402,192,18810,1,0,0:0:0:1:
182,192,18810,128,0,19459:0:0:0:1:
256,192,19459,128,0,20432:0:0:0:1:
402,192,19459,128,0,19783:0:0:0:1:
329,192,19783,128,0,20108:0:0:0:1:
109,192,20108,128,0,20432:0:0:0:1:
182,192,20432,128,0,20756:0:0:0:1:
36,192,20432,128,0,20756:0:0:0:1:
109,192,20756,128,0,22054:0:0:0:1:
475,192,20756,128,0,21081:0:0:0:1:
402,192,21081,128,0,21405:0:0:0:1:
182,192,21405,1,0,0:0:0:1:
256,192,21405,1,0,0:0:0:1:
329,192,21405,128,0,21729:0:0:0:1:
256,192,21729,128,0,22054:0:0:0:1:
402,192,21729,128,0,22054:0:0:0:1:
182,192,22054,1,0,0:0:0:1:
329,192,22054,1,0,0:0:0:1:
36,192,22054,1,0,0:0:0:1:
475,192,22054,1,0,0:0:0:1:
109,192,22216,1,0,0:0:0:1:
256,192,22297,1,0,0:0:0:1:
182,192,22378,1,0,0:0:0:1:
402,192,22378,1,0,0:0:0:1:
36,192,22378,1,0,0:0:0:1:
109,192,22540,1,0,0:0:0:1:
329,192,22540,1,0,0:0:0:1:
475,192,22540,1,0,0:0:0:1:
256,192,22621,1,0,0:0:0:1:
402,192,22621,1,0,0:0:0:1:
182,192,22702,1,0,0:0:0:1:
329,192,22702,1,0,0:0:0:1:
475,192,22702,1,0,0:0:0:1:
256,192,22864,1,0,0:0:0:1:
36,192,22864,1,0,0:0:0:1:
182,192,22945,1,0,0:0:0:1:
109,192,23027,1,0,0:0:0:1:
329,192,23027,1,0,0:0:0:1:
256,192,23108,1,0,0:0:0:1:
182,192,23189,1,0,0:0:0:1:
475,192,23189,128,0,23513:0:0:0:1:
256,192,23351,1,0,0:0:0:1:
109,192,23513,1,0,0:0:0:1:
36,192,23513,1,0,0:0:0:1:
182,192,23594,1,0,0:0:0:1:
329,192,23594,1,0,0:0:0:1:
109,192,23675,1,0,0:0:0:1:
36,192,23675,1,0,0:0:0:1:
475,192,23675,128,0,23999:0:0:0:1:
182,192,23756,1,0,0:0:0:1:
256,192,23837,1,0,0:0:0:1:
182,192,23999,1,0,0:0:0:1:
36,192,23999,1,0,0:0:0:1:
329,192,24081,1,0,0:0:0:1:
109,192,24162,1,0,0:0:0:1:
256,192,24162,1,0,0:0:0:1:
402,192,24243,1,0,0:0:0:1:
182,192,24324,1,0,0:0:0:1:
329,192,24324,1,0,0:0:0:1:
475,192,24405,1,0,0:0:0:1:
109,192,24486,1,0,0:0:0:1:
256,192,24486,1,0,0:0:0:1:
182,192,24648,1,0,0:0:0:1:
329,192,24648,1,0,0:0:0:1:
36,192,24648,1,0,0:0:0:1:
475,192,24648,1,0,0:0:0:1:
109,192,24810,1,0,0:0:0:1:
256,192,24810,1,0,0:0:0:1:
402,192,24810,1,0,0:0:0:1:
182,192,24891,1,0,0:0:0:1:
329,192,24891,1,0,0:0:0:1:
109,192,24972,1,0,0:0:0:1:
256,192,24972,1,0,0:0:0:1:
402,192,24972,1,0,0:0:0:1:
182,192,25135,1,0,0:0:0:1:
329,192,25135,1,0,0:0:0:1:
475,192,25135,1,0,0:0:0:1:
109,192,25297,1,0,0:0:0:1:
36,192,25297,1,0,0:0:0:1:
329,192,25378,1,0,0:0:0:1:
402,192,25378,1,0,0:0:0:1:
109,192,25459,1,0,0:0:0:1:
36,192,25459,1,0,0:0:0:1:
182,192,25621,1,0,0:0:0:1:
475,192,25621,1,0,0:0:0:1:
256,192,25783,1,0,0:0:0:1:
109,192,25945,1,0,0:0:0:1:
402,192,25945,1,0,0:0:0:1:
36,192,25945,1,0,0:0:0:1:
475,192,25945,1,0,0:0:0:1:
182,192,26108,1,0,0:0:0:1:
329,192,26189,1,0,0:0:0:1:
109,192,26270,1,0,0:0:0:1:
256,192,26270,1,0,0:0:0:1:
402,192,26270,1,0,0:0:0:1:
36,192,26270,1,0,0:0:0:1:
475,192,26270,1,0,0:0:0:1:
182,192,26351,1,0,0:0:0:1:
329,192,26432,1,0,0:0:0:1:
109,192,26594,1,0,0:0:0:1:
256,192,26594,1,0,0:0:0:1:
402,192,26594,1,0,0:0:0:1:
182,192,26756,1,0,0:0:0:1:
329,192,26756,1,0,0:0:0:1:
475,192,26756,1,0,0:0:0:1:
256,192,26918,1,0,0:0:0:1:
402,192,26918,1,0,0:0:0:1:
36,192,26918,1,0,0:0:0:1:
109,192,27081,1,0,0:0:0:1:
182,192,27081,1,0,0:0:0:1:
329,192,27081,1,0,0:0:0:1:
256,192,27162,1,0,0:0:0:1:
402,192,27162,1,0,0:0:0:1:
109,192,27243,1,0,0:0:0:1:
329,192,27243,1,0,0:0:0:1:
36,192,27243,1,0,0:0:0:1:
475,192,27243,1,0,0:0:0:1:
182,192,27405,1,0,0:0:0:1:
402,192,27486,1,0,0:0:0:1:
109,192,27567,1,0,0:0:0:1:
256,192,27567,1,0,0:0:0:1:
475,192,27567,1,0,0:0:0:1:
182,192,27729,1,0,0:0:0:1:
329,192,27729,1,0,0:0:0:1:
36,192,27729,1,0,0:0:0:1:
109,192,27891,1,0,0:0:0:1:
256,192,27891,1,0,0:0:0:1:
475,192,27891,1,0,0:0:0:1:
402,192,27972,1,0,0:0:0:1:
182,192,28054,1,0,0:0:0:1:
329,192,28054,1,0,0:0:0:1:
402,192,28135,1,0,0:0:0:1:
36,192,28216,1,0,0:0:0:1:
475,192,28216,1,0,0:0:0:1:
256,192,28378,1,0,0:0:0:1:
329,192,28378,1,0,0:0:0:1:
109,192,28378,128,0,28702:0:0:0:1:
329,192,28540,1,0,0:0:0:1:
402,192,28702,1,0,0:0:0:1:
475,192,28702,1,0,0:0:0:1:
182,192,28783,1,0,0:0:0:1:
256,192,28783,1,0,0:0:0:1:
329,192,28864,1,0,0:0:0:1:
402,192,28864,1,0,0:0:0:1:
109,192,28864,128,0,29189:0:0:0:1:
256,192,29027,1,0,0:0:0:1:
329,192,29189,1,0,0:0:0:1:
36,192,29189,1,0,0:0:0:1:
475,192,29189,1,0,0:0:0:1:
256,192,29351,1,0,0:0:0:1:
329,192,29432,1,0,0:0:0:1:
36,192,29432,1,0,0:0:0:1:
475,192,29432,1,0,0:0:0:1:
109,192,29675,1,0,0:0:0:1:
182,192,29675,1,0,0:0:0:1:
256,192,29675,1,0,0:0:0:1:
402,192,29675,1,0,0:0:0:1:
109,192,29837,1,0,0:0:0:1:
329,192,29837,1,0,0:0:0:1:
475,192,29837,128,0,30162:0:0:0:1:
182,192,29999,1,0,0:0:0:1:
36,192,30081,1,0,0:0:0:1:
182,192,30162,1,0,0:0:0:1:
329,192,30162,1,0,0:0:0:1:
402,192,30162,1,0,0:0:0:1:
109,192,30324,1,0,0:0:0:1:
256,192,30324,1,0,0:0:0:1:
256,192,30486,1,0,0:0:0:1:
36,192,30486,1,0,0:0:0:1:
475,192,30486,1,0,0:0:0:1:
109,192,30567,1,0,0:0:0:1:
402,192,30567,1,0,0:0:0:1:
182,192,30648,1,0,0:0:0:1:
329,192,30648,1,0,0:0:0:1:
109,192,30810,1,0,0:0:0:1:
256,192,30810,1,0,0:0:0:1:
36,192,30810,1,0,0:0:0:1:
402,192,30891,1,0,0:0:0:1:
182,192,30972,1,0,0:0:0:1:
329,192,31054,1,0,0:0:0:1:
109,192,31135,1,0,0:0:0:1:
256,192,31135,1,0,0:0:0:1:
36,192,31135,1,0,0:0:0:1:
402,192,31216,1,0,0:0:0:1:
475,192,31216,1,0,0:0:0:1:
109,192,31297,1,0,0:0:0:1:
329,192,31297,1,0,0:0:0:1:
36,192,31297,1,0,0:0:0:1:
256,192,31378,1,0,0:0:0:1:
182,192,31459,1,0,0:0:0:1:
109,192,31540,1,0,0:0:0:1:
256,192,31621,1,0,0:0:0:1:
329,192,31621,1,0,0:0:0:1:
402,192,31621,1,0,0:0:0:1:
109,192,31702,1,0,0:0:0:1:
182,192,31702,1,0,0:0:0:1:
329,192,31783,1,0,0:0:0:1:
402,192,31783,1,0,0:0:0:1:
475,192,31783,1,0,0:0:0:1:
109,192,31864,1,0,0:0:0:1:
182,192,31945,1,0,0:0:0:1:
256,192,32027,1,0,0:0:0:1:
109,192,32108,1,0,0:0:0:1:
329,192,32108,1,0,0:0:0:1:
36,192,32108,1,0,0:0:0:1:
182,192,32189,1,0,0:0:0:1:
402,192,32189,1,0,0:0:0:1:
109,192,32270,1,0,0:0:0:1:
329,192,32270,1,0,0:0:0:1:
36,192,32270,1,0,0:0:0:1:
256,192,32351,1,0,0:0:0:1:
182,192,32432,1,0,0:0:0:1:
109,192,32594,1,0,0:0:0:1:
329,192,32594,1,0,0:0:0:1:
36,192,32594,1,0,0:0:0:1:
475,192,32594,1,0,0:0:0:1:
256,192,32756,1,0,0:0:0:1:
402,192,32756,1,0,0:0:0:1:
182,192,32837,1,0,0:0:0:1:
329,192,32918,1,0,0:0:0:1:
36,192,32918,1,0,0:0:0:1:
475,192,32918,1,0,0:0:0:1:
109,192,32999,1,0,0:0:0:1:
182,192,33081,1,0,0:0:0:1:
402,192,33081,1,0,0:0:0:1:
256,192,33162,1,0,0:0:0:1:
109,192,33243,1,0,0:0:0:1:
36,192,33243,1,0,0:0:0:1:
475,192,33243,1,0,0:0:0:1:
402,192,33324,1,0,0:0:0:1:
182,192,33405,1,0,0:0:0:1:
329,192,33405,1,0,0:0:0:1:
109,192,33486,1,0,0:0:0:1:
256,192,33567,1,0,0:0:0:1:
402,192,33567,1,0,0:0:0:1:
36,192,33567,1,0,0:0:0:1:
182,192,33648,1,0,0:0:0:1:
109,192,33729,1,0,0:0:0:1:
475,192,33729,1,0,0:0:0:1:
256,192,33810,1,0,0:0:0:1:
182,192,33891,1,0,0:0:0:1:
329,192,33891,1,0,0:0:0:1:
36,192,33891,1,0,0:0:0:1:
402,192,33972,1,0,0:0:0:1:
109,192,34054,1,0,0:0:0:1:
256,192,34054,1,0,0:0:0:1:
475,192,34054,1,0,0:0:0:1:
329,192,34135,1,0,0:0:0:1:
182,192,34216,1,0,0:0:0:1:
402,192,34216,1,0,0:0:0:1:
36,192,34216,1,0,0:0:0:1:
256,192,34297,1,0,0:0:0:1:
109,192,34378,1,0,0:0:0:1:
475,192,34378,1,0,0:0:0:1:
329,192,34459,1,0,0:0:0:1:
182,192,34540,1,0,0:0:0:1:
402,192,34540,1,0,0:0:0:1:
36,192,34540,1,0,0:0:0:1:
256,192,34621,1,0,0:0:0:1:
329,192,34702,1,0,0:0:0:1:
475,192,34702,1,0,0:0:0:1:
109,192,34783,1,0,0:0:0:1:
182,192,34864,1,0,0:0:0:1:
256,192,34864,1,0,0:0:0:1:
402,192,34864,1,0,0:0:0:1:
36,192,34945,1,0,0:0:0:1:
109,192,35027,1,0,0:0:0:1:
329,192,35027,1,0,0:0:0:1:
256,192,35108,1,0,0:0:0:1:
182,192,35189,1,0,0:0:0:1:
36,192,35189,1,0,0:0:0:1:
475,192,35189,1,0,0:0:0:1:
329,192,35270,1,0,0:0:0:1:
109,192,35351,1,0,0:0:0:1:
256,192,35351,1,0,0:0:0:1:
402,192,35432,1,0,0:0:0:1:
182,192,35513,1,0,0:0:0:1:
329,192,35513,1,0,0:0:0:1:
475,192,35513,1,0,0:0:0:1:
36,192,35594,1,0,0:0:0:1:
109,192,35675,1,0,0:0:0:1:
256,192,35675,1,0,0:0:0:1:
182,192,35756,1,0,0:0:0:1:
329,192,35837,1,0,0:0:0:1:
402,192,35837,1,0,0:0:0:1:
36,192,35837,1,0,0:0:0:1:
256,192,35918,1,0,0:0:0:1:
109,192,35999,1,0,0:0:0:1:
182,192,35999,1,0,0:0:0:1:
329,192,36081,1,0,0:0:0:1:
256,192,36162,1,0,0:0:0:1:
36,192,36162,1,0,0:0:0:1:
475,192,36162,1,0,0:0:0:1:
182,192,36243,1,0,0:0:0:1:
109,192,36324,1,0,0:0:0:1:
402,192,36324,1,0,0:0:0:1:
256,192,36405,1,0,0:0:0:1:
182,192,36486,1,0,0:0:0:1:
36,192,36486,1,0,0:0:0:1:
475,192,36486,1,0,0:0:0:1:
329,192,36567,1,0,0:0:0:1:
256,192,36648,1,0,0:0:0:1:
402,192,36648,1,0,0:0:0:1:
109,192,36729,1,0,0:0:0:1:
182,192,36810,1,0,0:0:0:1:
329,192,36810,1,0,0:0:0:1:
475,192,36810,1,0,0:0:0:1:
36,192,36891,1,0,0:0:0:1:
109,192,36972,1,0,0:0:0:1:
256,192,36972,1,0,0:0:0:1:
329,192,37054,1,0,0:0:0:1:
182,192,37135,1,0,0:0:0:1:
36,192,37135,1,0,0:0:0:1:
475,192,37135,1,0,0:0:0:1:
402,192,37216,1,0,0:0:0:1:
256,192,37297,1,0,0:0:0:1:
329,192,37297,1,0,0:0:0:1:
109,192,37378,1,0,0:0:0:1:
182,192,37459,1,0,0:0:0:1:
256,192,37459,1,0,0:0:0:1:
475,192,37459,1,0,0:0:0:1:
402,192,37540,1,0,0:0:0:1:
329,192,37621,1,0,0:0:0:1:
36,192,37621,1,0,0:0:0:1:
109,192,37702,1,0,0:0:0:1:
475,192,37702,1,0,0:0:0:1:
182,192,37783,1,0,0:0:0:1:
256,192,37783,1,0,0:0:0:1:
402,192,37783,1,0,0:0:0:1:
109,192,37864,1,0,0:0:0:1:
329,192,37864,1,0,0:0:0:1:
256,192,37945,1,0,0:0:0:1:
36,192,37945,1,0,0:0:0:1:
182,192,38027,1,0,0:0:0:1:
402,192,38027,1,0,0:0:0:1:
109,192,38108,1,0,0:0:0:1:
329,192,38108,1,0,0:0:0:1:
475,192,38108,1,0,0:0:0:1:
256,192,38189,1,0,0:0:0:1:
36,192,38189,1,0,0:0:0:1:
182,192,38270,1,0,0:0:0:1:
402,192,38270,1,0,0:0:0:1:
109,192,38351,1,0,0:0:0:1:
329,192,38351,1,0,0:0:0:1:
182,192,38432,1,0,0:0:0:1:
256,192,38432,1,0,0:0:0:1:
475,192,38432,1,0,0:0:0:1:
36,192,38513,1,0,0:0:0:1:
109,192,38594,1,0,0:0:0:1:
329,192,38594,1,0,0:0:0:1:
182,192,38675,1,0,0:0:0:1:
402,192,38675,1,0,0:0:0:1:
256,192,38756,1,0,0:0:0:1:
36,192,38756,1,0,0:0:0:1:
475,192,38756,1,0,0:0:0:1:
182,192,38837,1,0,0:0:0:1:
329,192,38837,1,0,0:0:0:1:
109,192,38918,1,0,0:0:0:1:
402,192,38918,1,0,0:0:0:1:
182,192,38999,1,0,0:0:0:1:
329,192,38999,1,0,0:0:0:1:
256,192,39081,1,0,0:0:0:1:
36,192,39081,1,0,0:0:0:1:
475,192,39081,1,0,0:0:0:1:
109,192,39162,1,0,0:0:0:1:
329,192,39162,1,0,0:0:0:1:
182,192,39243,1,0,0:0:0:1:
402,192,39243,1,0,0:0:0:1:
256,192,39324,1,0,0:0:0:1:
36,192,39324,1,0,0:0:0:1:
109,192,39405,1,0,0:0:0:1:
329,192,39405,1,0,0:0:0:1:
475,192,39405,1,0,0:0:0:1:
182,192,39486,1,0,0:0:0:1:
402,192,39486,1,0,0:0:0:1:
109,192,39567,1,0,0:0:0:1:
475,192,39567,1,0,0:0:0:1:
256,192,39648,1,0,0:0:0:1:
329,192,39648,1,0,0:0:0:1:
182,192,39729,1,0,0:0:0:1:
402,192,39729,1,0,0:0:0:1:
36,192,39729,1,0,0:0:0:1:
109,192,39810,1,0,0:0:0:1:
329,192,39810,1,0,0:0:0:1:
256,192,39891,1,0,0:0:0:1:
36,192,39891,1,0,0:0:0:1:
182,192,39972,1,0,0:0:0:1:
402,192,39972,1,0,0:0:0:1:
109,192,40054,1,0,0:0:0:1:
329,192,40054,1,0,0:0:0:1:
475,192,40054,1,0,0:0:0:1:
256,192,40135,1,0,0:0:0:1:
402,192,40135,1,0,0:0:0:1:
182,192,40216,1,0,0:0:0:1:
36,192,40216,1,0,0:0:0:1:
329,192,40297,1,0,0:0:0:1:
475,192,40297,1,0,0:0:0:1:
109,192,40378,1,0,0:0:0:1:
256,192,40378,1,0,0:0:0:1:
402,192,40378,1,0,0:0:0:1:
182,192,40459,1,0,0:0:0:1:
329,192,40459,1,0,0:0:0:1:
256,192,40540,1,0,0:0:0:1:
402,192,40540,1,0,0:0:0:1:
329,192,40621,1,0,0:0:0:1:
36,192,40621,1,0,0:0:0:1:
109,192,40702,1,0,0:0:0:1:
182,192,40702,1,0,0:0:0:1:
475,192,40702,1,0,0:0:0:1:
256,192,40783,1,0,0:0:0:1:
402,192,40783,1,0,0:0:0:1:
329,192,40864,1,0,0:0:0:1:
36,192,40864,1,0,0:0:0:1:
109,192,40945,1,0,0:0:0:1:
475,192,40945,1,0,0:0:0:1:
182,192,41027,1,0,0:0:0:1:
256,192,41027,1,0,0:0:0:1:
402,192,41027,1,0,0:0:0:1:
109,192,41108,1,0,0:0:0:1:
329,192,41108,1,0,0:0:0:1:
256,192,41189,1,0,0:0:0:1:
36,192,41189,1,0,0:0:0:1:
182,192,41270,1,0,0:0:0:1:
402,192,41270,1,0,0:0:0:1:
109,192,41351,1,0,0:0:0:1:
329,192,41351,1,0,0:0:0:1:
475,192,41351,1,0,0:0:0:1:
256,192,41432,1,0,0:0:0:1:
402,192,41432,1,0,0:0:0:1:
36,192,41432,1,0,0:0:0:1:
182,192,41513,1,0,0:0:0:1:
329,192,41513,1,0,0:0:0:1:
475,192,41513,1,0,0:0:0:1:
109,192,41594,1,0,0:0:0:1:
256,192,41675,1,0,0:0:0:1:
402,192,41675,1,0,0:0:0:1:
475,192,41675,1,0,0:0:0:1:
109,192,41756,1,0,0:0:0:1:
182,192,41756,1,0,0:0:0:1:
36,192,41756,1,0,0:0:0:1:
256,192,41837,1,0,0:0:0:1:
402,192,41837,1,0,0:0:0:1:
475,192,41837,1,0,0:0:0:1:
109,192,41918,1,0,0:0:0:1:
182,192,41918,1,0,0:0:0:1:
36,192,41918,1,0,0:0:0:1:
256,192,41999,1,0,0:0:0:1:
402,192,41999,1,0,0:0:0:1:
475,192,41999,1,0,0:0:0:1:
329,192,42081,1,0,0:0:0:1:
256,192,42162,1,0,0:0:0:1:
402,192,42162,1,0,0:0:0:1:
36,192,42162,1,0,0:0:0:1:
475,192,42162,1,0,0:0:0:1:
329,192,42243,1,0,0:0:0:1:
109,192,42270,1,0,0:0:0:1:
475,192,42324,1,0,0:0:0:1:
182,192,42378,1,0,0:0:0:1:
402,192,42405,1,0,0:0:0:1:
256,192,42486,1,0,0:0:0:1:
329,192,42486,1,0,0:0:0:1:
36,192,42486,1,0,0:0:0:1:
475,192,42567,1,0,0:0:0:1:
109,192,42594,1,0,0:0:0:1:
402,192,42648,1,0,0:0:0:1:
182,192,42702,1,0,0:0:0:1:
329,192,42729,1,0,0:0:0:1:
109,192,42810,1,0,0:0:0:1:
36,192,42810,1,0,0:0:0:1:
475,192,42810,1,0,0:0:0:1:
256,192,42810,128,0,45405:0:0:0:1:
402,192,42972,1,0,0:0:0:1:
329,192,43135,1,0,0:0:0:1:
402,192,43297,1,0,0:0:0:1:
475,192,43459,128,0,43783:0:0:0:1:
36,192,44108,1,0,0:0:0:1:
109,192,44270,1,0,0:0:0:1:
182,192,44432,1,0,0:0:0:1:
109,192,44594,1,0,0:0:0:1:
36,192,44756,128,0,45081:0:0:0:1:
329,192,45405,1,0,0:0:0:1:
402,192,45567,1,0,0:0:0:1:
475,192,45729,1,0,0:0:0:1:
402,192,45891,1,0,0:0:0:1:
329,192,46054,128,0,46378:0:0:0:1:
36,192,46702,1,0,0:0:0:1:
109,192,46864,1,0,0:0:0:1:
182,192,47027,1,0,0:0:0:1:
109,192,47189,1,0,0:0:0:1:
402,192,47351,1,0,0:0:0:1:
329,192,47513,1,0,0:0:0:1:
256,192,47675,1,0,0:0:0:1:
329,192,47837,1,0,0:0:0:1:
402,192,47999,1,0,0:0:0:1:
329,192,48162,1,0,0:0:0:1:
256,192,48324,1,0,0:0:0:1:
329,192,48486,1,0,0:0:0:1:
402,192,48648,128,0,48972:0:0:0:1:
36,192,49297,1,0,0:0:0:1:
109,192,49459,1,0,0:0:0:1:
182,192,49621,1,0,0:0:0:1:
109,192,49783,1,0,0:0:0:1:
36,192,49945,128,0,50270:0:0:0:1:
182,192,50432,1,0,0:0:0:1:
329,192,50513,1,0,0:0:0:1:
36,192,50594,1,0,0:0:0:1:
475,192,50594,1,0,0:0:0:1:
109,192,50756,1,0,0:0:0:1:
182,192,50918,1,0,0:0:0:1:
109,192,51081,1,0,0:0:0:1:
475,192,51243,1,0,0:0:0:1:
402,192,51405,1,0,0:0:0:1:
329,192,51567,1,0,0:0:0:1:
402,192,51729,1,0,0:0:0:1:
36,192,51891,1,0,0:0:0:1:
109,192,52054,1,0,0:0:0:1:
182,192,52216,1,0,0:0:0:1:
256,192,52378,1,0,0:0:0:1:
329,192,52540,128,0,52864:0:0:0:1:
182,192,53027,1,0,0:0:0:1:
329,192,53027,1,0,0:0:0:1:
182,192,53108,1,0,0:0:0:1:
329,192,53108,1,0,0:0:0:1:
109,192,53189,1,0,0:0:0:1:
256,192,53189,1,0,0:0:0:1:
402,192,53189,1,0,0:0:0:1:
475,192,53189,1,0,0:0:0:1:
36,192,53189,128,0,55783:0:0:0:1:
329,192,53837,1,0,0:0:0:1:
475,192,53837,1,0,0:0:0:1:
109,192,53837,128,0,55783:0:0:0:1:
402,192,54324,1,0,0:0:0:1:
402,192,54405,1,0,0:0:0:1:
329,192,54486,1,0,0:0:0:1:
475,192,54486,1,0,0:0:0:1:
182,192,54486,128,0,55783:0:0:0:1:
256,192,54702,1,0,0:0:0:1:
402,192,54702,1,0,0:0:0:1:
329,192,54918,1,0,0:0:0:1:
475,192,54918,1,0,0:0:0:1:
402,192,55135,1,0,0:0:0:1:
475,192,55135,1,0,0:0:0:1:
256,192,55135,128,0,55783:0:0:0:1:
402,192,55351,1,0,0:0:0:1:
475,192,55351,1,0,0:0:0:1:
402,192,55567,1,0,0:0:0:1:
475,192,55567,1,0,0:0:0:1:
329,192,55783,1,0,0:0:0:1:
402,192,55783,128,0,56756:0:0:0:1:
475,192,55783,128,0,57081:0:0:0:1:
182,192,56432,1,0,0:0:0:1:
36,192,56432,1,0,0:0:0:1:
329,192,56756,128,0,57081:0:0:0:1:
109,192,56918,1,0,0:0:0:1:
36,192,56918,1,0,0:0:0:1:
182,192,56999,1,0,0:0:0:1:
109,192,57081,1,0,0:0:0:1:
36,192,57081,1,0,0:0:0:1:
256,192,57081,128,0,58378:0:0:0:1:
402,192,57081,128,0,58378:0:0:0:1:
182,192,57243,1,0,0:0:0:1:
475,192,57243,1,0,0:0:0:1:
329,192,57324,1,0,0:0:0:1:
36,192,57324,1,0,0:0:0:1:
182,192,57405,1,0,0:0:0:1:
475,192,57405,1,0,0:0:0:1:
109,192,57567,1,0,0:0:0:1:
329,192,57567,1,0,0:0:0:1:
36,192,57567,1,0,0:0:0:1:
182,192,57729,1,0,0:0:0:1:
475,192,57891,1,0,0:0:0:1:
109,192,58054,1,0,0:0:0:1:
329,192,58054,1,0,0:0:0:1:
36,192,58054,1,0,0:0:0:1:
182,192,58378,1,0,0:0:0:1:
329,192,58378,1,0,0:0:0:1:
475,192,58378,1,0,0:0:0:1:
36,192,58378,128,0,60972:0:0:0:1:
256,192,59027,1,0,0:0:0:1:
475,192,59027,1,0,0:0:0:1:
182,192,59027,128,0,60972:0:0:0:1:
256,192,59513,1,0,0:0:0:1:
402,192,59594,1,0,0:0:0:1:
109,192,59675,1,0,0:0:0:1:
475,192,59675,1,0,0:0:0:1:
329,192,59675,128,0,60972:0:0:0:1:
256,192,59783,1,0,0:0:0:1:
402,192,59891,1,0,0:0:0:1:
109,192,59999,1,0,0:0:0:1:
256,192,59999,1,0,0:0:0:1:
402,192,60108,1,0,0:0:0:1:
475,192,60108,1,0,0:0:0:1:
109,192,60216,1,0,0:0:0:1:
256,192,60216,1,0,0:0:0:1:
402,192,60324,1,0,0:0:0:1:
475,192,60324,128,0,60972:0:0:0:1:
256,192,60432,1,0,0:0:0:1:
109,192,60540,1,0,0:0:0:1:
402,192,60648,1,0,0:0:0:1:
256,192,60756,1,0,0:0:0:1:
109,192,60864,1,0,0:0:0:1:
256,192,60972,1,0,0:0:0:1:
402,192,60972,128,0,61945:0:0:0:1:
182,192,61135,1,0,0:0:0:1:
36,192,61135,1,0,0:0:0:1:
256,192,61297,128,0,62108:0:0:0:1:
109,192,61459,1,0,0:0:0:1:
36,192,61459,1,0,0:0:0:1:
182,192,61540,1,0,0:0:0:1:
329,192,61540,1,0,0:0:0:1:
36,192,61621,1,0,0:0:0:1:
475,192,61621,1,0,0:0:0:1:
109,192,61621,128,0,62108:0:0:0:1:
329,192,61783,1,0,0:0:0:1:
182,192,62108,1,0,0:0:0:1:
329,192,62108,1,0,0:0:0:1:
402,192,62108,128,0,63243:0:0:0:1:
36,192,62270,1,0,0:0:0:1:
475,192,62270,1,0,0:0:0:1:
182,192,62351,1,0,0:0:0:1:
329,192,62351,1,0,0:0:0:1:
256,192,62351,128,0,63081:0:0:0:1:
36,192,62432,1,0,0:0:0:1:
475,192,62432,1,0,0:0:0:1:
182,192,62513,1,0,0:0:0:1:
329,192,62513,1,0,0:0:0:1:
36,192,62594,1,0,0:0:0:1:
475,192,62594,1,0,0:0:0:1:
109,192,62594,128,0,62918:0:0:0:1:
182,192,62675,1,0,0:0:0:1:
329,192,62756,1,0,0:0:0:1:
475,192,62837,1,0,0:0:0:1:
36,192,62918,1,0,0:0:0:1:
109,192,62999,1,0,0:0:0:1:
182,192,63081,1,0,0:0:0:1:
256,192,63162,1,0,0:0:0:1:
329,192,63243,1,0,0:0:0:1:
402,192,63324,1,0,0:0:0:1:
475,192,63405,1,0,0:0:0:1:
182,192,63486,1,0,0:0:0:1:
109,192,63567,1,0,0:0:0:1:
256,192,63567,1,0,0:0:0:1:
329,192,63567,1,0,0:0:0:1:
36,192,63567,1,0,0:0:0:1:
475,192,63567,1,0,0:0:0:1:
109,192,63729,1,0,0:0:0:1:
36,192,63729,1,0,0:0:0:1:
109,192,63891,1,0,0:0:0:1:
256,192,63891,1,0,0:0:0:1:
36,192,63891,1,0,0:0:0:1:
109,192,64054,1,0,0:0:0:1:
36,192,64054,1,0,0:0:0:1:
109,192,64216,1,0,0:0:0:1:
182,192,64216,1,0,0:0:0:1:
256,192,64216,1,0,0:0:0:1:
402,192,64216,1,0,0:0:0:1:
36,192,64216,1,0,0:0:0:1:
109,192,64378,1,0,0:0:0:1:
36,192,64378,1,0,0:0:0:1:
256,192,64540,1,0,0:0:0:1:
36,192,64540,1,0,0:0:0:1:
36,192,64702,1,0,0:0:0:1:
182,192,64864,1,0,0:0:0:1:
329,192,64864,1,0,0:0:0:1:
475,192,64864,1,0,0:0:0:1:
109,192,64864,128,0,65189:0:0:0:1:
329,192,65027,1,0,0:0:0:1:
475,192,65027,1,0,0:0:0:1:
182,192,65189,1,0,0:0:0:1:
329,192,65189,1,0,0:0:0:1:
475,192,65189,1,0,0:0:0:1:
329,192,65351,1,0,0:0:0:1:
475,192,65351,1,0,0:0:0:1:
182,192,65513,1,0,0:0:0:1:
329,192,65513,1,0,0:0:0:1:
36,192,65513,1,0,0:0:0:1:
475,192,65513,1,0,0:0:0:1:
329,192,65675,1,0,0:0:0:1:
475,192,65675,1,0,0:0:0:1:
182,192,65837,1,0,0:0:0:1:
329,192,65837,1,0,0:0:0:1:
475,192,65837,1,0,0:0:0:1:
109,192,65999,1,0,0:0:0:1:
329,192,65999,1,0,0:0:0:1:
475,192,65999,1,0,0:0:0:1:
182,192,66081,1,0,0:0:0:1:
402,192,66081,1,0,0:0:0:1:
109,192,66162,1,0,0:0:0:1:
256,192,66162,1,0,0:0:0:1:
36,192,66162,1,0,0:0:0:1:
475,192,66162,1,0,0:0:0:1:
256,192,66324,1,0,0:0:0:1:
475,192,66324,1,0,0:0:0:1:
256,192,66486,1,0,0:0:0:1:
36,192,66486,1,0,0:0:0:1:
475,192,66486,1,0,0:0:0:1:
256,192,66648,1,0,0:0:0:1:
475,192,66648,1,0,0:0:0:1:
256,192,66810,1,0,0:0:0:1:
36,192,66810,1,0,0:0:0:1:
475,192,66810,1,0,0:0:0:1:
256,192,66972,1,0,0:0:0:1:
475,192,66972,1,0,0:0:0:1:
182,192,67135,1,0,0:0:0:1:
256,192,67135,1,0,0:0:0:1:
36,192,67135,1,0,0:0:0:1:
475,192,67135,1,0,0:0:0:1:
256,192,67297,1,0,0:0:0:1:
402,192,67297,1,0,0:0:0:1:
475,192,67297,1,0,0:0:0:1:
182,192,67459,1,0,0:0:0:1:
329,192,67459,1,0,0:0:0:1:
36,192,67459,1,0,0:0:0:1:
475,192,67459,1,0,0:0:0:1:
109,192,67621,1,0,0:0:0:1:
182,192,67621,1,0,0:0:0:1:
329,192,67621,1,0,0:0:0:1:
402,192,67621,1,0,0:0:0:1:
475,192,67621,1,0,0:0:0:1:
182,192,67783,1,0,0:0:0:1:
329,192,67783,1,0,0:0:0:1:
36,192,67783,1,0,0:0:0:1:
182,192,67945,1,0,0:0:0:1:
329,192,67945,1,0,0:0:0:1:
182,192,68108,1,0,0:0:0:1:
329,192,68108,1,0,0:0:0:1:
36,192,68108,1,0,0:0:0:1:
109,192,68270,1,0,0:0:0:1:
256,192,68270,1,0,0:0:0:1:
329,192,68270,1,0,0:0:0:1:
182,192,68432,1,0,0:0:0:1:
329,192,68432,1,0,0:0:0:1:
109,192,68594,1,0,0:0:0:1:
256,192,68594,1,0,0:0:0:1:
329,192,68594,1,0,0:0:0:1:
329,192,68756,1,0,0:0:0:1:
182,192,68756,128,0,68918:0:0:0:1:
36,192,68756,128,0,68918:0:0:0:1:
475,192,68756,128,0,69567:0:0:0:1:
182,192,69081,1,0,0:0:0:1:
329,192,69081,1,0,0:0:0:1:
36,192,69081,1,0,0:0:0:1:
182,192,69243,128,0,69405:0:0:0:1:
36,192,69243,128,0,69405:0:0:0:1:
329,192,69405,1,0,0:0:0:1:
182,192,69567,1,0,0:0:0:1:
36,192,69567,1,0,0:0:0:1:
329,192,69729,1,0,0:0:0:1:
475,192,69729,1,0,0:0:0:1:
182,192,69729,128,0,70054:0:0:0:1:
36,192,69729,128,0,70054:0:0:0:1:
329,192,69891,1,0,0:0:0:1:
475,192,69891,1,0,0:0:0:1:
109,192,70054,1,0,0:0:0:1:
256,192,70054,1,0,0:0:0:1:
402,192,70054,1,0,0:0:0:1:
329,192,70216,1,0,0:0:0:1:
36,192,70216,1,0,0:0:0:1:
256,192,70216,128,0,70378:0:0:0:1:
402,192,70216,128,0,70864:0:0:0:1:
182,192,70378,1,0,0:0:0:1:
36,192,70378,1,0,0:0:0:1:
475,192,70378,1,0,0:0:0:1:
109,192,70540,1,0,0:0:0:1:
329,192,70540,1,0,0:0:0:1:
182,192,70702,1,0,0:0:0:1:
475,192,70702,1,0,0:0:0:1:
109,192,70702,128,0,71351:0:0:0:1:
256,192,70702,128,0,70864:0:0:0:1:
329,192,70864,1,0,0:0:0:1:
36,192,70864,1,0,0:0:0:1:
182,192,71027,1,0,0:0:0:1:
475,192,71027,1,0,0:0:0:1:
256,192,71027,128,0,71351:0:0:0:1:
402,192,71027,128,0,71351:0:0:0:1:
182,192,71351,1,0,0:0:0:1:
329,192,71351,1,0,0:0:0:1:
36,192,71351,128,0,72648:0:0:0:1:
475,192,71351,128,0,72648:0:0:0:1:
256,192,71432,1,0,0:0:0:1:
182,192,71513,1,0,0:0:0:1:
329,192,71513,1,0,0:0:0:1:
256,192,71594,1,0,0:0:0:1:
182,192,71675,1,0,0:0:0:1:
329,192,71675,1,0,0:0:0:1:
256,192,71756,1,0,0:0:0:1:
182,192,71837,1,0,0:0:0:1:
329,192,71837,1,0,0:0:0:1:
256,192,71918,1,0,0:0:0:1:
109,192,71999,1,0,0:0:0:1:
182,192,71999,1,0,0:0:0:1:
402,192,71999,1,0,0:0:0:1:
256,192,72081,1,0,0:0:0:1:
329,192,72081,1,0,0:0:0:1:
109,192,72162,1,0,0:0:0:1:
182,192,72162,1,0,0:0:0:1:
329,192,72243,1,0,0:0:0:1:
402,192,72243,1,0,0:0:0:1:
182,192,72324,1,0,0:0:0:1:
256,192,72324,1,0,0:0:0:1:
329,192,72405,1,0,0:0:0:1:
402,192,72405,1,0,0:0:0:1:
182,192,72486,1,0,0:0:0:1:
256,192,72486,1,0,0:0:0:1:
329,192,72567,1,0,0:0:0:1:
402,192,72567,1,0,0:0:0:1:
109,192,72648,128,0,73945:0:0:0:1:
256,192,72648,128,0,73945:0:0:0:1:
402,192,73297,128,0,73945:0:0:0:1:
182,192,73945,1,0,0:0:0:1:
329,192,73945,1,0,0:0:0:1:
36,192,73945,1,0,0:0:0:1:
475,192,73945,1,0,0:0:0:1:
256,192,74027,1,0,0:0:0:1:
109,192,74108,1,0,0:0:0:1:
182,192,74108,1,0,0:0:0:1:
402,192,74108,1,0,0:0:0:1:
329,192,74189,1,0,0:0:0:1:
256,192,74270,1,0,0:0:0:1:
36,192,74270,1,0,0:0:0:1:
109,192,74351,1,0,0:0:0:1:
182,192,74432,1,0,0:0:0:1:
329,192,74432,1,0,0:0:0:1:
475,192,74432,1,0,0:0:0:1:
36,192,74513,1,0,0:0:0:1:
109,192,74594,1,0,0:0:0:1:
256,192,74594,1,0,0:0:0:1:
402,192,74675,1,0,0:0:0:1:
182,192,74756,1,0,0:0:0:1:
329,192,74756,1,0,0:0:0:1:
36,192,74756,1,0,0:0:0:1:
256,192,74837,1,0,0:0:0:1:
109,192,74918,1,0,0:0:0:1:
402,192,74918,1,0,0:0:0:1:
182,192,74999,1,0,0:0:0:1:
256,192,75081,1,0,0:0:0:1:
36,192,75081,1,0,0:0:0:1:
475,192,75081,1,0,0:0:0:1:
402,192,75162,1,0,0:0:0:1:
109,192,75243,1,0,0:0:0:1:
329,192,75243,1,0,0:0:0:1:
256,192,75324,1,0,0:0:0:1:
182,192,75405,1,0,0:0:0:1:
36,192,75405,1,0,0:0:0:1:
475,192,75405,1,0,0:0:0:1:
109,192,75486,1,0,0:0:0:1:
402,192,75567,1,0,0:0:0:1:
36,192,75567,1,0,0:0:0:1:
256,192,75648,1,0,0:0:0:1:
109,192,75729,1,0,0:0:0:1:
329,192,75729,1,0,0:0:0:1:
475,192,75729,1,0,0:0:0:1:
182,192,75810,1,0,0:0:0:1:
256,192,75891,1,0,0:0:0:1:
36,192,75891,1,0,0:0:0:1:
402,192,75972,1,0,0:0:0:1:
182,192,76054,1,0,0:0:0:1:
329,192,76054,1,0,0:0:0:1:
475,192,76054,1,0,0:0:0:1:
109,192,76135,1,0,0:0:0:1:
256,192,76216,1,0,0:0:0:1:
402,192,76216,1,0,0:0:0:1:
182,192,76297,1,0,0:0:0:1:
109,192,76378,1,0,0:0:0:1:
329,192,76378,1,0,0:0:0:1:
36,192,76378,1,0,0:0:0:1:
402,192,76459,1,0,0:0:0:1:
256,192,76540,1,0,0:0:0:1:
475,192,76540,1,0,0:0:0:1:
109,192,76621,1,0,0:0:0:1:
182,192,76702,1,0,0:0:0:1:
329,192,76702,1,0,0:0:0:1:
36,192,76702,1,0,0:0:0:1:
256,192,76783,1,0,0:0:0:1:
109,192,76864,1,0,0:0:0:1:
402,192,76864,1,0,0:0:0:1:
182,192,76945,1,0,0:0:0:1:
329,192,77027,1,0,0:0:0:1:
36,192,77027,1,0,0:0:0:1:
475,192,77027,1,0,0:0:0:1:
402,192,77108,1,0,0:0:0:1:
256,192,77189,1,0,0:0:0:1:
475,192,77189,1,0,0:0:0:1:
182,192,77270,1,0,0:0:0:1:
109,192,77351,1,0,0:0:0:1:
329,192,77351,1,0,0:0:0:1:
402,192,77351,1,0,0:0:0:1:
36,192,77432,1,0,0:0:0:1:
182,192,77513,1,0,0:0:0:1:
475,192,77513,1,0,0:0:0:1:
329,192,77594,1,0,0:0:0:1:
109,192,77675,1,0,0:0:0:1:
256,192,77675,1,0,0:0:0:1:
402,192,77675,1,0,0:0:0:1:
182,192,77756,1,0,0:0:0:1:
329,192,77837,1,0,0:0:0:1:
36,192,77837,1,0,0:0:0:1:
109,192,77918,1,0,0:0:0:1:
182,192,77999,1,0,0:0:0:1:
256,192,77999,1,0,0:0:0:1:
475,192,77999,1,0,0:0:0:1:
402,192,78081,1,0,0:0:0:1:
329,192,78162,1,0,0:0:0:1:
36,192,78162,1,0,0:0:0:1:
182,192,78243,1,0,0:0:0:1:
109,192,78324,1,0,0:0:0:1:
256,192,78324,1,0,0:0:0:1:
475,192,78324,1,0,0:0:0:1:
402,192,78405,1,0,0:0:0:1:
182,192,78486,1,0,0:0:0:1:
329,192,78486,1,0,0:0:0:1:
36,192,78567,1,0,0:0:0:1:
109,192,78648,1,0,0:0:0:1:
256,192,78648,1,0,0:0:0:1:
475,192,78648,1,0,0:0:0:1:
329,192,78729,1,0,0:0:0:1:
182,192,78810,1,0,0:0:0:1:
402,192,78810,1,0,0:0:0:1:
256,192,78891,1,0,0:0:0:1:
109,192,78972,1,0,0:0:0:1:
329,192,78972,1,0,0:0:0:1:
475,192,78972,1,0,0:0:0:1:
182,192,79054,1,0,0:0:0:1:
256,192,79135,1,0,0:0:0:1:
36,192,79135,1,0,0:0:0:1:
109,192,79216,1,0,0:0:0:1:
329,192,79216,1,0,0:0:0:1:
182,192,79297,1,0,0:0:0:1:
256,192,79297,1,0,0:0:0:1:
402,192,79297,1,0,0:0:0:1:
329,192,79378,1,0,0:0:0:1:
475,192,79378,1,0,0:0:0:1:
182,192,79459,1,0,0:0:0:1:
36,192,79459,1,0,0:0:0:1:
256,192,79540,1,0,0:0:0:1:
402,192,79540,1,0,0:0:0:1:
109,192,79621,1,0,0:0:0:1:
329,192,79621,1,0,0:0:0:1:
475,192,79621,1,0,0:0:0:1:
182,192,79702,1,0,0:0:0:1:
402,192,79702,1,0,0:0:0:1:
256,192,79783,1,0,0:0:0:1:
36,192,79783,1,0,0:0:0:1:
182,192,79864,1,0,0:0:0:1:
475,192,79864,1,0,0:0:0:1:
109,192,79945,1,0,0:0:0:1:
256,192,79945,1,0,0:0:0:1:
329,192,79945,1,0,0:0:0:1:
182,192,80027,1,0,0:0:0:1:
402,192,80027,1,0,0:0:0:1:
329,192,80108,1,0,0:0:0:1:
36,192,80108,1,0,0:0:0:1:
256,192,80189,1,0,0:0:0:1:
475,192,80189,1,0,0:0:0:1:
109,192,80270,1,0,0:0:0:1:
182,192,80270,1,0,0:0:0:1:
402,192,80270,1,0,0:0:0:1:
329,192,80351,1,0,0:0:0:1:
256,192,80432,1,0,0:0:0:1:
36,192,80432,1,0,0:0:0:1:
182,192,80513,1,0,0:0:0:1:
402,192,80513,1,0,0:0:0:1:
109,192,80594,1,0,0:0:0:1:
256,192,80594,1,0,0:0:0:1:
475,192,80594,1,0,0:0:0:1:
329,192,80675,1,0,0:0:0:1:
36,192,80675,1,0,0:0:0:1:
182,192,80756,1,0,0:0:0:1:
402,192,80756,1,0,0:0:0:1:
256,192,80837,1,0,0:0:0:1:
475,192,80837,1,0,0:0:0:1:
109,192,80918,1,0,0:0:0:1:
329,192,80918,1,0,0:0:0:1:
36,192,80918,1,0,0:0:0:1:
182,192,80999,1,0,0:0:0:1:
402,192,80999,1,0,0:0:0:1:
109,192,81081,1,0,0:0:0:1:
256,192,81081,1,0,0:0:0:1:
182,192,81162,1,0,0:0:0:1:
36,192,81162,1,0,0:0:0:1:
109,192,81243,1,0,0:0:0:1:
329,192,81243,1,0,0:0:0:1:
475,192,81243,1,0,0:0:0:1:
256,192,81324,1,0,0:0:0:1:
402,192,81324,1,0,0:0:0:1:
182,192,81405,1,0,0:0:0:1:
329,192,81405,1,0,0:0:0:1:
109,192,81486,1,0,0:0:0:1:
475,192,81486,1,0,0:0:0:1:
256,192,81567,1,0,0:0:0:1:
402,192,81567,1,0,0:0:0:1:
36,192,81567,1,0,0:0:0:1:
182,192,81648,1,0,0:0:0:1:
329,192,81648,1,0,0:0:0:1:
256,192,81729,1,0,0:0:0:1:
475,192,81729,1,0,0:0:0:1:
109,192,81810,1,0,0:0:0:1:
329,192,81810,1,0,0:0:0:1:
182,192,81891,1,0,0:0:0:1:
402,192,81891,1,0,0:0:0:1:
36,192,81891,1,0,0:0:0:1:
109,192,81972,1,0,0:0:0:1:
256,192,81972,1,0,0:0:0:1:
182,192,82054,1,0,0:0:0:1:
329,192,82054,1,0,0:0:0:1:
256,192,82135,1,0,0:0:0:1:
36,192,82135,1,0,0:0:0:1:
109,192,82216,1,0,0:0:0:1:
329,192,82216,1,0,0:0:0:1:
475,192,82216,1,0,0:0:0:1:
256,192,82297,1,0,0:0:0:1:
402,192,82297,1,0,0:0:0:1:
182,192,82378,1,0,0:0:0:1:
329,192,82378,1,0,0:0:0:1:
402,192,82459,1,0,0:0:0:1:
36,192,82459,1,0,0:0:0:1:
109,192,82540,1,0,0:0:0:1:
256,192,82540,1,0,0:0:0:1:
475,192,82540,1,0,0:0:0:1:
182,192,82621,1,0,0:0:0:1:
329,192,82621,1,0,0:0:0:1:
256,192,82702,1,0,0:0:0:1:
402,192,82702,1,0,0:0:0:1:
329,192,82783,1,0,0:0:0:1:
36,192,82783,1,0,0:0:0:1:
109,192,82864,1,0,0:0:0:1:
182,192,82864,1,0,0:0:0:1:
475,192,82864,1,0,0:0:0:1:
256,192,82945,1,0,0:0:0:1:
36,192,82945,1,0,0:0:0:1:
182,192,83027,1,0,0:0:0:1:
329,192,83027,1,0,0:0:0:1:
402,192,83027,1,0,0:0:0:1:
109,192,83108,1,0,0:0:0:1:
256,192,83189,1,0,0:0:0:1:
36,192,83189,1,0,0:0:0:1:
475,192,83189,1,0,0:0:0:1:
329,192,83270,1,0,0:0:0:1:
109,192,83351,1,0,0:0:0:1:
182,192,83351,1,0,0:0:0:1:
329,192,83432,1,0,0:0:0:1:
402,192,83432,1,0,0:0:0:1:
109,192,83513,1,0,0:0:0:1:
182,192,83513,1,0,0:0:0:1:
329,192,83594,1,0,0:0:0:1:
402,192,83594,1,0,0:0:0:1:
109,192,83675,1,0,0:0:0:1:
182,192,83675,1,0,0:0:0:1:
256,192,83756,1,0,0:0:0:1:
182,192,83837,1,0,0:0:0:1:
329,192,83837,1,0,0:0:0:1:
36,192,83837,1,0,0:0:0:1:
475,192,83837,1,0,0:0:0:1:
402,192,83918,1,0,0:0:0:1:
109,192,83999,1,0,0:0:0:1:
256,192,83999,1,0,0:0:0:1:
329,192,84081,1,0,0:0:0:1:
182,192,84162,1,0,0:0:0:1:
256,192,84243,1,0,0:0:0:1:
109,192,84324,1,0,0:0:0:1:
402,192,84324,1,0,0:0:0:1:
36,192,84324,1,0,0:0:0:1:
475,192,84324,1,0,0:0:0:1:
182,192,84405,1,0,0:0:0:1:
329,192,84405,1,0,0:0:0:1:
109,192,84486,1,0,0:0:0:1:
402,192,84486,1,0,0:0:0:1:
36,192,84486,1,0,0:0:0:1:
475,192,84486,1,0,0:0:0:1:
182,192,84567,1,0,0:0:0:1:
329,192,84567,1,0,0:0:0:1:
109,192,84648,1,0,0:0:0:1:
256,192,84648,1,0,0:0:0:1:
402,192,84648,1,0,0:0:0:1:
36,192,84648,1,0,0:0:0:1:
475,192,84648,1,0,0:0:0:1:
182,192,84729,1,0,0:0:0:1:
329,192,84729,1,0,0:0:0:1:
109,192,84810,1,0,0:0:0:1:
256,192,84810,1,0,0:0:0:1:
402,192,84810,1,0,0:0:0:1:
329,192,84972,1,0,0:0:0:1:
475,192,84972,1,0,0:0:0:1:
182,192,84972,128,0,85135:0:0:0:1:
36,192,84972,128,0,85135:0:0:0:1:
329,192,85216,1,0,0:0:0:1:
475,192,85216,1,0,0:0:0:1:
182,192,85216,128,0,85378:0:0:0:1:
36,192,85216,128,0,85378:0:0:0:1:
109,192,85459,1,0,0:0:0:1:
475,192,85459,1,0,0:0:0:1:
256,192,85459,128,0,85621:0:0:0:1:
402,192,85459,128,0,85621:0:0:0:1:
182,192,85783,1,0,0:0:0:1:
329,192,85783,1,0,0:0:0:1:
36,192,85783,1,0,0:0:0:1:
109,192,85945,1,0,0:0:0:1:
475,192,85945,1,0,0:0:0:1:
256,192,85945,128,0,86108:0:0:0:1:
402,192,85945,128,0,86108:0:0:0:1:
109,192,86270,1,0,0:0:0:1:
329,192,86270,1,0,0:0:0:1:
182,192,86270,128,0,86594:0:0:0:1:
36,192,86270,128,0,86594:0:0:0:1:
402,192,86513,1,0,0:0:0:1:
329,192,86513,128,0,86756:0:0:0:1:
475,192,86513,128,0,86756:0:0:0:1:
36,192,86756,1,0,0:0:0:1:
109,192,86756,128,0,86918:0:0:0:1:
256,192,86756,128,0,86918:0:0:0:1:
182,192,86918,128,0,87567:0:0:0:1:
402,192,86918,128,0,87243:0:0:0:1:
36,192,87243,1,0,0:0:0:1:
475,192,87243,1,0,0:0:0:1:
109,192,87324,1,0,0:0:0:1:
402,192,87324,1,0,0:0:0:1:
256,192,87405,1,0,0:0:0:1:
329,192,87405,1,0,0:0:0:1:
36,192,87486,1,0,0:0:0:1:
475,192,87486,1,0,0:0:0:1:
109,192,87567,1,0,0:0:0:1:
329,192,87567,128,0,87729:0:0:0:1:
402,192,87567,128,0,87729:0:0:0:1:
182,192,87810,1,0,0:0:0:1:
36,192,87810,1,0,0:0:0:1:
256,192,87810,128,0,87972:0:0:0:1:
329,192,87810,128,0,87972:0:0:0:1:
182,192,88054,1,0,0:0:0:1:
402,192,88054,1,0,0:0:0:1:
475,192,88054,1,0,0:0:0:1:
109,192,88054,128,0,88216:0:0:0:1:
256,192,88054,128,0,88216:0:0:0:1:
182,192,88378,1,0,0:0:0:1:
329,192,88378,1,0,0:0:0:1:
36,192,88378,1,0,0:0:0:1:
402,192,88540,1,0,0:0:0:1:
475,192,88540,1,0,0:0:0:1:
109,192,88540,128,0,88702:0:0:0:1:
256,192,88540,128,0,88702:0:0:0:1:
182,192,88864,1,0,0:0:0:1:
402,192,88864,1,0,0:0:0:1:
36,192,88864,1,0,0:0:0:1:
329,192,88945,1,0,0:0:0:1:
109,192,89027,1,0,0:0:0:1:
256,192,89027,1,0,0:0:0:1:
475,192,89027,1,0,0:0:0:1:
402,192,89108,1,0,0:0:0:1:
182,192,89189,1,0,0:0:0:1:
329,192,89189,1,0,0:0:0:1:
36,192,89189,1,0,0:0:0:1:
475,192,89270,1,0,0:0:0:1:
109,192,89351,1,0,0:0:0:1:
256,192,89351,1,0,0:0:0:1:
402,192,89351,1,0,0:0:0:1:
36,192,89432,1,0,0:0:0:1:
182,192,89513,1,0,0:0:0:1:
329,192,89513,128,0,89837:0:0:0:1:
475,192,89513,128,0,89837:0:0:0:1:
109,192,89837,1,0,0:0:0:1:
256,192,89837,1,0,0:0:0:1:
36,192,89837,128,0,90162:0:0:0:1:
329,192,89918,1,0,0:0:0:1:
475,192,89918,1,0,0:0:0:1:
182,192,89999,1,0,0:0:0:1:
402,192,89999,1,0,0:0:0:1:
256,192,90081,1,0,0:0:0:1:
475,192,90081,1,0,0:0:0:1:
182,192,90162,1,0,0:0:0:1:
402,192,90162,1,0,0:0:0:1:
109,192,90162,128,0,90324:0:0:0:1:
329,192,90162,128,0,90324:0:0:0:1:
182,192,90405,1,0,0:0:0:1:
402,192,90405,1,0,0:0:0:1:
109,192,90405,128,0,90567:0:0:0:1:
329,192,90405,128,0,90567:0:0:0:1:
329,192,90648,1,0,0:0:0:1:
475,192,90648,1,0,0:0:0:1:
182,192,90648,128,0,90810:0:0:0:1:
36,192,90648,128,0,90810:0:0:0:1:
109,192,90972,1,0,0:0:0:1:
256,192,90972,1,0,0:0:0:1:
475,192,90972,1,0,0:0:0:1:
329,192,91135,1,0,0:0:0:1:
402,192,91135,1,0,0:0:0:1:
182,192,91135,128,0,91297:0:0:0:1:
36,192,91135,128,0,91297:0:0:0:1:
329,192,91297,1,0,0:0:0:1:
475,192,91297,1,0,0:0:0:1:
256,192,91378,1,0,0:0:0:1:
402,192,91378,1,0,0:0:0:1:
36,192,91459,1,0,0:0:0:1:
475,192,91459,1,0,0:0:0:1:
182,192,91459,128,0,91621:0:0:0:1:
329,192,91459,128,0,91621:0:0:0:1:
402,192,91702,1,0,0:0:0:1:
475,192,91702,1,0,0:0:0:1:
109,192,91702,128,0,91864:0:0:0:1:
256,192,91702,128,0,91864:0:0:0:1:
329,192,91945,1,0,0:0:0:1:
402,192,91945,1,0,0:0:0:1:
182,192,91945,128,0,92108:0:0:0:1:
36,192,91945,128,0,92108:0:0:0:1:
256,192,92108,1,0,0:0:0:1:
475,192,92108,1,0,0:0:0:1:
109,192,92108,128,0,92756:0:0:0:1:
182,192,92270,1,0,0:0:0:1:
402,192,92270,1,0,0:0:0:1:
329,192,92432,1,0,0:0:0:1:
475,192,92432,1,0,0:0:0:1:
182,192,92513,1,0,0:0:0:1:
36,192,92513,1,0,0:0:0:1:
329,192,92594,1,0,0:0:0:1:
475,192,92594,1,0,0:0:0:1:
182,192,92675,1,0,0:0:0:1:
36,192,92675,1,0,0:0:0:1:
256,192,92756,1,0,0:0:0:1:
329,192,92756,128,0,92918:0:0:0:1:
475,192,92756,128,0,92918:0:0:0:1:
36,192,92999,1,0,0:0:0:1:
475,192,92999,1,0,0:0:0:1:
182,192,92999,128,0,93162:0:0:0:1:
329,192,92999,128,0,93121:0:0:0:1:
109,192,93243,1,0,0:0:0:1:
36,192,93243,1,0,0:0:0:1:
256,192,93243,128,0,93405:0:0:0:1:
402,192,93243,128,0,93405:0:0:0:1:
182,192,93567,1,0,0:0:0:1:
329,192,93567,1,0,0:0:0:1:
475,192,93567,1,0,0:0:0:1:
109,192,93729,1,0,0:0:0:1:
36,192,93729,1,0,0:0:0:1:
256,192,93729,128,0,93891:0:0:0:1:
402,192,93729,128,0,93891:0:0:0:1:
109,192,94054,1,0,0:0:0:1:
329,192,94054,1,0,0:0:0:1:
475,192,94054,1,0,0:0:0:1:
182,192,94135,1,0,0:0:0:1:
256,192,94216,1,0,0:0:0:1:
402,192,94216,1,0,0:0:0:1:
36,192,94216,1,0,0:0:0:1:
109,192,94297,1,0,0:0:0:1:
182,192,94378,1,0,0:0:0:1:
329,192,94378,1,0,0:0:0:1:
475,192,94378,1,0,0:0:0:1:
36,192,94459,1,0,0:0:0:1:
109,192,94540,1,0,0:0:0:1:
256,192,94540,1,0,0:0:0:1:
402,192,94540,1,0,0:0:0:1:
329,192,94621,1,0,0:0:0:1:
182,192,94702,1,0,0:0:0:1:
256,192,94702,1,0,0:0:0:1:
36,192,94702,1,0,0:0:0:1:
475,192,94702,1,0,0:0:0:1:
329,192,94864,1,0,0:0:0:1:
182,192,94945,1,0,0:0:0:1:
109,192,95027,1,0,0:0:0:1:
256,192,95027,1,0,0:0:0:1:
402,192,95027,1,0,0:0:0:1:
36,192,95027,1,0,0:0:0:1:
475,192,95027,1,0,0:0:0:1:
109,192,95351,1,0,0:0:0:1:
329,192,95351,1,0,0:0:0:1:
256,192,95351,128,0,95999:0:0:0:1:
182,192,95432,1,0,0:0:0:1:
402,192,95513,1,0,0:0:0:1:
36,192,95513,1,0,0:0:0:1:
475,192,95513,1,0,0:0:0:1:
109,192,95594,1,0,0:0:0:1:
182,192,95675,1,0,0:0:0:1:
329,192,95675,1,0,0:0:0:1:
36,192,95756,1,0,0:0:0:1:
475,192,95756,1,0,0:0:0:1:
109,192,95837,1,0,0:0:0:1:
182,192,95837,1,0,0:0:0:1:
329,192,95837,1,0,0:0:0:1:
475,192,95918,1,0,0:0:0:1:
109,192,95999,1,0,0:0:0:1:
402,192,95999,1,0,0:0:0:1:
36,192,95999,128,0,96648:0:0:0:1:
182,192,96081,1,0,0:0:0:1:
256,192,96162,1,0,0:0:0:1:
402,192,96162,1,0,0:0:0:1:
475,192,96162,1,0,0:0:0:1:
329,192,96243,1,0,0:0:0:1:
109,192,96324,1,0,0:0:0:1:
182,192,96324,1,0,0:0:0:1:
256,192,96405,1,0,0:0:0:1:
329,192,96486,1,0,0:0:0:1:
402,192,96486,1,0,0:0:0:1:
475,192,96486,1,0,0:0:0:1:
182,192,96567,1,0,0:0:0:1:
256,192,96648,1,0,0:0:0:1:
475,192,96648,1,0,0:0:0:1:
109,192,96648,128,0,97297:0:0:0:1:
402,192,96729,1,0,0:0:0:1:
182,192,96810,1,0,0:0:0:1:
329,192,96810,1,0,0:0:0:1:
36,192,96810,1,0,0:0:0:1:
256,192,96891,1,0,0:0:0:1:
402,192,96972,1,0,0:0:0:1:
475,192,96972,1,0,0:0:0:1:
329,192,97054,1,0,0:0:0:1:
256,192,97135,1,0,0:0:0:1:
36,192,97135,1,0,0:0:0:1:
475,192,97135,1,0,0:0:0:1:
402,192,97216,1,0,0:0:0:1:
256,192,97297,1,0,0:0:0:1:
329,192,97297,1,0,0:0:0:1:
182,192,97297,128,0,97945:0:0:0:1:
475,192,97378,1,0,0:0:0:1:
109,192,97459,1,0,0:0:0:1:
402,192,97459,1,0,0:0:0:1:
36,192,97459,1,0,0:0:0:1:
256,192,97540,1,0,0:0:0:1:
329,192,97621,1,0,0:0:0:1:
475,192,97621,1,0,0:0:0:1:
402,192,97702,1,0,0:0:0:1:
109,192,97783,1,0,0:0:0:1:
256,192,97783,1,0,0:0:0:1:
329,192,97783,1,0,0:0:0:1:
36,192,97783,1,0,0:0:0:1:
475,192,97864,1,0,0:0:0:1:
109,192,97945,1,0,0:0:0:1:
402,192,97945,128,0,98918:0:0:0:1:
256,192,98027,1,0,0:0:0:1:
182,192,98108,1,0,0:0:0:1:
36,192,98108,1,0,0:0:0:1:
475,192,98108,1,0,0:0:0:1:
329,192,98189,1,0,0:0:0:1:
109,192,98270,1,0,0:0:0:1:
256,192,98351,1,0,0:0:0:1:
182,192,98432,1,0,0:0:0:1:
36,192,98432,1,0,0:0:0:1:
475,192,98432,1,0,0:0:0:1:
329,192,98513,1,0,0:0:0:1:
109,192,98594,1,0,0:0:0:1:
256,192,98594,1,0,0:0:0:1:
182,192,98675,1,0,0:0:0:1:
329,192,98756,1,0,0:0:0:1:
36,192,98756,1,0,0:0:0:1:
475,192,98756,1,0,0:0:0:1:
256,192,98837,1,0,0:0:0:1:
109,192,98918,1,0,0:0:0:1:
182,192,98918,1,0,0:0:0:1:
329,192,98918,128,0,99243:0:0:0:1:
256,192,98999,1,0,0:0:0:1:
402,192,99081,1,0,0:0:0:1:
36,192,99081,1,0,0:0:0:1:
475,192,99081,1,0,0:0:0:1:
182,192,99162,1,0,0:0:0:1:
109,192,99243,1,0,0:0:0:1:
256,192,99243,1,0,0:0:0:1:
475,192,99243,128,0,99729:0:0:0:1:
182,192,99324,1,0,0:0:0:1:
329,192,99405,1,0,0:0:0:1:
402,192,99405,1,0,0:0:0:1:
36,192,99405,1,0,0:0:0:1:
182,192,99486,1,0,0:0:0:1:
109,192,99567,1,0,0:0:0:1:
256,192,99567,1,0,0:0:0:1:
329,192,99648,1,0,0:0:0:1:
182,192,99729,1,0,0:0:0:1:
402,192,99729,1,0,0:0:0:1:
36,192,99729,1,0,0:0:0:1:
256,192,99810,1,0,0:0:0:1:
109,192,99891,1,0,0:0:0:1:
329,192,99891,1,0,0:0:0:1:
402,192,99891,1,0,0:0:0:1:
475,192,99891,1,0,0:0:0:1:
256,192,99972,1,0,0:0:0:1:
182,192,100054,1,0,0:0:0:1:
329,192,100054,1,0,0:0:0:1:
36,192,100054,1,0,0:0:0:1:
256,192,100135,1,0,0:0:0:1:
109,192,100216,1,0,0:0:0:1:
329,192,100216,1,0,0:0:0:1:
402,192,100216,1,0,0:0:0:1:
475,192,100216,1,0,0:0:0:1:
182,192,100297,1,0,0:0:0:1:
329,192,100378,1,0,0:0:0:1:
402,192,100378,1,0,0:0:0:1:
36,192,100378,1,0,0:0:0:1:
256,192,100459,1,0,0:0:0:1:
109,192,100540,1,0,0:0:0:1:
182,192,100540,1,0,0:0:0:1:
402,192,100540,1,0,0:0:0:1:
475,192,100540,128,0,101189:0:0:0:1:
329,192,100621,1,0,0:0:0:1:
182,192,100702,1,0,0:0:0:1:
256,192,100702,1,0,0:0:0:1:
36,192,100702,1,0,0:0:0:1:
109,192,100783,1,0,0:0:0:1:
329,192,100864,1,0,0:0:0:1:
402,192,100864,1,0,0:0:0:1:
256,192,100945,1,0,0:0:0:1:
182,192,101027,1,0,0:0:0:1:
329,192,101027,1,0,0:0:0:1:
36,192,101027,1,0,0:0:0:1:
109,192,101108,1,0,0:0:0:1:
256,192,101189,1,0,0:0:0:1:
402,192,101189,128,0,101837:0:0:0:1:
182,192,101270,1,0,0:0:0:1:
109,192,101351,1,0,0:0:0:1:
36,192,101351,1,0,0:0:0:1:
475,192,101351,1,0,0:0:0:1:
256,192,101432,1,0,0:0:0:1:
182,192,101513,1,0,0:0:0:1:
329,192,101513,1,0,0:0:0:1:
109,192,101594,1,0,0:0:0:1:
256,192,101675,1,0,0:0:0:1:
36,192,101675,1,0,0:0:0:1:
475,192,101675,1,0,0:0:0:1:
182,192,101756,1,0,0:0:0:1:
109,192,101837,1,0,0:0:0:1:
36,192,101837,1,0,0:0:0:1:
329,192,101837,128,0,102486:0:0:0:1:
256,192,101918,1,0,0:0:0:1:
182,192,101999,1,0,0:0:0:1:
402,192,101999,1,0,0:0:0:1:
475,192,101999,1,0,0:0:0:1:
36,192,102081,1,0,0:0:0:1:
109,192,102162,1,0,0:0:0:1:
256,192,102162,1,0,0:0:0:1:
182,192,102243,1,0,0:0:0:1:
402,192,102324,1,0,0:0:0:1:
36,192,102324,1,0,0:0:0:1:
475,192,102324,1,0,0:0:0:1:
109,192,102405,1,0,0:0:0:1:
182,192,102486,1,0,0:0:0:1:
402,192,102486,1,0,0:0:0:1:
256,192,102486,128,0,103135:0:0:0:1:
329,192,102567,1,0,0:0:0:1:
109,192,102648,1,0,0:0:0:1:
36,192,102648,1,0,0:0:0:1:
475,192,102648,1,0,0:0:0:1:
182,192,102729,1,0,0:0:0:1:
109,192,102810,1,0,0:0:0:1:
402,192,102810,1,0,0:0:0:1:
329,192,102891,1,0,0:0:0:1:
182,192,102972,1,0,0:0:0:1:
36,192,102972,1,0,0:0:0:1:
475,192,102972,1,0,0:0:0:1:
402,192,103054,1,0,0:0:0:1:
109,192,103135,1,0,0:0:0:1:
329,192,103135,128,0,103783:0:0:0:1:
182,192,103216,1,0,0:0:0:1:
402,192,103297,1,0,0:0:0:1:
36,192,103297,1,0,0:0:0:1:
475,192,103297,1,0,0:0:0:1:
109,192,103378,1,0,0:0:0:1:
182,192,103459,1,0,0:0:0:1:
256,192,103459,1,0,0:0:0:1:
402,192,103459,128,0,103783:0:0:0:1:
36,192,103540,1,0,0:0:0:1:
109,192,103621,1,0,0:0:0:1:
256,192,103621,1,0,0:0:0:1:
475,192,103621,1,0,0:0:0:1:
182,192,103702,1,0,0:0:0:1:
109,192,103783,1,0,0:0:0:1:
36,192,103783,1,0,0:0:0:1:
475,192,103783,128,0,104108:0:0:0:1:
182,192,103864,1,0,0:0:0:1:
256,192,103945,1,0,0:0:0:1:
402,192,103945,1,0,0:0:0:1:
36,192,103945,1,0,0:0:0:1:
329,192,104027,1,0,0:0:0:1:
109,192,104108,1,0,0:0:0:1:
182,192,104108,1,0,0:0:0:1:
256,192,104189,1,0,0:0:0:1:
109,192,104270,1,0,0:0:0:1:
329,192,104270,1,0,0:0:0:1:
36,192,104270,1,0,0:0:0:1:
475,192,104270,1,0,0:0:0:1:
182,192,104351,1,0,0:0:0:1:
256,192,104432,1,0,0:0:0:1:
402,192,104432,1,0,0:0:0:1:
36,192,104432,1,0,0:0:0:1:
329,192,104513,1,0,0:0:0:1:
109,192,104594,1,0,0:0:0:1:
182,192,104594,1,0,0:0:0:1:
402,192,104594,1,0,0:0:0:1:
475,192,104594,1,0,0:0:0:1:
256,192,104675,1,0,0:0:0:1:
329,192,104756,1,0,0:0:0:1:
36,192,104756,1,0,0:0:0:1:
475,192,104756,1,0,0:0:0:1:
182,192,104837,1,0,0:0:0:1:
109,192,104918,1,0,0:0:0:1:
256,192,104918,1,0,0:0:0:1:
402,192,104918,1,0,0:0:0:1:
329,192,104999,1,0,0:0:0:1:
182,192,105081,1,0,0:0:0:1:
402,192,105081,1,0,0:0:0:1:
36,192,105081,1,0,0:0:0:1:
475,192,105081,1,0,0:0:0:1:
109,192,105162,1,0,0:0:0:1:
182,192,105243,1,0,0:0:0:1:
329,192,105243,1,0,0:0:0:1:
475,192,105243,1,0,0:0:0:1:
256,192,105324,1,0,0:0:0:1:
182,192,105405,1,0,0:0:0:1:
329,192,105405,1,0,0:0:0:1:
402,192,105405,1,0,0:0:0:1:
36,192,105405,1,0,0:0:0:1:
109,192,105486,1,0,0:0:0:1:
256,192,105567,1,0,0:0:0:1:
402,192,105567,1,0,0:0:0:1:
475,192,105567,1,0,0:0:0:1:
182,192,105648,1,0,0:0:0:1:
329,192,105648,1,0,0:0:0:1:
36,192,105648,1,0,0:0:0:1:
109,192,105729,1,0,0:0:0:1:
402,192,105729,1,0,0:0:0:1:
256,192,105729,128,0,106378:0:0:0:1:
475,192,105729,128,0,106378:0:0:0:1:
182,192,106378,128,0,106702:0:0:0:1:
402,192,106378,128,0,107027:0:0:0:1:
109,192,106702,1,0,0:0:0:1:
36,192,106702,1,0,0:0:0:1:
182,192,106783,1,0,0:0:0:1:
329,192,106783,1,0,0:0:0:1:
109,192,106864,1,0,0:0:0:1:
36,192,106864,1,0,0:0:0:1:
182,192,106945,1,0,0:0:0:1:
329,192,106945,1,0,0:0:0:1:
109,192,107027,1,0,0:0:0:1:
475,192,107027,1,0,0:0:0:1:
256,192,107027,128,0,107675:0:0:0:1:
36,192,107027,128,0,107675:0:0:0:1:
182,192,107189,1,0,0:0:0:1:
329,192,107189,1,0,0:0:0:1:
109,192,107351,1,0,0:0:0:1:
402,192,107351,1,0,0:0:0:1:
475,192,107351,1,0,0:0:0:1:
182,192,107513,1,0,0:0:0:1:
329,192,107513,1,0,0:0:0:1:
402,192,107675,1,0,0:0:0:1:
475,192,107675,1,0,0:0:0:1:
109,192,107675,128,0,108324:0:0:0:1:
329,192,107675,128,0,108324:0:0:0:1:
256,192,107837,1,0,0:0:0:1:
402,192,107999,1,0,0:0:0:1:
256,192,108162,1,0,0:0:0:1:
182,192,108324,1,0,0:0:0:1:
402,192,108324,1,0,0:0:0:1:
256,192,108324,128,0,109459:0:0:0:1:
36,192,108324,128,0,109378:0:0:0:1:
475,192,108324,128,0,109540:0:0:0:1:
182,192,108972,1,0,0:0:0:1:
329,192,108972,1,0,0:0:0:1:
109,192,109297,128,0,109621:0:0:0:1:
36,192,109459,1,0,0:0:0:1:
256,192,109540,1,0,0:0:0:1:
402,192,109621,1,0,0:0:0:1:
475,192,109621,1,0,0:0:0:1:
182,192,109621,128,0,110270:0:0:0:1:
329,192,109621,128,0,110432:0:0:0:1:
36,192,109945,1,0,0:0:0:1:
109,192,110054,1,0,0:0:0:1:
402,192,110162,1,0,0:0:0:1:
475,192,110162,1,0,0:0:0:1:
402,192,110270,1,0,0:0:0:1:
36,192,110270,1,0,0:0:0:1:
475,192,110270,1,0,0:0:0:1:
256,192,110270,128,0,110756:0:0:0:1:
109,192,110378,1,0,0:0:0:1:
182,192,110432,128,0,110756:0:0:0:1:
475,192,110486,1,0,0:0:0:1:
402,192,110594,1,0,0:0:0:1:
329,192,110594,128,0,110756:0:0:0:1:
475,192,110702,1,0,0:0:0:1:
36,192,110756,128,0,111887:0:0:0:1:
402,192,110810,1,0,0:0:0:1:
256,192,110918,1,0,0:0:0:1:
182,192,110918,128,0,112008:0:0:0:1:
329,192,110918,128,0,112130:0:0:0:1:
475,192,110918,128,0,112251:0:0:0:1:
109,192,112008,1,0,0:0:0:1:
36,192,112008,1,0,0:0:0:1:
182,192,112130,1,0,0:0:0:1:
256,192,112130,1,0,0:0:0:1:
329,192,112251,1,0,0:0:0:1:
402,192,112251,1,0,0:0:0:1:
109,192,112373,1,0,0:0:0:1:
475,192,112373,1,0,0:0:0:1:
256,192,112373,128,0,113205:0:0:0:1:
36,192,112373,128,0,113205:0:0:0:1:
402,192,112760,1,0,0:0:0:1:
109,192,112760,128,0,113633:0:0:0:1:
329,192,112760,128,0,114095:0:0:0:1:
475,192,113205,1,0,0:0:0:1:
182,192,113205,128,0,114095:0:0:0:1:
402,192,113205,128,0,113633:0:0:0:1:
36,192,113633,128,0,114095:0:0:0:1:
475,192,113633,128,0,114095:0:0:0:1:
109,192,114095,128,0,118895:0:0:0:1:
256,192,114095,128,0,118895:0:0:0:1:
402,192,114095,128,0,118895:0:0:0:1:
