osu file format v14

[General]
AudioFilename: Does - Know know know -tv size-.mp3
AudioLeadIn: 0
PreviewTime: 49038
Countdown: 0
SampleSet: Normal
StackLeniency: 0.3
Mode: 0
LetterboxInBreaks: 0
WidescreenStoryboard: 0

[Editor]
DistanceSpacing: 1.3
BeatDivisor: 4
GridSize: 4
TimelineZoom: 4.599998

[Metadata]
Title:KNOW KNOW KNOW (anime ver.)
TitleUnicode:KNOW KNOW KNOW (anime ver.)
Artist:DOES
ArtistUnicode:DOES
Creator:Lefia
Version:Rebellion
Source:銀魂°
Tags:gintama° (2015) SnowNiNo_ -Rafzel- AlicePerlelicht 2016 opening 04 17 21 Shogun Assassination Farewell Shinsengumi arc Bandai Namco picture
BeatmapID:1275783
BeatmapSetID:411968

[Difficulty]
HPDrainRate:7
CircleSize:4.5
OverallDifficulty:8
ApproachRate:9.3
SliderMultiplier:3
SliderTickRate:1

[Events]
//Background and Video events
0,0,"BG-EX.jpg",0,0
Video,0,"video-2.avi"
//Break Periods
//Storyboard Layer 0 (Background)
//Storyboard Layer 1 (Fail)
//Storyboard Layer 2 (Pass)
//Storyboard Layer 3 (Foreground)
//Storyboard Sound Samples

[TimingPoints]
1507,375,4,1,1,35,1,0
1507,-166.666666666667,4,1,1,35,0,0
3007,-133.333333333333,4,1,1,60,0,0
9007,-200,4,2,1,35,0,0
11257,-66.6666666666667,4,1,1,60,0,0
12007,-200,4,2,1,35,0,0
14257,-100,4,1,1,60,0,0
15007,-133.333333333333,4,1,1,60,0,0
20257,-100,4,1,1,60,0,0
21007,-90.9090909090909,4,1,1,60,0,0
21757,-83.3333333333333,4,1,1,60,0,0
22507,-76.9230769230769,4,1,1,60,0,0
23257,-66.6666666666667,4,1,1,60,0,0
23819,-200,4,1,1,60,0,0
24194,-200,4,1,1,5,0,0
24382,375,4,1,1,60,1,0
24382,-125,4,1,1,60,0,0
36382,-166.666666666667,4,1,1,60,0,0
41444,-142.857142857143,4,1,1,60,0,0
42382,-142.857142857143,4,1,1,60,0,0
47632,-100,4,1,1,60,0,0
48382,-66.6666666666667,4,1,1,60,0,0
49132,-200,4,1,1,60,0,0
49882,-100,4,1,1,60,0,1
61132,-100,4,1,1,60,0,0
61882,-100,4,1,1,60,0,1
73788,-100,4,1,1,60,0,0
73882,-83.3333333333333,4,1,1,60,0,1
84288,-83.3333333333333,4,1,1,60,0,0
84382,-83.3333333333333,4,1,1,60,0,1
84475,-83.3333333333333,4,1,1,60,0,0
84757,-83.3333333333333,4,1,1,60,0,1
84850,-83.3333333333333,4,1,1,60,0,0
85132,-83.3333333333333,4,1,1,60,0,1
85225,-83.3333333333333,4,1,1,60,0,0
85507,-83.3333333333333,4,1,1,60,0,1
85600,-83.3333333333333,4,1,1,60,0,0
85882,-200,4,1,1,60,0,1
85975,-83.3333333333333,4,1,1,5,0,0
87382,-83.3333333333333,4,1,1,35,0,0

[Colours]
Combo1 : 119,0,0
Combo2 : 132,193,255
Combo3 : 1,64,126
Combo4 : 64,0,64

[HitObjects]
180,24,1507,6,0,P|144:72|148:120,1,89.9999972534181,4|0,2:0|2:0,0:0:0:0:
324,100,1788,2,0,P|272:88|232:104,1,89.9999972534181,4|0,2:0|2:0,0:0:0:0:
140,188,2069,1,4,2:0:0:0:
268,256,2257,6,0,P|288:216|276:164,1,89.9999972534181,4|0,2:0|2:0,0:0:0:0:
220,324,2538,2,0,P|268:340|316:320,1,89.9999972534181,4|0,2:0|2:0,0:0:0:0:
212,204,2819,1,4,2:0:0:0:
115,78,3007,6,0,L|143:206,1,112.500004291535,4|0,0:0|2:0,0:0:0:0:
84,264,3288,1,0,0:0:0:0:
84,264,3382,2,0,P|148:284|196:260,1,112.500004291535,0|8,0:0|0:0,0:0:0:0:
256,188,3757,6,0,P|272:164|276:124,1,56.2500021457673,2|0,0:0|2:0,0:0:0:0:
256,40,3944,2,0,P|280:56|320:60,1,56.2500021457673,8|0,0:0|2:0,0:0:0:0:
408,40,4132,2,0,P|392:64|388:104,1,56.2500021457673,2|0,0:0|2:0,0:0:0:0:
408,188,4319,2,0,P|384:172|344:168,1,56.2500021457673,8|0,0:0|2:0,0:0:0:0:
152,168,4507,6,0,P|208:196|268:180,1,112.500004291535,2|0,0:0|2:0,0:0:0:0:
368,176,4788,1,8,0:0:0:0:
368,176,4882,2,0,L|352:312,1,112.500004291535,0|8,0:0|0:0,0:0:0:0:
252,292,5257,6,0,B|256:260|256:260|240:228,1,56.2500021457673,2|0,0:0|2:0,0:0:0:0:
104,144,5444,2,0,B|100:176|100:176|116:208,1,56.2500021457673,8|0,0:0|2:0,0:0:0:0:
256,140,5632,2,0,B|224:136|224:136|192:152,1,56.2500021457673,2|0,0:0|2:0,0:0:0:0:
108,288,5819,2,0,B|140:292|140:292|172:276,1,56.2500021457673,8|0,0:0|2:0,0:0:0:0:
186,99,6007,6,0,L|180:212,1,112.500004291535,2|0,0:0|2:0,0:0:0:0:
108,288,6288,1,8,0:0:0:0:
108,288,6382,2,0,P|168:324|216:308,1,112.500004291535,0|8,0:0|0:0,0:0:0:0:
280,252,6757,6,0,L|300:192,1,56.2500021457673,2|0,0:0|2:0,0:0:0:0:
444,172,6944,2,0,L|424:232,1,56.2500021457673,8|0,0:0|2:0,0:0:0:0:
262,242,7132,2,0,L|301:192,1,56.2500021457673,2|0,0:0|2:0,0:0:0:0:
461,181,7319,2,0,L|421:230,1,56.2500021457673,8|0,0:0|2:0,0:0:0:0:
202,259,7507,6,0,L|301:193,1,112.500004291535,4|0,0:0|2:3,0:3:0:0:
356,133,7788,1,0,0:0:0:0:
356,133,7882,2,0,P|260:113|244:121,1,112.500004291535,8|0,0:0|0:0,0:0:0:0:
296,197,8163,1,0,0:0:0:0:
296,197,8257,2,0,P|276:293|284:309,1,112.500004291535,8|0,0:0|0:0,0:0:0:0:
356,264,8538,1,0,0:0:0:0:
356,264,8632,2,0,P|452:284|468:276,1,112.500004291535,8|0,0:0|0:0,0:0:0:0:
416,200,8913,1,0,0:0:0:0:
416,200,9007,6,0,P|436:104|428:88,1,112.5,4|0,0:0|0:0,0:0:0:0:
360,136,9382,1,2,0:0:0:0:
193,153,9569,1,0,0:0:0:0:
193,153,9663,1,0,0:0:0:0:
193,153,9757,6,0,L|169:193,1,37.5,2|0,0:0|0:0,0:0:0:0:
265,181,9944,2,0,L|248:224,1,37.5
340,197,10132,2,0,L|331:242,1,37.5,2|0,0:0|0:0,0:0:0:0:
416,200,10319,2,0,L|415:246,1,37.5
320,124,10507,6,0,P|280:108|244:112,1,75,2|0,0:0|0:0,0:0:0:0:
224,272,10788,2,0,P|254:250|271:217,1,75,2|0,0:0|0:0,0:0:0:0:
176,180,11069,2,0,L|128:184,1,37.5,2|0,0:0|0:0,0:0:0:0:
271,216,11257,6,0,P|331:188|400:307,1,225.000008583069,8|0,0:0|2:0,0:0:0:0:
328,272,11538,2,0,P|388:216|488:292,1,225.000008583069,8|0,0:0|2:0,0:0:0:0:
404,298,11819,2,0,L|424:166,1,112.500004291535,8|0,0:0|2:0,0:0:0:0:
399,76,12007,6,0,L|422:194,1,112.5,4|0,0:0|0:0,0:0:0:0:
488,108,12382,1,2,0:0:0:0:
316,40,12569,1,0,0:0:0:0:
316,40,12663,1,0,0:0:0:0:
316,40,12757,6,0,L|269:35,1,37.5,2|0,0:0|0:0,0:0:0:0:
322,116,12944,2,0,L|275:119,1,37.5
340,191,13132,2,0,L|295:202,1,37.5,2|0,0:0|0:0,0:0:0:0:
371,261,13319,2,0,L|329:280,1,37.5
184,320,13507,6,0,P|132:332|92:312,1,75,2|0,0:0|0:0,0:0:0:0:
136,160,13788,2,0,P|148:212|128:252,1,75,2|0,0:0|0:0,0:0:0:0:
8,212,14069,2,0,L|72:204,1,37.5,2|0,0:0|0:0,0:0:0:0:
244,244,14257,5,8,0:0:0:0:
296,256,14350,1,0,0:0:0:0:
348,268,14444,1,0,0:0:0:0:
400,280,14538,1,0,0:0:0:0:
472,284,14632,5,8,0:0:0:0:
464,216,14725,1,0,0:0:0:0:
456,148,14819,1,0,0:0:0:0:
448,80,14913,1,0,0:0:0:0:
440,12,15007,6,0,P|456:76|432:116,1,112.500004291535,4|0,0:0|2:0,0:0:0:0:
268,76,15288,1,8,0:0:0:0:
268,76,15382,2,0,P|344:48|372:56,1,112.500004291535,0|8,0:0|0:0,0:0:0:0:
436,248,15757,2,0,L|424:180,1,56.2500021457673,8|0,0:0|2:0,0:0:0:0:
329,140,15944,2,0,L|320:196,1,56.2500021457673,0|0,0:0|2:0,0:0:0:0:
400,276,16132,2,0,L|388:208,1,56.2500021457673,8|0,0:0|2:0,0:0:0:0:
293,168,16319,2,0,L|283:223,1,56.2500021457673,0|0,0:0|2:0,0:0:0:0:
180,214,16507,6,0,P|236:238|292:214,1,112.500004291535,2|0,0:0|2:0,0:0:0:0:
272,56,16788,1,8,0:0:0:0:
272,56,16882,2,0,P|236:104|248:172,1,112.500004291535,0|8,0:0|0:0,0:0:0:0:
457,150,17257,2,0,L|341:134,1,112.500004291535,8|0,0:0|2:0,0:0:0:0:
237,153,17538,1,8,0:0:0:0:
316,232,17632,2,0,P|352:184|332:116,1,112.500004291535,0|8,0:0|0:0,0:0:0:0:
202,47,18007,6,0,L|238:155,1,112.500004291535,4|0,0:0|2:0,0:0:0:0:
112,156,18288,1,8,0:0:0:0:
112,156,18382,2,0,L|197:231,1,112.500004291535
464,345,18757,2,0,B|432:336|432:336|384:341,1,56.2500021457673,8|0,0:0|2:0,0:0:0:0:
399,236,18944,2,0,B|367:227|367:227|319:232,1,56.2500021457673,0|0,0:0|2:0,0:0:0:0:
316,337,19132,2,0,B|280:344|280:344|236:333,1,56.2500021457673,8|0,0:0|2:0,0:0:0:0:
251,228,19319,2,0,B|215:235|215:235|171:224,1,56.2500021457673,0|0,0:0|2:0,0:0:0:0:
399,236,19507,6,0,L|407:112,1,112.500004291535,2|0,0:0|2:0,0:0:0:0:
452,296,19788,1,8,0:0:0:0:
452,296,19882,2,0,P|392:320|344:296,1,112.500004291535,0|8,0:0|0:0,0:0:0:0:
76,40,20257,6,0,P|96:112|40:168,1,150,4|0,0:0|2:0,0:0:0:0:
20,92,20538,2,0,P|30:133|60:276,1,150,8|0,0:0|2:0,0:0:0:0:
112,308,20819,1,8,0:0:0:0:
188,64,21007,6,0,P|260:100|328:60,1,165.000005035401,8|0,0:0|2:0,0:0:0:0:
256,16,21288,2,0,L|256:196,1,165.000005035401,8|0,0:0|2:0,0:0:0:0:
256,260,21569,1,8,0:0:0:0:
388,24,21757,6,0,P|385:109|471:144,1,179.999994506836,8|0,0:0|2:0,0:0:0:0:
452,68,22038,2,0,P|392:129|421:209,1,179.999994506836,8|0,0:0|2:0,0:0:0:0:
461,146,22319,1,8,0:0:0:0:
144,344,22507,6,0,P|120:264|16:288,1,194.999991073609,8|0,0:0|2:0,0:0:0:0:
76,324,22788,2,0,B|116:268|116:268|104:184|32:184,1,194.999991073609,8|0,0:0|2:0,0:0:0:0:
24,272,23069,1,8,0:0:0:0:
320,324,23257,6,0,P|400:328|384:196,1,225.000008583069,10|0,0:0|2:0,0:0:0:0:
409,209,23538,2,0,P|397:310|497:325,1,225.000008583069,10|0,0:0|2:0,0:0:0:0:
409,209,23819,2,0,B|292:208|292:208|336:236,1,150,10|0,0:0|2:0,0:0:0:0:
408,208,24382,5,4,0:0:0:0:
176,136,24569,1,0,2:0:0:0:
180,172,24663,1,0,0:0:0:0:
184,208,24757,2,0,P|232:188|296:208,1,120,8|0,0:0|0:0,0:0:0:0:
384,316,25132,1,8,0:0:0:0:
244,272,25319,1,0,0:0:0:0:
244,272,25413,1,0,0:0:0:0:
244,272,25507,2,0,L|232:344,1,60,8|0,0:0|2:0,0:0:0:0:
172,208,25694,2,0,L|164:128,1,60,0|0,0:0|2:0,0:0:0:0:
134,44,25882,6,0,P|128:99|172:151,1,120,2|0,0:0|2:0,0:0:0:0:
328,76,26163,1,0,0:0:0:0:
328,76,26257,2,0,B|264:64|264:64|204:80,1,120,8|0,0:0|0:0,0:0:0:0:
244,260,26632,2,0,P|268:200|244:148,1,120,8|0,0:0|2:0,0:0:0:0:
57,144,26913,2,0,P|117:168|169:144,1,120,8|0,0:0|2:0,0:0:0:0:
210,78,27194,1,8,0:0:0:0:
124,269,27382,6,0,L|276:257,1,120,2|0,0:0|2:0,0:0:0:0:
412,224,27663,1,0,0:0:0:0:
412,224,27757,2,0,P|441:222|469:233,1,60,8|0,0:0|2:0,0:0:0:0:
420,316,27944,2,0,P|406:342|382:360,1,60,0|0,0:0|2:0,0:0:0:0:
336,276,28132,2,0,P|319:250|315:221,1,60,8|0,0:0|2:0,0:0:0:0:
412,104,28319,1,0,0:0:0:0:
417,108,28413,1,8,0:0:0:0:
417,108,28507,2,0,B|430:164|430:164|409:232,1,120,0|8,0:0|0:0,0:0:0:0:
232,196,28882,5,2,0:0:0:0:
146,235,29069,2,0,L|136:176,1,60,0|0,0:0|2:0,0:0:0:0:
232,196,29257,2,0,L|232:112,1,60,8|0,0:0|2:0,0:0:0:0:
317,235,29444,2,0,L|328:176,1,60,0|0,0:0|2:0,0:0:0:0:
372,24,29632,5,10,0:0:0:0:
300,36,29725,1,0,0:0:0:0:
228,52,29819,1,0,0:0:0:0:
156,68,29913,1,0,0:0:0:0:
86,88,30007,2,0,P|142:136|94:204,1,120,2|8,0:0|0:0,0:0:0:0:
92,300,30382,5,4,0:0:0:0:
203,108,30569,1,0,2:0:0:0:
223,144,30663,1,0,0:0:0:0:
243,180,30757,2,0,P|182:199|126:163,1,120,8|0,0:0|0:0,0:0:0:0:
184,312,31132,1,8,0:0:0:0:
196,112,31319,1,0,0:0:0:0:
196,112,31413,1,0,0:0:0:0:
196,112,31507,2,0,L|208:53,1,60,8|0,0:0|2:0,0:0:0:0:
144,233,31694,2,0,L|128:137,1,60,0|0,0:0|2:0,0:0:0:0:
114,55,31882,6,0,L|138:197,1,120,2|0,0:0|0:0,0:0:0:0:
208,53,32163,1,0,0:0:0:0:
208,53,32257,2,0,P|148:24|112:68,1,120,8|0,0:0|0:0,0:0:0:0:
208,237,32632,2,0,B|221:176|221:176|208:117,1,120,8|0,0:0|2:0,0:0:0:0:
16,172,32913,2,0,B|77:185|77:185|136:172,1,120,8|0,0:0|2:0,0:0:0:0:
124,84,33194,1,8,0:0:0:0:
97,265,33382,6,0,P|160:265|219:224,1,120,2|0,0:0|2:0,0:0:0:0:
340,160,33663,1,0,0:0:0:0:
340,160,33757,2,0,L|364:100,1,60,8|0,0:0|2:0,0:0:0:0:
447,166,33944,2,0,L|486:216,1,60,0|0,0:0|2:0,0:0:0:0:
388,255,34132,2,0,L|324:264,1,60,8|0,0:0|2:0,0:0:0:0:
207,236,34319,1,0,0:0:0:0:
207,236,34413,1,8,0:0:0:0:
207,236,34507,2,0,L|196:60,1,120
312,320,34882,5,8,0:0:0:0:
489,188,35069,2,0,L|509:268,1,60,0|0,0:0|2:0,0:0:0:0:
413,236,35257,2,0,L|411:318,1,60,8|0,0:0|2:0,0:0:0:0:
328,262,35444,2,0,L|305:341,1,60,0|0,0:0|2:0,0:0:0:0:
196,248,35632,5,12,0:0:0:0:
188,176,35725,1,0,0:0:0:0:
180,104,35819,1,0,0:0:0:0:
176,32,35913,1,0,0:0:0:0:
248,60,36007,5,8,0:0:0:0:
324,72,36100,1,0,0:0:0:0:
400,52,36194,2,0,L|320:48,1,60,0|0,0:0|2:0,0:0:0:0:
176,32,36382,6,0,B|132:28|132:28|76:48,1,89.9999972534181,4|0,0:0|2:0,0:0:0:0:
214,141,36757,2,0,B|239:104|239:104|250:46,1,89.9999972534181,8|0,0:0|2:0,0:0:0:0:
100,119,37132,2,0,B|118:159|118:159|163:197,1,89.9999972534181,8|0,0:0|2:0,0:0:0:0:
316,216,37413,1,8,0:0:0:0:
316,216,37507,2,0,L|192:220,1,89.9999972534181,0|8,0:0|0:0,0:0:0:0:
68,284,37882,6,0,P|128:284|168:260,1,89.9999972534181,2|0,0:0|2:0,0:0:0:0:
185,107,38257,2,0,P|155:158|155:205,1,89.9999972534181,8|0,0:0|2:0,0:0:0:0:
279,296,38632,2,0,P|249:244|208:221,1,89.9999972534181,8|0,0:0|2:0,0:0:0:0:
62,187,38913,1,8,0:0:0:0:
62,187,39007,2,0,L|182:187,1,89.9999972534181,0|8,0:0|0:0,0:0:0:0:
309,222,39382,6,0,P|269:238|217:222,1,89.9999972534181,2|0,0:0|0:0,0:0:0:0:
112,112,39663,1,0,0:0:0:0:
112,112,39757,2,0,L|194:106,1,44.999998626709,8|0,0:0|2:0,0:0:0:0:
348,136,39944,2,0,L|268:144,1,44.999998626709,0|0,0:0|2:0,0:0:0:0:
223,226,40132,2,0,L|223:137,1,89.9999972534181,8|0,0:0|2:0,0:0:0:0:
260,296,40413,1,0,0:0:0:0:
260,296,40507,2,0,P|217:306|178:285,1,89.9999972534181
309,222,40882,6,0,P|352:204|396:216,1,89.9999972534181,2|0,0:0|2:0,0:0:0:0:
223,226,41163,1,0,0:0:0:0:
223,226,41257,1,8,0:0:0:0:
49,257,41444,2,0,L|67:336,1,52.4999983978272,0|0,0:0|2:0,0:0:0:0:
60,308,41632,5,8,0:0:0:0:
132,288,41725,1,0,0:0:0:0:
204,264,41819,1,0,0:0:0:0:
276,240,41913,1,0,0:0:0:0:
204,224,42007,5,8,0:0:0:0:
128,204,42100,1,0,0:0:0:0:
52,176,42194,2,0,L|-24:148,1,52.4999983978272,0|0,0:0|2:0,0:0:0:0:
49,257,42382,6,0,P|101:245|126:171,1,104.999996795654,4|0,0:0|2:0,0:0:0:0:
45,81,42757,2,0,P|29:132|80:190,1,104.999996795654,8|0,0:0|2:0,0:0:0:0:
199,165,43132,2,0,P|162:125|86:141,1,104.999996795654,8|0,0:0|2:0,0:0:0:0:
139,308,43413,1,8,0:0:0:0:
139,308,43507,2,0,L|127:200,1,104.999996795654,0|8,0:0|0:0,0:0:0:0:
163,77,43882,6,0,P|163:130|231:170,1,104.999996795654,2|0,0:0|2:0,0:0:0:0:
336,109,44257,2,0,P|289:83|221:121,1,104.999996795654,8|0,0:0|2:0,0:0:0:0:
221,242,44632,2,0,P|266:214|267:136,1,104.999996795654,8|0,0:0|2:0,0:0:0:0:
99,131,44913,1,8,0:0:0:0:
99,131,45007,2,0,L|219:171,1,104.999996795654,0|8,0:0|0:0,0:0:0:0:
337,241,45382,6,0,P|291:213|290:135,1,104.999996795654,2|0,0:0|2:0,0:0:0:0:
395,75,45757,2,0,P|394:128|326:168,1,104.999996795654,8|0,0:0|2:0,0:0:0:0:
223,108,46132,2,0,P|269:82|337:120,1,104.999996795654,8|0,0:0|2:0,0:0:0:0:
255,268,46413,1,8,0:0:0:0:
255,268,46507,2,0,L|283:144,1,104.999996795654,0|8,0:0|0:0,0:0:0:0:
116,220,46882,5,4,0:0:0:0:
52,40,47069,1,0,0:0:0:0:
255,268,47257,5,8,0:0:0:0:
192,36,47444,1,0,0:0:0:0:
184,248,47632,6,0,P|208:328|288:332,1,150,8|0,0:0|2:0,0:0:0:0:
347,186,47913,2,0,P|267:210|263:290,1,150,8|0,0:0|2:0,0:0:0:0:
331,259,48194,2,0,L|354:151,1,75,8|0,0:0|2:0,0:0:0:0:
344,40,48382,6,0,P|410:142|331:184,1,225.000008583069,8|0,0:0|2:0,0:0:0:0:
344,112,48663,2,0,P|408:240|364:264,1,225.000008583069,8|0,0:0|2:0,0:0:0:0:
346,184,48944,2,0,B|264:200|264:200|296:232,1,112.500004291535,8|0,0:0|2:0,0:0:0:0:
374,261,49132,6,0,P|328:312|268:308,1,112.5,2|0,2:0|2:0,0:0:0:0:
194,172,49507,6,0,P|261:186|287:240,1,112.5,2|0,2:0|2:0,0:0:0:0:
287,314,49882,6,0,P|199:354|152:324,1,150,0|0,0:0|2:0,0:0:0:0:
192,168,50163,1,8,0:0:0:0:
194,172,50257,2,0,L|352:172,1,150,0|8,0:0|0:0,0:0:0:0:
216,272,50632,5,2,0:0:0:0:
240,40,50819,1,8,0:0:0:0:
140,244,51007,5,2,0:0:0:0:
376,112,51194,1,8,0:0:0:0:
79,204,51382,6,0,L|165:342,1,150,2|0,0:0|2:0,0:0:0:0:
269,262,51663,1,8,0:0:0:0:
269,262,51757,2,0,P|181:282|157:346,1,150,0|8,0:0|0:0,0:0:0:0:
464,308,52132,5,2,0:0:0:0:
248,352,52319,1,8,0:0:0:0:
476,288,52507,5,2,0:0:0:0:
140,216,52694,1,8,0:0:0:0:
484,272,52882,6,0,L|480:112,1,150,2|0,0:0|2:0,0:0:0:0:
345,122,53163,1,8,0:0:0:0:
345,122,53257,2,0,P|436:146|493:103,1,150,0|8,0:0|0:0,0:0:0:0:
176,64,53632,5,2,0:0:0:0:
345,122,53819,1,8,0:0:0:0:
100,124,54007,5,2,0:0:0:0:
412,52,54194,1,8,0:0:0:0:
88,36,54382,6,0,L|204:164,1,150,2|0,0:0|2:0,0:0:0:0:
44,147,54663,1,8,0:0:0:0:
44,147,54757,2,0,B|116:127|116:127|192:148,1,150,0|8,0:0|0:0,0:0:0:0:
432,232,55132,5,2,0:0:0:0:
116,232,55319,1,8,0:0:0:0:
400,152,55507,5,2,0:0:0:0:
116,232,55694,1,8,0:0:0:0:
488,168,55882,6,0,P|516:252|472:308,1,150,4|0,0:0|2:0,0:0:0:0:
286,195,56163,1,8,0:0:0:0:
286,195,56257,2,0,L|446:235,1,150,0|8,0:0|0:0,0:0:0:0:
220,292,56632,5,2,0:0:0:0:
328,76,56819,1,8,0:0:0:0:
272,376,57007,5,2,0:0:0:0:
196,88,57194,1,8,0:0:0:0:
334,299,57382,6,0,P|355:237|299:169,1,150,2|0,0:0|2:0,0:0:0:0:
135,305,57663,1,8,0:0:0:0:
135,305,57757,2,0,L|279:245,1,150,0|8,0:0|0:0,0:0:0:0:
480,88,58132,5,2,0:0:0:0:
236,176,58319,1,8,0:0:0:0:
492,168,58507,5,2,0:0:0:0:
176,128,58694,1,8,0:0:0:0:
504,248,58882,6,0,L|352:268,1,150,2|0,0:0|2:0,0:0:0:0:
222,280,59163,1,8,0:0:0:0:
222,280,59257,2,0,P|302:244|366:280,1,150,0|8,0:0|0:0,0:0:0:0:
104,312,59632,5,2,0:0:0:0:
292,332,59819,1,8,0:0:0:0:
92,240,60007,5,2,0:0:0:0:
292,332,60194,1,8,0:0:0:0:
80,168,60382,6,0,P|153:200|141:285,1,150,2|0,0:0|0:0,0:0:0:0:
34,260,60663,1,0,0:0:0:0:
34,260,60757,6,0,P|105:224|164:288,1,150,8|0,0:0|0:0,0:0:0:0:
77,354,61038,1,0,0:0:0:0:
77,354,61132,6,0,P|96:276|182:272,1,150,8|0,0:0|0:0,0:0:0:0:
268,359,61413,1,0,0:0:0:0:
188,337,61507,5,8,0:0:0:0:
156,261,61600,1,0,0:0:0:0:
124,184,61694,1,0,0:0:0:0:
92,108,61788,1,0,0:0:0:0:
60,32,61882,6,0,B|180:136,1,150,4|0,0:0|2:0,0:0:0:0:
294,128,62163,1,8,0:0:0:0:
294,128,62257,2,0,P|233:91|172:129,1,150,0|8,0:0|0:0,0:0:0:0:
228,340,62632,5,2,0:0:0:0:
232,168,62819,1,8,0:0:0:0:
228,340,63007,5,2,0:0:0:0:
236,92,63194,1,8,0:0:0:0:
228,340,63382,6,0,L|380:304,1,150,2|0,0:0|2:0,0:0:0:0:
226,212,63663,1,8,0:0:0:0:
226,212,63757,2,0,P|194:288|258:352,1,150,0|8,0:0|0:0,0:0:0:0:
436,176,64132,5,2,0:0:0:0:
280,276,64319,1,8,0:0:0:0:
492,136,64507,5,2,0:0:0:0:
226,212,64694,1,8,0:0:0:0:
500,204,64882,6,0,L|340:208,1,150,2|0,0:0|2:0,0:0:0:0:
252,134,65163,1,8,0:0:0:0:
252,134,65257,2,0,P|336:154|336:238,1,150,0|8,0:0|0:0,0:0:0:0:
144,352,65632,5,2,0:0:0:0:
276,204,65819,1,8,0:0:0:0:
80,300,66007,5,2,0:0:0:0:
276,204,66194,1,8,0:0:0:0:
16,352,66382,6,0,L|52:176,1,150,2|0,0:0|2:0,0:0:0:0:
142,123,66663,1,8,0:0:0:0:
142,123,66757,2,0,P|110:195|26:195,1,150,0|8,0:0|0:0,0:0:0:0:
216,32,67132,5,2,0:0:0:0:
216,288,67319,1,8,0:0:0:0:
216,288,67413,1,0,0:0:0:0:
216,288,67507,1,2,0:0:0:0:
432,156,67694,1,8,0:0:0:0:
432,156,67788,1,0,0:0:0:0:
432,156,67882,6,0,P|328:132|296:164,1,150,2|0,0:0|2:0,0:0:0:0:
368,332,68163,1,8,0:0:0:0:
368,332,68257,2,0,P|400:264|352:196,1,150,0|8,0:0|0:0,0:0:0:0:
96,188,68632,5,2,0:0:0:0:
312,268,68819,1,8,0:0:0:0:
96,188,69007,5,2,0:0:0:0:
365,203,69194,1,8,0:0:0:0:
44,128,69382,6,0,P|24:216|80:264,1,150,2|0,0:0|2:0,0:0:0:0:
222,161,69663,1,8,0:0:0:0:
222,161,69757,2,0,P|134:149|90:201,1,150,0|8,0:0|0:0,0:0:0:0:
28,328,70132,5,2,0:0:0:0:
168,228,70319,1,8,0:0:0:0:
28,328,70507,5,2,0:0:0:0:
222,161,70694,1,8,0:0:0:0:
28,328,70882,6,0,P|140:312|168:332,1,150,2|0,0:0|2:0,0:0:0:0:
292,297,71163,1,8,0:0:0:0:
292,297,71257,2,0,P|215:345|156:321,1,150,0|8,0:0|0:0,0:0:0:0:
124,108,71632,5,2,0:0:0:0:
216,256,71819,1,8,0:0:0:0:
192,44,72007,5,2,0:0:0:0:
216,256,72194,1,8,0:0:0:0:
192,44,72382,6,0,P|265:76|253:161,1,150,2|0,0:0|0:0,0:0:0:0:
146,136,72663,1,0,0:0:0:0:
146,136,72757,6,0,P|217:100|276:164,1,150,8|0,0:0|0:0,0:0:0:0:
189,230,73038,1,0,0:0:0:0:
189,230,73132,6,0,P|208:152|294:148,1,150,8|0,0:0|0:0,0:0:0:0:
288,257,73413,1,0,0:0:0:0:
288,257,73507,6,0,P|240:192|292:123,1,150,8|0,0:0|0:0,0:0:0:0:
446,136,73788,1,0,0:0:0:0:
446,136,73882,6,0,L|258:136,1,179.999994506836,4|0,0:0|2:0,0:0:0:0:
176,96,74163,1,8,0:0:0:0:
84,56,74257,2,0,P|76:96|96:152,1,89.9999972534181,0|0,0:0|2:0,0:0:0:0:
184,276,74444,2,0,P|192:236|172:180,1,89.9999972534181,8|0,0:0|2:0,0:0:0:0:
4,252,74632,6,0,L|108:240,1,89.9999972534181,2|0,0:0|2:0,0:0:0:0:
267,199,74819,2,0,L|178:189,1,89.9999972534181,8|0,0:0|2:0,0:0:0:0:
0,152,75007,2,0,L|104:140,1,89.9999972534181,2|0,0:0|2:0,0:0:0:0:
263,99,75194,2,0,L|173:88,1,89.9999972534181,8|0,0:0|2:0,0:0:0:0:
267,199,75382,6,0,P|344:252|424:232,1,179.999994506836,2|0,0:0|2:0,0:0:0:0:
360,152,75663,1,8,0:0:0:0:
263,99,75757,2,0,B|236:152|264:200|264:200|140:252,1,179.999994506836,0|8,0:0|0:0,0:0:0:0:
24,280,76132,6,0,L|12:369,1,89.9999972534181,2|0,0:0|2:0,0:0:0:0:
103,233,76319,2,0,L|124:320,1,89.9999972534181,8|0,0:0|2:0,0:0:0:0:
23,186,76507,2,0,L|11:96,1,89.9999972534181,2|0,0:0|2:0,0:0:0:0:
102,233,76694,2,0,L|123:145,1,89.9999972534181,8|0,0:0|2:0,0:0:0:0:
375,228,76882,6,0,L|195:228,1,179.999994506836,2|0,0:0|2:0,0:0:0:0:
122,145,77163,1,8,0:0:0:0:
88,44,77257,2,0,P|175:51|227:121,1,179.999994506836,0|8,0:0|0:0,0:0:0:0:
240,328,77632,6,0,P|196:336|148:324,1,89.9999972534181,2|0,0:0|2:0,0:0:0:0:
107,229,77819,2,0,P|151:219|195:228,1,89.9999972534181,8|0,0:0|2:0,0:0:0:0:
340,274,78007,2,0,P|384:284|428:276,1,89.9999972534181,2|0,0:0|2:0,0:0:0:0:
382,175,78194,2,0,P|338:167|295:177,1,89.9999972534181,8|0,0:0|2:0,0:0:0:0:
195,228,78382,6,0,P|196:132|264:72,1,179.999994506836,2|0,0:0|2:0,0:0:0:0:
295,177,78663,1,8,0:0:0:0:
284,284,78757,2,0,P|208:332|124:304,1,179.999994506836,0|8,0:0|0:0,0:0:0:0:
88,192,79132,6,0,L|72:104,1,89.9999972534181,2|0,0:0|2:0,0:0:0:0:
242,54,79319,2,0,L|236:144,1,89.9999972534181,8|0,0:0|2:0,0:0:0:0:
16,208,79507,2,0,L|0:120,1,89.9999972534181,2|0,0:0|2:0,0:0:0:0:
170,70,79694,2,0,L|164:160,1,89.9999972534181,8|0,0:0|2:0,0:0:0:0:
284,284,79882,6,0,P|372:252|436:304,1,179.999994506836,2|0,0:0|2:0,0:0:0:0:
352,356,80163,1,8,0:0:0:0:
284,284,80257,2,0,L|296:84,1,179.999994506836,0|8,0:0|0:0,0:0:0:0:
52,36,80632,6,0,L|68:144,1,89.9999972534181,2|0,0:0|2:0,0:0:0:0:
192,76,80819,2,0,L|172:180,1,89.9999972534181,8|0,0:0|2:0,0:0:0:0:
294,104,81007,2,0,L|314:208,1,89.9999972534181,2|0,0:0|2:0,0:0:0:0:
434,64,81194,2,0,L|418:172,1,89.9999972534181,8|0,0:0|2:0,0:0:0:0:
392,308,81382,6,0,P|391:178|432:146,1,179.999994506836,2|0,0:0|2:0,0:0:0:0:
480,244,81663,1,8,0:0:0:0:
392,308,81757,2,0,P|320:258|235:279,1,179.999994506836,0|8,0:0|0:0,0:0:0:0:
32,140,82132,6,0,P|72:132|136:160,1,89.9999972534181,2|0,0:0|2:0,0:0:0:0:
235,279,82319,2,0,P|195:287|131:259,1,89.9999972534181,8|0,0:0|2:0,0:0:0:0:
203,107,82507,2,0,P|211:147|183:211,1,89.9999972534181,2|0,0:0|2:0,0:0:0:0:
64,312,82694,2,0,P|56:272|84:208,1,89.9999972534181,8|0,0:0|2:0,0:0:0:0:
197,193,82882,6,0,L|393:189,1,179.999994506836,2|0,0:0|2:0,0:0:0:0:
320,88,83163,1,8,0:0:0:0:
203,107,83257,2,0,P|124:148|120:236,1,179.999994506836,0|8,0:0|0:0,0:0:0:0:
476,264,83632,6,0,L|364:288,1,89.9999972534181,2|0,0:0|2:0,0:0:0:0:
288,170,83820,2,0,L|384:190,1,89.9999972534181,8|0,0:0|2:0,0:0:0:0:
212,269,84007,2,0,L|188:157,1,89.9999972534181,2|0,0:0|2:0,0:0:0:0:
306,81,84195,2,0,L|286:177,1,89.9999972534181,8|0,0:0|2:0,0:0:0:0:
308,284,84382,6,0,P|248:360|164:352,1,179.999994506836,4|0,0:0|0:0,0:0:0:0:
84,280,84663,1,0,0:0:0:0:
120,172,84757,6,0,P|207:129|279:174,1,179.999994506836,8|0,0:0|0:0,0:0:0:0:
308,284,85038,1,0,0:0:0:0:
200,236,85132,6,0,L|244:4,1,179.999994506836,8|0,0:0|0:0,0:0:0:0:
348,44,85413,1,8,0:0:0:0:
404,148,85507,5,8,0:0:0:0:
324,232,85600,1,0,0:0:0:0:
216,180,85694,1,0,0:0:0:0:
233,59,85788,1,0,0:0:0:0:
348,44,85882,6,0,B|343:111|406:149|406:149|342:109|305:130|324:232|324:232|306:129|275:120|221:173|221:173|274:120|226:47,1,600,0|12,0:0|0:0,0:0:0:0:
