osu file format v14

[General]
AudioFilename: Does - Know know know -tv size-.mp3
AudioLeadIn: 0
PreviewTime: 49038
Countdown: 0
SampleSet: Normal
StackLeniency: 0.3
Mode: 0
LetterboxInBreaks: 0
WidescreenStoryboard: 0

[Editor]
DistanceSpacing: 1.2
BeatDivisor: 4
GridSize: 4
TimelineZoom: 2.5

[Metadata]
Title:KNOW KNOW KNOW (anime ver.)
TitleUnicode:KNOW KNOW KNOW (anime ver.)
Artist:DOES
ArtistUnicode:DOES
Creator:Lefia
Version:Normal
Source:銀魂°
Tags:gintama° (2015) SnowNiNo_ -Rafzel- AlicePerlelicht 2016 opening 04 17 21 Shogun Assassination Farewell Shinsengumi arc Bandai Namco picture
BeatmapID:935126
BeatmapSetID:411968

[Difficulty]
HPDrainRate:4
CircleSize:3
OverallDifficulty:4
ApproachRate:5
SliderMultiplier:1.4
SliderTickRate:1

[Events]
//Background and Video events
0,0,"BG-N.jpg",0,0
Video,0,"Video-1.avi"
//Break Periods
//Storyboard Layer 0 (Background)
//Storyboard Layer 1 (Fail)
//Storyboard Layer 2 (Pass)
//Storyboard Layer 3 (Foreground)
//Storyboard Sound Samples

[TimingPoints]
1507,375,4,1,1,35,1,0
3007,-100,4,1,1,60,0,0
9007,-100,4,2,1,35,0,0
11257,-100,4,1,1,60,0,0
12007,-100,4,2,1,35,0,0
14257,-100,4,1,1,60,0,0
15007,-100,4,1,1,60,0,0
24382,375,4,1,1,60,1,0
36382,-100,4,1,1,60,0,0
41444,-100,4,1,1,60,0,0
42382,-100,4,1,1,60,0,0
47632,-100,4,1,1,60,0,0
48382,-100,4,1,1,60,0,0
49132,-100,4,1,1,60,0,0
49882,-100,4,1,1,60,0,1
61132,-100,4,1,1,60,0,0
61882,-100,4,1,1,60,0,1
73788,-100,4,1,1,60,0,0
73882,-100,4,1,1,60,0,1
84288,-100,4,1,1,60,0,0
84382,-100,4,1,1,60,0,1
84475,-100,4,1,1,60,0,0
84757,-100,4,1,1,60,0,1
84850,-100,4,1,1,60,0,0
85132,-100,4,1,1,60,0,1
85225,-100,4,1,1,60,0,0
85507,-100,4,1,1,60,0,1
85600,-100,4,1,1,60,0,0
85882,-100,4,1,1,60,0,1
85975,-100,4,1,1,5,0,0
87382,-100,4,1,1,35,0,0

[Colours]
Combo1 : 119,0,0
Combo2 : 132,193,255
Combo3 : 1,64,126
Combo4 : 64,0,64

[HitObjects]
139,179,1507,6,0,L|123:67,2,105,4|4|4,2:0|2:0|2:0,0:0:0:0:
188,247,2257,6,0,L|172:359,2,105,4|4|4,2:0|2:0|2:0,0:0:0:0:
222,170,3007,6,0,P|293:144|361:185,1,140,4|0,0:0|0:0,0:0:0:0:
402,232,3569,1,8,0:0:0:0:
402,232,3757,2,0,P|428:161|386:95,1,140,2|0,0:0|0:0,0:0:0:0:
330,63,4319,1,8,0:0:0:0:
330,63,4507,6,0,L|184:64,1,140,2|0,0:0|0:0,0:0:0:0:
116,104,5069,1,8,0:0:0:0:
116,104,5257,1,2,0:0:0:0:
72,268,5632,2,0,L|148:244,1,70,2|8,0:0|0:0,0:0:0:0:
220,224,6007,6,0,P|296:228|340:284,1,140,2|0,0:0|0:0,0:0:0:0:
380,344,6569,1,8,0:0:0:0:
380,344,6757,2,0,L|388:180,1,140,2|2,0:0|0:0,0:0:0:0:
392,120,7319,1,8,0:0:0:0:
392,120,7507,6,0,P|328:100|248:128,1,140,4|8,0:0|0:0,0:0:0:0:
260,288,8257,2,0,P|326:307|392:288,1,140,4|8,0:0|0:0,0:0:0:0:
248,204,9007,6,0,L|80:196,1,140,4|2,0:0|0:0,0:0:0:0:
192,52,9757,2,0,L|104:48,2,70,0|0|2,0:0|0:0|0:0,0:0:0:0:
356,92,10507,2,0,L|464:96,2,105,2|2|2,0:0|0:0|0:0,0:0:0:0:
288,144,11257,6,0,P|272:84|304:24,2,105,8|8|8,0:0|0:0|0:0,0:0:0:0:
368,176,12007,6,0,P|388:248|368:320,1,140,4|2,0:0|0:0,0:0:0:0:
220,248,12757,2,0,L|216:348,2,70,0|0|2,0:0|0:0|0:0,0:0:0:0:
100,128,13507,2,0,L|104:8,2,105,2|2|2,0:0|0:0|0:0,0:0:0:0:
40,188,14257,6,0,P|128:208|172:172,1,140,8|8,0:0|0:0,0:0:0:0:
188,100,14819,1,0,0:0:0:0:
188,100,15007,6,0,P|252:92|316:148,1,140,4|8,0:0|0:0,0:0:0:0:
312,220,15569,1,0,0:0:0:0:
312,220,15757,2,0,P|368:260|448:236,1,140,8|8,0:0|0:0,0:0:0:0:
384,180,16319,1,0,0:0:0:0:
309,135,16507,6,0,L|300:16,2,105,2|8|8,0:0|0:0|0:0,0:0:0:0:
240,180,17257,2,0,L|200:56,2,105,8|8|8,0:0|0:0|0:0,0:0:0:0:
312,220,18007,6,0,P|268:260|192:248,1,140,2|8,0:0|0:0,0:0:0:0:
120,192,18569,1,0,0:0:0:0:
120,192,18757,2,0,B|104:124|104:124|136:32,1,140,8|8,0:0|0:0,0:0:0:0:
207,80,19319,1,0,0:0:0:0:
290,96,19507,6,0,P|310:43|356:15,2,105,2|8|8,0:0|0:0|0:0,0:0:0:0:
371,101,20257,6,0,P|426:92|473:118,2,105,4|8|8,0:0|0:0|0:0,0:0:0:0:
413,174,21007,6,0,P|448:217|449:271,2,105,8|8|8,0:0|0:0|0:0,0:0:0:0:
368,246,21757,6,0,P|347:298|301:326,2,105,8|8|8,0:0|0:0|0:0,0:0:0:0:
284,245,22507,6,0,P|228:253|181:227,2,105,8|8|8,0:0|0:0|0:0,0:0:0:0:
244,170,23257,6,0,P|208:126|207:72,2,105,10|10|10,0:0|0:0|0:0,0:0:0:0:
60,344,24382,6,0,L|76:192,1,140,4|0,0:0|0:0,0:0:0:0:
140,48,25132,1,8,0:0:0:0:
140,48,25319,2,0,P|208:32|272:68,1,140,0|8,0:0|0:0,0:0:0:0:
316,132,25882,2,0,B|328:208|328:208|304:288,1,140,2|0,0:0|0:0,0:0:0:0:
244,320,26444,1,0,0:0:0:0:
244,320,26632,2,0,P|320:348|360:332,2,105,8|8|8,0:0|0:0|0:0,0:0:0:0:
176,268,27382,6,0,L|144:104,1,140,2|8,0:0|0:0,0:0:0:0:
188,56,27944,1,0,0:0:0:0:
188,56,28132,2,0,P|128:52|84:80,2,105,8|8|8,0:0|0:0|0:0,0:0:0:0:
264,96,28882,2,0,P|316:112|404:80,1,140,2|0,0:0|0:0,0:0:0:0:
468,48,29444,1,0,0:0:0:0:
468,48,29632,1,10,0:0:0:0:
408,204,30007,1,10,0:0:0:0:
336,356,30382,6,0,L|176:356,1,140,4|8,0:0|0:0,0:0:0:0:
52,268,31132,1,0,0:0:0:0:
52,268,31319,2,0,P|32:160|56:112,1,140,0|8,0:0|0:0,0:0:0:0:
100,76,31882,2,0,B|156:56|156:56|232:80,1,140,2|8,0:0|0:0,0:0:0:0:
276,152,32444,1,0,0:0:0:0:
276,152,32632,2,0,P|312:104|300:36,2,105,8|8|8,0:0|0:0|0:0,0:0:0:0:
212,204,33382,6,0,P|192:292|220:336,1,140,2|0,0:0|0:0,0:0:0:0:
272,268,33944,1,0,0:0:0:0:
272,268,34132,2,0,P|328:240|388:264,2,105,8|8|8,0:0|0:0|0:0,0:0:0:0:
214,331,34882,2,0,P|152:360|88:332,1,140,2|0,0:0|0:0,0:0:0:0:
52,260,35444,1,0,0:0:0:0:
52,260,35632,1,12,0:0:0:0:
136,116,36007,1,8,0:0:0:0:
264,224,36382,6,0,P|328:248|400:220,1,140,4|0,0:0|0:0,0:0:0:0:
332,68,37132,2,0,P|387:48|452:72,2,105,8|8|8,0:0|0:0|0:0,0:0:0:0:
268,120,37882,6,0,P|200:140|132:108,1,140,2|0,0:0|0:0,0:0:0:0:
108,280,38632,2,0,P|96:212|56:184,2,105,8|8|8,0:0|0:0|0:0,0:0:0:0:
52,344,39382,6,0,P|120:364|188:312,1,140,2|0,0:0|0:0,0:0:0:0:
228,268,39944,1,0,0:0:0:0:
228,268,40132,2,0,P|269:232|320:243,2,105,8|8|8,0:0|0:0|0:0,0:0:0:0:
176,331,40882,6,0,L|176:167,1,140,2|0,0:0|0:0,0:0:0:0:
316,100,41632,2,0,L|316:240,1,140,8|8,0:0|0:0,0:0:0:0:
176,331,42382,6,0,P|104:339|48:299,1,140,4|0,0:0|0:0,0:0:0:0:
112,144,43132,2,0,P|56:128|4:140,2,105,8|8|8,0:0|0:0|0:0,0:0:0:0:
180,192,43882,6,0,P|244:212|316:192,1,140,2|0,0:0|0:0,0:0:0:0:
464,124,44632,2,0,P|484:64|472:12,2,105,8|8|8,0:0|0:0|0:0,0:0:0:0:
424,200,45382,6,0,P|416:272|468:336,1,140,2|0,0:0|0:0,0:0:0:0:
284,332,46132,2,0,P|236:348|176:328,2,105,8|8|8,0:0|0:0|0:0,0:0:0:0:
328,260,46882,1,12,0:0:0:0:
256,192,47069,12,8,48382,0:0:0:0:
72,280,49132,5,2,2:0:0:0:
148,132,49507,1,2,2:0:0:0:
