osu file format v14

[General]
AudioFilename: Does - Know know know -tv size-.mp3
AudioLeadIn: 0
PreviewTime: 49038
Countdown: 0
SampleSet: Normal
StackLeniency: 0.7
Mode: 0
LetterboxInBreaks: 0
WidescreenStoryboard: 0

[Editor]
Bookmarks: 2184,14184,23559,35559,43809,48309,49059,55059,60309,61059,67059,73059,79434,85059
DistanceSpacing: 1.7
BeatDivisor: 4
GridSize: 4
TimelineZoom: 2.899999

[Metadata]
Title:KNOW KNOW KNOW (anime ver.)
TitleUnicode:KNOW KNOW KNOW (anime ver.)
Artist:DOES
ArtistUnicode:DOES
Creator:Lefia
Version:Insane
Source:銀魂°
Tags:gintama° 2015 SnowNiNo_ 2016 opening 04 17 21 Shogun Assassination Farewell Shinsengumi arc Bandai Namco picture
BeatmapID:926902
BeatmapSetID:411968

[Difficulty]
HPDrainRate:6.5
CircleSize:4
OverallDifficulty:7
ApproachRate:9
SliderMultiplier:1.9
SliderTickRate:1

[Events]
//Background and Video events
0,0,"BG-I.jpg",0,0
Video,0,"video-2.avi"
//Break Periods
//Storyboard Layer 0 (Background)
//Storyboard Layer 1 (Fail)
//Storyboard Layer 2 (Pass)
//Storyboard Layer 3 (Foreground)
//Storyboard Sound Samples

[TimingPoints]
1507,375,4,1,1,35,1,0
3007,-100,4,1,1,60,0,0
9194,-100,4,2,1,60,0,0
11257,-100,4,1,1,60,0,0
12194,-100,4,2,1,60,0,0
14257,-100,4,1,1,60,0,0
23819,-100,4,1,1,60,0,0
24194,-100,4,1,2,5,0,0
24382,375,4,1,1,60,1,0
24382,-100,4,1,1,60,0,0
29632,-100,4,1,1,100,0,0
30194,-100,4,1,1,80,0,0
49132,-100,4,1,2,100,0,0
49882,-100,4,1,1,60,0,1
61132,-100,4,1,1,60,0,0
61882,-100,4,1,1,60,0,1
73882,-100,4,1,1,60,0,0
85882,-200,4,1,2,60,0,0
87100,-100,4,1,1,35,0,0

[Colours]
Combo1 : 119,0,0
Combo2 : 132,193,255
Combo3 : 1,64,126
Combo4 : 64,0,64

[HitObjects]
184,128,1507,5,4,2:0:0:0:
184,128,1788,1,4,2:0:0:0:
280,144,2069,1,4,2:0:0:0:
124,212,2257,5,4,2:0:0:0:
124,212,2538,1,4,2:0:0:0:
72,304,2819,1,4,2:0:0:0:
232,232,3007,6,0,P|308:224|344:260,1,95,12|0,0:0|2:0,0:0:0:0:
388,284,3288,1,8,0:0:0:0:
388,284,3382,1,0,0:0:0:0:
424,156,3569,1,8,0:0:0:0:
360,36,3757,1,2,0:0:0:0:
424,156,3944,1,8,0:0:0:0:
492,36,4132,1,0,0:0:0:0:
424,156,4319,1,8,0:0:0:0:
252,56,4507,6,0,P|184:76|132:120,1,95,8|0,0:0|2:0,0:0:0:0:
96,140,4788,1,8,0:0:0:0:
96,140,4882,1,0,0:0:0:0:
188,232,5069,2,0,P|196:284|251:328,1,95,8|2,0:0|0:0,0:0:0:0:
332,172,5444,2,0,P|324:124|269:76,1,95,8|0,0:0|0:0,0:0:0:0:
279,252,5819,1,8,0:0:0:0:
279,252,6007,6,0,P|326:259|384:244,1,95,8|0,0:0|2:0,0:0:0:0:
420,192,6288,1,8,0:0:0:0:
420,192,6382,1,0,0:0:0:0:
240,172,6569,1,8,0:0:0:0:
88,140,6757,1,2,0:0:0:0:
224,76,6944,1,8,0:0:0:0:
152,212,7132,1,0,0:0:0:0:
132,60,7319,1,8,0:0:0:0:
152,212,7507,6,0,P|112:264|96:312,1,95,12|0,0:0|0:0,0:0:0:0:
140,368,7788,1,8,0:0:0:0:
140,368,7882,1,0,0:0:0:0:
288,328,8069,1,0,0:0:0:0:
288,328,8163,1,0,0:0:0:0:
288,328,8257,1,12,0:0:0:0:
280,180,8444,2,0,L|288:132,2,47.5
436,204,8819,1,0,0:0:0:0:
287,133,9007,6,0,L|391:145,1,95,12|0,0:0|0:0,1:0:0:0:
436,204,9288,2,0,L|488:208,1,47.5
397,309,9569,1,0,0:0:0:0:
397,309,9757,2,0,L|304:292,1,95,0|0,0:0|0:0,1:0:0:0:
260,104,10132,2,0,L|256:204,1,95,0|0,0:0|0:0,1:0:0:0:
108,308,10507,2,0,L|232:276,1,95,0|0,0:0|0:0,1:0:0:0:
164,212,10788,2,0,L|32:248,1,95,0|0,0:0|0:0,1:0:0:0:
24,304,11069,1,0,0:0:0:0:
116,152,11257,5,8,0:0:0:0:
256,76,11538,1,8,0:0:0:0:
396,148,11819,1,8,0:0:0:0:
116,152,12007,5,12,0:0:0:0:
348,204,12194,2,0,L|344:256,1,47.5,0|0,0:0|0:0,1:0:0:0:
309,141,12382,2,0,P|365:129|405:161,1,95,0|0,0:0|0:0,1:0:0:0:
423,239,12757,2,0,P|376:242|335:219,1,95,0|0,0:0|0:0,1:0:0:0:
376,48,13132,2,0,L|480:32,1,95,0|0,0:0|0:0,1:0:0:0:
336,128,13507,2,0,L|216:160,1,95
164,132,13788,2,0,P|160:176|204:228,1,95,0|0,0:0|0:0,1:0:0:0:
264,240,14069,1,0,0:0:0:0:
416,268,14257,5,0,0:0:0:0:
392,232,14350,1,0,0:0:0:0:
368,196,14444,1,0,0:0:0:0:
344,160,14538,1,0,0:0:0:0:
320,124,14632,2,0,P|296:120|276:108,3,47.5
208,76,15007,6,0,P|144:68|60:100,1,142.5,12|0,0:0|0:0,0:0:0:0:
16,144,15382,1,0,0:0:0:0:
60,260,15569,1,0,0:0:0:0:
215,291,15757,2,0,P|170:303|136:336,1,95,8|0,0:0|0:0,0:0:0:0:
136,144,16132,2,0,P|188:184|244:184,1,95
227,56,16507,6,0,P|295:72|334:130,1,142.5,8|0,0:0|0:0,0:0:0:0:
360,200,16882,1,0,0:0:0:0:
256,216,17069,1,0,0:0:0:0:
436,220,17257,2,0,P|412:260|320:268,1,142.5,8|0,0:0|0:0,0:0:0:0:
255,215,17632,2,0,P|234:257|245:303,1,95,0|8,0:0|0:0,0:0:0:0:
348,176,18007,6,0,P|264:116|224:128,1,142.5,8|0,0:0|0:0,0:0:0:0:
184,72,18382,1,0,0:0:0:0:
256,216,18569,1,0,0:0:0:0:
104,192,18757,1,8,0:0:0:0:
228,212,18944,1,0,0:0:0:0:
168,68,19132,1,0,0:0:0:0:
200,208,19319,1,0,0:0:0:0:
80,188,19507,6,0,P|52:248|96:316,1,142.5,8|0,0:0|0:0,0:0:0:0:
216,279,19882,2,0,P|178:251|132:248,1,95
328,224,20257,5,12,0:0:0:0:
280,120,20538,1,8,0:0:0:0:
196,192,20819,1,8,0:0:0:0:
372,52,21007,5,8,0:0:0:0:
280,120,21288,1,8,0:0:0:0:
328,224,21569,1,8,0:0:0:0:
228,20,21757,5,8,0:0:0:0:
172,112,22038,1,8,0:0:0:0:
280,120,22319,1,8,0:0:0:0:
72,112,22507,5,8,0:0:0:0:
120,192,22788,1,8,0:0:0:0:
172,112,23069,1,8,0:0:0:0:
76,280,23257,5,10,0:0:0:0:
172,112,23538,1,10,0:0:0:0:
300,60,23819,2,0,P|308:152|200:116,1,237.5,10|0,0:0|0:0,0:0:0:0:
208,52,24382,5,12,0:0:0:0:
208,52,24757,1,0,0:0:0:0:
200,208,24944,2,0,P|154:200|122:167,1,95,0|8,0:0|0:0,0:0:0:0:
272,128,25319,1,0,2:0:0:0:
272,128,25413,1,8,0:0:0:0:
272,128,25507,2,0,P|336:120|376:128,1,95,0|8,0:0|0:0,0:0:0:0:
472,104,25882,5,8,0:0:0:0:
472,104,26069,1,0,0:0:0:0:
472,104,26257,2,0,B|472:168|428:200,1,95
420,348,26632,5,8,0:0:0:0:
396,328,26913,1,8,0:0:0:0:
376,308,27194,1,8,0:0:0:0:
208,248,27382,5,0,0:0:0:0:
176,160,27569,1,0,0:0:0:0:
288,292,27757,2,0,P|252:328|192:328,1,95
292,200,28132,1,8,0:0:0:0:
128,292,28319,1,0,2:0:0:0:
128,292,28413,1,8,0:0:0:0:
128,292,28507,2,0,P|80:228|80:176,1,95,0|8,0:0|0:0,0:0:0:0:
72,100,28882,5,8,0:0:0:0:
176,160,29069,1,0,0:0:0:0:
216,44,29257,1,0,0:0:0:0:
292,200,29444,1,0,0:0:0:0:
336,48,29632,5,10,0:0:0:0:
364,72,29725,1,0,2:0:0:0:
388,100,29819,1,0,2:0:0:0:
404,136,29913,1,0,2:0:0:0:
408,172,30007,1,2,0:0:0:0:
276,144,30194,1,0,0:0:0:0:
324,336,30382,5,12,0:0:0:0:
324,336,30757,2,0,L|224:304,1,95
144,176,31132,2,0,P|204:152|264:152,1,95,8|0,0:0|2:0,0:0:0:0:
312,172,31413,1,8,0:0:0:0:
312,172,31507,1,0,0:0:0:0:
200,308,31694,1,8,0:0:0:0:
200,308,31882,6,0,P|124:296|68:308,1,95,8|0,0:0|0:0,0:0:0:0:
232,128,32257,1,0,0:0:0:0:
44,156,32444,1,0,0:0:0:0:
248,100,32632,5,8,0:0:0:0:
264,76,32913,1,8,0:0:0:0:
280,56,33194,1,8,0:0:0:0:
132,180,33382,5,0,0:0:0:0:
132,180,33569,2,0,P|60:211|28:244,1,95
156,296,33944,2,0,P|202:285|242:261,1,95,0|8,0:0|0:0,0:0:0:0:
264,136,34319,1,0,2:0:0:0:
264,136,34413,1,8,0:0:0:0:
264,136,34507,2,0,P|344:108|396:116,1,95,0|8,0:0|0:0,0:0:0:0:
476,120,34882,5,8,0:0:0:0:
472,292,35069,1,0,0:0:0:0:
324,192,35257,1,0,0:0:0:0:
296,328,35444,1,0,0:0:0:0:
208,192,35632,5,12,0:0:0:0:
212,140,35725,1,0,0:0:0:0:
192,92,35819,1,0,0:0:0:0:
148,60,35913,1,0,0:0:0:0:
96,72,36007,1,0,0:0:0:0:
60,108,36100,1,0,0:0:0:0:
52,152,36194,1,0,0:0:0:0:
104,308,36382,5,12,0:0:0:0:
120,316,36757,1,0,0:0:0:0:
136,324,37132,2,0,P|188:340|260:336,1,95,8|0,0:0|2:0,0:0:0:0:
308,336,37413,1,8,0:0:0:0:
308,336,37507,1,0,0:0:0:0:
436,216,37694,1,8,0:0:0:0:
244,232,37882,5,8,0:0:0:0:
308,192,38257,1,0,0:0:0:0:
240,156,38632,2,0,P|184:124|112:124,1,95,8|0,0:0|2:0,0:0:0:0:
84,160,38913,1,8,0:0:0:0:
84,160,39007,1,0,0:0:0:0:
196,24,39194,1,8,0:0:0:0:
384,48,39382,5,8,0:0:0:0:
404,64,39757,1,0,0:0:0:0:
420,80,40132,2,0,P|460:140|472:188,1,95,8|0,0:0|2:0,0:0:0:0:
480,248,40413,1,8,0:0:0:0:
480,248,40507,1,0,0:0:0:0:
328,168,40694,1,8,0:0:0:0:
328,324,40882,5,8,0:0:0:0:
248,212,41069,1,0,0:0:0:0:
152,304,41257,1,0,0:0:0:0:
152,120,41444,1,0,0:0:0:0:
344,132,41632,5,8,0:0:0:0:
372,88,41725,1,0,0:0:0:0:
356,40,41819,1,0,0:0:0:0:
320,4,41913,1,0,0:0:0:0:
268,4,42007,1,0,0:0:0:0:
224,32,42100,1,0,0:0:0:0:
208,76,42194,1,0,0:0:0:0:
256,220,42382,6,0,P|312:280|404:224,1,190,12|0,0:0|0:0,0:0:0:0:
348,96,43132,2,0,L|332:208,1,95,8|0,0:0|2:0,0:0:0:0:
256,220,43413,1,8,0:0:0:0:
256,220,43507,1,0,0:0:0:0:
152,140,43694,1,8,0:0:0:0:
152,296,43882,6,0,P|72:328|20:240,1,190,8|0,0:0|0:0,0:0:0:0:
116,152,44632,2,0,L|84:288,1,95,8|0,0:0|2:0,0:0:0:0:
56,248,44913,1,8,0:0:0:0:
17,255,45007,1,0,0:0:0:0:
200,236,45194,1,8,0:0:0:0:
204,52,45382,6,0,P|264:88|340:12,1,190,8|0,0:0|0:0,0:0:0:0:
344,168,46132,2,0,P|316:220|304:284,1,95,8|0,0:0|2:0,0:0:0:0:
336,328,46413,1,8,0:0:0:0:
336,328,46507,1,0,0:0:0:0:
484,248,46694,1,8,0:0:0:0:
468,116,46882,5,12,0:0:0:0:
344,168,47069,1,0,0:0:0:0:
320,36,47257,1,8,0:0:0:0:
160,144,47444,1,0,0:0:0:0:
344,168,47632,5,8,0:0:0:0:
216,320,47913,1,8,0:0:0:0:
72,180,48194,1,8,0:0:0:0:
44,152,48382,5,8,0:0:0:0:
188,296,48663,1,8,0:0:0:0:
316,144,48944,1,8,0:0:0:0:
104,180,49132,5,0,2:0:0:0:
56,156,49507,5,0,2:0:0:0:
16,124,49882,6,0,P|60:88|128:80,1,95,14|0,0:0|2:0,0:0:0:0:
180,92,50163,1,8,0:0:0:0:
180,92,50257,1,0,0:0:0:0:
296,28,50444,2,0,P|320:80|308:144,1,95,8|0,0:0|0:0,0:0:0:0:
148,284,50819,2,0,P|126:242|125:195,1,95,8|0,0:0|0:0,0:0:0:0:
180,80,51194,1,8,0:0:0:0:
208,224,51382,5,10,0:0:0:0:
192,344,51569,1,0,2:0:0:0:
192,344,51663,1,8,0:0:0:0:
192,344,51757,2,0,P|256:356|288:336,1,95,0|8,0:0|0:0,0:0:0:0:
328,192,52132,1,0,0:0:0:0:
376,344,52319,1,8,0:0:0:0:
248,244,52507,1,0,0:0:0:0:
408,244,52694,1,8,0:0:0:0:
240,156,52882,6,0,P|280:108|344:104,1,95,10|0,0:0|2:0,0:0:0:0:
396,100,53163,1,8,0:0:0:0:
396,100,53257,1,0,0:0:0:0:
240,228,53444,2,0,P|280:276|344:280,1,95,8|0,0:0|0:0,0:0:0:0:
464,220,53819,1,8,0:0:0:0:
320,204,54007,1,0,0:0:0:0:
444,336,54194,1,0,0:0:0:0:
332,184,54382,6,0,P|332:128|292:88,1,95,10|0,0:0|2:0,0:0:0:0:
240,56,54663,1,8,0:0:0:0:
240,56,54757,1,0,0:0:0:0:
196,184,54944,2,0,P|204:240|248:284,1,95,8|0,0:0|0:0,0:0:0:0:
332,184,55319,1,8,0:0:0:0:
260,48,55507,1,0,0:0:0:0:
196,184,55694,1,8,0:0:0:0:
76,44,55882,6,0,P|56:108|64:160,1,95,14|0,0:0|2:0,0:0:0:0:
92,216,56163,1,8,0:0:0:0:
92,216,56257,1,0,0:0:0:0:
236,164,56444,2,0,P|304:140|336:108,1,95,8|0,0:0|0:0,0:0:0:0:
164,236,56819,1,8,0:0:0:0:
164,236,57007,2,0,P|118:247|79:274,1,95,0|8,0:0|0:0,0:0:0:0:
268,264,57382,6,0,P|336:240|368:208,1,95,10|0,0:0|2:0,0:0:0:0:
416,160,57663,1,8,0:0:0:0:
416,160,57757,1,0,0:0:0:0:
276,184,57944,1,8,0:0:0:0:
416,152,58132,1,0,0:0:0:0:
264,108,58319,1,8,0:0:0:0:
432,80,58507,1,0,0:0:0:0:
252,32,58694,1,8,0:0:0:0:
412,156,58882,6,0,P|468:196|480:252,1,95,10|0,0:0|2:0,0:0:0:0:
492,300,59163,1,8,0:0:0:0:
492,300,59257,1,0,0:0:0:0:
340,244,59444,2,0,P|372:296|368:348,1,95,8|0,0:0|0:0,0:0:0:0:
221,210,59819,2,0,P|217:257|236:300,1,95,8|0,0:0|0:0,0:0:0:0:
316,136,60194,1,8,0:0:0:0:
200,72,60382,5,12,0:0:0:0:
200,72,60475,1,0,0:0:0:0:
200,72,60569,1,0,0:0:0:0:
76,124,60757,1,0,0:0:0:0:
64,164,60850,1,0,0:0:0:0:
52,204,60944,1,0,0:0:0:0:
40,244,61038,1,0,0:0:0:0:
28,284,61132,5,12,0:0:0:0:
144,216,61319,1,0,0:0:0:0:
264,272,61507,2,0,L|264:208,1,47.5
363,175,61694,2,0,L|348:220,1,47.5
444,184,61882,6,0,P|416:112|376:88,1,95,14|0,0:0|2:0,0:0:0:0:
328,68,62163,1,8,0:0:0:0:
328,68,62257,1,0,0:0:0:0:
299,147,62444,2,0,P|255:131|214:151,1,95,8|0,0:0|0:0,0:0:0:0:
268,264,62819,2,0,P|312:312|368:308,1,95,8|0,0:0|0:0,0:0:0:0:
364,228,63194,1,8,0:0:0:0:
208,180,63382,6,0,P|164:212|112:208,1,95,10|0,0:0|2:0,0:0:0:0:
44,180,63663,1,8,0:0:0:0:
44,180,63757,1,0,0:0:0:0:
128,36,63944,1,8,0:0:0:0:
208,180,64132,1,0,0:0:0:0:
360,156,64319,1,8,0:0:0:0:
340,60,64507,1,8,0:0:0:0:
380,252,64694,1,0,0:0:0:0:
360,64,64882,6,0,P|424:104|440:160,1,95,10|0,0:0|2:0,0:0:0:0:
444,200,65163,1,8,0:0:0:0:
444,200,65257,1,0,0:0:0:0:
368,336,65444,1,8,0:0:0:0:
464,284,65632,1,0,0:0:0:0:
296,264,65819,1,8,0:0:0:0:
344,184,66007,1,0,0:0:0:0:
284,344,66194,1,8,0:0:0:0:
264,176,66382,5,10,0:0:0:0:
140,224,66569,1,0,2:0:0:0:
140,224,66663,1,8,0:0:0:0:
140,224,66757,2,0,P|136:152|152:100,1,95,0|8,0:0|0:0,0:0:0:0:
264,176,67132,2,0,P|270:222|264:269,1,95,0|8,0:0|0:0,0:0:0:0:
120,224,67507,2,0,P|116:152|132:100,1,95,0|8,0:0|0:0,0:0:0:0:
288,176,67882,6,0,P|294:222|288:269,1,95,14|0,0:0|2:0,0:0:0:0:
248,344,68163,1,8,0:0:0:0:
248,344,68257,1,0,0:0:0:0:
388,268,68444,1,8,0:0:0:0:
424,140,68632,1,0,0:0:0:0:
328,48,68819,1,8,0:0:0:0:
200,80,69007,1,0,0:0:0:0:
288,176,69194,1,8,0:0:0:0:
160,208,69382,6,0,P|104:232|36:212,1,95,10|0,0:0|2:0,0:0:0:0:
12,180,69663,1,8,0:0:0:0:
12,180,69757,1,0,0:0:0:0:
104,83,69944,2,0,P|150:72|198:76,1,95,8|0,0:0|0:0,0:0:0:0:
327,47,70319,2,0,P|366:74|393:114,1,95,8|0,0:0|0:0,0:0:0:0:
464,228,70694,1,8,0:0:0:0:
464,228,70882,6,0,P|384:244|344:240,1,95,10|0,0:0|2:0,0:0:0:0:
288,228,71163,1,8,0:0:0:0:
288,228,71257,1,0,0:0:0:0:
196,160,71444,1,8,0:0:0:0:
176,272,71632,1,0,0:0:0:0:
256,240,71819,1,8,0:0:0:0:
168,140,72007,1,0,0:0:0:0:
140,288,72194,1,8,0:0:0:0:
176,132,72382,5,4,0:0:0:0:
140,112,72475,1,0,0:0:0:0:
104,88,72569,1,0,0:0:0:0:
20,192,72757,1,0,0:0:0:0:
104,296,72944,1,0,0:0:0:0:
140,272,73038,1,0,0:0:0:0:
176,252,73131,1,12,0:0:0:0:
296,192,73319,5,0,0:0:0:0:
340,192,73413,1,0,0:0:0:0:
376,216,73507,1,0,0:0:0:0:
392,256,73600,1,0,0:0:0:0:
380,296,73694,1,0,0:0:0:0:
296,192,73882,6,0,P|284:112|296:64,1,95,12|0,0:0|2:0,0:0:0:0:
332,32,74163,1,8,0:0:0:0:
332,32,74257,1,0,0:0:0:0:
188,56,74444,1,8,0:0:0:0:
40,120,74632,1,0,0:0:0:0:
204,84,74819,1,8,0:0:0:0:
40,164,75007,1,0,0:0:0:0:
224,120,75194,1,8,0:0:0:0:
40,208,75382,5,8,0:0:0:0:
244,256,75569,1,0,2:0:0:0:
244,256,75663,1,8,0:0:0:0:
244,256,75757,1,0,0:0:0:0:
356,184,75944,2,0,P|412:180|468:200,1,95,8|0,0:0|0:0,0:0:0:0:
444,324,76319,2,0,P|384:336|328:316,1,95,8|0,0:0|0:0,0:0:0:0:
244,256,76694,1,8,0:0:0:0:
112,332,76882,6,0,P|96:276|112:216,1,95,8|0,0:0|2:0,0:0:0:0:
96,160,77163,1,8,0:0:0:0:
96,160,77257,1,0,0:0:0:0:
168,100,77444,1,8,0:0:0:0:
184,192,77632,1,0,0:0:0:0:
16,124,77819,1,8,0:0:0:0:
160,16,78007,1,0,0:0:0:0:
184,192,78194,1,8,0:0:0:0:
304,120,78382,6,0,P|388:128|416:112,1,95,8|0,0:0|2:0,0:0:0:0:
448,64,78663,1,8,0:0:0:0:
448,64,78757,1,0,0:0:0:0:
456,236,78944,2,0,P|428:288|376:320,1,95,8|0,0:0|0:0,0:0:0:0:
332,196,79319,2,0,P|256:192|208:208,1,95,8|0,0:0|0:0,0:0:0:0:
288,276,79694,1,8,0:0:0:0:
120,200,79882,6,0,P|96:128|96:92,1,95,8|0,0:0|2:0,0:0:0:0:
160,60,80163,1,8,0:0:0:0:
160,60,80257,1,0,0:0:0:0:
212,132,80444,1,8,0:0:0:0:
284,220,80632,1,0,0:0:0:0:
256,28,80819,1,8,0:0:0:0:
100,136,81007,1,0,0:0:0:0:
284,220,81194,1,8,0:0:0:0:
348,100,81382,6,0,P|388:148|392:184,1,95,8|0,0:0|2:0,0:0:0:0:
384,260,81663,1,8,0:0:0:0:
384,260,81757,1,0,0:0:0:0:
304,308,81944,1,8,0:0:0:0:
216,344,82132,1,0,0:0:0:0:
304,308,82319,1,8,0:0:0:0:
152,284,82507,1,0,0:0:0:0:
216,344,82694,1,8,0:0:0:0:
60,284,82882,6,0,P|56:232|80:176,1,95,8|0,0:0|2:0,0:0:0:0:
112,124,83163,1,8,0:0:0:0:
112,124,83257,1,0,0:0:0:0:
228,132,83444,2,0,P|272:96|320:80,1,95,8|0,0:0|0:0,0:0:0:0:
276,272,83819,2,0,P|284:215|309:171,1,95,8|0,0:0|0:0,0:0:0:0:
472,236,84194,1,8,0:0:0:0:
424,328,84382,6,0,P|387:284|370:236,1,95,12|0,0:0|0:0,0:0:0:0:
376,204,84663,1,0,0:0:0:0:
400,160,84757,1,0,0:0:0:0:
468,44,84944,1,0,0:0:0:0:
416,32,85038,1,0,0:0:0:0:
368,52,85132,1,12,0:0:0:0:
276,136,85319,5,0,0:0:0:0:
248,168,85413,1,0,0:0:0:0:
208,184,85507,1,0,0:0:0:0:
164,180,85600,1,0,0:0:0:0:
128,156,85694,1,0,0:0:0:0:
36,32,85882,6,0,B|76:80|76:80|28:120|8:224|136:260,1,285,12|0,0:0|2:0,0:0:0:0:
196,280,87132,6,0,L|204:244,1,31.6666666666667,8|0,0:0|0:0,0:0:0:0:
244,64,87382,1,12,0:0:0:0:
