osu file format v14

[General]
AudioFilename: Does - Know know know -tv size-.mp3
AudioLeadIn: 0
PreviewTime: 49038
Countdown: 0
SampleSet: Normal
StackLeniency: 0.7
Mode: 0
LetterboxInBreaks: 0
WidescreenStoryboard: 0

[Editor]
Bookmarks: 2184,14184,23559,35559,43809,48309,55059,60309,61059,67059,73059,79434,85059
DistanceSpacing: 1.2
BeatDivisor: 4
GridSize: 4
TimelineZoom: 2.2

[Metadata]
Title:KNOW KNOW KNOW (anime ver.)
TitleUnicode:KNOW KNOW KNOW (anime ver.)
Artist:DOES
ArtistUnicode:DOES
Creator:Lefia
Version:Hard
Source:銀魂°
Tags:gintama° 2015 SnowNiNo_ 2016 opening 04 17 21 Shogun Assassination Farewell Shinsengumi arc Bandai Namco picture
BeatmapID:895205
BeatmapSetID:411968

[Difficulty]
HPDrainRate:5.5
CircleSize:3.5
OverallDifficulty:6
ApproachRate:8
SliderMultiplier:1.7
SliderTickRate:1

[Events]
//Background and Video events
0,0,"BG-H.jpg",0,0
Video,0,"Video-1.avi"
//Break Periods
//Storyboard Layer 0 (Background)
//Storyboard Layer 1 (Fail)
//Storyboard Layer 2 (Pass)
//Storyboard Layer 3 (Foreground)
//Storyboard Sound Samples

[TimingPoints]
1507,375,4,1,1,40,1,0
3007,-100,4,1,1,60,0,0
9194,-100,4,1,1,5,0,0
11257,-100,4,1,1,60,0,0
12194,-100,4,1,2,5,0,0
14257,-100,4,1,1,60,0,0
24382,375,4,1,1,60,1,0
49132,-100,4,1,1,5,0,0
49882,-100,4,1,1,60,0,1
61132,-100,4,1,1,60,0,0
61882,-100,4,1,1,60,0,1
73882,-100,4,1,1,60,0,0
85882,-100,4,1,2,60,0,0
87194,-100,4,1,1,35,0,0

[Colours]
Combo1 : 119,0,0
Combo2 : 132,193,255
Combo3 : 1,64,126
Combo4 : 64,0,64

[HitObjects]
112,44,1507,6,0,L|100:140,1,85,4|0,2:0|2:0,0:0:0:0:
68,164,1788,2,0,B|152:184|124:272,1,127.5,4|4,2:0|2:0,0:0:0:0:
68,336,2257,6,0,P|128:356|172:336,1,85,4|0,2:0|2:0,0:0:0:0:
196,328,2538,2,0,B|256:296|301:328|301:328|312:304,1,127.5,4|4,2:0|2:0,0:0:0:0:
368,224,3007,5,12,0:0:0:0:
392,132,3194,1,0,2:0:0:0:
392,132,3288,1,8,0:0:0:0:
392,132,3382,2,0,P|380:64|344:32,1,85,0|8,0:0|0:0,0:0:0:0:
284,16,3757,2,0,P|232:48|208:96,1,85,2|8,0:0|0:0,0:0:0:0:
136,88,4132,1,0,0:0:0:0:
228,148,4319,1,8,0:0:0:0:
136,172,4507,5,8,0:0:0:0:
236,232,4694,1,0,2:0:0:0:
236,232,4788,1,8,0:0:0:0:
236,232,4882,2,0,P|288:212|312:160,1,85,0|8,0:0|0:0,0:0:0:0:
336,100,5257,1,2,0:0:0:0:
428,100,5444,1,8,0:0:0:0:
456,188,5632,1,0,0:0:0:0:
384,248,5819,1,8,0:0:0:0:
312,316,6007,5,8,0:0:0:0:
404,340,6194,2,0,L|456:348,2,42.5,0|8|0,2:0|0:0|0:0,0:0:0:0:
312,316,6569,2,0,P|248:288|204:280,1,85,8|2,0:0|0:0,0:0:0:0:
144,308,6944,2,0,P|76:280|56:244,1,85,8|0,0:0|0:0,0:0:0:0:
116,192,7319,1,8,0:0:0:0:
88,104,7507,5,12,0:0:0:0:
172,60,7694,2,0,P|160:40|128:24,2,42.5
244,120,8069,2,0,P|232:144|216:160,2,42.5,0|0|12,0:0|0:0|0:0,0:0:0:0:
304,48,8444,1,0,0:0:0:0:
304,48,8538,1,0,0:0:0:0:
304,48,8632,2,0,P|380:64|408:84,2,85,0|0|12,0:0|0:0|0:0,0:0:0:0:
256,192,9194,12,0,11069,2:0:0:0:
224,164,11257,6,0,B|176:132|176:132|136:140|96:116,2,127.5,8|8|8,0:0|0:0|0:0,0:0:0:0:
304,228,12007,1,12,0:0:0:0:
256,192,12194,12,0,14069,2:0:0:0:
412,200,14257,6,0,L|352:232,3,42.5
328,240,14632,2,0,L|280:268,3,42.5
248,288,15007,6,0,P|185:297|125:279,1,127.5,12|0,0:0|0:0,0:0:0:0:
92,248,15382,2,0,P|105:207|101:165,1,85
40,96,15757,2,0,P|96:76|148:88,1,85,8|0,0:0|0:0,0:0:0:0:
196,136,16132,2,0,P|252:128|280:108,1,85
244,32,16507,6,0,P|320:40|376:104,1,127.5,8|0,0:0|0:0,0:0:0:0:
376,112,16882,2,0,P|400:156|456:180,1,85
496,220,17257,2,0,P|432:256|368:228,1,127.5,8|0,0:0|0:0,0:0:0:0:
344,236,17632,1,0,0:0:0:0:
252,224,17819,1,0,0:0:0:0:
252,224,18007,6,0,P|188:220|100:244,1,127.5,8|0,0:0|0:0,0:0:0:0:
80,248,18382,2,0,P|76:168|56:128,1,85
56,64,18757,1,8,0:0:0:0:
152,100,18944,1,0,0:0:0:0:
248,132,19132,2,0,B|312:160|312:160|328:204,1,85
336,276,19507,2,0,B|408:276|432:172,1,127.5,8|0,0:0|0:0,0:0:0:0:
440,148,19882,1,0,0:0:0:0:
488,60,20069,1,0,0:0:0:0:
384,68,20257,6,0,L|252:88,1,127.5,12|8,0:0|0:0,0:0:0:0:
96,112,20819,1,8,0:0:0:0:
192,196,21007,6,0,L|324:176,1,127.5,8|8,0:0|0:0,0:0:0:0:
480,152,21569,1,8,0:0:0:0:
412,260,21757,6,0,L|280:280,1,127.5,8|8,0:0|0:0,0:0:0:0:
124,304,22319,1,8,0:0:0:0:
124,304,22507,5,8,0:0:0:0:
84,144,22788,1,8,0:0:0:0:
240,204,23069,1,8,0:0:0:0:
264,184,23257,5,10,0:0:0:0:
76,100,23538,1,10,0:0:0:0:
84,304,23819,1,10,0:0:0:0:
224,64,24382,6,0,P|312:84|344:84,1,85,12|0,0:0|0:0,0:0:0:0:
396,56,24757,1,0,0:0:0:0:
476,104,24944,1,0,0:0:0:0:
424,180,25132,2,0,L|436:280,1,85,8|0,0:0|2:0,0:0:0:0:
408,292,25413,1,8,0:0:0:0:
408,292,25507,2,0,P|348:300|296:288,1,85,0|8,0:0|0:0,0:0:0:0:
312,204,25882,5,8,0:0:0:0:
304,112,26069,1,0,2:0:0:0:
304,112,26163,1,8,0:0:0:0:
304,112,26257,2,0,P|252:104|184:120,1,85,0|8,0:0|0:0,0:0:0:0:
168,184,26632,2,0,P|128:120|156:48,2,127.5,8|8|8,0:0|0:0|0:0,0:0:0:0:
240,128,27382,5,8,0:0:0:0:
296,204,27569,2,0,L|204:256,1,85
100,288,27944,1,0,0:0:0:0:
176,328,28132,2,0,L|292:360,1,85,8|0,0:0|2:0,0:0:0:0:
296,316,28413,1,8,0:0:0:0:
296,316,28507,1,0,0:0:0:0:
349,253,28694,1,8,0:0:0:0:
349,253,28882,6,0,L|376:168,1,85,8|0,0:0|0:0,0:0:0:0:
408,88,29257,1,0,0:0:0:0:
328,44,29444,1,0,0:0:0:0:
240,72,29632,2,0,P|256:116|216:196,2,127.5,10|10|10,0:0|0:0|0:0,0:0:0:0:
160,124,30382,5,4,0:0:0:0:
160,124,30757,2,0,P|136:208|200:276,1,170,0|8,0:0|0:0,0:0:0:0:
228,360,31319,1,0,2:0:0:0:
228,360,31413,1,8,0:0:0:0:
228,360,31507,2,0,P|264:328|268:280,1,85,0|8,0:0|0:0,0:0:0:0:
272,176,31882,5,8,0:0:0:0:
328,92,32069,2,0,P|291:72|250:77,1,85
148,124,32444,1,0,0:0:0:0:
52,72,32632,2,0,P|36:132|76:204,2,127.5,8|8|8,0:0|0:0|0:0,0:0:0:0:
148,124,33382,5,8,0:0:0:0:
249,78,33569,1,0,0:0:0:0:
284,184,33757,1,0,0:0:0:0:
388,156,33944,1,0,0:0:0:0:
388,156,34132,2,0,P|388:100|412:52,1,85,8|0,0:0|2:0,0:0:0:0:
408,36,34413,1,8,0:0:0:0:
408,36,34507,2,0,P|360:48|288:40,1,85,0|8,0:0|0:0,0:0:0:0:
232,28,34882,5,8,0:0:0:0:
144,60,35069,1,0,2:0:0:0:
144,60,35163,1,8,0:0:0:0:
144,60,35257,2,0,P|92:132|88:148,1,85,0|8,0:0|0:0,0:0:0:0:
144,208,35632,6,0,L|204:172,3,42.5,12|0|0|0,0:0|0:0|0:0|0:0,0:0:0:0:
224,200,36007,2,0,L|292:176,3,42.5
300,212,36382,6,0,P|304:112|376:64,1,170,12|0,0:0|0:0,0:0:0:0:
392,168,36944,2,0,P|400:228|392:264,1,85,0|8,0:0|0:0,0:0:0:0:
268,172,37319,1,0,2:0:0:0:
268,172,37413,1,8,0:0:0:0:
268,172,37507,2,0,L|192:108,1,85,0|8,0:0|0:0,0:0:0:0:
196,32,37882,6,0,P|132:64|124:156,1,170,8|0,0:0|0:0,0:0:0:0:
100,244,38444,2,0,P|56:216|32:164,1,85,0|8,0:0|0:0,0:0:0:0:
64,340,38819,1,0,2:0:0:0:
64,340,38913,1,8,0:0:0:0:
64,340,39007,2,0,P|136:320|184:308,1,85,0|8,0:0|0:0,0:0:0:0:
236,328,39382,6,0,P|240:248|260:224,1,85,8|0,0:0|0:0,0:0:0:0:
344,208,39757,1,0,0:0:0:0:
344,208,39944,2,0,P|344:256|328:296,2,85,0|8|0,0:0|0:0|2:0,0:0:0:0:
336,164,40413,1,8,0:0:0:0:
336,164,40507,2,0,P|296:128|244:100,1,85,0|8,0:0|0:0,0:0:0:0:
168,136,40882,6,0,B|152:28|264:4,1,170,8|0,0:0|0:0,0:0:0:0:
352,12,41444,1,0,0:0:0:0:
424,84,41632,2,0,L|464:148,3,42.5,8|0|0|0,0:0|0:0|0:0|0:0,0:0:0:0:
436,164,42007,2,0,L|460:220,3,42.5
448,248,42382,6,0,P|456:332|380:340,1,170,12|0,0:0|0:0,0:0:0:0:
292,328,42944,2,0,L|264:248,1,85,0|8,0:0|0:0,0:0:0:0:
244,140,43319,1,0,2:0:0:0:
244,140,43413,1,8,0:0:0:0:
244,140,43507,2,0,P|204:140|160:176,1,85,0|8,0:0|0:0,0:0:0:0:
232,236,43882,5,8,0:0:0:0:
168,304,44069,2,0,P|112:344|64:344,1,85
16,300,44444,1,0,0:0:0:0:
92,244,44632,2,0,P|68:185|27:162,1,85,8|0,0:0|2:0,0:0:0:0:
32,132,44913,1,8,0:0:0:0:
32,132,45007,1,0,0:0:0:0:
132,132,45194,1,8,0:0:0:0:
96,36,45382,6,0,P|180:40|232:112,1,170,8|0,0:0|0:0,0:0:0:0:
196,216,45944,1,0,0:0:0:0:
308,256,46132,1,8,0:0:0:0:
432,252,46319,1,0,2:0:0:0:
432,252,46413,1,8,0:0:0:0:
432,252,46507,2,0,L|452:144,1,85,0|8,0:0|0:0,0:0:0:0:
400,88,46882,5,12,0:0:0:0:
316,132,47069,1,0,0:0:0:0:
288,44,47257,1,8,0:0:0:0:
204,88,47444,1,0,0:0:0:0:
124,136,47632,6,0,P|69:111|-4:140,1,127.5,8|8,0:0|0:0,0:0:0:0:
64,236,48194,1,8,0:0:0:0:
64,236,48382,5,8,0:0:0:0:
196,272,48663,1,8,0:0:0:0:
308,192,48944,1,8,0:0:0:0:
408,208,49132,5,0,0:0:0:0:
352,12,49507,5,0,0:0:0:0:
191,108,49882,6,0,P|159:156|144:216,1,85,14|0,0:0|2:0,0:0:0:0:
132,224,50163,1,8,0:0:0:0:
120,264,50257,2,0,L|216:252,1,85,0|8,0:0|0:0,0:0:0:0:
296,292,50632,2,0,P|269:324|234:348,1,85,0|8,0:0|0:0,0:0:0:0:
288,192,51007,1,0,0:0:0:0:
280,100,51194,1,8,0:0:0:0:
356,48,51382,6,0,P|368:112|348:152,1,85,10|0,0:0|2:0,0:0:0:0:
376,176,51663,1,8,0:0:0:0:
376,176,51757,2,0,P|420:164|484:172,1,85,0|8,0:0|0:0,0:0:0:0:
376,264,52132,2,0,P|432:256|480:260,1,85,0|8,0:0|0:0,0:0:0:0:
280,280,52507,2,0,P|224:288|176:284,1,85,0|8,0:0|0:0,0:0:0:0:
288,192,52882,5,10,0:0:0:0:
252,104,53069,1,0,2:0:0:0:
252,104,53163,1,8,0:0:0:0:
252,104,53257,2,0,P|188:144|168:184,1,85,0|8,0:0|0:0,0:0:0:0:
132,52,53632,2,0,P|108:116|108:172,1,85,0|8,0:0|0:0,0:0:0:0:
20,64,54007,2,0,P|20:136|24:156,1,85,0|8,0:0|0:0,0:0:0:0:
106,132,54382,5,10,0:0:0:0:
116,228,54569,1,0,2:0:0:0:
116,228,54663,1,8,0:0:0:0:
116,228,54757,2,0,P|80:276|32:296,1,85,0|8,0:0|0:0,0:0:0:0:
24,204,55132,1,0,0:0:0:0:
64,128,55319,1,8,0:0:0:0:
156,128,55507,1,0,0:0:0:0:
200,204,55694,1,8,0:0:0:0:
64,128,55882,6,0,P|72:52|88:40,1,85,14|0,0:0|2:0,0:0:0:0:
112,40,56163,1,8,0:0:0:0:
112,40,56257,1,0,0:0:0:0:
156,128,56444,1,8,0:0:0:0:
240,88,56632,2,0,L|356:48,1,85,0|8,0:0|0:0,0:0:0:0:
220,180,57007,2,0,L|304:148,1,85,0|8,0:0|0:0,0:0:0:0:
196,268,57382,6,0,L|292:236,1,85,10|0,0:0|2:0,0:0:0:0:
316,216,57663,1,8,0:0:0:0:
340,176,57757,2,0,P|400:204|432:244,1,85,0|8,0:0|0:0,0:0:0:0:
312,84,58132,2,0,P|376:92|420:120,1,85,0|8,0:0|0:0,0:0:0:0:
244,192,58507,2,0,P|184:192|132:160,1,85,0|8,0:0|0:0,0:0:0:0:
216,100,58882,6,0,P|174:93|139:70,1,85,10|0,0:0|2:0,0:0:0:0:
100,60,59163,1,8,0:0:0:0:
100,60,59257,1,0,0:0:0:0:
84,152,59444,1,8,0:0:0:0:
152,216,59632,1,0,0:0:0:0:
244,192,59819,1,8,0:0:0:0:
336,188,60007,2,0,P|312:248|272:280,1,85,0|8,0:0|0:0,0:0:0:0:
212,300,60382,5,12,0:0:0:0:
212,300,60475,1,0,0:0:0:0:
212,300,60569,1,0,0:0:0:0:
152,216,60757,1,0,0:0:0:0:
196,124,60944,2,0,L|144:84,2,42.5,0|0|12,0:0|0:0|0:0,0:0:0:0:
296,140,61319,1,0,0:0:0:0:
296,140,61413,1,0,0:0:0:0:
296,140,61507,2,0,L|312:76,2,42.5
252,232,61882,5,14,0:0:0:0:
228,328,62069,1,0,2:0:0:0:
228,328,62163,1,8,0:0:0:0:
228,328,62257,2,0,L|324:316,1,85,0|8,0:0|0:0,0:0:0:0:
340,228,62632,2,0,P|296:192|248:196,1,85,0|8,0:0|0:0,0:0:0:0:
180,164,63007,2,0,P|156:120|155:82,1,85,0|8,0:0|0:0,0:0:0:0:
264,100,63382,5,2,0:0:0:0:
368,104,63569,1,0,2:0:0:0:
372,132,63663,1,8,0:0:0:0:
376,156,63757,2,0,L|484:200,1,85,8|0,0:0|0:0,0:0:0:0:
304,220,64132,2,0,L|384:248,1,85,8|0,0:0|0:0,0:0:0:0:
236,280,64507,2,0,L|324:312,1,85,8|8,0:0|0:0,0:0:0:0:
164,224,64882,6,0,L|52:200,1,85,2|0,0:0|2:0,0:0:0:0:
32,224,65163,1,8,0:0:0:0:
32,224,65257,2,0,L|24:104,1,85,0|8,0:0|0:0,0:0:0:0:
92,80,65632,2,0,P|64:48|24:35,1,85,8|0,0:0|0:0,0:0:0:0:
176,164,66007,1,0,0:0:0:0:
268,108,66194,1,8,0:0:0:0:
276,208,66381,5,10,0:0:0:0:
184,176,66569,1,0,2:0:0:0:
184,176,66663,1,8,0:0:0:0:
184,176,66757,1,0,0:0:0:0:
268,108,66944,2,0,P|256:60|284:4,1,85,8|0,0:0|0:0,0:0:0:0:
340,148,67319,2,0,L|324:256,1,85,8|0,0:0|0:0,0:0:0:0:
420,132,67694,1,8,0:0:0:0:
496,108,67882,5,14,0:0:0:0:
432,224,68069,1,0,2:0:0:0:
432,224,68163,1,8,0:0:0:0:
432,224,68257,2,0,L|448:316,1,85,0|8,0:0|0:0,0:0:0:0:
340,148,68632,2,0,L|352:248,2,85,0|8|0,0:0|0:0|0:0,0:0:0:0:
256,108,69194,1,8,0:0:0:0:
164,100,69382,5,10,0:0:0:0:
68,128,69569,1,0,2:0:0:0:
68,128,69663,1,8,0:0:0:0:
68,128,69757,2,0,P|56:168|64:232,2,85,0|8|0,0:0|0:0|0:0,0:0:0:0:
156,184,70319,1,8,0:0:0:0:
132,280,70507,1,0,0:0:0:0:
232,248,70694,1,8,0:0:0:0:
232,248,70882,6,0,P|252:276|320:276,1,85,10|0,0:0|2:0,0:0:0:0:
340,296,71163,1,8,0:0:0:0:
340,296,71257,2,0,L|420:216,1,85,0|8,0:0|0:0,0:0:0:0:
448,132,71632,2,0,P|392:132|336:164,1,85,0|8,0:0|0:0,0:0:0:0:
364,28,72007,2,0,P|320:64|292:112,1,85,0|8,0:0|0:0,0:0:0:0:
261,155,72382,6,0,L|276:248,2,85,12|0|0,0:0|0:0|0:0,0:0:0:0:
180,108,72944,2,0,P|168:148|180:192,1,85,0|12,0:0|0:0,0:0:0:0:
100,64,73319,2,0,P|88:96|84:156,1,85
76,192,73600,1,0,0:0:0:0:
76,192,73694,1,0,0:0:0:0:
72,284,73882,6,0,P|124:268|164:212,1,85,12|0,0:0|2:0,0:0:0:0:
172,208,74163,1,8,0:0:0:0:
172,208,74257,1,0,0:0:0:0:
212,92,74444,2,0,B|256:92|256:92|324:108,1,85,8|0,0:0|0:0,0:0:0:0:
376,188,74819,2,0,B|332:192|332:192|264:176,1,85,8|0,0:0|0:0,0:0:0:0:
380,108,75194,1,8,0:0:0:0:
380,108,75382,6,0,B|424:104|424:104|484:120,1,85,8|0,0:0|2:0,0:0:0:0:
476,164,75663,1,8,0:0:0:0:
476,212,75757,2,0,B|464:256|464:256|420:312,1,85,0|8,0:0|0:0,0:0:0:0:
352,244,76132,1,0,0:0:0:0:
280,304,76319,1,8,0:0:0:0:
212,236,76507,1,0,0:0:0:0:
280,304,76694,1,8,0:0:0:0:
200,356,76882,6,0,P|116:352|88:336,1,85,8|0,0:0|2:0,0:0:0:0:
72,336,77163,1,8,0:0:0:0:
72,336,77257,2,0,L|28:256,1,85,0|8,0:0|0:0,0:0:0:0:
112,212,77632,1,0,0:0:0:0:
36,156,77819,1,8,0:0:0:0:
112,212,78007,2,0,P|156:220|216:192,1,85,0|8,0:0|0:0,0:0:0:0:
24,248,78382,5,8,0:0:0:0:
40,160,78569,1,0,2:0:0:0:
40,160,78663,1,8,0:0:0:0:
40,160,78757,2,0,P|60:112|108:56,1,85,0|8,0:0|0:0,0:0:0:0:
196,44,79132,1,0,0:0:0:0:
160,156,79319,1,8,0:0:0:0:
272,120,79507,2,0,B|372:112,1,85,0|8,0:0|0:0,0:0:0:0:
464,112,79882,6,0,P|424:172|424:204,1,85,12|0,0:0|2:0,0:0:0:0:
428,224,80163,1,8,0:0:0:0:
404,260,80257,2,0,P|360:276|321:262,1,85,0|8,0:0|0:0,0:0:0:0:
200,180,80632,2,0,P|240:164|280:179,1,85,0|8,0:0|0:0,0:0:0:0:
156,268,81007,2,0,P|112:280|72:264,1,85,0|8,0:0|0:0,0:0:0:0:
120,164,81382,5,8,0:0:0:0:
12,188,81569,1,0,2:0:0:0:
12,188,81663,1,8,0:0:0:0:
12,188,81757,2,0,P|8:140|32:92,1,85,0|8,0:0|0:0,0:0:0:0:
120,164,82132,1,0,0:0:0:0:
108,60,82319,1,8,0:0:0:0:
108,60,82507,2,0,P|140:32|216:32,1,85,0|8,0:0|0:0,0:0:0:0:
272,112,82882,6,0,P|225:134|158:139,1,85,8|0,0:0|2:0,0:0:0:0:
188,196,83163,1,8,0:0:0:0:
188,196,83257,2,0,L|176:292,1,85,0|8,0:0|0:0,0:0:0:0:
284,256,83632,1,0,0:0:0:0:
368,292,83819,1,8,0:0:0:0:
284,256,84007,2,0,L|276:348,1,85,0|8,0:0|0:0,0:0:0:0:
356,204,84382,5,12,0:0:0:0:
352,120,84569,2,0,P|380:120|416:140,2,42.5
233,126,84944,1,0,0:0:0:0:
233,126,85038,1,0,0:0:0:0:
233,126,85132,2,0,P|217:162|173:206,1,85,12|0,0:0|0:0,0:0:0:0:
137,214,85413,1,0,0:0:0:0:
137,214,85507,2,0,P|161:266|220:296,1,85
280,352,85882,6,0,B|336:320|336:320|424:336|424:336|396:252|396:252|440:180|440:180|352:184|352:184|304:136|304:136|268:192|268:192|188:212,1,595,12|0,0:0|0:0,0:0:0:0:
92,240,87382,5,12,0:0:0:0:
