osu file format v14

[General]
AudioFilename: audio.mp3
AudioLeadIn: 0
PreviewTime: 48309
Countdown: 0
SampleSet: Normal
StackLeniency: 0.7
Mode: 0
LetterboxInBreaks: 1
WidescreenStoryboard: 1

[Editor]
DistanceSpacing: 1
BeatDivisor: 4
GridSize: 4
TimelineZoom: 2.7

[Metadata]
Title:KNOW KNOW KNOW
TitleUnicode:KNOW KNOW KNOW
Artist:DOES
ArtistUnicode:ドーズ
Creator:Sakura Shiro
Version:Farewell Ansatsu
Source:銀魂°
Tags:Gintama opening 1 2016,Gintama,animeopening
BeatmapID:993028
BeatmapSetID:463749

[Difficulty]
HPDrainRate:7
CircleSize:4
OverallDifficulty:8
ApproachRate:9
SliderMultiplier:2.1
SliderTickRate:2

[Events]
//Background and Video events
Video,0,"Does - Know know know -TV Size- Gintama.avi"
0,0,"7fcff3b600fc723a02966ebdd8ed5a12.jpg",0,0
//Break Periods
//Storyboard Layer 0 (Background)
//Storyboard Layer 1 (Fail)
//Storyboard Layer 2 (Pass)
//Storyboard Layer 3 (Foreground)
//Storyboard Sound Samples

[TimingPoints]
646,375,4,2,1,82,1,0
2146,-100,4,1,1,92,0,1
8146,-100,4,1,1,92,0,0
8239,-100,4,2,1,92,0,0
10302,-100,4,1,1,92,0,0
11427,-100,4,2,1,92,0,0
13302,-100,4,1,1,92,0,0
23465,-133.333333333333,4,2,1,94,0,0
23559,375,4,2,1,91,1,0
23559,-133.333333333333,4,2,1,91,0,0
45965,-133.333333333333,4,2,1,61,0,0
48309,-133.333333333333,4,2,1,100,0,0
49059,-100,4,1,1,100,0,1
59559,-100,4,1,1,100,0,0
61059,-100,4,1,1,100,0,1
71559,-100,4,1,1,100,0,0
73059,-100,4,1,1,100,0,1
85059,-100,4,2,1,100,0,0
85152,-100,4,2,1,44,0,0
86230,-100,4,1,1,27,0,0
86465,-100,4,2,1,50,0,0

[Colours]
Combo1 : 133,81,155
Combo2 : 132,193,255
Combo3 : 0,49,98
Combo4 : 213,0,0
Combo5 : 128,128,128
Combo6 : 255,255,255

[HitObjects]
88,156,646,37,4,0:0:0:0:
236,28,927,1,4,0:0:0:0:
376,208,1208,6,4,P|328:252|276:256,1,105
124,80,1677,5,4,0:0:0:0:
256,164,1958,1,4,0:0:0:0:
372,76,2146,70,8,P|420:116|432:192,1,105,8|8,0:2|0:2,0:2:0:0:
412,208,2427,1,0,0:2:0:0:
436,256,2521,1,8,0:2:0:0:
272,296,2708,2,0,L|208:176,1,105,8|2,0:2|0:1,0:0:0:0:
80,176,3083,1,8,0:2:0:0:
80,56,3271,1,0,0:2:0:0:
196,112,3458,1,8,0:2:0:0:
144,224,3646,6,8,L|264:204,1,105,8|8,0:2|0:2,0:2:0:0:
292,132,3927,1,0,0:2:0:0:
328,120,4021,1,8,0:2:0:0:
444,168,4208,2,8,P|444:224|396:296,1,105,8|2,0:2|0:1,0:2:0:0:
308,240,4583,1,8,0:2:0:0:
200,340,4771,1,8,0:2:0:0:
136,252,4958,1,8,0:2:0:0:
24,208,5146,22,8,L|112:92,1,105,8|8,0:2|0:2,0:2:0:0:
120,80,5427,1,0,0:2:0:0:
176,56,5521,1,8,0:2:0:0:
284,160,5708,2,0,L|188:280,1,105,0|2,0:2|0:0,0:0:0:0:
416,324,6083,1,8,0:2:0:0:
320,240,6271,1,8,0:2:0:0:
472,244,6458,1,8,0:2:0:0:
480,136,6646,6,0,P|416:124|376:60,1,105
352,64,6927,1,0,0:0:0:0:
316,104,7021,2,0,P|276:148|196:152,1,105
196,116,7302,1,0,0:0:0:0:
164,160,7396,2,0,P|92:196|96:248,1,105
108,264,7677,37,0,0:0:0:0:
132,284,7771,1,0,0:0:0:0:
176,296,7864,1,0,0:0:0:0:
212,296,7958,1,0,0:0:0:0:
244,292,8052,1,0,0:0:0:0:
284,272,8146,21,4,0:0:0:0:
284,272,8521,53,0,0:0:0:0:
348,176,8708,1,0,0:0:0:0:
348,176,8802,1,0,0:0:0:0:
348,176,8896,2,0,P|384:108|364:52,1,105
224,104,9271,2,0,P|180:200|200:228,1,105
352,312,9646,2,0,P|396:240|384:144,2,157.5
384,68,10396,37,8,0:2:0:0:
264,280,10677,1,8,0:2:0:0:
96,100,10958,1,8,0:2:0:0:
220,64,11146,69,4,0:0:0:0:
220,64,11521,5,0,0:0:0:0:
88,208,11708,1,0,0:0:0:0:
88,208,11802,1,0,0:0:0:0:
88,208,11896,2,0,P|124:248|192:232,1,105
296,312,12271,2,0,P|336:272|332:200,1,105
224,68,12646,2,0,L|224:236,2,157.5
112,48,13396,69,0,0:0:0:0:
88,84,13489,1,0,0:0:0:0:
72,132,13583,1,0,0:0:0:0:
84,180,13677,1,0,0:0:0:0:
184,136,13771,1,0,0:0:0:0:
160,180,13864,1,0,0:0:0:0:
164,232,13958,1,0,0:0:0:0:
188,264,14052,1,0,0:0:0:0:
216,296,14146,54,0,P|300:284|352:248,1,105,8|0,0:2|0:0,0:0:0:0:
320,220,14427,1,0,0:0:0:0:
376,208,14521,2,0,P|404:164|384:88,1,105,8|0,0:2|0:0,0:0:0:0:
332,76,14802,1,0,0:0:0:0:
332,76,14896,1,2,0:1:0:0:
236,52,15083,5,0,0:2:0:0:
288,184,15271,1,8,0:2:0:0:
156,236,15458,1,0,0:2:0:0:
100,112,15646,1,8,0:2:0:0:
236,56,15833,54,0,L|276:20,2,52.5,0|0|8,0:0|0:0|0:2,0:0:0:0:
116,168,16208,2,0,B|60:236|60:236|72:272,1,105,0|2,0:0|0:1,0:0:0:0:
200,320,16583,1,0,0:0:0:0:
329,233,16771,1,8,0:2:0:0:
368,136,16958,2,8,L|320:256,1,105,8|8,0:2|0:2,0:2:0:0:
440,160,17333,6,0,L|472:84,2,52.5,0|0|8,0:0|0:0|0:2,0:0:0:0:
368,64,17708,1,0,0:0:0:0:
320,28,17802,1,0,0:0:0:0:
256,40,17896,1,2,0:1:0:0:
213,136,18083,2,0,L|257:36,1,105,0|8,0:0|0:2,0:0:0:0:
288,176,18458,2,0,L|232:312,1,105,0|8,0:0|0:2,0:0:0:0:
112,268,18833,1,0,0:0:0:0:
100,220,18927,1,0,0:0:0:0:
120,168,19021,1,8,0:2:0:0:
244,88,19208,2,0,L|200:192,1,105,0|8,0:0|0:2,0:0:0:0:
336,216,19677,5,8,0:2:0:0:
208,336,19958,1,0,0:0:0:0:
72,240,20146,1,8,0:2:0:0:
372,200,20427,5,8,0:2:0:0:
160,244,20708,1,0,0:0:0:0:
260,224,20896,1,8,0:2:0:0:
392,208,21177,5,8,0:2:0:0:
160,256,21458,1,0,0:0:0:0:
312,312,21646,1,8,0:2:0:0:
144,68,21927,6,8,P|64:104|52:200,1,157.5,8|8,0:2|0:2,0:2:0:0:
236,320,22396,2,8,P|320:280|324:200,1,157.5,8|8,0:2|0:2,0:2:0:0:
324,60,22958,1,4,0:0:0:0:
324,60,23559,54,0,L|328:240,1,157.500006008148,12|8,0:0|0:0,0:0:0:0:
428,256,24121,1,0,0:0:0:0:
400,292,24215,1,0,0:0:0:0:
372,316,24309,2,0,P|312:316|276:288,1,78.7500030040742,8|8,0:0|0:0,0:0:0:0:
408,200,24684,2,8,P|292:168|260:192,1,157.500006008148
188,288,25246,1,8,0:0:0:0:
148,320,25340,1,0,0:0:0:0:
104,296,25434,1,8,0:0:0:0:
36,188,25621,1,8,0:0:0:0:
160,152,25809,2,8,L|248:44,2,118.125004506111
160,152,26559,6,0,P|160:204|200:224,1,78.7500030040742,4|8,0:0|0:0,0:0:0:0:
216,236,26840,1,0,0:0:0:0:
264,216,26934,1,8,0:0:0:0:
388,88,27121,1,8,0:0:0:0:
492,192,27309,2,0,L|412:264,1,78.7500030040742,8|8,0:0|0:0,0:0:0:0:
372,264,27590,1,8,0:0:0:0:
360,208,27684,2,0,P|372:160|384:120,1,78.7500030040742,8|0,0:0|0:0,0:0:0:0:
344,36,28059,1,8,0:0:0:0:
212,104,28246,1,8,0:0:0:0:
248,136,28340,1,0,0:0:0:0:
228,188,28434,1,8,0:0:0:0:
348,184,28621,6,0,L|412:272,2,78.7500030040742,0|8|0,0:0|0:0|0:0,0:0:0:0:
264,272,29184,1,8,0:0:0:0:
184,180,29371,1,8,0:0:0:0:
152,224,29465,1,0,0:0:0:0:
104,208,29559,1,12,0:0:0:0:
364,60,29934,6,0,L|284:48,1,78.7500030040742,8|0,0:0|0:0,0:0:0:0:
148,104,30309,2,0,L|248:128,1,78.7500030040742,8|0,0:0|0:0,0:0:0:0:
264,132,30590,1,0,0:0:0:0:
296,136,30684,1,8,0:0:0:0:
400,68,30871,1,8,0:0:0:0:
400,68,31059,2,0,L|392:180,1,78.7500030040742,8|0,0:0|0:0,0:0:0:0:
440,264,31434,5,8,0:0:0:0:
324,312,31621,1,0,0:0:0:0:
304,192,31809,2,8,L|264:56,1,118.125004506111
270,78,32371,1,8,0:0:0:0:
144,84,32559,5,8,0:0:0:0:
88,196,32746,2,8,L|164:276,1,78.7500030040742
300,308,33121,2,8,P|296:244|268:220,1,78.7500030040742
172,120,33496,1,8,0:0:0:0:
172,120,33590,1,8,0:0:0:0:
172,120,33684,6,0,P|200:180|228:188,1,78.7500030040742,8|8,0:0|0:0,0:0:0:0:
336,52,34059,1,8,0:0:0:0:
376,268,34246,1,0,0:0:0:0:
224,304,34434,1,8,0:0:0:0:
396,116,34621,1,0,0:0:0:0:
200,176,34809,1,8,0:0:0:0:
120,128,34996,5,0,1:0:0:0:
136,80,35090,1,0,1:0:0:0:
176,56,35184,1,0,1:0:0:0:
224,44,35277,1,0,1:0:0:0:
440,112,35559,54,0,P|408:60|296:56,1,157.500006008148,4|8,0:0|0:0,0:0:0:0:
144,144,36309,1,8,0:0:0:0:
128,100,36590,1,8,0:0:0:0:
112,64,36871,1,8,0:0:0:0:
224,144,37059,5,8,0:0:0:0:
360,64,37434,1,8,0:0:0:0:
96,220,37809,2,0,P|136:268|184:288,1,78.7500030040742,8|8,0:0|0:0,0:0:0:0:
180,284,38090,1,0,0:0:0:0:
208,280,38184,1,8,0:0:0:0:
280,160,38371,1,0,0:0:0:0:
384,248,38559,1,8,0:0:0:0:
384,248,38934,5,8,0:0:0:0:
428,160,39309,2,0,P|392:96|360:88,1,78.7500030040742,8|0,0:0|0:0,0:0:0:0:
348,72,39590,1,8,0:0:0:0:
304,52,39684,1,8,0:0:0:0:
304,152,39871,1,0,0:0:0:0:
304,152,40059,2,8,L|136:232,1,157.500006008148
92,96,40621,5,0,0:0:0:0:
212,32,40809,1,8,0:0:0:0:
324,92,40996,1,0,1:0:0:0:
348,136,41090,1,0,1:0:0:0:
348,192,41184,1,0,1:0:0:0:
316,232,41277,1,0,1:0:0:0:
208,44,41559,6,0,P|132:72|128:160,1,157.500006008148,4|8,0:0|0:0,0:0:0:0:
416,236,42309,1,8,0:0:0:0:
416,192,42590,1,8,0:0:0:0:
416,152,42871,1,8,0:0:0:0:
300,76,43059,5,8,0:0:0:0:
96,72,43434,1,8,0:0:0:0:
352,200,43809,2,8,P|316:256|280:264,1,78.7500030040742
264,276,44090,1,0,0:0:0:0:
212,280,44184,1,8,0:0:0:0:
184,180,44371,1,0,0:0:0:0:
88,236,44559,5,8,0:0:0:0:
88,236,44934,1,8,0:0:0:0:
76,104,45309,2,8,P|128:48|164:40,1,78.7500030040742,8|0,0:0|0:0,0:0:0:0:
176,40,45590,1,8,0:0:0:0:
228,44,45684,1,8,0:0:0:0:
324,120,45871,5,8,0:0:0:0:
256,192,46059,12,4,48309,0:0:0:0:
256,184,48684,5,0,0:0:0:0:
104,72,49059,38,8,P|76:160|96:200,1,105,12|8,0:2|0:2,0:2:0:0:
92,220,49340,1,8,0:2:0:0:
136,260,49434,1,8,0:2:0:0:
228,64,49621,2,8,P|296:120|304:164,1,105,8|2,1:2|1:1,1:2:0:0:
352,296,49996,2,8,P|284:268|264:196,1,105,8|8,1:2|1:2,1:2:0:0:
368,188,50371,2,8,P|428:184|484:148,1,105,8|8,0:2|0:2,0:2:0:0:
372,64,50746,1,8,0:2:0:0:
372,64,50840,1,8,0:2:0:0:
372,64,50934,2,8,P|296:52|232:68,1,105,8|8,0:2|0:2,0:2:0:0:
272,156,51309,1,2,0:0:0:0:
144,124,51496,1,8,0:2:0:0:
256,280,51684,1,8,0:2:0:0:
84,232,51871,1,8,0:2:0:0:
116,56,52059,54,8,P|140:112|220:132,1,105,8|8,0:2|0:2,0:2:0:0:
176,132,52340,1,8,0:2:0:0:
176,132,52434,1,8,0:2:0:0:
360,272,52621,2,8,P|324:208|264:176,1,105,8|2,0:2|0:1,0:2:0:0:
104,276,52996,2,8,P|176:244|200:204,1,105,8|8,0:2|0:2,0:2:0:0:
300,120,53371,1,8,0:2:0:0:
432,308,53559,70,8,P|376:280|360:224,1,105,8|8,0:2|0:2,0:2:0:0:
344,216,53840,1,8,0:2:0:0:
352,176,53934,1,8,0:2:0:0:
392,48,54121,2,8,P|348:80|280:72,1,105,8|2,0:2|0:1,0:2:0:0:
116,64,54496,1,8,0:2:0:0:
228,164,54684,1,8,0:2:0:0:
112,216,54871,1,8,0:2:0:0:
324,304,55059,70,8,P|372:248|364:184,1,105,8|8,0:2|0:2,0:2:0:0:
392,176,55340,1,8,0:2:0:0:
384,132,55434,1,8,0:2:0:0:
196,120,55621,2,0,P|244:76|296:72,1,105,8|2,0:2|0:0,0:0:0:0:
404,52,55996,1,8,0:2:0:0:
376,168,56184,2,8,P|332:224|264:228,1,105,8|8,0:2|0:2,0:2:0:0:
112,312,56559,6,8,L|104:176,1,105,8|8,0:2|0:2,0:2:0:0:
104,168,56840,1,8,0:2:0:0:
104,124,56934,1,8,0:2:0:0:
396,56,57121,2,0,P|392:132|340:180,1,105,8|2,0:2|0:0,0:0:0:0:
384,304,57496,1,8,0:2:0:0:
236,220,57684,1,8,0:2:0:0:
377,154,57871,1,8,0:2:0:0:
100,56,58059,22,8,P|136:132|176:136,1,105,8|8,0:2|0:2,0:2:0:0:
188,96,58340,1,8,0:2:0:0:
232,128,58434,1,8,0:2:0:0:
440,296,58621,2,0,P|384:260|368:208,1,105,8|2,0:2|0:0,0:0:0:0:
188,264,58996,1,8,0:2:0:0:
132,104,59184,1,8,0:2:0:0:
320,48,59371,1,8,0:2:0:0:
388,88,59559,38,8,P|392:152|376:192,1,105,8|8,0:2|0:2,0:2:0:0:
336,200,59840,1,8,0:2:0:0:
296,208,59934,2,8,P|288:276|320:332,1,105,8|8,0:2|0:2,0:2:0:0:
352,332,60215,1,8,0:2:0:0:
396,304,60309,2,8,P|408:236|380:184,1,105,8|8,0:2|0:2,0:2:0:0:
368,160,60590,1,0,0:0:0:0:
320,144,60684,1,0,0:0:0:0:
272,160,60777,1,0,0:0:0:0:
232,168,60871,1,0,0:0:0:0:
192,144,60965,1,0,0:0:0:0:
180,96,61059,6,0,P|128:48|70:57,1,105,4|0,0:0|0:0,0:0:0:0:
48,64,61340,1,8,0:2:0:0:
32,116,61434,1,8,0:2:0:0:
152,240,61621,2,0,L|256:144,1,105,8|2,0:2|0:0,0:0:0:0:
404,128,61996,2,8,L|300:236,1,105,8|8,0:2|0:2,0:2:0:0:
232,280,62371,1,8,0:2:0:0:
60,128,62559,70,8,L|156:220,1,105,8|8,0:2|0:2,0:2:0:0:
172,228,62840,1,8,0:2:0:0:
212,264,62934,1,8,0:2:0:0:
444,284,63121,2,0,P|380:252|360:176,1,105,8|2,0:2|0:0,0:0:0:0:
180,68,63496,2,8,P|256:136|300:132,1,105,8|8,0:2|0:2,0:2:0:0:
376,96,63871,1,8,0:2:0:0:
112,272,64059,6,8,P|188:260|232:224,1,105,8|8,0:2|0:2,0:2:0:0:
244,216,64340,1,8,0:2:0:0:
272,184,64434,1,8,0:2:0:0:
124,136,64621,1,8,0:2:0:0:
212,44,64809,2,0,P|264:68|328:56,1,105,2|8,0:0|0:2,0:0:0:0:
416,156,65184,1,8,0:2:0:0:
440,312,65371,1,8,0:2:0:0:
384,292,65465,1,0,0:0:0:0:
336,272,65559,1,8,0:2:0:0:
108,256,65746,6,8,P|164:220|200:172,1,105,8|8,0:2|0:2,0:2:0:0:
356,60,66121,2,8,P|304:120|272:132,1,105,8|2,0:2|0:1,0:2:0:0:
84,152,66496,1,8,0:2:0:0:
232,60,66684,1,8,0:2:0:0:
212,196,66871,1,8,0:2:0:0:
428,116,67059,6,8,P|348:152|308:144,1,105,8|8,0:2|0:2,0:2:0:0:
300,112,67340,1,8,0:2:0:0:
252,136,67434,1,8,0:2:0:0:
392,296,67621,2,0,L|288:200,1,105,8|2,0:2|0:0,0:0:0:0:
240,140,67996,1,8,0:2:0:0:
168,56,68184,2,8,P|136:136|220:228,1,210,8|8,0:2|0:2,0:2:0:0:
360,108,68746,1,8,0:2:0:0:
368,116,68840,1,8,0:2:0:0:
368,116,68934,2,8,P|428:188|420:216,1,105,8|8,0:2|0:2,0:2:0:0:
336,252,69309,2,8,L|220:304,1,105,2|8,0:1|0:2,0:2:0:0:
140,248,69684,1,8,0:2:0:0:
140,248,69871,1,8,0:2:0:0:
104,140,70059,6,8,L|212:100,1,105,8|8,0:2|0:2,0:2:0:0:
244,88,70340,1,8,0:2:0:0:
284,72,70434,1,8,0:2:0:0:
352,248,70621,2,8,P|332:180|360:116,1,105,8|2,0:2|0:1,0:2:0:0:
144,52,70996,2,8,P|180:112|168:184,1,105,8|8,0:2|0:2,0:2:0:0:
364,196,71371,1,8,0:2:0:0:
232,308,71559,5,8,0:2:0:0:
92,240,71746,1,8,0:2:0:0:
92,240,71840,1,8,0:2:0:0:
92,240,71934,1,8,0:2:0:0:
184,80,72121,1,8,0:2:0:0:
348,184,72309,1,8,0:2:0:0:
376,92,72496,2,8,P|324:108|228:104,1,105,8|8,0:2|0:2,0:2:0:0:
184,80,72871,1,8,0:2:0:0:
296,320,73059,6,0,P|320:256|296:200,1,105,4|8,0:0|0:2,0:0:0:0:
288,180,73340,1,8,0:2:0:0:
296,132,73434,1,8,0:2:0:0:
40,128,73621,2,0,P|112:104|136:52,1,105,8|2,0:2|0:0,0:0:0:0:
260,32,73996,1,8,0:2:0:0:
312,176,74184,1,8,0:2:0:0:
244,312,74371,1,8,0:2:0:0:
240,108,74559,38,0,L|128:92,1,105,8|0,0:2|0:0,0:0:0:0:
144,100,74840,1,8,0:2:0:0:
144,100,74934,1,8,0:2:0:0:
372,56,75121,2,0,L|296:156,1,105,8|2,0:2|0:0,0:0:0:0:
128,304,75496,2,8,L|224:216,1,105,8|8,0:2|0:2,0:2:0:0:
224,148,75871,2,8,L|344:232,1,105,8|8,0:2|0:2,0:2:0:0:
392,112,76246,1,8,0:2:0:0:
360,96,76340,1,8,0:2:0:0:
324,80,76434,6,8,P|236:56|180:56,1,105,8|8,0:2|0:2,0:2:0:0:
88,136,76809,2,8,P|168:160|224:152,1,105,8|8,0:2|0:2,0:2:0:0:
376,224,77184,2,8,P|276:280|204:220,1,210,12|8,0:2|0:2,0:2:0:0:
272,148,77746,1,8,0:2:0:0:
80,64,77934,2,8,P|164:88|208:68,1,105,8|8,0:2|0:2,0:2:0:0:
396,224,78309,2,8,B|352:148|352:148|312:168,1,105,8|8,0:2|0:2,0:2:0:0:
308,188,78590,1,8,0:2:0:0:
280,232,78684,2,8,P|272:292|228:316,1,105,8|8,0:2|0:2,0:2:0:0:
140,132,79059,2,8,P|208:68|296:148,1,210,12|8,0:2|0:2,0:2:0:0:
224,176,79621,21,8,0:2:0:0:
336,56,79809,2,8,P|376:112|428:124,1,105,8|8,0:2|0:2,0:2:0:0:
368,212,80184,2,8,P|368:272|248:268,1,210,12|8,0:2|0:2,0:2:0:0:
308,160,80746,1,8,0:2:0:0:
260,180,80840,1,8,0:2:0:0:
208,204,80934,1,8,0:2:0:0:
216,84,81121,1,8,0:2:0:0:
32,148,81309,2,8,P|100:136|128:96,1,105,8|8,0:2|0:2,0:2:0:0:
220,64,81684,2,0,P|292:72|356:28,1,105,2|8,0:0|0:2,0:0:0:0:
208,172,82059,5,12,0:2:0:0:
340,196,82246,1,8,0:2:0:0:
340,196,82339,1,8,0:2:0:0:
340,196,82433,1,8,0:2:0:0:
240,264,82621,2,8,L|104:264,1,105,8|8,0:2|0:2,0:2:0:0:
72,152,82996,2,8,L|208:152,1,105,8|8,0:2|0:2,0:2:0:0:
336,64,83371,70,8,P|312:128|344:176,1,105,8|12,0:2|0:2,0:2:0:0:
376,280,83746,1,8,0:2:0:0:
376,280,83840,1,8,0:2:0:0:
376,280,83934,1,12,0:2:0:0:
200,248,84121,1,8,0:2:0:0:
176,220,84215,1,8,0:2:0:0:
160,192,84309,2,8,P|132:136|136:80,1,105,12|8,0:2|0:2,0:2:0:0:
252,44,84684,1,12,0:2:0:0:
384,160,84871,1,8,0:2:0:0:
256,280,85059,53,4,0:0:0:0:
256,192,85246,12,0,86184,0:0:0:0:
160,128,86277,22,0,L|232:116,1,52.5
320,184,86535,1,8,0:0:0:0:
