osu file format v14

[General]
AudioFilename: DOES - Guren.mp3
AudioLeadIn: 2000
PreviewTime: 43308
Countdown: 0
SampleSet: Soft
StackLeniency: 0.7
Mode: 0
LetterboxInBreaks: 1
WidescreenStoryboard: 1

[Editor]
DistanceSpacing: 0.8
BeatDivisor: 2
GridSize: 4
TimelineZoom: 1.7

[Metadata]
Title:Guren
TitleUnicode:紅蓮
Artist:DOES
ArtistUnicode:DOES
Creator:Kagetsu
Version:Normal
Source:NARUTO-ナルト-疾風伝
Tags:Ki/oon Records Wataru Ujihara Yasushi Akatsuka Kēsaku Morita shippuden opening 15 tv size
BeatmapID:918524
BeatmapSetID:424295

[Difficulty]
HPDrainRate:4
CircleSize:3.5
OverallDifficulty:4
ApproachRate:5.5
SliderMultiplier:1.2
SliderTickRate:1

[Events]
//Background and Video events
Video,0,"BG.avi"
0,0,"644129.jpg",0,0
//Break Periods
//Storyboard Layer 0 (Background)
//Storyboard Layer 1 (Fail)
//Storyboard Layer 2 (Pass)
//Storyboard Layer 3 (Foreground)
//Storyboard Sound Samples

[TimingPoints]
781,326.086956521739,4,2,1,60,1,0
3389,321.199143468951,4,2,1,60,1,0
11097,315.789473684211,4,2,1,60,1,0
38886,312.174817898023,4,2,1,60,1,0
41383,320.855614973262,4,2,1,60,1,0
43949,-100,4,2,1,80,0,1
63522,-100,4,2,1,80,0,0
64484,-100,4,2,1,80,0,1
84056,-100,4,2,1,80,0,0
85661,-100,4,2,1,60,0,0
86302,-100,4,2,1,40,0,0
86944,-100,4,2,1,20,0,0
87586,-100,4,2,1,10,0,0
88869,-100,4,2,1,5,0,0

[Colours]
Combo1 : 187,0,187
Combo2 : 51,51,255
Combo3 : 255,138,21
Combo4 : 242,24,57

[HitObjects]
93,22,781,6,0,L|101:97,1,60,8|8,0:1|0:1,0:0:0:0:
194,69,1270,2,0,L|186:144,1,60,8|8,0:1|0:1,0:0:0:0:
104,177,1759,2,0,L|112:252,1,60,8|8,0:1|0:1,0:0:0:0:
205,224,2248,2,0,L|197:299,1,60,8|8,0:1|0:1,0:0:0:0:
118,335,2737,1,4,0:0:0:0:
312,339,3389,6,0,B|352:293|352:293|372:225,1,120,12|8,0:3|0:0,0:0:0:0:
333,203,3870,2,0,L|474:223,1,120,0|8,0:0|0:3,0:0:0:0:
494,197,4352,1,8,0:0:0:0:
456,108,4673,6,0,B|395:117|395:117|331:107,1,120,8|8,0:3|0:0,0:0:0:0:
303,74,5155,2,0,L|177:78,1,120,0|8,0:0|0:3,0:0:0:0:
136,66,5637,1,8,0:0:0:0:
93,151,5958,6,0,B|98:217|98:217|86:297,1,120,8|8,0:3|0:0,0:0:0:0:
70,314,6440,2,0,P|111:303|194:344,1,120,0|8,0:0|0:3,0:0:0:0:
225,348,6922,1,8,0:0:0:0:
248,254,7243,6,0,L|257:132,1,120,8|8,0:3|0:0,0:0:0:0:
239,89,7725,2,0,B|300:106|300:106|369:100,1,120,0|8,0:0|0:0,0:0:0:0:
401,85,8206,1,8,0:0:0:0:
482,136,8528,5,4,0:3:0:0:
464,230,8849,1,2,0:0:0:0:
377,188,9170,1,2,0:0:0:0:
372,283,9491,1,2,0:0:0:0:
283,244,9812,1,2,0:0:0:0:
280,340,10134,1,2,0:0:0:0:
195,294,10455,6,0,L|139:197,1,60,8|8,0:0|0:0,0:0:0:0:
77,124,11097,6,0,B|136:123|136:123|221:94,1,120,12|8,0:3|0:0,0:0:0:0:
280,62,11728,2,0,L|277:147,1,60,0|0,0:0|0:0,0:0:0:0:
276,170,12044,1,8,0:0:0:0:
216,245,12360,6,0,B|137:239|137:239|96:247,2,120,8|8|8,0:3|0:0|0:3,0:0:0:0:
260,261,13149,1,8,0:3:0:0:
260,261,13307,1,8,0:0:0:0:
315,339,13623,6,0,P|381:315|464:362,1,120,8|8,0:3|0:0,0:0:0:0:
465,239,14254,2,0,L|458:151,1,60,8|8,0:3|0:3,0:0:0:0:
462,130,14570,1,8,0:0:0:0:
509,46,14886,2,0,P|448:31|388:70,1,120,8|8,0:3|0:0,0:0:0:0:
376,247,15833,1,8,0:0:0:0:
362,293,15991,1,8,0:0:0:0:
334,332,16149,6,0,B|256:323|256:323|176:333,1,120,12|8,0:3|0:0,0:0:0:0:
124,313,16781,2,0,L|129:236,1,60,0|0,0:0|0:0,0:0:0:0:
149,210,17097,1,8,0:0:0:0:
109,123,17412,6,0,B|105:58|105:58|124:-4,2,120,8|8|8,0:3|0:0|0:3,0:0:0:0:
156,130,18202,1,8,0:3:0:0:
156,130,18360,1,8,0:0:0:0:
215,54,18675,6,0,P|270:77|349:29,1,120,8|8,0:3|0:0,0:0:0:0:
312,154,19307,2,0,L|303:222,1,60,8|8,0:3|0:3,0:0:0:0:
292,260,19623,1,8,0:0:0:0:
282,355,19939,2,0,B|221:338|221:338|131:333,1,120,8|8,0:3|0:0,0:0:0:0:
74,330,20570,2,0,P|45:335|15:335,2,60,8|8|8,0:0|0:0|0:0,0:0:0:0:
95,286,21044,1,8,0:0:0:0:
117,243,21202,6,0,P|137:182|129:98,1,120,12|8,0:3|0:0,0:0:0:0:
70,56,21833,2,0,P|131:76|215:68,1,120,8|8,0:3|0:0,0:0:0:0:
234,72,22307,1,8,0:3:0:0:
234,72,22465,2,0,L|243:201,1,120,0|8,0:0|0:0,0:0:0:0:
194,275,23097,2,0,L|322:257,1,120,8|8,0:3|0:0,0:0:0:0:
400,298,23728,6,0,B|395:239|395:239|369:160,2,120,8|8|8,0:3|0:0|0:3,0:0:0:0:
379,341,24518,1,8,0:3:0:0:
379,341,24675,1,8,0:0:0:0:
282,336,24991,2,0,B|202:327|202:327|128:330,1,120,0|8,0:0|0:0,0:0:0:0:
66,329,25623,1,8,0:3:0:0:
41,236,25939,1,8,0:0:0:0:
102,162,26254,6,0,B|161:173|161:173|239:173,1,120,12|8,0:3|0:0,0:0:0:0:
301,119,26886,2,0,P|281:177|308:276,1,120,8|8,0:3|0:0,0:0:0:0:
300,280,27360,1,8,0:3:0:0:
300,280,27518,2,0,B|361:277|361:277|435:294,1,120,0|8,0:0|0:0,0:0:0:0:
489,353,28149,2,0,P|473:297|481:212,1,120,8|8,0:3|0:0,0:0:0:0:
479,139,28781,6,0,B|490:62|490:62|470:-8,2,120,8|8|8,0:3|0:0|0:3,0:0:0:0:
433,154,29570,1,8,0:3:0:0:
433,154,29728,1,8,0:0:0:0:
338,135,30044,2,0,P|284:128|208:128,1,120,0|8,0:0|0:0,0:0:0:0:
122,127,30675,1,8,0:0:0:0:
164,212,30991,1,8,0:0:0:0:
186,254,31149,1,8,0:0:0:0:
206,297,31307,6,0,B|266:282|266:282|324:286,1,120,12|8,0:3|0:0,0:0:0:0:
393,354,31939,2,0,P|417:298|374:202,1,120,8|8,0:3|0:0,0:0:0:0:
365,217,32412,1,8,0:3:0:0:
365,217,32570,2,0,B|363:138|363:138|376:83,1,120,0|8,0:0|0:0,0:0:0:0:
451,43,33202,2,0,L|312:44,1,120,8|8,0:3|0:0,0:0:0:0:
241,79,33833,6,0,B|175:75|175:75|116:48,2,120,8|8|8,0:3|0:0|0:3,0:0:0:0:
260,122,34623,1,8,0:3:0:0:
260,122,34781,1,8,0:0:0:0:
235,215,35097,2,0,B|170:208|170:208|117:222,1,120,0|8,0:0|0:0,0:0:0:0:
72,308,35728,1,8,0:3:0:0:
162,340,36044,1,8,0:0:0:0:
251,306,36360,6,0,L|421:317,1,120,12|8,0:3|0:0,0:0:0:0:
465,296,36991,2,0,L|473:206,1,60,8|8,0:3|0:3,0:0:0:0:
475,188,37307,1,8,0:0:0:0:
453,94,37623,2,0,B|380:93|380:93|308:72,1,120,0|8,0:0|0:0,0:0:0:0:
273,9,38254,2,0,L|231:92,1,60,8|8,0:3|0:3,0:0:0:0:
229,106,38570,1,8,0:0:0:0:
300,171,38886,6,0,P|345:182|385:197,2,60,12|8|8,0:3|0:3|0:0,0:0:0:0:
206,194,39510,2,0,P|160:182|120:167,2,60,8|8|8,0:3|0:3|0:0,0:0:0:0:
275,259,40134,2,0,P|320:270|360:285,2,60,8|8|8,0:3|0:3|0:0,0:0:0:0:
182,284,40759,2,0,P|136:272|96:257,2,60,8|8|8,0:3|0:3|0:0,0:0:0:0:
251,349,41383,6,0,L|323:360,1,60,12|8,0:3|0:3,0:0:0:0:
357,346,41703,1,8,0:0:0:0:
444,307,42024,1,8,0:0:0:0:
368,249,42345,1,8,0:0:0:0:
456,212,42666,1,8,0:0:0:0:
461,116,42987,1,8,0:0:0:0:
182,59,43949,6,0,B|174:121|174:121|177:203,1,120,12|8,0:3|0:0,0:0:0:0:
216,203,44431,2,0,L|382:209,1,120,0|0,0:0|0:0,0:0:0:0:
375,234,44912,1,8,0:0:0:0:
467,222,45233,2,0,L|454:343,1,120,8|8,0:3|0:0,0:0:0:0:
359,322,45874,2,0,B|284:318|284:318|210:326,1,120,8|8,0:3|0:0,0:0:0:0:
134,336,46516,6,0,B|125:279|125:279|127:216,1,120,8|8,0:3|0:0,0:0:0:0:
124,168,46997,2,0,B|183:171|183:171|264:155,1,120,0|0,0:0|0:0,0:0:0:0:
276,124,47479,1,8,0:0:0:0:
354,68,47800,2,0,L|354:188,1,120,8|8,0:3|0:0,0:0:0:0:
296,264,48441,2,0,P|356:286|436:228,1,120,8|8,0:3|0:0,0:0:0:0:
473,199,49083,6,0,B|480:141|480:141|479:79,1,120,12|8,0:3|0:0,0:0:0:0:
396,128,49725,2,0,P|337:136|288:102,1,120,8|8,0:3|0:0,0:0:0:0:
299,57,50206,2,0,L|171:43,1,120,0|0,0:3|0:0,0:0:0:0:
132,36,50687,1,8,0:0:0:0:
37,52,51008,2,0,L|37:204,1,120,8|8,0:3|0:0,0:0:0:0:
62,263,51650,6,0,P|119:244|208:281,1,120,8|8,0:3|0:0,0:0:0:0:
200,297,52131,2,0,B|258:305|258:305|340:296,1,120,0|0,0:0|0:0,0:0:0:0:
364,282,52612,1,8,0:0:0:0:
447,234,52933,2,0,L|453:114,1,120,8|8,0:3|0:0,0:0:0:0:
413,26,53575,2,0,L|508:20,2,60,8|8|0,0:3|0:0|0:0,0:0:0:0:
368,43,54056,1,8,0:0:0:0:
326,66,54217,6,0,B|317:122|317:122|319:185,1,120,12|8,0:3|0:0,0:0:0:0:
329,232,54698,2,0,B|269:244|269:244|210:240,1,120
169,215,55179,1,8,0:0:0:0:
73,205,55500,2,0,L|73:325,1,120,8|8,0:3|0:0,0:0:0:0:
159,367,56142,2,0,B|222:357|222:357|296:359,1,120,8|8,0:3|0:0,0:0:0:0:
374,357,56784,6,0,P|435:372|509:306,1,120,8|8,0:3|0:0,0:0:0:0:
443,261,57425,2,0,P|477:257|511:257,2,60,8|0|8,0:3|0:0|0:0,0:0:0:0:
354,222,58067,2,0,P|289:217|219:214,1,120,8|8,0:3|0:0,0:0:0:0:
151,263,58709,2,0,P|140:198|201:124,1,120,8|8,0:3|0:0,0:0:0:0:
241,94,59350,6,0,B|309:94|309:94|373:79,1,120,12|8,0:3|0:0,0:0:0:0:
433,20,59992,2,0,L|453:169,1,120,8|8,0:3|0:0,0:0:0:0:
452,235,60634,2,0,B|384:235|384:235|320:250,1,120,8|8,0:3|0:0,0:0:0:0:
282,328,61276,1,8,0:3:0:0:
233,245,61596,1,8,0:0:0:0:
189,330,61917,6,0,L|68:350,2,120,12|8|8,0:3|0:0|0:3,0:0:0:0:
282,328,62880,1,8,0:0:0:0:
342,250,63201,1,8,0:0:0:0:
437,243,63522,1,8,0:0:0:0:
194,88,64484,6,0,B|132:80|132:80|50:83,1,120,12|8,0:3|0:0,0:0:0:0:
28,69,64965,2,0,L|38:198,1,120,0|0,0:0|0:0,0:0:0:0:
48,235,65447,1,8,0:0:0:0:
143,236,65768,2,0,L|277:222,1,120,8|8,0:3|0:0,0:0:0:0:
352,190,66409,2,0,B|358:252|358:252|349:314,1,120,8|8,0:3|0:0,0:0:0:0:
279,374,67051,6,0,L|447:365,1,120,8|8,0:3|0:0,0:0:0:0:
442,346,67532,2,0,B|463:280|463:280|466:220,1,120
476,182,68014,1,8,0:0:0:0:
429,98,68334,2,0,B|364:99|364:99|295:84,1,120,8|8,0:3|0:0,0:0:0:0:
234,27,68976,2,0,P|216:93|245:158,1,120,8|8,0:3|0:0,0:0:0:0:
292,215,69618,6,0,P|229:234|147:184,1,120,12|8,0:3|0:0,0:0:0:0:
133,202,70099,2,0,B|138:328,1,120
140,370,70580,1,8,0:0:0:0:
233,350,70901,2,0,L|383:336,1,120,8|8,0:3|0:0,0:0:0:0:
445,362,71543,2,0,L|431:212,1,120,8|8,0:3|0:0,0:0:0:0:
443,147,72185,6,0,B|387:136|387:136|324:135,1,120,8|8,0:3|0:0,0:0:0:0:
306,180,72666,2,0,B|242:179|242:179|187:168,1,120,0|0,0:0|0:0,0:0:0:0:
141,154,73147,1,8,0:0:0:0:
165,61,73468,2,0,L|297:62,1,120,8|8,0:3|0:0,0:0:0:0:
381,56,74110,2,0,L|457:15,2,60,8|8|0,0:0|0:0|0:0,0:0:0:0:
364,101,74591,1,8,0:0:0:0:
356,148,74751,6,0,B|347:204|347:204|348:268,1,120,12|8,0:3|0:0,0:0:0:0:
366,312,75233,2,0,B|306:324|306:324|247:320,1,120
201,334,75714,1,8,0:0:0:0:
118,284,76035,2,0,L|-20:279,1,120,8|8,0:3|0:0,0:0:0:0:
45,195,76677,2,0,B|43:131|43:131|56:58,1,120,8|8,0:3|0:0,0:0:0:0:
148,91,77318,6,0,B|221:76|221:76|268:77,1,120,8|8,0:3|0:0,0:0:0:0:
361,92,77960,2,0,P|361:57|365:24,2,60,8|0|8,0:3|0:0|0:0,0:0:0:0:
387,184,78602,2,0,P|392:249|393:321,1,120,8|8,0:3|0:0,0:0:0:0:
301,322,79243,2,0,P|241:296|154:335,1,120,8|8,0:3|0:0,0:0:0:0:
105,353,79885,6,0,B|131:290|131:290|142:225,1,120,12|8,0:3|0:0,0:0:0:0:
82,161,80527,2,0,L|211:150,1,120,8|8,0:3|0:0,0:0:0:0:
197,54,81169,2,0,L|326:43,1,120,8|8,0:3|0:0,0:0:0:0:
388,108,81810,1,8,0:3:0:0:
317,172,82131,1,8,0:0:0:0:
386,238,82452,6,0,L|507:258,2,120,12|8|8,0:3|0:0|0:3,0:0:0:0:
297,276,83415,1,8,0:0:0:0:
226,210,83735,1,8,0:0:0:0:
203,303,84056,1,8,0:0:0:0:
256,192,85019,12,0,88869,0:0:0:0:
