osu file format v14

[General]
AudioFilename: DOES - Guren.mp3
AudioLeadIn: 2000
PreviewTime: 43308
Countdown: 0
SampleSet: Soft
StackLeniency: 0.7
Mode: 0
LetterboxInBreaks: 1
WidescreenStoryboard: 1

[Editor]
DistanceSpacing: 1.1
BeatDivisor: 4
GridSize: 4
TimelineZoom: 1.7

[Metadata]
Title:Guren
TitleUnicode:紅蓮
Artist:DOES
ArtistUnicode:DOES
Creator:Kagetsu
Version:Kage
Source:NARUTO-ナルト-疾風伝
Tags:Ki/oon Records Wataru Ujihara Yasushi Akatsuka Kēsaku Morita shippuden opening 15 tv size
BeatmapID:916631
BeatmapSetID:424295

[Difficulty]
HPDrainRate:7
CircleSize:4
OverallDifficulty:8.5
ApproachRate:9.3
SliderMultiplier:1.8
SliderTickRate:1

[Events]
//Background and Video events
Video,0,"BG.avi"
0,0,"644129.jpg",0,0
//Break Periods
//Storyboard Layer 0 (Background)
//Storyboard Layer 1 (Fail)
//Storyboard Layer 2 (Pass)
//Storyboard Layer 3 (Foreground)
//Storyboard Sound Samples

[TimingPoints]
781,326.086956521739,4,2,1,60,1,0
3389,321.199143468951,4,2,1,60,1,0
11097,315.789473684211,4,2,1,60,1,0
38886,312.174817898023,4,2,1,60,1,0
41383,320.855614973262,4,2,1,60,1,0
43308,-200,4,2,1,60,0,0
43628,-100,4,2,1,60,0,0
43949,-100,4,2,1,80,0,1
63522,-133.333333333333,4,2,1,80,0,0
63842,-200,4,2,1,50,0,0
64484,-100,4,2,1,80,0,1
84056,-100,4,2,1,80,0,0
85661,-100,4,2,1,60,0,0
86302,-100,4,2,1,40,0,0
86944,-100,4,2,1,20,0,0
87586,-100,4,2,1,10,0,0
88869,-100,4,2,1,5,0,0

[Colours]
Combo1 : 187,0,187
Combo2 : 51,51,255
Combo3 : 255,138,21
Combo4 : 242,24,57

[HitObjects]
404,80,781,6,0,L|391:146,5,45,8|8|8|8|8|8,0:1|0:1|0:0|0:0|0:0|0:0,0:0:0:0:
292,58,1270,2,0,L|283:13,5,45,8|8|8|8|8|8,0:1|0:1|0:0|0:0|0:0|0:0,0:0:0:0:
185,70,1759,2,0,L|176:115,5,45,8|8|8|8|8|8,0:1|0:1|0:0|0:0|0:0|0:0,0:0:0:0:
90,149,2248,5,8,0:1:0:0:
95,184,2329,1,8,0:1:0:0:
100,220,2411,1,8,0:0:0:0:
105,255,2492,1,8,0:0:0:0:
111,291,2574,1,8,0:0:0:0:
116,327,2655,1,8,0:0:0:0:
121,362,2737,1,12,0:0:0:0:
121,362,3389,6,0,P|178:329|288:355,1,180,12|8,0:3|0:0,0:0:0:0:
386,318,3870,1,0,0:0:0:0:
330,236,4031,2,0,P|336:182|331:143,1,90,8|8,0:3|0:3,0:0:0:0:
164,30,4352,2,0,P|159:74|165:119,1,90,8|0,0:0|0:0,0:0:0:0:
242,231,4673,6,0,P|152:203|89:256,1,180,8|8,0:3|0:0,0:0:0:0:
174,295,5155,1,0,0:0:0:0:
324,310,5316,2,0,L|434:321,1,90,8|8,0:3|0:3,0:0:0:0:
488,188,5637,2,0,L|378:199,1,90,8|0,0:0|0:0,0:0:0:0:
304,32,5958,6,0,B|295:95|295:95|303:153|303:153|293:224,1,180,8|8,0:3|0:0,0:0:0:0:
267,303,6440,1,0,0:0:0:0:
123,202,6600,2,0,P|56:192|2:208,1,90,8|8,0:3|0:3,0:0:0:0:
176,324,6922,2,0,P|220:328|264:318,1,90,8|0,0:0|0:0,0:0:0:0:
385,124,7243,6,0,P|461:115|494:231,1,180,8|8,0:3|0:0,0:0:0:0:
435,261,7725,1,0,0:0:0:0:
376,130,7885,1,8,0:3:0:0:
361,330,8046,1,8,0:0:0:0:
361,330,8126,1,8,0:0:0:0:
361,330,8206,1,8,0:0:0:0:
289,205,8367,1,8,0:0:0:0:
289,205,8447,1,8,0:0:0:0:
289,205,8528,5,4,0:3:0:0:
182,285,8849,1,2,0:0:0:0:
189,293,9170,1,2,0:0:0:0:
196,302,9491,1,2,0:0:0:0:
203,311,9812,1,2,0:0:0:0:
210,320,10134,1,2,0:0:0:0:
215,327,10455,5,8,0:0:0:0:
315,77,10615,1,8,0:0:0:0:
146,357,11097,5,12,0:3:0:0:
47,279,11254,1,8,0:3:0:0:
239,247,11412,2,0,P|291:234|333:240,1,90,8|0,0:0|0:0,0:0:0:0:
463,330,11728,2,0,P|410:342|365:339,1,90
318,155,12044,1,8,0:0:0:0:
472,214,12202,1,0,0:0:0:0:
300,167,12360,6,0,L|199:162,1,90,8|8,0:3|0:3,0:0:0:0:
104,273,12675,1,8,0:0:0:0:
104,273,12833,1,0,0:0:0:0:
320,249,12991,2,0,P|367:246|433:253,1,90,8|8,0:3|0:3,0:0:0:0:
260,347,13307,2,0,P|213:350|147:343,1,90,8|0,0:0|0:0,0:0:0:0:
376,163,13623,5,8,0:3:0:0:
376,163,13781,1,0,0:0:0:0:
242,116,13939,2,0,L|128:108,1,90,8|0,0:0|0:0,0:0:0:0:
35,224,14254,2,0,L|149:216,1,90,8|8,0:3|0:3,0:0:0:0:
299,220,14570,1,8,0:0:0:0:
141,310,14728,1,0,0:0:0:0:
326,223,14886,6,0,P|392:218|438:219,1,90,8|8,0:3|0:3,0:0:0:0:
319,348,15202,2,0,P|274:347|229:343,1,90,8|0,0:0|0:0,0:0:0:0:
105,218,15518,2,0,P|99:266|95:326,1,90
71,113,15833,1,8,0:0:0:0:
218,273,15991,1,8,0:0:0:0:
218,273,16070,1,8,0:0:0:0:
218,273,16149,6,0,B|310:273,1,90,12|8,0:3|0:3,0:0:0:0:
476,147,16465,1,8,0:0:0:0:
314,182,16623,1,0,0:0:0:0:
393,315,16781,1,0,0:0:0:0:
323,171,16939,1,0,0:0:0:0:
488,174,17097,2,0,P|483:221|481:276,1,90,8|0,0:0|0:0,0:0:0:0:
328,161,17412,6,0,L|321:71,1,90,8|8,0:3|0:3,0:0:0:0:
242,233,17728,1,8,0:0:0:0:
244,239,17886,1,0,0:0:0:0:
340,352,18044,2,0,P|384:357|428:349,1,90,8|8,0:3|0:3,0:0:0:0:
246,244,18360,2,0,P|187:240|126:261,1,90,8|0,0:0|0:0,0:0:0:0:
60,384,18675,6,0,P|80:328|76:263,1,90,8|8,0:3|0:3,0:0:0:0:
73,93,18991,1,8,0:0:0:0:
17,207,19149,1,0,0:0:0:0:
195,44,19307,2,0,P|242:37|316:56,1,90,8|8,0:3|0:3,0:0:0:0:
280,212,19623,2,0,P|257:170|249:94,1,90,8|0,0:0|0:0,0:0:0:0:
411,80,19939,6,0,P|379:115|310:148,1,90,8|8,0:3|0:3,0:0:0:0:
121,140,20254,2,0,P|96:97|85:44,1,90,8|8,0:0|0:3,0:0:0:0:
48,317,20570,1,8,0:0:0:0:
219,253,20728,1,8,0:0:0:0:
254,246,20807,1,8,0:0:0:0:
289,247,20886,1,8,0:0:0:0:
324,255,20965,1,8,0:0:0:0:
357,270,21044,1,8,0:0:0:0:
385,291,21123,1,8,0:0:0:0:
410,319,21202,6,0,P|384:230|445:158,1,180,12|8,0:3|0:0,0:0:0:0:
477,250,21675,1,0,0:0:0:0:
313,155,21833,2,0,P|310:106|308:52,1,90,8|8,0:3|0:3,0:0:0:0:
193,210,22149,2,0,P|191:257|188:299,1,90,8|8,0:0|0:3,0:0:0:0:
101,267,22465,5,0,0:0:0:0:
268,382,22623,1,8,0:3:0:0:
84,246,22781,1,8,0:0:0:0:
156,355,22939,1,0,0:0:0:0:
106,145,23097,2,0,L|92:32,1,90,8|8,0:3|0:3,0:0:0:0:
228,158,23412,2,0,L|216:247,1,90,8|0,0:0|0:0,0:0:0:0:
319,33,23728,6,0,P|392:49|397:160,1,180,8|8,0:3|0:0,0:0:0:0:
309,234,24202,1,0,0:0:0:0:
182,198,24360,2,0,L|92:201,1,90,8|8,0:3|0:3,0:0:0:0:
267,317,24675,2,0,L|356:320,1,90,8|8,0:0|0:3,0:0:0:0:
294,207,24991,5,0,0:0:0:0:
203,106,25149,1,8,0:3:0:0:
178,275,25307,2,0,P|178:322|182:393,1,90,8|0,0:0|0:0,0:0:0:0:
80,230,25623,1,8,0:3:0:0:
205,82,25781,1,8,0:0:0:0:
88,250,25939,1,8,0:0:0:0:
72,103,26097,1,0,0:0:0:0:
276,134,26254,6,0,B|339:142|339:142|397:134|397:134|468:144,1,180,12|8,0:3|0:0,0:0:0:0:
425,326,26728,1,0,0:0:0:0:
465,138,26886,2,0,P|469:86|473:39,1,90,8|8,0:3|0:3,0:0:0:0:
270,135,27202,2,0,P|273:180|277:224,1,90,8|8,0:0|0:3,0:0:0:0:
126,220,27518,5,0,0:0:0:0:
279,329,27675,1,8,0:3:0:0:
105,233,27833,2,0,L|2:224,1,90,8|0,0:0|0:0,0:0:0:0:
152,384,28149,1,8,0:3:0:0:
152,384,28307,1,8,0:3:0:0:
226,196,28465,1,8,0:0:0:0:
43,326,28623,1,0,0:0:0:0:
249,184,28781,6,0,P|314:173|349:184,1,90,8|0,0:3|0:0,0:0:0:0:
409,328,29097,2,0,P|379:266|390:215,1,90,8|0,0:0|0:0,0:0:0:0:
479,79,29412,1,8,0:3:0:0:
479,79,29570,1,8,0:3:0:0:
253,119,29728,2,0,L|265:217,1,90,8|8,0:0|0:3,0:0:0:0:
361,70,30044,6,0,L|349:168,1,90,0|8,0:0|0:3,0:0:0:0:
280,349,30360,1,8,0:0:0:0:
221,148,30518,1,8,0:3:0:0:
141,275,30675,1,8,0:0:0:0:
340,172,30833,1,8,0:3:0:0:
127,302,30991,1,8,0:0:0:0:
332,273,31149,1,8,0:0:0:0:
332,273,31228,1,8,0:0:0:0:
332,273,31307,6,0,B|395:279|395:279|453:269|453:269|524:277,1,180,12|8,0:3|0:0,0:0:0:0:
465,358,31781,1,0,0:0:0:0:
454,180,31939,2,0,P|453:129|451:79,1,90,8|8,0:3|0:3,0:0:0:0:
292,158,32254,2,0,P|289:202|289:247,1,90,8|8,0:0|0:3,0:0:0:0:
129,294,32570,5,0,0:0:0:0:
272,360,32728,1,8,0:3:0:0:
109,302,32886,1,8,0:0:0:0:
219,258,33044,1,0,0:0:0:0:
80,193,33202,2,0,L|-13:200,1,90,8|8,0:3|0:3,0:0:0:0:
134,72,33518,2,0,L|223:78,1,90,8|0,0:0|0:0,0:0:0:0:
396,98,33833,6,0,P|380:211|389:299,1,180,8|8,0:3|0:0,0:0:0:0:
459,351,34307,1,0,0:0:0:0:
289,225,34465,2,0,P|218:220|166:241,1,90,8|8,0:3|0:3,0:0:0:0:
97,343,34781,2,0,P|167:347|219:326,1,90,8|8,0:0|0:3,0:0:0:0:
285,323,35097,5,0,0:0:0:0:
285,323,35254,1,8,0:3:0:0:
378,124,35412,2,0,L|388:248,1,90,8|0,0:0|0:0,0:0:0:0:
281,67,35728,2,0,L|271:191,1,90,8|8,0:3|0:3,0:0:0:0:
181,49,36044,1,8,0:0:0:0:
181,49,36202,1,0,0:0:0:0:
198,263,36360,6,0,P|240:234|367:278,1,180,12|8,0:3|0:0,0:0:0:0:
356,264,36833,1,0,0:0:0:0:
448,160,36991,2,0,L|446:285,1,90,8|8,0:3|0:3,0:0:0:0:
307,117,37307,2,0,L|305:27,1,90,8|8,0:0|0:3,0:0:0:0:
184,164,37623,5,0,0:0:0:0:
184,164,37781,1,8,0:3:0:0:
58,60,37939,2,0,P|56:113|62:169,1,90,8|0,0:0|0:0,0:0:0:0:
226,230,38254,2,0,P|228:185|227:140,1,90,8|8,0:3|0:3,0:0:0:0:
144,306,38570,1,8,0:0:0:0:
144,306,38728,1,0,0:0:0:0:
412,139,38886,6,0,P|410:187|406:249,1,90,12|8,0:3|0:3,0:0:0:0:
510,287,39198,1,8,0:0:0:0:
274,360,39354,1,0,0:0:0:0:
274,360,39432,1,0,0:0:0:0:
274,360,39510,1,8,0:3:0:0:
398,353,39666,1,8,0:3:0:0:
241,167,39822,2,0,P|242:217|246:272,1,90,8|0,0:0|0:0,0:0:0:0:
181,353,40134,5,8,0:3:0:0:
353,262,40290,1,8,0:3:0:0:
85,296,40446,1,8,0:0:0:0:
171,80,40602,1,0,0:0:0:0:
171,80,40681,1,0,0:0:0:0:
171,80,40759,1,8,0:3:0:0:
71,180,40915,1,8,0:3:0:0:
313,118,41071,2,0,L|310:212,1,90,8|0,0:0|0:0,0:0:0:0:
160,357,41383,6,0,L|157:267,1,90,12|8,0:3|0:3,0:0:0:0:
369,292,41703,1,8,0:0:0:0:
195,128,41864,1,0,0:0:0:0:
195,128,41944,1,0,0:0:0:0:
195,128,42024,1,8,0:0:0:0:
128,347,42185,1,8,0:3:0:0:
351,198,42345,1,8,0:0:0:0:
74,254,42505,1,8,0:3:0:0:
448,269,42666,5,8,0:0:0:0:
63,134,42987,1,8,0:0:0:0:
57,147,43308,6,0,L|65:243,1,90
328,56,43949,6,0,B|264:44|264:44|207:50|207:50|136:38,1,180,12|8,0:3|0:0,0:0:0:0:
45,210,44431,1,0,0:0:0:0:
199,171,44591,2,0,L|194:286,1,90,8|0,0:3|0:0,0:0:0:0:
298,113,44912,2,0,L|301:202,1,90,8|0,0:0|0:0,0:0:0:0:
297,366,45233,5,8,0:3:0:0:
297,366,45393,1,0,0:0:0:0:
385,206,45554,2,0,L|394:323,1,90,8|0,0:0|0:0,0:0:0:0:
496,193,45874,2,0,P|499:130|493:89,1,90,8|0,0:3|0:0,0:0:0:0:
286,29,46195,2,0,P|282:73|285:118,1,90,8|0,0:0|0:0,0:0:0:0:
354,273,46516,5,8,0:3:0:0:
354,273,46677,1,0,0:0:0:0:
149,150,46837,2,0,L|21:145,1,90,8|0,0:0|0:0,0:0:0:0:
101,292,47158,1,8,0:3:0:0:
161,165,47318,1,0,0:0:0:0:
254,291,47479,1,8,0:0:0:0:
90,309,47639,1,0,0:0:0:0:
263,177,47800,6,0,L|367:166,1,90,8|0,0:3|0:0,0:0:0:0:
314,42,48120,1,8,0:0:0:0:
422,204,48281,1,0,0:0:0:0:
191,53,48441,1,8,0:3:0:0:
446,72,48602,1,8,0:0:0:0:
189,30,48762,1,8,0:0:0:0:
217,243,48923,1,8,0:0:0:0:
217,243,49003,1,8,0:0:0:0:
217,243,49083,6,0,P|283:276|367:221,1,180,12|8,0:3|0:0,0:0:0:0:
372,363,49564,1,0,0:0:0:0:
177,338,49725,2,0,P|130:333|83:329,1,90,8|0,0:3|0:0,0:0:0:0:
280,377,50046,1,8,0:0:0:0:
280,377,50206,1,0,0:0:0:0:
263,209,50366,6,0,P|254:128|268:82,1,90,8|0,0:3|0:0,0:0:0:0:
450,193,50687,2,0,P|459:274|445:320,1,90,8|0,0:0|0:0,0:0:0:0:
182,311,51008,1,8,0:3:0:0:
380,246,51169,1,0,0:0:0:0:
186,164,51329,1,8,0:0:0:0:
352,232,51489,1,0,0:0:0:0:
168,324,51650,6,0,P|114:334|64:319,1,90,8|0,0:3|0:0,0:0:0:0:
201,174,51971,2,0,P|255:164|305:179,1,90,8|0,0:0|0:0,0:0:0:0:
428,205,52292,1,8,0:3:0:0:
428,205,52452,1,0,0:0:0:0:
356,34,52612,2,0,L|357:156,1,90,8|0,0:0|0:0,0:0:0:0:
348,287,52933,5,8,0:3:0:0:
348,287,53094,1,0,0:0:0:0:
152,227,53254,2,0,L|159:333,1,90,8|0,0:0|0:0,0:0:0:0:
43,238,53575,1,8,0:3:0:0:
258,270,53735,1,8,0:0:0:0:
258,270,53816,1,8,0:0:0:0:
258,270,53896,1,8,0:0:0:0:
118,54,54056,1,8,0:0:0:0:
118,54,54137,1,8,0:0:0:0:
118,54,54217,6,0,B|181:51|181:51|236:31|236:31|307:28,1,180,12|8,0:3|0:0,0:0:0:0:
399,87,54698,1,0,0:0:0:0:
398,201,54858,2,0,L|509:195,1,90,8|0,0:3|0:0,0:0:0:0:
333,286,55179,2,0,L|243:281,1,90,8|0,0:0|0:0,0:0:0:0:
101,184,55500,5,8,0:3:0:0:
101,184,55661,1,0,0:0:0:0:
199,48,55821,2,0,L|201:155,1,90,8|0,0:0|0:0,0:0:0:0:
303,95,56142,2,0,L|297:204,1,90,8|0,0:3|0:0,0:0:0:0:
231,336,56463,1,8,0:0:0:0:
231,336,56623,1,0,0:0:0:0:
411,252,56784,5,8,0:3:0:0:
202,218,56944,1,0,0:0:0:0:
326,347,57104,1,8,0:0:0:0:
100,316,57265,1,0,0:0:0:0:
340,325,57425,1,8,0:3:0:0:
86,345,57586,1,0,0:0:0:0:
186,104,57746,1,8,0:0:0:0:
349,300,57907,5,0,0:0:0:0:
47,255,58067,1,8,0:3:0:0:
271,102,58227,1,0,0:0:0:0:
164,354,58388,2,0,L|155:264,1,90,8|0,0:0|0:0,0:0:0:0:
271,102,58709,2,0,L|260:218,1,90,8|0,0:3|0:0,0:0:0:0:
320,284,59030,1,8,0:0:0:0:
461,174,59190,1,8,0:0:0:0:
461,174,59270,1,8,0:0:0:0:
461,174,59350,6,0,L|372:179,1,90,12|0,0:3|0:0,0:0:0:0:
430,323,59671,1,8,0:0:0:0:
430,323,59832,1,0,0:0:0:0:
232,262,59992,2,0,L|243:359,1,90,8|0,0:3|0:0,0:0:0:0:
339,272,60313,1,8,0:0:0:0:
339,272,60473,1,0,0:0:0:0:
163,161,60634,6,0,L|148:257,1,90,8|0,0:3|0:0,0:0:0:0:
272,176,60955,1,8,0:0:0:0:
272,176,61115,1,0,0:0:0:0:
264,40,61276,2,0,L|358:28,1,90,8|0,0:3|0:0,0:0:0:0:
465,167,61596,2,0,L|371:155,1,90,8|0,0:0|0:0,0:0:0:0:
171,262,61917,6,0,L|179:367,1,90,12|0,0:3|0:0,0:0:0:0:
79,245,62238,1,8,0:0:0:0:
79,245,62399,1,0,0:0:0:0:
374,256,62559,1,8,0:3:0:0:
132,152,62719,1,8,0:0:0:0:
326,86,62880,2,0,L|318:175,1,90,8|0,0:0|0:0,0:0:0:0:
315,368,63201,5,8,0:0:0:0:
266,35,63522,1,8,0:0:0:0:
257,44,63842,6,0,L|255:140,1,90
58,280,64484,6,0,B|120:293|120:293|178:289|178:289|249:304,1,180,12|8,0:3|0:0,0:0:0:0:
332,321,64965,1,0,0:0:0:0:
408,173,65126,2,0,L|411:263,1,90,8|0,0:3|0:0,0:0:0:0:
297,171,65447,2,0,L|299:81,1,90,8|0,0:0|0:0,0:0:0:0:
158,266,65768,5,8,0:3:0:0:
60,196,65928,1,0,0:0:0:0:
215,183,66088,1,8,0:0:0:0:
44,180,66249,1,0,0:0:0:0:
233,10,66409,2,0,L|221:133,1,90,8|0,0:3|0:0,0:0:0:0:
113,45,66730,2,0,L|118:175,1,90,8|0,0:0|0:0,0:0:0:0:
141,301,67051,6,0,B|253:284,1,90,8|0,0:3|0:0,0:0:0:0:
282,168,67372,1,8,0:0:0:0:
364,346,67532,1,0,0:0:0:0:
460,235,67693,2,0,P|466:174|462:122,1,90,8|0,0:3|0:0,0:0:0:0:
298,63,68014,2,0,P|297:107|302:152,1,90,8|0,0:0|0:0,0:0:0:0:
444,335,68334,5,8,0:3:0:0:
444,335,68495,1,0,0:0:0:0:
169,295,68655,1,8,0:0:0:0:
390,206,68816,1,0,0:0:0:0:
155,313,68976,1,8,0:3:0:0:
372,194,69137,1,8,0:0:0:0:
330,381,69297,1,8,0:0:0:0:
184,212,69457,1,8,0:0:0:0:
184,212,69538,1,8,0:0:0:0:
184,212,69618,6,0,B|120:205|120:205|62:215|62:215|-8:207,1,180,12|8,0:3|0:0,0:0:0:0:
5,208,70099,1,0,0:0:0:0:
108,110,70260,2,0,L|-7:115,1,90,8|0,0:3|0:0,0:0:0:0:
178,30,70580,2,0,L|267:33,1,90,8|0,0:0|0:0,0:0:0:0:
465,51,70901,5,8,0:3:0:0:
465,51,71062,1,0,0:0:0:0:
241,139,71222,1,8,0:0:0:0:
343,62,71383,1,0,0:0:0:0:
367,212,71543,2,0,L|372:309,1,90,8|0,0:3|0:0,0:0:0:0:
246,163,71864,2,0,L|256:260,1,90,8|0,0:0|0:0,0:0:0:0:
413,371,72185,5,8,0:3:0:0:
356,197,72345,1,0,0:0:0:0:
186,320,72505,2,0,L|70:304,1,90,8|0,0:0|0:0,0:0:0:0:
29,213,72826,2,0,L|145:197,1,90,8|0,0:3|0:0,0:0:0:0:
275,223,73147,2,0,L|279:337,1,90,8|0,0:0|0:0,0:0:0:0:
311,79,73468,5,8,0:3:0:0:
121,76,73628,1,0,0:0:0:0:
246,235,73789,1,8,0:0:0:0:
210,138,73949,1,0,0:0:0:0:
354,271,74110,1,8,0:3:0:0:
105,269,74270,1,8,0:0:0:0:
105,269,74350,1,8,0:0:0:0:
105,269,74431,1,8,0:0:0:0:
302,134,74591,1,8,0:0:0:0:
302,134,74671,1,8,0:0:0:0:
302,134,74751,6,0,B|365:118|365:118|426:151|494:104,1,180,12|8,0:3|0:0,0:0:0:0:
416,32,75233,1,0,0:0:0:0:
431,222,75393,2,0,L|430:330,1,90,8|0,0:3|0:0,0:0:0:0:
236,275,75714,2,0,L|229:169,1,90,8|0,0:0|0:0,0:0:0:0:
327,330,76035,5,8,0:3:0:0:
327,330,76195,1,0,0:0:0:0:
323,87,76356,2,0,P|324:137|319:191,1,90,8|0,0:0|0:0,0:0:0:0:
136,312,76677,2,0,P|132:267|134:222,1,90,8|0,0:3|0:0,0:0:0:0:
234,82,76997,1,8,0:0:0:0:
284,203,77158,1,0,0:0:0:0:
211,89,77318,5,8,0:3:0:0:
357,111,77479,1,0,0:0:0:0:
274,224,77639,1,8,0:0:0:0:
370,133,77800,1,0,0:0:0:0:
179,185,77960,1,8,0:3:0:0:
373,223,78120,1,0,0:0:0:0:
303,53,78281,1,8,0:0:0:0:
188,210,78441,1,0,0:0:0:0:
402,249,78602,5,8,0:3:0:0:
157,129,78762,1,0,0:0:0:0:
246,299,78923,1,8,0:0:0:0:
299,32,79083,1,0,0:0:0:0:
386,170,79243,2,0,L|372:271,1,90,8|0,0:3|0:0,0:0:0:0:
258,321,79564,1,8,0:0:0:0:
132,164,79725,1,8,0:0:0:0:
132,164,79805,1,8,0:0:0:0:
132,164,79885,6,0,B|194:148|194:148|253:149|253:149|321:132,1,180,12|8,0:3|0:0,0:0:0:0:
401,33,80366,1,0,0:0:0:0:
452,235,80527,2,0,L|450:328,1,90,8|0,0:3|0:0,0:0:0:0:
263,375,80848,2,0,L|261:285,1,90,8|0,0:0|0:0,0:0:0:0:
249,54,81169,5,8,0:3:0:0:
249,54,81329,1,0,0:0:0:0:
352,145,81489,2,0,P|428:156|473:176,1,90,8|0,0:0|0:0,0:0:0:0:
240,210,81810,2,0,P|163:198|118:178,1,90,8|0,0:3|0:0,0:0:0:0:
3,131,82131,1,8,0:0:0:0:
119,46,82292,1,0,0:0:0:0:
58,275,82452,6,0,P|133:341|221:302,1,180,12|8,0:3|0:0,0:0:0:0:
67,187,82933,1,8,0:3:0:0:
312,185,83094,1,8,0:0:0:0:
203,323,83254,1,8,0:3:0:0:
187,107,83415,1,8,0:0:0:0:
397,300,83575,1,8,0:3:0:0:
42,260,83735,5,8,0:0:0:0:
482,202,84056,1,8,0:0:0:0:
299,156,84858,5,8,0:0:0:0:
299,156,84939,1,8,0:0:0:0:
299,156,85019,1,12,0:0:0:0:
256,192,85099,12,0,88869,0:0:0:0:
