osu file format v14

[General]
AudioFilename: DOES - Guren.mp3
AudioLeadIn: 2000
PreviewTime: 43308
Countdown: 0
SampleSet: Soft
StackLeniency: 0.7
Mode: 0
LetterboxInBreaks: 1
WidescreenStoryboard: 1

[Editor]
DistanceSpacing: 1.1
BeatDivisor: 4
GridSize: 4
TimelineZoom: 1.7

[Metadata]
Title:Guren
TitleUnicode:紅蓮
Artist:DOES
ArtistUnicode:DOES
Creator:Kagetsu
Version:Insane
Source:NARUTO-ナルト-疾風伝
Tags:Ki/oon Records Wataru Ujihara Yasushi Akatsuka Kēsaku Morita shippuden opening 15 tv size
BeatmapID:917817
BeatmapSetID:424295

[Difficulty]
HPDrainRate:6
CircleSize:4
OverallDifficulty:7
ApproachRate:9
SliderMultiplier:1.6
SliderTickRate:1

[Events]
//Background and Video events
Video,0,"BG.avi"
0,0,"644129.jpg",0,0
//Break Periods
//Storyboard Layer 0 (Background)
//Storyboard Layer 1 (Fail)
//Storyboard Layer 2 (Pass)
//Storyboard Layer 3 (Foreground)
//Storyboard Sound Samples

[TimingPoints]
781,326.086956521739,4,2,1,60,1,0
3389,321.199143468951,4,2,1,60,1,0
11097,315.789473684211,4,2,1,60,1,0
38886,312.174817898023,4,2,1,60,1,0
41383,320.855614973262,4,2,1,60,1,0
43308,-200,4,2,1,60,0,0
43628,-100,4,2,1,60,0,0
43949,-100,4,2,1,80,0,1
63522,-133.333333333333,4,2,1,80,0,0
63842,-200,4,2,1,50,0,0
64484,-100,4,2,1,80,0,1
84056,-100,4,2,1,80,0,0
85661,-100,4,2,1,60,0,0
86302,-100,4,2,1,40,0,0
86944,-100,4,2,1,20,0,0
87586,-100,4,2,1,10,0,0
88869,-100,4,2,1,5,0,0

[Colours]
Combo1 : 187,0,187
Combo2 : 51,51,255
Combo3 : 255,138,21
Combo4 : 242,24,57

[HitObjects]
378,97,781,6,0,L|426:87,5,40,8|8|8|8|8|8,0:1|0:1|0:0|0:0|0:0|0:0,0:0:0:0:
339,173,1270,2,0,L|291:163,5,40,8|8|8|8|8|8,0:1|0:1|0:0|0:0|0:0|0:0,0:0:0:0:
396,241,1759,2,0,L|444:231,5,40,8|8|8|8|8|8,0:1|0:1|0:0|0:0|0:0|0:0,0:0:0:0:
326,297,2248,2,0,L|278:287,5,40,8|8|8|8|8|8,0:1|0:1|0:0|0:0|0:0|0:0,0:0:0:0:
411,338,2737,1,4,0:0:0:0:
411,338,3389,6,0,B|355:329|355:329|305:337|305:337|226:325,1,160,12|8,0:3|0:0,0:0:0:0:
160,320,3870,1,0,0:0:0:0:
88,264,4031,2,0,L|79:175,1,80,8|8,0:3|0:3,0:0:0:0:
202,109,4352,2,0,L|194:189,1,80,8|0,0:0|0:0,0:0:0:0:
160,320,4673,6,0,P|231:278|315:297,1,160,8|8,0:3|0:0,0:0:0:0:
382,347,5155,1,0,0:0:0:0:
497,247,5316,2,0,L|506:158,1,80,8|8,0:3|0:3,0:0:0:0:
391,107,5637,2,0,L|399:186,1,80,8|0,0:0|0:0,0:0:0:0:
446,332,5958,6,0,B|394:316|394:316|350:340|263:324,1,160,8|8,0:3|0:0,0:0:0:0:
182,265,6440,1,0,0:0:0:0:
291,199,6600,2,0,L|370:196,1,80,8|8,0:3|0:3,0:0:0:0:
180,164,6922,2,0,L|100:161,1,80,8|0,0:0|0:0,0:0:0:0:
126,36,7243,6,0,B|181:27|181:27|231:35|231:35|310:23,1,160,8|8,0:3|0:0,0:0:0:0:
382,7,7725,1,0,0:0:0:0:
284,149,7885,1,8,0:3:0:0:
406,112,8046,2,0,L|460:97,2,40,8|8|8,0:0|0:0|0:0,0:0:0:0:
343,252,8367,1,8,0:0:0:0:
343,252,8447,1,8,0:0:0:0:
343,252,8528,5,4,0:3:0:0:
105,271,8849,1,2,0:0:0:0:
110,277,9170,1,2,0:0:0:0:
114,283,9491,1,2,0:0:0:0:
119,289,9812,1,2,0:0:0:0:
124,294,10134,1,2,0:0:0:0:
126,302,10455,5,8,0:0:0:0:
280,200,10615,1,8,0:0:0:0:
283,208,11097,5,12,0:3:0:0:
175,275,11254,1,8,0:3:0:0:
376,216,11412,2,0,L|482:202,1,80,8|0,0:0|0:0,0:0:0:0:
339,323,11728,2,0,L|250:331,1,80,0|0,0:0|0:0,0:0:0:0:
429,349,12044,1,8,0:0:0:0:
429,349,12202,1,0,0:0:0:0:
246,336,12360,6,0,L|147:328,1,80,8|8,0:3|0:3,0:0:0:0:
19,331,12675,1,8,0:0:0:0:
115,245,12833,1,0,0:0:0:0:
30,196,12991,2,0,L|26:112,1,80,8|8,0:3|0:3,0:0:0:0:
149,77,13307,2,0,L|145:156,1,80,8|0,0:0|0:0,0:0:0:0:
276,201,13623,6,0,L|385:192,1,80,8|8,0:3|0:3,0:0:0:0:
512,268,13939,1,8,0:0:0:0:
451,191,14097,1,0,0:0:0:0:
304,297,14254,2,0,L|206:289,1,80,8|8,0:3|0:3,0:0:0:0:
103,361,14570,1,8,0:0:0:0:
103,361,14728,1,0,0:0:0:0:
137,216,14886,6,0,L|139:134,1,80,8|8,0:3|0:3,0:0:0:0:
12,111,15202,2,0,L|13:190,1,80,8|0,0:0|0:0,0:0:0:0:
19,311,15518,1,0,0:0:0:0:
19,311,15675,1,0,0:0:0:0:
137,360,15833,1,8,0:0:0:0:
163,243,15991,1,8,0:0:0:0:
163,243,16070,1,8,0:0:0:0:
163,243,16149,6,0,L|253:256,1,80,12|8,0:3|0:3,0:0:0:0:
386,302,16465,2,0,L|307:314,1,80,8|0,0:0|0:0,0:0:0:0:
222,340,16781,1,0,0:0:0:0:
322,223,16939,1,0,0:0:0:0:
211,348,17097,2,0,L|112:343,1,80,8|0,0:0|0:0,0:0:0:0:
93,214,17412,6,0,L|83:100,1,80,8|8,0:3|0:3,0:0:0:0:
256,61,17728,1,8,0:0:0:0:
164,28,17886,1,0,0:0:0:0:
200,150,18044,2,0,L|200:247,1,80,8|8,0:3|0:3,0:0:0:0:
327,207,18360,2,0,L|319:307,1,80,8|0,0:0|0:0,0:0:0:0:
208,363,18675,6,0,B|116:352,1,80,8|8,0:3|0:3,0:0:0:0:
0,291,18991,1,8,0:0:0:0:
121,257,19149,1,0,0:0:0:0:
52,188,19307,2,0,L|48:83,1,80,8|8,0:3|0:3,0:0:0:0:
165,53,19623,2,0,L|161:132,1,80,8|0,0:0|0:0,0:0:0:0:
326,78,19939,5,8,0:3:0:0:
326,78,20097,1,8,0:3:0:0:
433,63,20254,2,0,L|436:162,1,80,8|8,0:0|0:3,0:0:0:0:
405,233,20570,1,8,0:0:0:0:
317,271,20728,1,8,0:0:0:0:
296,261,20807,1,8,0:0:0:0:
273,253,20886,1,8,0:0:0:0:
250,248,20965,1,8,0:0:0:0:
226,246,21044,1,8,0:0:0:0:
202,246,21123,1,8,0:0:0:0:
178,249,21202,6,0,B|122:243|122:243|72:254|72:254|-6:245,1,160,12|8,0:3|0:0,0:0:0:0:
11,337,21675,1,0,0:0:0:0:
49,167,21833,2,0,L|53:60,1,80,8|8,0:3|0:3,0:0:0:0:
162,22,22149,1,8,0:0:0:0:
152,149,22307,1,8,0:3:0:0:
256,65,22465,6,0,P|301:57|353:60,1,80,0|8,0:0|0:3,0:0:0:0:
447,159,22781,2,0,P|407:159|367:151,1,80,8|0,0:0|0:0,0:0:0:0:
288,206,23097,1,8,0:3:0:0:
452,141,23254,1,8,0:3:0:0:
425,268,23412,2,0,P|422:309|431:383,1,80,8|0,0:0|0:0,0:0:0:0:
206,336,23728,6,0,P|209:262|200:160,1,160,8|8,0:3|0:0,0:0:0:0:
113,156,24202,1,0,0:0:0:0:
284,123,24360,2,0,L|365:112,1,80,8|8,0:3|0:3,0:0:0:0:
201,48,24675,2,0,L|95:41,1,80,8|8,0:0|0:3,0:0:0:0:
263,138,24991,5,0,0:0:0:0:
364,27,25149,1,8,0:3:0:0:
451,153,25307,2,0,P|450:197|448:241,1,80,8|0,0:0|0:0,0:0:0:0:
264,323,25623,2,0,P|261:283|261:243,1,80,8|8,0:3|0:0,0:0:0:0:
368,109,25939,1,8,0:0:0:0:
368,109,26097,1,0,0:0:0:0:
204,179,26254,6,0,B|149:165|149:165|99:169|99:169|22:150,1,160,12|8,0:3|0:0,0:0:0:0:
26,68,26728,1,0,0:0:0:0:
24,253,26886,2,0,L|18:340,1,80,8|8,0:3|0:3,0:0:0:0:
171,373,27202,2,0,L|165:293,1,80,8|8,0:0|0:3,0:0:0:0:
181,165,27518,5,0,0:0:0:0:
302,248,27675,1,8,0:3:0:0:
164,178,27833,1,8,0:0:0:0:
276,157,27991,1,0,0:0:0:0:
344,319,28149,2,0,L|423:324,1,80,8|8,0:3|0:3,0:0:0:0:
386,229,28465,2,0,L|465:234,1,80,8|0,0:0|0:0,0:0:0:0:
319,122,28781,6,0,L|239:116,1,80,8|0,0:3|0:0,0:0:0:0:
277,212,29097,2,0,L|197:206,1,80,8|0,0:0|0:0,0:0:0:0:
95,144,29412,1,8,0:3:0:0:
188,58,29570,1,8,0:3:0:0:
83,152,29728,2,0,L|90:248,1,80,8|8,0:0|0:3,0:0:0:0:
179,325,30044,6,0,L|285:329,1,80,0|8,0:0|0:3,0:0:0:0:
80,238,30360,1,8,0:0:0:0:
176,340,30518,1,8,0:3:0:0:
277,212,30675,1,8,0:0:0:0:
77,332,30833,1,8,0:3:0:0:
275,349,30991,1,8,0:0:0:0:
190,211,31149,1,8,0:0:0:0:
190,211,31228,1,8,0:0:0:0:
190,211,31307,6,0,P|248:253|336:206,1,160,12|8,0:3|0:0,0:0:0:0:
324,224,31781,1,0,0:0:0:0:
372,150,31939,2,0,P|374:108|367:48,1,80,8|8,0:3|0:3,0:0:0:0:
218,8,32254,2,0,P|215:47|219:87,1,80,8|8,0:0|0:3,0:0:0:0:
254,185,32570,5,0,0:0:0:0:
254,185,32728,1,8,0:3:0:0:
151,160,32886,2,0,P|99:161|46:187,1,80,8|0,0:0|0:0,0:0:0:0:
0,275,33202,2,0,P|38:286|78:284,1,80,8|8,0:3|0:3,0:0:0:0:
164,173,33518,1,8,0:0:0:0:
148,329,33675,1,0,0:0:0:0:
268,243,33833,6,0,P|330:208|412:265,1,160,8|8,0:3|0:0,0:0:0:0:
403,246,34307,1,0,0:0:0:0:
355,45,34465,2,0,L|368:153,1,80,8|8,0:3|0:3,0:0:0:0:
247,72,34781,2,0,L|253:187,1,80,8|8,0:0|0:3,0:0:0:0:
340,309,35097,5,0,0:0:0:0:
340,309,35254,1,8,0:3:0:0:
178,321,35412,2,0,P|110:315|67:299,1,80,8|0,0:0|0:0,0:0:0:0:
0,212,35728,2,0,P|39:203|79:202,1,80,8|8,0:3|0:3,0:0:0:0:
260,185,36044,1,8,0:0:0:0:
160,151,36202,1,0,0:0:0:0:
263,342,36360,6,0,B|318:336|318:336|368:347|368:347|447:338,1,160,12|8,0:3|0:0,0:0:0:0:
420,341,36833,1,0,0:0:0:0:
461,263,36991,2,0,L|468:175,1,80,8|8,0:3|0:3,0:0:0:0:
340,82,37307,2,0,L|346:161,1,80,8|8,0:0|0:3,0:0:0:0:
351,268,37623,5,0,0:0:0:0:
351,268,37781,1,8,0:3:0:0:
188,210,37939,2,0,P|136:200|83:211,1,80,8|0,0:0|0:0,0:0:0:0:
7,315,38254,2,0,P|46:317|85:307,1,80,8|8,0:3|0:3,0:0:0:0:
213,292,38570,1,8,0:0:0:0:
275,160,38728,1,0,0:0:0:0:
224,319,38886,5,12,0:3:0:0:
331,351,39042,1,8,0:3:0:0:
302,242,39198,1,8,0:0:0:0:
142,364,39354,1,0,0:0:0:0:
142,364,39432,1,0,0:0:0:0:
142,364,39510,1,8,0:3:0:0:
147,236,39666,1,8,0:3:0:0:
15,225,39822,2,0,L|3:136,1,80,8|0,0:0|0:0,0:0:0:0:
162,21,40134,6,0,L|151:100,1,80,8|8,0:3|0:3,0:0:0:0:
109,204,40446,1,8,0:0:0:0:
314,141,40602,2,0,L|373:125,2,40,0|0|8,0:0|0:0|0:3,0:0:0:0:
310,269,40915,1,8,0:3:0:0:
198,194,41071,1,8,0:0:0:0:
198,194,41227,1,0,0:0:0:0:
333,283,41383,6,0,L|418:285,1,80,12|8,0:3|0:3,0:0:0:0:
469,102,41703,1,8,0:0:0:0:
261,55,41864,1,0,0:0:0:0:
261,55,41944,1,0,0:0:0:0:
261,55,42024,1,8,0:0:0:0:
341,131,42185,1,8,0:3:0:0:
379,25,42345,1,8,0:0:0:0:
232,156,42505,1,8,0:3:0:0:
454,217,42666,5,8,0:0:0:0:
178,83,42987,1,8,0:0:0:0:
154,86,43308,6,0,L|152:172,1,80
161,289,43949,6,0,P|105:226|8:256,1,160,12|8,0:3|0:0,0:0:0:0:
77,309,44431,1,0,0:0:0:0:
269,334,44591,2,0,P|327:330|379:315,1,80,8|0,0:3|0:0,0:0:0:0:
462,234,44912,2,0,P|422:226|382:225,1,80,8|0,0:0|0:0,0:0:0:0:
245,237,45233,5,8,0:3:0:0:
245,237,45393,1,0,0:0:0:0:
320,142,45554,2,0,L|424:148,1,80,8|0,0:0|0:0,0:0:0:0:
189,85,45874,2,0,L|190:196,1,80,8|0,0:3|0:0,0:0:0:0:
75,114,46195,2,0,L|85:225,1,80,8|0,0:0|0:0,0:0:0:0:
245,335,46516,5,8,0:3:0:0:
245,335,46677,1,0,0:0:0:0:
348,202,46837,2,0,P|400:182|450:182,1,80,8|0,0:0|0:0,0:0:0:0:
512,306,47158,2,0,P|470:303|434:286,1,80,8|0,0:3|0:0,0:0:0:0:
239,199,47479,1,8,0:0:0:0:
351,335,47639,1,0,0:0:0:0:
239,199,47800,6,0,L|238:101,1,80,8|0,0:3|0:0,0:0:0:0:
333,232,48120,1,8,0:0:0:0:
333,232,48281,1,0,0:0:0:0:
419,86,48441,1,8,0:3:0:0:
512,208,48602,1,8,0:0:0:0:
399,83,48762,2,0,L|319:75,1,80,8|8,0:0|0:0,0:0:0:0:
261,118,49003,1,8,0:0:0:0:
261,118,49083,6,0,B|205:111|205:111|155:121|155:121|76:111,1,160,12|8,0:3|0:0,0:0:0:0:
33,49,49564,1,0,0:0:0:0:
32,222,49725,2,0,L|41:313,1,80,8|0,0:3|0:0,0:0:0:0:
145,202,50046,1,8,0:0:0:0:
145,202,50206,1,0,0:0:0:0:
276,211,50366,6,0,L|363:206,1,80,8|0,0:3|0:0,0:0:0:0:
473,297,50687,2,0,L|393:292,1,80,8|0,0:0|0:0,0:0:0:0:
251,224,51008,2,0,L|255:318,1,80,8|0,0:3|0:0,0:0:0:0:
127,282,51329,2,0,L|134:375,1,80,8|0,0:0|0:0,0:0:0:0:
115,177,51650,5,8,0:3:0:0:
115,177,51810,1,0,0:0:0:0:
202,40,51971,2,0,L|302:32,1,80,8|0,0:0|0:0,0:0:0:0:
410,121,52292,2,0,L|330:114,1,80,8|0,0:3|0:0,0:0:0:0:
248,204,52612,1,8,0:0:0:0:
248,204,52773,1,0,0:0:0:0:
355,345,52933,6,0,P|408:328|447:297,1,80,8|0,0:3|0:0,0:0:0:0:
368,197,53254,2,0,P|376:141|366:93,1,80,8|0,0:0|0:0,0:0:0:0:
273,289,53575,1,8,0:3:0:0:
133,278,53735,2,0,L|133:336,2,40,8|8|8,0:0|0:0|0:0,0:0:0:0:
122,143,54056,1,8,0:0:0:0:
122,143,54137,1,8,0:0:0:0:
122,143,54217,6,0,B|177:149|177:149|226:138|226:138|306:146,1,160,12|8,0:3|0:0,0:0:0:0:
434,219,54698,1,0,0:0:0:0:
388,127,54858,1,8,0:3:0:0:
344,262,55019,1,0,0:0:0:0:
377,112,55179,2,0,L|381:26,1,80,8|0,0:0|0:0,0:0:0:0:
262,100,55500,5,8,0:3:0:0:
262,100,55661,1,0,0:0:0:0:
116,144,55821,2,0,L|119:255,1,80,8|0,0:0|0:0,0:0:0:0:
12,223,56142,2,0,L|19:333,1,80,8|0,0:3|0:0,0:0:0:0:
207,276,56463,1,8,0:0:0:0:
120,346,56623,1,0,0:0:0:0:
308,259,56784,6,0,P|356:253|416:242,1,80,8|0,0:3|0:0,0:0:0:0:
473,94,57104,1,8,0:0:0:0:
346,175,57265,1,0,0:0:0:0:
495,77,57425,2,0,L|480:177,1,80,8|0,0:3|0:0,0:0:0:0:
442,319,57746,1,8,0:0:0:0:
360,157,57907,1,0,0:0:0:0:
260,325,58067,6,0,L|163:327,1,80,8|0,0:3|0:0,0:0:0:0:
46,232,58388,2,0,L|125:233,1,80,8|0,0:0|0:0,0:0:0:0:
268,139,58709,1,8,0:3:0:0:
150,86,58869,1,0,0:0:0:0:
224,231,59030,1,8,0:0:0:0:
352,98,59190,1,8,0:0:0:0:
352,98,59270,1,8,0:0:0:0:
352,98,59350,6,0,L|447:87,1,80,12|0,0:3|0:0,0:0:0:0:
512,197,59671,2,0,L|417:186,1,80,8|0,0:0|0:0,0:0:0:0:
265,157,59992,1,8,0:3:0:0:
373,252,60153,1,0,0:0:0:0:
174,238,60313,2,0,L|183:341,1,80,8|0,0:0|0:0,0:0:0:0:
347,355,60634,5,8,0:3:0:0:
266,239,60794,1,0,0:0:0:0:
401,217,60955,2,0,L|491:213,1,80,8|0,0:0|0:0,0:0:0:0:
458,308,61276,1,8,0:3:0:0:
458,308,61436,1,0,0:0:0:0:
449,126,61596,2,0,L|448:38,1,80,8|0,0:0|0:0,0:0:0:0:
293,145,61917,6,0,L|292:224,1,80,12|0,0:3|0:0,0:0:0:0:
161,337,62238,1,8,0:0:0:0:
161,337,62399,1,0,0:0:0:0:
167,157,62559,1,8,0:3:0:0:
256,268,62719,1,8,0:0:0:0:
59,276,62880,1,8,0:0:0:0:
282,285,63040,1,8,0:3:0:0:
95,120,63201,5,8,0:0:0:0:
430,200,63522,1,8,0:0:0:0:
405,214,63842,6,0,L|414:117,1,80
412,18,64484,6,0,P|345:58|268:22,1,160,12|8,0:3|0:0,0:0:0:0:
274,29,64965,1,0,0:0:0:0:
271,186,65126,2,0,L|266:287,1,80,8|0,0:3|0:0,0:0:0:0:
132,359,65447,2,0,L|128:279,1,80,8|0,0:0|0:0,0:0:0:0:
183,126,65768,5,8,0:3:0:0:
183,126,65928,1,0,0:0:0:0:
359,136,66088,2,0,L|451:139,1,80,8|0,0:0|0:0,0:0:0:0:
471,305,66409,2,0,L|465:198,1,80,8|0,0:3|0:0,0:0:0:0:
363,371,66730,2,0,L|358:263,1,80,8|0,0:0|0:0,0:0:0:0:
187,303,67051,5,8,0:3:0:0:
187,303,67211,1,0,0:0:0:0:
237,139,67372,2,0,P|241:87|239:42,1,80,8|0,0:0|0:0,0:0:0:0:
384,12,67693,2,0,P|383:51|387:91,1,80,8|0,0:3|0:0,0:0:0:0:
488,220,68014,1,8,0:0:0:0:
481,84,68174,1,0,0:0:0:0:
462,235,68334,6,0,P|410:246|372:241,1,80,8|0,0:3|0:0,0:0:0:0:
312,99,68655,2,0,L|310:205,1,80,8|0,0:0|0:0,0:0:0:0:
184,153,68976,2,0,L|190:239,1,80,8|8,0:3|0:0,0:0:0:0:
76,323,69297,1,8,0:0:0:0:
259,337,69457,1,8,0:0:0:0:
259,337,69538,1,8,0:0:0:0:
259,337,69618,6,0,B|347:329|347:329|437:336,1,160,12|8,0:3|0:0,0:0:0:0:
499,366,70099,1,0,0:0:0:0:
466,160,70260,2,0,L|469:265,1,80,8|0,0:3|0:0,0:0:0:0:
413,86,70580,1,8,0:0:0:0:
320,215,70741,1,0,0:0:0:0:
238,89,70901,6,0,P|239:42|236:2,1,80,8|0,0:3|0:0,0:0:0:0:
90,100,71222,2,0,P|87:139|88:179,1,80,8|0,0:0|0:0,0:0:0:0:
198,231,71543,1,8,0:3:0:0:
94,264,71703,1,0,0:0:0:0:
268,294,71864,2,0,P|310:295|379:317,1,80,8|0,0:0|0:0,0:0:0:0:
476,365,72185,6,0,P|452:329|431:259,1,80,8|0,0:3|0:0,0:0:0:0:
422,122,72505,1,8,0:0:0:0:
347,225,72666,1,0,0:0:0:0:
225,127,72826,2,0,P|216:88|225:31,1,80,8|0,0:3|0:0,0:0:0:0:
251,221,73147,2,0,P|211:223|156:204,1,80,8|0,0:0|0:0,0:0:0:0:
120,91,73468,6,0,P|123:44|119:-15,1,80,8|0,0:3|0:0,0:0:0:0:
7,173,73789,2,0,P|4:220|8:279,1,80,8|0,0:0|0:0,0:0:0:0:
149,218,74110,1,8,0:3:0:0:
139,364,74270,1,8,0:0:0:0:
139,364,74350,1,8,0:0:0:0:
139,364,74431,1,8,0:0:0:0:
275,301,74591,1,8,0:0:0:0:
275,301,74671,1,8,0:0:0:0:
275,301,74751,6,0,B|324:291|324:291|377:325|445:278,1,160,12|8,0:3|0:0,0:0:0:0:
502,147,75233,1,0,0:0:0:0:
371,197,75393,1,8,0:3:0:0:
507,238,75554,1,0,0:0:0:0:
350,191,75714,2,0,L|257:184,1,80,8|0,0:0|0:0,0:0:0:0:
93,84,76035,6,0,P|97:133|105:192,1,80,8|0,0:3|0:0,0:0:0:0:
249,99,76356,2,0,L|253:59|257:19,1,80,8|0,0:0|0:0,0:0:0:0:
201,179,76677,1,8,0:3:0:0:
201,179,76837,1,0,0:0:0:0:
332,153,76997,1,8,0:0:0:0:
209,284,77158,1,0,0:0:0:0:
339,266,77318,6,0,P|378:260|418:256,1,80,8|0,0:3|0:0,0:0:0:0:
318,369,77639,1,8,0:0:0:0:
467,325,77800,1,0,0:0:0:0:
212,235,77960,2,0,P|216:291|224:346,1,80,8|0,0:3|0:0,0:0:0:0:
289,178,78281,1,8,0:0:0:0:
235,339,78441,1,0,0:0:0:0:
405,201,78602,6,0,P|459:187|520:200,1,80,8|0,0:3|0:0,0:0:0:0:
423,314,78923,2,0,P|383:313|345:302,1,80,8|0,0:0|0:0,0:0:0:0:
208,246,79243,1,8,0:3:0:0:
310,169,79404,1,0,0:0:0:0:
173,223,79564,1,8,0:0:0:0:
206,79,79725,1,8,0:0:0:0:
206,79,79805,1,8,0:0:0:0:
206,79,79885,6,0,B|311:71,1,80,12|0,0:3|0:0,0:0:0:0:
430,113,80206,2,0,L|419:20,1,80,8|0,0:0|0:0,0:0:0:0:
359,204,80527,2,0,P|362:255|367:318,1,80,8|0,0:3|0:0,0:0:0:0:
500,347,80848,2,0,P|502:307|505:267,1,80,8|0,0:0|0:0,0:0:0:0:
512,117,81169,5,8,0:3:0:0:
512,117,81329,1,0,0:0:0:0:
376,87,81489,2,0,P|335:78|294:72,1,80,8|0,0:0|0:0,0:0:0:0:
247,191,81810,2,0,P|206:199|165:205,1,80,8|0,0:3|0:0,0:0:0:0:
148,331,82131,1,8,0:0:0:0:
39,263,82292,1,0,0:0:0:0:
174,345,82452,6,0,P|259:337|343:335,1,160,12|8,0:3|0:0,0:0:0:0:
461,332,82933,1,8,0:3:0:0:
362,249,83094,1,8,0:0:0:0:
482,208,83254,1,8,0:3:0:0:
316,241,83415,1,8,0:0:0:0:
506,176,83575,1,8,0:3:0:0:
283,318,83735,5,8,0:0:0:0:
427,55,84056,1,8,0:0:0:0:
293,178,84858,5,8,0:0:0:0:
293,178,84939,1,8,0:0:0:0:
293,178,85019,1,12,0:0:0:0:
256,192,85099,12,0,88869,0:0:0:0:
