osu file format v14

[General]
AudioFilename: DOES - Guren.mp3
AudioLeadIn: 2000
PreviewTime: 43308
Countdown: 0
SampleSet: Soft
StackLeniency: 0.7
Mode: 0
LetterboxInBreaks: 1
WidescreenStoryboard: 1

[Editor]
DistanceSpacing: 1.3
BeatDivisor: 4
GridSize: 4
TimelineZoom: 1.7

[Metadata]
Title:Guren
TitleUnicode:紅蓮
Artist:DOES
ArtistUnicode:DOES
Creator:Kagetsu
Version:Hard
Source:NARUTO-ナルト-疾風伝
Tags:Ki/oon Records Wataru Ujihara Yasushi Akatsuka Kēsaku Morita shippuden opening 15 tv size
BeatmapID:918341
BeatmapSetID:424295

[Difficulty]
HPDrainRate:5
CircleSize:4
OverallDifficulty:6
ApproachRate:8
SliderMultiplier:1.4
SliderTickRate:1

[Events]
//Background and Video events
Video,0,"BG.avi"
0,0,"644129.jpg",0,0
//Break Periods
//Storyboard Layer 0 (Background)
//Storyboard Layer 1 (Fail)
//Storyboard Layer 2 (Pass)
//Storyboard Layer 3 (Foreground)
//Storyboard Sound Samples

[TimingPoints]
781,326.086956521739,4,2,1,60,1,0
3389,321.199143468951,4,2,1,60,1,0
11097,315.789473684211,4,2,1,60,1,0
38886,312.174817898023,4,2,1,60,1,0
41383,320.855614973262,4,2,1,60,1,0
43308,-200,4,2,1,60,0,0
43628,-100,4,2,1,60,0,0
43949,-100,4,2,1,80,0,1
63522,-133.333333333333,4,2,1,80,0,0
63842,-200,4,2,1,50,0,0
64484,-100,4,2,1,80,0,1
84056,-100,4,2,1,80,0,0
85661,-100,4,2,1,60,0,0
86302,-100,4,2,1,40,0,0
86944,-100,4,2,1,20,0,0
87586,-100,4,2,1,10,0,0
88869,-100,4,2,1,5,0,0

[Colours]
Combo1 : 187,0,187
Combo2 : 51,51,255
Combo3 : 255,138,21
Combo4 : 242,24,57

[HitObjects]
415,96,781,6,0,L|375:85,5,35,8|8|8|8|8|8,0:1|0:1|0:0|0:0|0:0|0:0,0:0:0:0:
366,66,1270,2,0,L|324:65,5,35,8|8|8|8|8|8,0:1|0:1|0:0|0:0|0:0|0:0,0:0:0:0:
313,49,1759,6,0,L|273:59,5,35,8|8|8|8|8|8,0:1|0:1|0:0|0:0|0:0|0:0,0:0:0:0:
256,46,2248,2,0,L|220:66,5,35,8|8|8|8|8|8,0:1|0:1|0:0|0:0|0:0|0:0,0:0:0:0:
156,103,2737,5,4,0:0:0:0:
156,103,3389,6,0,P|166:173|137:238,1,140,12|8,0:3|0:0,0:0:0:0:
61,281,3870,2,0,P|131:271|196:300,1,140,0|8,0:0|0:3,0:0:0:0:
277,332,4352,1,8,0:0:0:0:
367,319,4513,1,0,0:0:0:0:
436,260,4673,6,0,P|409:196|419:127,1,140,8|8,0:3|0:0,0:0:0:0:
481,60,5155,2,0,P|417:86|348:76,1,140,0|8,0:0|0:3,0:0:0:0:
265,37,5637,1,8,0:0:0:0:
240,124,5797,1,0,0:0:0:0:
284,203,5958,6,0,B|233:220|233:220|119:208,1,140,8|8,0:3|0:0,0:0:0:0:
68,255,6440,2,0,P|99:180|85:97,1,140,0|8,0:0|0:3,0:0:0:0:
49,43,6922,1,8,0:0:0:0:
136,19,7082,1,0,0:0:0:0:
222,48,7243,6,0,B|270:49|270:49|323:42|323:42|379:50,1,140,8|8,0:3|0:0,0:0:0:0:
441,90,7725,1,0,0:0:0:0:
375,152,7885,1,8,0:3:0:0:
455,194,8046,2,0,L|501:178,2,35,8|8|8,0:0|0:0|0:0,0:0:0:0:
378,243,8367,1,8,0:0:0:0:
378,243,8447,1,8,0:0:0:0:
378,243,8528,5,4,0:3:0:0:
246,117,8849,1,2,0:0:0:0:
285,294,9170,1,2,0:0:0:0:
336,119,9491,1,2,0:0:0:0:
204,244,9812,1,2,0:0:0:0:
383,274,10134,1,2,0:0:0:0:
247,153,10455,5,8,0:0:0:0:
247,153,10615,1,8,0:0:0:0:
247,153,11097,6,0,P|174:161|97:125,1,140,12|8,0:3|0:0,0:0:0:0:
67,58,11570,1,0,0:0:0:0:
156,39,11728,2,0,L|233:30,1,70,0|0,0:0|0:0,0:0:0:0:
301,81,12044,2,0,L|377:92,1,70,8|0,0:0|0:0,0:0:0:0:
430,21,12360,6,0,P|415:87|432:170,1,140,8|8,0:3|0:0,0:0:0:0:
500,211,12833,2,0,P|434:196|351:213,1,140,0|8,0:0|0:3,0:0:0:0:
274,229,13307,1,8,0:0:0:0:
274,229,13465,1,0,0:0:0:0:
253,317,13623,6,0,B|187:308|187:308|110:317,1,140,8|8,0:3|0:0,0:0:0:0:
25,338,14097,1,0,0:0:0:0:
31,247,14254,2,0,L|39:166,1,70,8|8,0:3|0:3,0:0:0:0:
128,160,14570,2,0,L|119:77,1,70,8|0,0:0|0:0,0:0:0:0:
59,22,14886,6,0,P|127:46|203:16,1,140,8|8,0:3|0:0,0:0:0:0:
281,22,15360,2,0,P|257:90|286:166,1,140
324,229,15833,1,8,0:0:0:0:
272,302,15991,1,8,0:0:0:0:
272,302,16070,1,8,0:0:0:0:
272,302,16149,6,0,P|332:331|427:308,1,140,12|8,0:3|0:0,0:0:0:0:
483,278,16623,1,0,0:0:0:0:
448,193,16781,2,0,L|456:92,1,70
363,141,17097,2,0,L|264:114,1,70,8|0,0:0|0:0,0:0:0:0:
234,55,17412,6,0,P|250:116|197:203,1,140,8|8,0:3|0:0,0:0:0:0:
127,193,17886,2,0,P|187:209|236:299,1,140,0|8,0:0|0:3,0:0:0:0:
182,346,18360,1,8,0:0:0:0:
182,346,18518,1,0,0:0:0:0:
272,348,18675,6,0,P|340:343|426:311,1,140,8|8,0:3|0:0,0:0:0:0:
455,242,19149,1,0,0:0:0:0:
404,166,19307,2,0,L|311:176,1,70,8|8,0:3|0:3,0:0:0:0:
335,82,19623,2,0,L|309:-7,1,70,8|0,0:0|0:0,0:0:0:0:
237,63,19939,6,0,L|143:42,1,70,8|8,0:3|0:3,0:0:0:0:
79,29,20254,2,0,L|88:113,1,70,8|8,0:0|0:3,0:0:0:0:
109,187,20570,1,8,0:0:0:0:
53,273,20728,1,8,0:0:0:0:
53,273,20807,1,8,0:0:0:0:
53,273,20886,2,0,L|58:316,3,35,8|8|8|8,0:0|0:0|0:0|0:0,0:0:0:0:
103,286,21202,6,0,B|167:275|167:275|208:290|271:273,1,140,12|8,0:3|0:0,0:0:0:0:
298,217,21675,1,0,0:0:0:0:
335,316,21833,2,0,L|432:344,1,70,8|8,0:3|0:3,0:0:0:0:
384,232,22149,2,0,L|430:140,1,70,8|8,0:0|0:3,0:0:0:0:
375,87,22465,6,0,P|430:135|519:134,2,140,0|8|8,0:0|0:0|0:3,0:0:0:0:
296,40,23254,1,8,0:3:0:0:
204,39,23412,2,0,L|181:138,1,70,8|0,0:0|0:0,0:0:0:0:
105,145,23728,6,0,P|169:135|241:198,1,140,8|8,0:3|0:0,0:0:0:0:
152,224,24202,1,0,0:0:0:0:
86,287,24360,2,0,L|1:279,1,70,8|8,0:3|0:3,0:0:0:0:
48,365,24675,2,0,L|117:371,1,70,8|8,0:0|0:3,0:0:0:0:
197,325,24991,6,0,P|252:293|343:325,1,140,0|8,0:0|0:0,0:0:0:0:
400,357,25465,1,0,0:0:0:0:
397,265,25623,2,0,L|393:189,1,70,8|0,0:3|0:0,0:0:0:0:
302,206,25939,2,0,L|298:130,1,70,8|0,0:0|0:0,0:0:0:0:
355,65,26254,6,0,P|299:96|208:64,1,140,12|8,0:3|0:0,0:0:0:0:
154,26,26728,2,0,P|185:82|153:173,1,140,0|8,0:0|0:3,0:0:0:0:
108,220,27202,2,0,L|109:308,1,70,8|8,0:0|0:3,0:0:0:0:
47,357,27518,6,0,P|103:326|194:358,1,140,0|8,0:0|0:0,0:0:0:0:
174,340,27991,1,0,0:0:0:0:
200,253,28149,2,0,L|281:264,1,70,8|8,0:3|0:3,0:0:0:0:
351,303,28465,2,0,L|432:292,1,70,8|0,0:0|0:0,0:0:0:0:
492,349,28781,6,0,P|461:293|493:202,1,140,8|8,0:3|0:0,0:0:0:0:
475,221,29254,1,0,0:0:0:0:
493,132,29412,2,0,L|411:71,1,70,8|8,0:3|0:3,0:0:0:0:
400,174,29728,2,0,L|324:243,1,70,8|8,0:0|0:3,0:0:0:0:
275,277,30044,6,0,P|214:298|129:253,1,140,0|8,0:0|0:0,0:0:0:0:
129,183,30518,1,8,0:3:0:0:
147,93,30675,2,0,L|133:25,1,70,8|8,0:0|0:3,0:0:0:0:
53,70,30991,1,8,0:0:0:0:
42,166,31149,1,8,0:0:0:0:
42,166,31228,1,8,0:0:0:0:
42,166,31307,6,0,B|33:236|33:236|32:315,1,140,12|8,0:3|0:0,0:0:0:0:
119,331,31781,1,0,0:0:0:0:
200,372,31939,2,0,L|292:360,1,70,8|8,0:3|0:3,0:0:0:0:
287,273,32254,2,0,L|379:285,1,70,8|8,0:0|0:3,0:0:0:0:
417,213,32570,6,0,P|397:279|428:340,2,140,0|8|8,0:0|0:0|0:3,0:0:0:0:
448,127,33360,1,8,0:3:0:0:
357,124,33518,2,0,L|276:115,1,70,8|0,0:0|0:0,0:0:0:0:
239,38,33833,6,0,P|248:105|209:162,1,140,8|8,0:3|0:0,0:0:0:0:
117,160,34307,1,0,0:0:0:0:
42,211,34465,2,0,L|44:296,1,70,8|8,0:3|0:3,0:0:0:0:
129,251,34781,2,0,L|131:336,1,70,8|8,0:0|0:3,0:0:0:0:
220,336,35097,6,0,P|282:351|363:299,1,140,0|8,0:0|0:0,0:0:0:0:
348,320,35570,1,0,0:0:0:0:
332,230,35728,2,0,P|328:186|328:133,1,70,8|8,0:3|0:3,0:0:0:0:
342,69,36044,1,8,0:0:0:0:
342,69,36202,1,0,0:0:0:0:
264,115,36360,6,0,B|217:110|217:110|174:127|124:108,1,140,12|8,0:3|0:0,0:0:0:0:
62,43,36833,2,0,P|83:104|38:189,1,140,0|8,0:0|0:3,0:0:0:0:
23,256,37307,1,8,0:0:0:0:
23,256,37465,1,8,0:3:0:0:
114,253,37623,6,0,B|184:260|184:260|256:250,1,140,0|8,0:0|0:0,0:0:0:0:
307,177,38097,1,0,0:0:0:0:
398,180,38254,2,0,L|391:255,1,70,8|8,0:3|0:3,0:0:0:0:
483,249,38570,2,0,L|476:324,1,70,8|0,0:0|0:0,0:0:0:0:
389,346,38886,6,0,P|325:320|259:341,1,140,12|8,0:3|0:0,0:0:0:0:
169,325,39354,2,0,L|107:329,2,35,0|0|8,0:0|0:0|0:3,0:0:0:0:
150,235,39666,1,8,0:3:0:0:
240,240,39822,1,8,0:0:0:0:
240,240,39978,1,0,0:0:0:0:
190,163,40134,6,0,P|169:97|194:33,1,140,8|8,0:3|0:0,0:0:0:0:
285,33,40602,2,0,L|319:35,2,35,0|0|8,0:0|0:0|0:3,0:0:0:0:
280,124,40915,1,8,0:3:0:0:
370,111,41071,1,8,0:0:0:0:
370,111,41227,1,0,0:0:0:0:
441,59,41383,6,0,P|453:126|416:186,1,140,12|8,0:3|0:0,0:0:0:0:
342,237,41864,2,0,L|349:275,2,35,0|0|8,0:0|0:0|0:0,0:0:0:0:
254,214,42185,1,8,0:3:0:0:
180,268,42345,1,8,0:0:0:0:
106,214,42505,1,8,0:3:0:0:
28,261,42666,5,8,0:0:0:0:
155,131,42987,1,8,0:0:0:0:
155,131,43308,6,0,L|230:113,1,70,0|0,0:0|0:0,0:0:0:0:
420,20,43949,6,0,B|419:71|419:71|409:113|409:113|412:164,1,140,12|8,0:3|0:0,0:0:0:0:
453,239,44431,2,0,P|409:192|312:192,1,140,0|0,0:0|0:0,0:0:0:0:
245,191,44912,2,0,L|247:278,1,70,8|0,0:0|0:0,0:0:0:0:
276,347,45233,6,0,L|190:337,1,70,8|0,0:3|0:0,0:0:0:0:
159,260,45554,2,0,L|73:270,1,70,8|0,0:0|0:0,0:0:0:0:
34,340,45874,2,0,P|59:281|22:192,1,140,8|8,0:3|0:0,0:0:0:0:
93,137,46356,1,0,0:0:0:0:
180,111,46516,6,0,B|230:103|230:103|273:124|342:100,1,140,8|8,0:3|0:0,0:0:0:0:
357,26,46997,2,0,P|348:89|408:164,1,140,0|0,0:0|0:0,0:0:0:0:
478,150,47479,2,0,L|466:249,1,70,8|0,0:0|0:0,0:0:0:0:
382,245,47800,6,0,L|314:214,1,70,8|0,0:3|0:0,0:0:0:0:
250,277,48120,2,0,L|182:246,1,70,8|0,0:0|0:0,0:0:0:0:
102,283,48441,2,0,P|151:242|158:146,1,140,8|8,0:3|0:0,0:0:0:0:
103,104,48923,1,8,0:0:0:0:
187,69,49083,6,0,B|240:72|240:72|281:86|281:86|349:86,1,140,12|8,0:3|0:0,0:0:0:0:
407,50,49564,2,0,P|363:96|367:192,1,140,0|0,0:0|0:0,0:0:0:0:
421,234,50046,2,0,L|340:248,1,70,8|0,0:0|0:0,0:0:0:0:
279,301,50366,2,0,L|265:220,1,70,8|0,0:3|0:0,0:0:0:0:
182,266,50687,2,0,L|168:185,1,70,8|0,0:0|0:0,0:0:0:0:
224,124,51008,6,0,P|158:152|94:131,1,140,8|8,0:3|0:0,0:0:0:0:
156,64,51489,1,0,0:0:0:0:
240,32,51650,2,0,P|310:53|376:70,1,140,8|8,0:3|0:0,0:0:0:0:
458,33,52131,2,0,P|417:88|421:157,1,140,0|0,0:0|0:0,0:0:0:0:
330,164,52612,2,0,L|251:174,1,70,8|0,0:0|0:0,0:0:0:0:
172,149,52933,6,0,L|182:228,1,70,8|0,0:3|0:0,0:0:0:0:
89,220,53254,2,0,L|99:299,1,70,8|0,0:0|0:0,0:0:0:0:
184,317,53575,1,8,0:3:0:0:
273,301,53735,2,0,L|276:350,2,35,8|8|8,0:0|0:0|0:0,0:0:0:0:
296,212,54056,1,8,0:0:0:0:
296,212,54137,1,8,0:0:0:0:
296,212,54217,6,0,B|353:220|353:220|438:215,1,140,12|8,0:3|0:0,0:0:0:0:
497,148,54698,2,0,P|480:214|511:276,1,140,0|0,0:0|0:0,0:0:0:0:
457,349,55179,2,0,L|385:328,1,70,8|0,0:0|0:0,0:0:0:0:
300,311,55500,6,0,L|210:320,1,70,8|0,0:3|0:0,0:0:0:0:
204,229,55821,2,0,L|114:238,1,70,8|0,0:0|0:0,0:0:0:0:
65,295,56142,2,0,B|85:228|85:228|80:131,1,140,8|8,0:3|0:0,0:0:0:0:
26,85,56623,1,0,0:0:0:0:
113,59,56784,6,0,B|166:67|166:67|214:49|280:59,1,140,8|8,0:3|0:0,0:0:0:0:
319,115,57265,1,0,0:0:0:0:
408,97,57425,2,0,L|477:103,1,70,8|0,0:3|0:0,0:0:0:0:
453,191,57746,2,0,L|384:185,1,70,8|0,0:0|0:0,0:0:0:0:
292,195,58067,5,8,0:3:0:0:
223,135,58227,1,0,0:0:0:0:
168,208,58388,2,0,L|87:195,1,70,8|0,0:0|0:0,0:0:0:0:
37,129,58709,2,0,P|69:184|37:275,1,140,8|8,0:3|0:0,0:0:0:0:
47,350,59190,1,8,0:0:0:0:
47,350,59270,1,8,0:0:0:0:
47,350,59350,6,0,B|121:345|121:345|204:347,1,140,12|8,0:3|0:0,0:0:0:0:
256,289,59832,1,0,0:0:0:0:
318,355,59992,2,0,L|412:333,1,70,8|0,0:3|0:0,0:0:0:0:
338,261,60313,2,0,L|288:181,1,70,8|0,0:0|0:0,0:0:0:0:
209,206,60634,6,0,L|115:194,1,70,8|0,0:3|0:0,0:0:0:0:
163,109,60955,2,0,L|69:97,1,70,8|0,0:0|0:0,0:0:0:0:
31,33,61276,2,0,P|63:88|31:179,1,140,8|8,0:3|0:0,0:0:0:0:
5,240,61757,1,0,0:0:0:0:
94,255,61917,6,0,P|156:265|205:348,1,140,12|8,0:3|0:0,0:0:0:0:
202,323,62399,1,0,0:0:0:0:
280,276,62559,1,8,0:3:0:0:
344,340,62719,2,0,L|436:329,1,70,8|8,0:0|0:0,0:0:0:0:
494,289,63040,1,8,0:3:0:0:
449,209,63201,5,8,0:0:0:0:
286,190,63522,1,8,0:0:0:0:
286,190,63842,6,0,L|201:181,1,70,0|0,0:0|0:0,0:0:0:0:
49,289,64484,6,0,B|67:224|67:224|71:131,1,140,12|8,0:3|0:0,0:0:0:0:
0,92,64965,2,0,P|63:101|138:41,1,140,0|0,0:0|0:0,0:0:0:0:
214,46,65447,2,0,L|293:62,1,70,8|0,0:0|0:0,0:0:0:0:
232,136,65768,6,0,L|228:220,1,70,8|0,0:3|0:0,0:0:0:0:
320,191,66088,2,0,L|316:275,1,70,8|0,0:0|0:0,0:0:0:0:
253,325,66409,2,0,P|319:353|385:319,1,140,8|8,0:3|0:0,0:0:0:0:
435,257,66891,1,0,0:0:0:0:
404,171,67051,6,0,P|390:108|426:42,1,140,8|8,0:3|0:0,0:0:0:0:
477,118,67532,2,0,L|323:97,1,140,0|0,0:0|0:0,0:0:0:0:
252,67,68014,2,0,L|260:160,1,70,8|0,0:0|0:0,0:0:0:0:
261,227,68334,6,0,L|183:191,1,70,8|0,0:3|0:0,0:0:0:0:
187,288,68655,2,0,L|109:252,1,70,8|0,0:0|0:0,0:0:0:0:
99,170,68976,2,0,P|87:237|35:282,1,140,8|8,0:3|0:0,0:0:0:0:
11,194,69457,1,8,0:0:0:0:
32,105,69618,6,0,P|90:77|173:116,1,140,12|8,0:3|0:0,0:0:0:0:
208,175,70099,2,0,P|272:197|334:169,1,140,0|0,0:0|0:0,0:0:0:0:
391,98,70580,2,0,L|426:168,1,70,8|0,0:0|0:0,0:0:0:0:
483,227,70901,6,0,L|410:246,1,70,8|0,0:3|0:0,0:0:0:0:
413,335,71222,2,0,L|340:354,1,70,8|0,0:0|0:0,0:0:0:0:
257,327,71543,2,0,P|197:294|131:312,1,140,8|8,0:3|0:0,0:0:0:0:
48,348,72024,1,0,0:0:0:0:
57,257,72185,6,0,B|49:201|49:201|57:154|57:154|54:89,1,140,8|8,0:3|0:0,0:0:0:0:
2,44,72666,2,0,P|61:76|127:58,1,140
215,32,73147,2,0,L|212:115,1,70,8|0,0:0|0:0,0:0:0:0:
195,191,73468,6,0,L|264:176,1,70,8|0,0:3|0:0,0:0:0:0:
296,91,73789,2,0,L|365:76,1,70,8|0,0:0|0:0,0:0:0:0:
436,19,74110,1,8,0:3:0:0:
476,101,74270,2,0,L|526:96,2,35,8|8|8,0:0|0:0|0:0,0:0:0:0:
400,152,74591,1,8,0:0:0:0:
400,152,74671,1,8,0:0:0:0:
400,152,74751,6,0,B|394:225|394:225|400:300,1,140,12|8,0:3|0:0,0:0:0:0:
466,353,75233,2,0,P|407:321|341:339,1,140,0|0,0:0|0:0,0:0:0:0:
250,354,75714,2,0,L|239:253,1,70,8|0,0:0|0:0,0:0:0:0:
157,317,76035,6,0,L|97:261,1,70,8|0,0:3|0:0,0:0:0:0:
179,215,76356,2,0,L|119:159,1,70,8|0,0:0|0:0,0:0:0:0:
37,151,76677,2,0,P|103:145|149:93,1,140,8|8,0:3|0:0,0:0:0:0:
212,26,77158,1,0,0:0:0:0:
280,85,77318,6,0,B|321:75|321:75|374:78|374:78|434:63,1,140,8|8,0:3|0:0,0:0:0:0:
499,26,77800,1,0,0:0:0:0:
490,116,77960,2,0,L|490:190,1,70,8|0,0:3|0:0,0:0:0:0:
400,166,78281,2,0,L|400:240,1,70,8|0,0:0|0:0,0:0:0:0:
395,327,78602,5,8,0:3:0:0:
316,279,78762,1,0,0:0:0:0:
258,348,78923,2,0,L|165:331,1,70,8|0,0:0|0:0,0:0:0:0:
102,365,79243,2,0,P|152:321|159:252,1,140,8|8,0:3|0:0,0:0:0:0:
115,172,79725,1,8,0:0:0:0:
115,172,79805,1,8,0:0:0:0:
115,172,79885,6,0,B|187:160|187:160|265:164,1,140,12|8,0:3|0:0,0:0:0:0:
302,240,80366,1,0,0:0:0:0:
390,262,80527,2,0,L|403:176,1,70,8|0,0:3|0:0,0:0:0:0:
333,130,80848,2,0,L|320:44,1,70,8|0,0:0|0:0,0:0:0:0:
241,103,81169,6,0,L|162:77,1,70,8|0,0:3|0:0,0:0:0:0:
99,29,81489,2,0,L|20:55,1,70,8|0,0:0|0:0,0:0:0:0:
88,122,81810,2,0,B|90:188|90:188|80:273,1,140,8|8,0:3|0:0,0:0:0:0:
51,347,82292,1,0,0:0:0:0:
141,336,82452,6,0,P|205:351|266:315,1,140,12|8,0:3|0:0,0:0:0:0:
294,228,82933,1,0,0:0:0:0:
194,258,83094,1,8,0:0:0:0:
221,171,83254,2,0,L|231:91,1,70,8|8,0:3|0:0,0:0:0:0:
293,36,83575,1,8,0:3:0:0:
202,26,83735,5,8,0:0:0:0:
373,87,84056,1,8,0:0:0:0:
375,253,84858,6,0,P|369:283|360:315,2,35,8|8|12,2:0|2:0|2:0,2:0:0:0:
256,192,85099,12,0,88869,0:0:0:0:
