osu file format v14

[General]
AudioFilename: DOES - Guren.mp3
AudioLeadIn: 2000
PreviewTime: 43308
Countdown: 0
SampleSet: Soft
StackLeniency: 0.7
Mode: 0
LetterboxInBreaks: 1
WidescreenStoryboard: 1

[Editor]
DistanceSpacing: 1
BeatDivisor: 4
GridSize: 4
TimelineZoom: 1.1

[Metadata]
Title:Guren
TitleUnicode:紅蓮
Artist:DOES
ArtistUnicode:DOES
Creator:Kagetsu
Version:Easy
Source:NARUTO-ナルト-疾風伝
Tags:Ki/oon Records Wataru Ujihara Yasushi Akatsuka Kēsaku Morita shippuden opening 15 tv size
BeatmapID:919238
BeatmapSetID:424295

[Difficulty]
HPDrainRate:2
CircleSize:3
OverallDifficulty:2
ApproachRate:3
SliderMultiplier:0.9
SliderTickRate:1

[Events]
//Background and Video events
Video,0,"BG.avi"
0,0,"644129.jpg",0,0
//Break Periods
//Storyboard Layer 0 (Background)
//Storyboard Layer 1 (Fail)
//Storyboard Layer 2 (Pass)
//Storyboard Layer 3 (Foreground)
//Storyboard Sound Samples

[TimingPoints]
781,326.086956521739,4,2,1,60,1,0
3389,321.199143468951,4,2,1,60,1,0
11097,315.789473684211,4,2,1,60,1,0
38886,312.174817898023,4,2,1,60,1,0
41383,320.855614973262,4,2,1,60,1,0
43949,-100,4,2,1,80,0,1
63522,-100,4,2,1,80,0,0
64484,-100,4,2,1,80,0,1
84056,-100,4,2,1,80,0,0
85661,-100,4,2,1,60,0,0
86302,-100,4,2,1,40,0,0
86944,-100,4,2,1,20,0,0
87586,-100,4,2,1,10,0,0
88869,-100,4,2,1,5,0,0

[Colours]
Combo1 : 187,0,187
Combo2 : 51,51,255
Combo3 : 255,138,21
Combo4 : 242,24,57

[HitObjects]
396,211,781,6,0,L|261:224,1,135,8|8,0:1|0:1,0:0:0:0:
340,331,1759,2,0,L|495:315,2,135,8|8|12,0:1|0:1|0:0,0:0:0:0:
157,330,3389,5,12,0:3:0:0:
202,252,3710,2,0,B|301:241|301:241|383:195,1,180,8|8,0:0|0:0,0:0:0:0:
398,117,4673,1,8,0:3:0:0:
309,98,4994,2,0,P|231:137|146:80,1,180,8|8,0:0|0:0,0:0:0:0:
94,29,5958,1,8,0:3:0:0:
67,115,6279,6,0,B|52:168|73:202|73:202|68:254|68:254|95:310,1,180,8|8,0:0|0:0,0:0:0:0:
162,332,7243,2,0,L|248:393,2,90,8|8|8,0:3|0:0|0:3,0:0:0:0:
167,242,8206,1,8,0:0:0:0:
251,204,8528,6,0,P|267:161|263:116,1,90,4|2,0:3|0:0,0:0:0:0:
179,88,9170,2,0,P|133:90|93:70,1,90,2|2,0:0|0:0,0:0:0:0:
72,158,9812,2,0,L|87:246,1,90,2|2,0:0|0:0,0:0:0:0:
152,308,10455,1,8,0:0:0:0:
334,274,11097,5,12,0:3:0:0:
315,186,11412,2,0,B|282:51|282:51|219:6,2,180,8|8|8,0:0|0:0|0:0,0:0:0:0:
237,232,12991,2,0,P|191:238|149:214,1,90,8|8,0:3|0:0,0:0:0:0:
110,139,13623,5,8,0:3:0:0:
129,51,13939,2,0,P|46:74|33:184,1,180,8|8,0:0|0:0,0:0:0:0:
55,240,14886,1,8,0:3:0:0:
127,293,15202,2,0,B|237:289|237:289|322:312,1,180,8|8,0:0|0:0,0:0:0:0:
393,318,16149,5,12,0:3:0:0:
421,232,16465,2,0,P|477:293|455:381,2,180,8|8|8,0:0|0:0|0:0,0:0:0:0:
331,227,18044,2,0,P|343:182|406:148,1,90,8|8,0:3|0:0,0:0:0:0:
453,110,18675,5,8,0:3:0:0:
388,47,18991,2,0,B|290:50|290:50|190:27,1,180,8|8,0:0|0:0,0:0:0:0:
122,7,19939,2,0,L|109:189,1,180,8|8,0:3|0:0,0:0:0:0:
102,276,20886,1,8,0:0:0:0:
180,231,21202,6,0,P|268:213|313:118,1,180,12|8,0:3|0:3,0:0:0:0:
354,60,22149,2,0,B|395:83|406:123|398:167|398:167|413:245,1,180,8|8,0:0|0:0,0:0:0:0:
367,302,23097,2,0,L|271:325,1,90,8|8,0:3|0:0,0:0:0:0:
195,295,23728,6,0,B|163:249|163:249|125:224|104:189|116:143,1,180,8|8,0:3|0:3,0:0:0:0:
207,159,24675,2,0,B|296:171|296:171|425:140,2,180,8|8|8,0:0|0:0|0:0,0:0:0:0:
206,68,26254,6,0,B|153:54|153:54|106:58|106:58|74:28|17:35,1,180,12|8,0:3|0:3,0:0:0:0:
45,125,27202,2,0,B|28:171|65:211|43:251|43:251|60:312,1,180,8|8,0:0|0:0,0:0:0:0:
142,267,28149,2,0,L|257:259,1,90,8|8,0:3|0:0,0:0:0:0:
249,348,28781,6,0,L|150:358,2,90,8|8|8,0:3|0:0|0:3,0:0:0:0:
338,355,29728,2,0,P|379:298|496:316,1,180,8|8,0:0|0:0,0:0:0:0:
491,212,30675,2,0,L|497:108,1,90,8|8,0:0|0:0,0:0:0:0:
410,149,31307,6,0,P|328:177|252:100,1,180,12|8,0:3|0:3,0:0:0:0:
281,36,32254,2,0,B|188:27|188:27|61:42,1,180,8|8,0:0|0:0,0:0:0:0:
12,51,33202,2,0,L|28:158,1,90,8|8,0:3|0:0,0:0:0:0:
45,229,33833,6,0,B|88:257|88:257|240:257,1,180,8|8,0:3|0:3,0:0:0:0:
246,342,34781,2,0,B|117:342|117:342|74:370,2,180,8|8|8,0:0|0:0|0:0,0:0:0:0:
331,308,36360,6,0,P|356:267|345:216,1,90,12|8,0:3|0:0,0:0:0:0:
291,160,36991,2,0,P|280:69|346:17,1,180,8|0,0:3|0:0,0:0:0:0:
429,45,37939,1,8,0:0:0:0:
445,133,38254,2,0,L|452:247,1,90,8|8,0:3|0:0,0:0:0:0:
487,306,38886,6,0,P|441:266|328:312,1,180,12|8,0:3|0:3,0:0:0:0:
260,348,39822,1,8,0:0:0:0:
170,342,40134,2,0,B|118:322|118:322|86:292|86:292|40:290|-25:241,1,180,8|8,0:3|0:3,0:0:0:0:
60,190,41071,1,8,0:0:0:0:
76,104,41383,6,0,P|130:132|143:195,1,90,12|8,0:3|0:0,0:0:0:0:
169,241,42024,2,0,P|222:270|285:251,1,90,8|8,0:0|0:0,0:0:0:0:
337,289,42666,2,0,L|456:282,1,90,8|8,0:0|0:0,0:0:0:0:
463,21,43949,6,0,L|333:17,1,90,12|8,0:3|0:0,0:0:0:0:
310,83,44591,2,0,L|180:79,1,90,8|8,0:3|0:0,0:0:0:0:
150,22,45233,2,0,B|122:71|136:109|136:109|115:138|121:196,1,180,8|8,0:3|0:3,0:0:0:0:
115,284,46195,1,8,0:0:0:0:
200,315,46516,6,0,P|253:309|292:272,1,90,8|8,0:3|0:0,0:0:0:0:
298,198,47158,2,0,P|341:187|383:200,1,90,8|8,0:3|0:0,0:0:0:0:
403,288,47800,2,0,P|466:239|425:121,1,180,8|8,0:3|0:3,0:0:0:0:
383,94,48762,1,8,0:0:0:0:
297,64,49083,6,0,P|257:41|213:41,1,90,12|8,0:3|0:0,0:0:0:0:
188,127,49725,2,0,L|194:247,1,90,8|8,0:3|0:0,0:0:0:0:
270,262,50366,2,0,P|200:310|112:261,1,180,8|8,0:3|0:3,0:0:0:0:
99,186,51329,1,8,0:0:0:0:
103,96,51650,6,0,P|124:47|171:21,1,90,8|8,0:3|0:0,0:0:0:0:
194,106,52292,2,0,P|245:90|295:109,1,90,8|8,0:3|0:0,0:0:0:0:
245,182,52933,2,0,P|305:243|278:354,1,180,8|8,0:3|0:3,0:0:0:0:
207,340,53896,1,8,0:0:0:0:
155,265,54217,6,0,L|145:160,1,90,12|8,0:3|0:0,0:0:0:0:
184,93,54858,2,0,P|131:84|84:109,1,90,8|8,0:3|0:0,0:0:0:0:
56,177,55500,2,0,B|61:239|61:239|48:306|48:306|67:370,1,180,8|8,0:3|0:3,0:0:0:0:
152,353,56463,1,8,0:0:0:0:
241,345,56784,6,0,L|330:340,1,90,8|8,0:3|0:0,0:0:0:0:
348,251,57425,2,0,L|259:256,1,90,8|8,0:3|0:0,0:0:0:0:
284,169,58067,2,0,L|480:154,1,180,8|8,0:3|0:3,0:0:0:0:
508,233,59030,1,8,0:0:0:0:
465,312,59350,6,0,P|420:327|370:313,1,90,12|8,0:3|0:0,0:0:0:0:
291,296,59992,1,8,0:3:0:0:
239,221,60313,2,0,P|195:295|238:370,1,180,8|8,0:0|0:0,0:0:0:0:
328,384,61276,2,0,P|374:344|367:278,1,90,8|8,0:3|0:0,0:0:0:0:
381,227,61917,5,12,0:3:0:0:
342,146,62238,2,0,P|252:142|203:44,1,180,8|8,0:0|0:0,0:0:0:0:
124,30,63201,2,0,L|24:56,1,90,8|8,0:0|0:0,0:0:0:0:
22,322,64484,6,0,P|62:345|106:345,1,90,12|8,0:3|0:0,0:0:0:0:
193,329,65126,2,0,L|301:323,1,90,8|8,0:3|0:0,0:0:0:0:
371,304,65768,2,0,B|400:253|392:218|392:218|415:191|415:133,1,180,8|8,0:3|0:3,0:0:0:0:
421,43,66730,1,8,0:0:0:0:
331,29,67051,6,0,L|229:34,1,90,8|8,0:3|0:0,0:0:0:0:
204,116,67693,2,0,L|75:99,1,90,8|8,0:3|0:0,0:0:0:0:
66,28,68334,2,0,P|23:102|77:188,1,180,8|8,0:3|0:3,0:0:0:0:
124,245,69297,1,8,0:0:0:0:
178,316,69618,6,0,L|295:309,1,90,12|8,0:3|0:0,0:0:0:0:
313,232,70260,2,0,L|430:239,1,90,8|8,0:3|0:0,0:0:0:0:
443,317,70901,2,0,B|484:294|495:254|487:210|487:210|502:132,1,180,8|8,0:3|0:3,0:0:0:0:
466,70,71864,1,8,0:0:0:0:
378,93,72185,6,0,L|268:79,1,90,8|8,0:3|0:0,0:0:0:0:
215,29,72826,2,0,P|198:85|216:132,1,90,8|8,0:3|0:0,0:0:0:0:
272,173,73468,2,0,P|191:204|121:142,1,180,8|8,0:3|0:3,0:0:0:0:
74,75,74431,1,8,0:0:0:0:
29,152,74751,6,0,L|41:304,1,90,12|8,0:3|0:0,0:0:0:0:
74,323,75393,2,0,P|116:337|160:331,1,90,8|8,0:3|0:0,0:0:0:0:
250,328,76035,2,0,B|297:346|337:310|377:333|377:333|439:319,1,180,8|8,0:3|0:3,0:0:0:0:
464,240,76997,1,8,0:0:0:0:
379,213,77318,6,0,P|406:167|456:147,1,90,8|8,0:3|0:0,0:0:0:0:
508,94,77960,2,0,P|462:64|408:68,1,90,8|8,0:3|0:0,0:0:0:0:
342,92,78602,2,0,P|260:120|174:45,1,180,8|8,0:3|0:3,0:0:0:0:
97,56,79564,1,8,0:0:0:0:
62,141,79885,6,0,L|70:242,1,90,12|8,0:3|0:0,0:0:0:0:
113,309,80527,2,0,P|191:245|343:293,1,270,8|8,0:3|0:0,0:0:0:0:
374,375,81810,2,0,P|417:342|424:277,1,90,8|8,0:3|0:0,0:0:0:0:
419,219,82452,5,12,0:3:0:0:
388,134,82773,2,0,B|287:147|299:84|199:97,1,180,8|8,0:0|0:0,0:0:0:0:
127,76,83735,2,0,L|145:198,1,90,8|8,0:0|0:0,0:0:0:0:
256,192,85019,12,0,88869,0:0:0:0:
