osu file format v14

[General]
AudioFilename: audio.mp3
AudioLeadIn: 0
PreviewTime: 43308
Countdown: 0
SampleSet: Soft
StackLeniency: 0.7
Mode: 2
LetterboxInBreaks: 0
WidescreenStoryboard: 0

[Editor]
Bookmarks: 10134
DistanceSpacing: 1
BeatDivisor: 4
GridSize: 32
TimelineZoom: 1.4

[Metadata]
Title:Guren
TitleUnicode:紅蓮
Artist:DOES
ArtistUnicode:DOES
Creator:-Sh1n1-
Version:Ascendance's Kage
Source:NARUTO-ナルト-疾風伝
Tags:Ki/oon Records Wataru Ujihara Yasushi Akatsuka Kēsaku Morita shippuden opening 15 op15 shini tv size ascendance
BeatmapID:1435371
BeatmapSetID:677772

[Difficulty]
HPDrainRate:7
CircleSize:4.2
OverallDifficulty:9.3
ApproachRate:9.3
SliderMultiplier:1.96
SliderTickRate:2

[Events]
//Background and Video events
0,0,"NarutoBG.jpg",0,0
Video,0,"BG.avi"
//Break Periods
//Storyboard Layer 0 (Background)
//Storyboard Layer 1 (Fail)
//Storyboard Layer 2 (Pass)
//Storyboard Layer 3 (Foreground)
//Storyboard Sound Samples

[TimingPoints]
781,326.086956521739,4,2,1,60,1,0
3389,321.199143468951,4,2,1,60,1,0
11097,315.789473684211,4,2,1,60,1,0
38886,312.174817898023,4,2,1,60,1,0
41383,320.855614973262,4,2,1,60,1,0
43949,-100,4,2,1,80,0,1
63522,-100,4,2,1,80,0,0
64484,-100,4,2,1,80,0,1
84056,-100,4,2,1,80,0,0
85661,-100,4,2,1,60,0,0
86302,-100,4,2,1,40,0,0
86944,-100,4,2,1,20,0,0
87586,-100,4,2,1,10,0,0
88869,-100,4,2,1,5,0,0

[Colours]
Combo1 : 130,186,242
Combo2 : 255,255,106
Combo3 : 124,124,190
Combo4 : 241,75,46

[HitObjects]
256,320,781,5,8,0:1:0:0:
208,283,862,1,8,0:1:0:0:
206,235,944,1,8,0:0:0:0:
253,200,1025,1,8,0:0:0:0:
428,214,1107,2,0,L|434:157,1,49,8|8,0:0|0:0,0:0:0:0:
204,60,1270,6,0,L|145:60,1,49,8|8,0:1|0:1,0:0:0:0:
204,60,1433,2,0,L|281:59,1,49,8|8,0:0|0:0,0:0:0:0:
56,146,1596,2,0,L|50:97,1,49,8|8,0:0|0:0,0:0:0:0:
246,271,1759,6,0,L|297:270,1,49,8|8,0:1|0:1,0:0:0:0:
343,270,1922,2,0,L|273:270,1,49,8|8,0:0|0:0,0:0:0:0:
127,166,2085,2,0,L|112:106,1,49,8|8,0:0|0:0,0:0:0:0:
360,86,2248,6,0,L|416:84,1,49,8|8,0:1|0:1,0:0:0:0:
217,21,2411,2,0,L|159:22,1,49,8|8,0:0|0:0,0:0:0:0:
360,86,2574,2,0,L|416:84,1,49,8|8,0:0|0:0,0:0:0:0:
168,276,2737,2,0,P|119:200|190:131,1,196,12|0,0:0|0:0,0:0:0:0:
412,72,3389,6,0,L|214:77,1,196,12|8,0:3|0:0,0:0:0:0:
331,162,3870,1,0,0:0:0:0:
182,205,4031,2,0,L|197:308,1,98,8|8,0:3|0:3,0:0:0:0:
452,344,4352,2,0,L|334:354,1,98,8|0,0:0|0:0,0:0:0:0:
88,220,4673,6,0,L|290:233,1,196,8|8,0:3|0:0,0:0:0:0:
424,245,5155,1,0,0:0:0:0:
300,134,5316,2,0,L|405:145,1,98,8|8,0:3|0:3,0:0:0:0:
123,202,5637,2,0,L|112:105,1,98,8|0,0:0|0:0,0:0:0:0:
334,40,5958,6,0,L|139:52,1,196,8|8,0:3|0:0,0:0:0:0:
305,126,6440,2,8,L|304:227,1,98,0|0,0:0|0:0,0:0:0:0:
174,175,6761,1,8,0:3:0:0:
461,266,6922,2,0,L|469:154,1,98,8|0,0:0|0:0,0:0:0:0:
128,298,7243,6,0,L|227:309,2,98,8|0|8,0:3|0:0|0:0,0:0:0:0:
282,228,7725,1,0,0:0:0:0:
48,154,7885,1,4,0:3:0:0:
190,251,8046,2,0,L|231:202,1,49,8|8,0:0|0:0,0:0:0:0:
48,154,8206,1,8,0:0:0:0:
191,253,8367,2,0,L|228:203,1,49,8|8,0:0|0:0,0:0:0:0:
435,235,8528,6,0,P|480:158|421:78,1,196,4|2,0:3|0:0,0:0:0:0:
191,57,9170,2,0,L|390:44,1,196,2|2,0:0|0:0,0:0:0:0:
77,235,9812,2,0,P|32:158|91:78,1,196,2|2,0:0|0:0,0:0:0:0:
316,78,10455,1,8,0:0:0:0:
68,41,10615,1,8,0:0:0:0:
316,78,11097,5,12,0:3:0:0:
68,41,11254,1,8,0:3:0:0:
177,127,11412,2,0,L|277:117,1,98,8|0,0:0|0:0,0:0:0:0:
422,217,11728,2,0,L|310:204,1,98,0|0,0:0|0:0,0:0:0:0:
64,318,12044,2,0,L|61:214,1,98,8|0,0:0|0:0,0:0:0:0:
331,294,12360,6,0,L|333:188,1,98,8|8,0:3|0:3,0:0:0:0:
203,150,12675,1,8,0:0:0:0:
326,60,12833,2,0,L|121:67,1,196,0|8,0:0|0:3,0:0:0:0:
260,160,13307,2,0,L|379:158,1,98,8|0,0:0|0:0,0:0:0:0:
101,239,13623,5,8,0:3:0:0:
428,325,13781,1,0,0:0:0:0:
299,254,13939,2,0,L|312:143,1,98,8|0,0:0|0:0,0:0:0:0:
452,72,14254,2,0,L|341:81,1,98,8|8,0:3|0:3,0:0:0:0:
127,48,14570,1,8,0:0:0:0:
267,72,14728,1,0,0:0:0:0:
32,211,14886,6,0,L|139:198,2,98,8|8|8,0:3|0:3|0:0,0:0:0:0:
192,275,15360,2,0,L|405:295,1,196,0|0,0:0|0:0,0:0:0:0:
278,182,15833,2,0,L|156:189,1,98,8|8,0:0|0:0,0:0:0:0:
218,141,16070,1,8,0:0:0:0:
432,122,16149,5,12,0:3:0:0:
167,66,16307,1,8,0:3:0:0:
299,117,16465,2,0,L|290:221,1,98,8|0,0:0|0:0,0:0:0:0:
148,317,16781,2,0,L|259:329,1,98,0|0,0:0|0:0,0:0:0:0:
7,214,17097,2,0,L|129:201,1,98,8|0,0:0|0:0,0:0:0:0:
386,159,17412,6,0,L|508:176,2,98,8|8|8,0:3|0:3|0:0,0:0:0:0:
253,68,17886,2,0,P|192:135|273:221,1,196,0|8,0:0|0:3,0:0:0:0:
495,302,18360,2,0,L|386:303,1,98,8|0,0:0|0:0,0:0:0:0:
99,301,18675,5,8,0:3:0:0:
343,214,18833,1,8,0:3:0:0:
226,160,18991,2,0,L|126:169,1,98,8|0,0:0|0:0,0:0:0:0:
291,90,19307,2,0,L|398:98,1,98,8|8,0:3|0:3,0:0:0:0:
74,121,19623,2,0,L|71:18,1,98,8|0,0:0|0:0,0:0:0:0:
354,220,19939,5,8,0:3:0:0:
218,234,20097,1,8,0:3:0:0:
354,220,20254,2,0,L|363:116,1,98,8|8,0:0|0:3,0:0:0:0:
74,62,20570,1,8,0:0:0:0:
221,132,20728,2,0,L|213:186,1,49,8|8,0:0|0:0,0:0:0:0:
51,231,20886,2,0,L|62:294,1,49,8|8,0:0|0:0,0:0:0:0:
270,346,21044,2,0,L|329:351,1,49,8|8,0:0|0:0,0:0:0:0:
150,239,21202,6,0,L|357:220,1,196,12|8,0:3|0:0,0:0:0:0:
222,149,21675,1,0,0:0:0:0:
375,50,21833,2,0,L|368:161,1,98,8|8,0:3|0:3,0:0:0:0:
212,207,22149,2,0,L|206:318,1,98,8|8,0:0|0:3,0:0:0:0:
461,240,22465,6,0,L|349:252,1,98,0|8,0:0|0:3,0:0:0:0:
201,333,22781,2,0,L|190:225,1,98,8|0,0:0|0:0,0:0:0:0:
318,165,23097,2,0,L|418:147,1,98,8|8,0:3|0:3,0:0:0:0:
122,103,23412,2,0,L|16:91,1,98,8|0,0:0|0:0,0:0:0:0:
346,26,23728,6,0,L|140:31,1,196,8|8,0:3|0:0,0:0:0:0:
283,110,24202,1,0,0:0:0:0:
151,146,24360,2,0,L|159:246,1,98,8|8,0:3|0:3,0:0:0:0:
482,307,24675,2,0,L|377:318,1,98,8|8,0:0|0:3,0:0:0:0:
243,204,24991,6,0,L|442:226,1,196,0|8,0:0|0:0,0:0:0:0:
172,348,25623,2,0,L|159:244,1,98,8|8,0:3|0:0,0:0:0:0:
306,210,25939,2,0,L|316:97,1,98,8|0,0:0|0:0,0:0:0:0:
61,45,26254,6,0,P|1:113|65:196,1,196,12|8,0:3|0:0,0:0:0:0:
191,202,26728,1,0,0:0:0:0:
62,283,26886,2,0,L|167:282,1,98,8|8,0:3|0:3,0:0:0:0:
303,335,27202,2,0,L|409:335,1,98,8|8,0:0|0:3,0:0:0:0:
239,257,27518,6,0,L|139:257,1,98,0|8,0:0|0:3,0:0:0:0:
432,192,27833,2,0,L|532:192,1,98,8|0,0:0|0:0,0:0:0:0:
372,95,28149,2,0,L|481:95,1,98,8|8,0:3|0:3,0:0:0:0:
166,186,28465,2,0,L|161:80,1,98,8|0,0:0|0:0,0:0:0:0:
426,294,28781,5,8,0:3:0:0:
282,310,28939,1,0,0:0:0:0:
426,294,29097,2,0,L|432:186,1,98,8|0,0:0|0:0,0:0:0:0:
296,161,29412,2,0,L|190:153,1,98,8|8,0:3|0:3,0:0:0:0:
472,79,29728,2,0,L|368:71,1,98,8|8,0:0|0:3,0:0:0:0:
204,197,30044,6,0,L|406:177,1,196,0|8,0:0|0:0,0:0:0:0:
261,97,30518,1,8,0:3:0:0:
41,97,30675,2,0,L|141:97,1,98,8|8,0:0|0:3,0:0:0:0:
399,148,30991,2,0,L|518:148,1,98,8|8,0:0|0:0,0:0:0:0:
451,117,31228,1,8,0:0:0:0:
194,72,31307,6,0,P|135:133|208:217,1,196,12|8,0:3|0:0,0:0:0:0:
332,222,31781,1,0,0:0:0:0:
170,352,31939,2,0,L|162:237,1,98,8|8,0:3|0:3,0:0:0:0:
280,138,32254,2,0,L|419:127,1,98,8|8,0:0|0:3,0:0:0:0:
211,79,32570,6,0,L|103:89,1,98,0|8,0:0|0:3,0:0:0:0:
391,308,32886,2,0,L|401:192,1,98,8|0,0:0|0:0,0:0:0:0:
264,108,33202,2,0,L|377:106,1,98,8|8,0:3|0:3,0:0:0:0:
125,218,33518,2,0,L|24:222,1,98,8|0,0:0|0:0,0:0:0:0:
290,336,33833,6,0,P|337:258|266:180,1,196,8|8,0:3|0:0,0:0:0:0:
141,172,34307,1,0,0:0:0:0:
262,185,34465,2,0,L|365:180,1,98,8|8,0:3|0:3,0:0:0:0:
125,116,34781,2,0,L|20:119,1,98,8|8,0:0|0:3,0:0:0:0:
156,32,35097,6,0,L|354:22,1,196,0|8,0:0|0:0,0:0:0:0:
200,207,35728,2,0,L|194:105,1,98,8|8,0:3|0:3,0:0:0:0:
330,141,36044,2,0,L|432:133,1,98,8|0,0:0|0:0,0:0:0:0:
77,273,36360,6,0,L|275:287,2,196,12|8|8,0:3|0:0|0:3,0:0:0:0:
202,187,37149,1,8,0:3:0:0:
65,92,37307,2,0,L|70:192,1,98,8|8,0:0|0:3,0:0:0:0:
226,269,37623,6,0,L|330:277,1,98,0|8,0:0|0:3,0:0:0:0:
68,353,37939,2,0,L|57:252,1,98,8|0,0:0|0:0,0:0:0:0:
295,126,38254,2,0,L|192:122,1,98,8|8,0:3|0:3,0:0:0:0:
295,126,38570,2,0,L|410:135,1,98,8|0,0:0|0:0,0:0:0:0:
51,328,38886,5,12,0:3:0:0:
165,268,39042,2,0,L|169:219,1,49,8|0,0:3|0:0,0:0:0:0:
112,190,39198,1,8,0:0:0:0:
291,163,39354,1,0,0:0:0:0:
164,116,39510,1,8,0:3:0:0:
291,163,39666,1,8,0:3:0:0:
41,190,39822,2,0,L|34:86,1,98,8|0,0:0|0:0,0:0:0:0:
438,63,40134,5,8,0:3:0:0:
278,112,40290,1,8,0:3:0:0:
436,166,40446,1,8,0:0:0:0:
278,112,40602,1,0,0:0:0:0:
229,108,40680,1,0,0:0:0:0:
180,104,40758,1,8,0:3:0:0:
334,48,40915,1,8,0:3:0:0:
98,301,41071,2,0,L|90:195,1,98,8|0,0:0|0:0,0:0:0:0:
394,241,41383,6,0,L|511:227,1,98,12|8,0:3|0:3,0:0:0:0:
124,140,41703,1,8,0:0:0:0:
374,172,41864,1,0,0:0:0:0:
62,304,42024,2,0,L|53:169,1,98,8|8,0:0|0:3,0:0:0:0:
339,177,42345,1,8,0:0:0:0:
33,83,42505,1,8,0:3:0:0:
484,56,42666,5,8,0:0:0:0:
58,160,42987,1,8,0:0:0:0:
222,299,43308,2,0,P|273:228|200:163,1,196
92,167,43789,1,8,0:0:0:0:
365,353,43949,6,0,L|374:243,1,98,12|0,0:3|0:0,0:0:0:0:
219,223,44270,1,8,0:0:0:0:
452,182,44431,2,0,L|463:78,1,98,0|8,0:0|0:3,0:0:0:0:
205,129,44751,2,0,L|98:118,1,98,0|8,0:0|0:0,0:0:0:0:
397,253,45072,6,0,L|181:262,1,196,0|0,0:0|0:0,0:0:0:0:
327,159,45554,2,0,L|430:174,1,98,8|0,0:0|0:0,0:0:0:0:
270,335,45874,2,0,L|266:225,1,98,8|0,0:3|0:0,0:0:0:0:
129,202,46195,2,0,L|122:97,1,98,8|0,0:0|0:0,0:0:0:0:
353,104,46516,6,0,L|467:93,2,98,8|0|8,0:3|0:0|0:0,0:0:0:0:
65,268,46997,2,0,L|186:258,1,98,0|8,0:0|0:3,0:0:0:0:
434,355,47318,2,0,L|446:246,1,98,0|8,0:0|0:0,0:0:0:0:
145,129,47639,6,0,L|350:145,1,196,0|0,0:0|0:0,0:0:0:0:
192,285,48120,2,0,L|187:181,1,98,8|0,0:0|0:0,0:0:0:0:
467,131,48441,2,0,L|359:128,1,98,8|8,0:3|0:0,0:0:0:0:
140,74,48762,2,0,L|22:68,1,98,8|8,0:0|0:0,0:0:0:0:
81,108,49003,1,8,0:0:0:0:
317,145,49083,5,12,0:3:0:0:
172,222,49243,1,0,0:0:0:0:
317,145,49404,2,0,L|425:152,1,98,8|0,0:0|0:0,0:0:0:0:
116,47,49725,2,0,L|252:59,2,98,8|0|8,0:3|0:0|0:0,0:0:0:0:
383,294,50206,6,0,P|431:213|351:132,1,196,0|0,0:0|0:0,0:0:0:0:
249,110,50687,2,0,L|126:111,1,98,8|0,0:0|0:0,0:0:0:0:
324,59,51008,2,0,L|428:59,1,98,8|0,0:3|0:0,0:0:0:0:
121,302,51329,2,0,L|114:189,1,98,8|0,0:0|0:0,0:0:0:0:
362,120,51650,6,0,L|154:126,1,196,8|8,0:3|0:0,0:0:0:0:
422,308,52131,2,0,P|471:228|410:156,1,196,0|0,0:0|0:0,0:0:0:0:
139,152,52612,1,8,0:0:0:0:
389,71,52773,6,0,L|181:75,1,196,0|0,0:0|0:0,0:0:0:0:
337,230,53254,2,0,L|344:122,1,98,8|0,0:0|0:0,0:0:0:0:
108,182,53575,2,0,L|11:173,1,98,8|8,0:3|0:0,0:0:0:0:
53,208,53816,1,8,0:0:0:0:
391,324,53896,2,0,L|492:313,1,98,8|8,0:0|0:0,0:0:0:0:
436,281,54137,1,8,0:0:0:0:
182,265,54217,6,0,L|179:161,1,98,12|0,0:3|0:0,0:0:0:0:
315,121,54538,1,8,0:0:0:0:
37,52,54698,2,0,L|141:62,1,98,0|8,0:0|0:3,0:0:0:0:
432,247,55019,2,0,L|446:118,1,98,0|8,0:0|0:0,0:0:0:0:
166,324,55340,6,0,L|365:315,1,196,0|0,0:0|0:0,0:0:0:0:
215,244,55821,2,0,L|211:142,1,98,8|0,0:0|0:0,0:0:0:0:
338,188,56142,2,0,L|441:182,1,98,8|0,0:3|0:0,0:0:0:0:
164,58,56463,2,0,L|53:56,1,98,8|0,0:0|0:0,0:0:0:0:
418,45,56784,6,0,L|414:156,1,98,8|0,0:3|0:0,0:0:0:0:
123,204,57104,1,8,0:0:0:0:
290,245,57265,1,0,0:0:0:0:
36,312,57425,2,0,L|168:295,2,98,8|0|8,0:3|0:0|0:0,0:0:0:0:
337,157,57907,6,0,L|128:135,1,196,0|0,0:0|0:0,0:0:0:0:
320,23,58388,2,0,L|304:121,1,98,8|0,0:0|0:0,0:0:0:0:
134,215,58709,2,0,L|150:313,1,98,8|0,0:3|0:0,0:0:0:0:
416,349,59030,2,0,L|523:343,1,98,8|8,0:0|0:0,0:0:0:0:
461,311,59270,1,8,0:0:0:0:
167,293,59350,6,0,P|121:203|192:133,1,196,12|8,0:3|0:0,0:0:0:0:
312,136,59832,1,0,0:0:0:0:
172,138,59992,2,0,L|67:139,1,98,8|0,0:3|0:0,0:0:0:0:
381,255,60313,2,0,L|496:257,1,98,8|0,0:0|0:0,0:0:0:0:
185,335,60634,5,8,0:3:0:0:
319,339,60794,1,0,0:0:0:0:
98,280,60955,2,0,L|0:280,1,98,8|0,0:0|0:0,0:0:0:0:
319,339,61276,1,8,0:3:0:0:
185,335,61436,1,0,0:0:0:0:
414,280,61596,2,0,L|512:280,1,98,8|0,0:0|0:0,0:0:0:0:
214,133,61917,6,0,L|113:133,1,98,12|0,0:3|0:0,0:0:0:0:
277,80,62238,2,0,L|401:79,1,98,8|0,0:0|0:0,0:0:0:0:
96,177,62559,1,8,0:3:0:0:
341,210,62719,1,8,0:0:0:0:
343,258,62799,1,0,0:0:0:0:
345,307,62879,1,8,0:0:0:0:
96,177,63040,1,0,0:0:0:0:
444,254,63201,5,8,0:0:0:0:
32,103,63522,1,8,0:0:0:0:
230,46,63842,2,0,L|427:55,1,196,0|0,0:0|0:0,0:0:0:0:
325,129,64324,1,8,0:0:0:0:
102,216,64484,6,0,L|1:222,2,98,12|0|8,0:3|0:0|0:0,0:0:0:0:
373,328,64965,2,0,L|376:225,1,98,0|8,0:0|0:3,0:0:0:0:
134,127,65286,2,0,L|249:118,1,98,0|8,0:0|0:0,0:0:0:0:
459,82,65607,6,0,L|254:72,1,196,0|0,0:0|0:0,0:0:0:0:
365,242,66088,2,0,L|373:129,1,98,8|0,0:0|0:0,0:0:0:0:
208,200,66409,2,0,L|103:203,1,98,8|0,0:3|0:0,0:0:0:0:
441,356,66730,2,0,L|448:252,1,98,8|0,0:0|0:0,0:0:0:0:
180,176,67051,6,0,L|292:171,2,98,8|0|8,0:3|0:0|0:0,0:0:0:0:
421,248,67532,2,0,L|434:147,1,98,0|8,0:0|0:3,0:0:0:0:
151,98,67853,2,0,L|46:91,1,98,0|8,0:0|0:0,0:0:0:0:
354,31,68174,6,0,L|157:35,1,196,0|0,0:0|0:0,0:0:0:0:
304,125,68655,2,0,L|417:121,1,98,8|0,0:0|0:0,0:0:0:0:
234,197,68976,2,0,L|126:202,1,98,8|8,0:3|0:0,0:0:0:0:
450,335,69297,2,0,L|458:232,1,98,8|8,0:0|0:0,0:0:0:0:
400,204,69538,1,8,0:0:0:0:
195,145,69618,5,12,0:3:0:0:
331,144,69778,1,0,0:0:0:0:
195,145,69939,2,0,L|83:143,1,98,8|0,0:0|0:0,0:0:0:0:
374,56,70260,2,0,L|265:56,2,98,8|0|8,0:3|0:0|0:0,0:0:0:0:
123,324,70741,6,0,P|75:243|156:167,1,196,0|0,0:0|0:0,0:0:0:0:
273,224,71222,2,0,L|281:117,1,98,8|0,0:0|0:0,0:0:0:0:
155,86,71543,2,0,L|45:77,1,98,8|0,0:3|0:0,0:0:0:0:
353,217,71864,2,0,L|455:221,1,98,8|0,0:0|0:0,0:0:0:0:
150,120,72185,6,0,L|358:126,1,196,8|8,0:3|0:0,0:0:0:0:
89,336,72666,2,0,P|40:256|101:184,1,196,0|0,0:0|0:0,0:0:0:0:
319,180,73147,1,8,0:0:0:0:
67,83,73308,6,0,L|275:87,1,196,0|0,0:0|0:0,0:0:0:0:
133,236,73789,2,0,L|126:128,1,98,8|0,0:0|0:0,0:0:0:0:
391,75,74110,2,0,L|488:66,1,98,8|8,0:3|0:0,0:0:0:0:
446,101,74351,1,8,0:0:0:0:
121,324,74431,2,0,L|20:313,1,98,8|8,0:0|0:0,0:0:0:0:
76,281,74672,1,8,0:0:0:0:
299,269,74752,6,0,L|185:274,1,98,12|0,0:3|0:0,0:0:0:0:
76,281,75073,1,8,0:0:0:0:
336,177,75233,2,0,L|448:194,1,98,0|8,0:0|0:3,0:0:0:0:
170,79,75554,2,0,L|63:89,1,98,0|8,0:0|0:0,0:0:0:0:
346,324,75875,6,0,L|147:315,1,196,0|0,0:0|0:0,0:0:0:0:
291,245,76356,2,0,L|411:253,1,98,8|0,0:0|0:0,0:0:0:0:
293,161,76677,2,0,L|404:169,1,98,8|0,0:3|0:0,0:0:0:0:
142,193,76997,2,0,L|134:83,1,98,8|0,0:0|0:0,0:0:0:0:
418,45,77319,6,0,L|414:156,1,98,8|0,0:3|0:0,0:0:0:0:
197,236,77639,2,0,L|313:245,1,98,8|0,0:0|0:0,0:0:0:0:
46,328,77960,2,0,L|168:308,2,98,8|0|8,0:3|0:0|0:0,0:0:0:0:
381,273,78441,6,0,P|433:199|357:123,1,196,0|0,0:0|0:0,0:0:0:0:
247,51,78923,2,0,L|131:64,1,98,8|0,0:0|0:0,0:0:0:0:
286,140,79244,2,0,L|387:126,1,98,8|0,0:3|0:0,0:0:0:0:
96,349,79565,2,0,L|-11:343,1,98,8|8,0:0|0:0,0:0:0:0:
51,311,79805,1,8,0:0:0:0:
345,293,79885,6,0,P|391:203|320:133,1,196,12|8,0:3|0:0,0:0:0:0:
200,136,80367,1,0,0:0:0:0:
340,138,80527,2,0,L|445:139,1,98,8|0,0:3|0:0,0:0:0:0:
131,255,80848,2,0,L|16:257,1,98,8|0,0:0|0:0,0:0:0:0:
327,335,81169,5,8,0:3:0:0:
193,339,81329,1,0,0:0:0:0:
414,280,81490,2,0,L|512:280,1,98,8|0,0:0|0:0,0:0:0:0:
193,339,81811,1,8,0:3:0:0:
327,335,81971,1,0,0:0:0:0:
98,280,82131,2,0,L|0:280,1,98,8|0,0:0|0:0,0:0:0:0:
298,133,82452,6,0,L|399:133,1,98,12|0,0:3|0:0,0:0:0:0:
234,210,82773,2,0,L|110:209,1,98,8|8,0:0|0:3,0:0:0:0:
465,55,83094,1,8,0:0:0:0:
192,120,83254,1,8,0:3:0:0:
143,114,83334,1,0,0:0:0:0:
94,109,83414,1,8,0:0:0:0:
381,77,83575,1,8,0:3:0:0:
44,180,83735,5,8,0:0:0:0:
471,239,84056,1,8,0:0:0:0:
190,350,84377,2,0,L|188:147,1,196,0|0,0:0|0:0,0:0:0:0:
334,222,84858,2,0,L|386:219,1,49,8|8,0:0|0:0,0:0:0:0:
95,132,85019,5,12,0:0:0:0:
256,192,85179,12,0,88869,0:0:0:0:
