osu file format v14

[General]
AudioFilename: audio.mp3
AudioLeadIn: 0
PreviewTime: 43308
Countdown: 0
SampleSet: Soft
StackLeniency: 0.7
Mode: 2
LetterboxInBreaks: 0
WidescreenStoryboard: 0

[Editor]
Bookmarks: 10134,13623,16149,18675,21202,23728,26254,28781,31307,33833,36360,38886,41383,43949,46516,49083,51650,54217,56784,59350,61917,64484,67051,69618,72185,74751,77318,79885,82452,85019
DistanceSpacing: 1
BeatDivisor: 4
GridSize: 4
TimelineZoom: 1.5

[Metadata]
Title:Guren
TitleUnicode:紅蓮
Artist:DOES
ArtistUnicode:DOES
Creator:-Sh1n1-
Version:Sannin Rain
Source:NARUTO-ナルト-疾風伝
Tags:Ki/oon Records Wataru Ujihara Yasushi Akatsuka Kēsaku Morita shippuden opening 15 op15 shini tv size ascendance
BeatmapID:1437491
BeatmapSetID:677772

[Difficulty]
HPDrainRate:6
CircleSize:4
OverallDifficulty:9
ApproachRate:9
SliderMultiplier:1.6
SliderTickRate:2

[Events]
//Background and Video events
0,0,"NarutoBG.jpg",0,0
Video,0,"BG.avi"
//Break Periods
//Storyboard Layer 0 (Background)
//Storyboard Layer 1 (Fail)
//Storyboard Layer 2 (Pass)
//Storyboard Layer 3 (Foreground)
//Storyboard Sound Samples

[TimingPoints]
781,326.086956521739,4,2,1,60,1,0
3389,321.199143468951,4,2,1,60,1,0
11097,315.789473684211,4,2,1,60,1,0
38886,312.174817898023,4,2,1,60,1,0
41383,320.855614973262,4,2,1,60,1,0
43949,-100,4,2,1,80,0,1
63522,-100,4,2,1,80,0,0
64484,-100,4,2,1,80,0,1
84056,-100,4,2,1,80,0,0
85661,-100,4,2,1,60,0,0
86302,-100,4,2,1,40,0,0
86944,-100,4,2,1,20,0,0
87586,-100,4,2,1,10,0,0
88869,-100,4,2,1,5,0,0

[Colours]
Combo1 : 130,186,242
Combo2 : 255,255,106
Combo3 : 124,124,190
Combo4 : 241,75,46

[HitObjects]
261,320,781,5,8,0:1:0:0:
222,314,862,1,8,0:1:0:0:
196,285,944,1,8,0:0:0:0:
195,246,1025,1,8,0:0:0:0:
220,215,1107,1,8,0:0:0:0:
259,209,1188,1,8,0:0:0:0:
441,320,1270,5,8,0:1:0:0:
480,314,1351,1,8,0:1:0:0:
506,285,1433,1,8,0:0:0:0:
507,246,1514,1,8,0:0:0:0:
482,215,1596,1,8,0:0:0:0:
443,209,1677,1,8,0:0:0:0:
261,32,1759,6,0,L|217:32,1,40,8|8,0:1|0:1,0:0:0:0:
261,32,1922,1,8,0:0:0:0:
301,55,2003,1,8,0:0:0:0:
302,93,2085,1,8,0:0:0:0:
263,118,2166,1,8,0:0:0:0:
84,171,2248,6,0,L|34:172,1,40,8|8,0:1|0:1,0:0:0:0:
245,231,2411,2,0,L|295:230,1,40,8|8,0:0|0:0,0:0:0:0:
72,213,2574,2,0,L|22:212,1,40,8|8,0:0|0:0,0:0:0:0:
274,181,2737,5,12,0:0:0:0:
117,192,3389,6,0,P|65:152|125:96,1,160,12|8,0:3|0:0,0:0:0:0:
212,96,3870,1,0,0:0:0:0:
308,190,4031,2,0,L|228:190,1,80,8|8,0:3|0:3,0:0:0:0:
84,266,4352,2,0,L|164:266,1,80,8|0,0:0|0:0,0:0:0:0:
421,343,4673,6,0,B|381:327|381:327|265:343,1,160,8|8,0:3|0:0,0:0:0:0:
362,239,5155,1,0,0:0:0:0:
218,190,5316,2,0,L|130:190,2,80,8|8|8,0:3|0:3|0:0,0:0:0:0:
314,115,5797,1,0,0:0:0:0:
57,49,5958,6,0,P|6:109|69:148,1,160,8|8,0:3|0:0,0:0:0:0:
152,189,6440,1,0,0:0:0:0:
248,228,6600,2,0,L|328:228,1,80,8|8,0:3|0:3,0:0:0:0:
183,309,6922,2,0,L|103:309,1,80,8|0,0:0|0:0,0:0:0:0:
360,309,7243,6,0,L|440:309,1,80,8|0,0:3|0:0,0:0:0:0:
336,228,7564,1,8,0:0:0:0:
464,228,7725,1,0,0:0:0:0:
209,157,7885,2,0,L|129:157,1,80,4|8,0:3|0:0,0:0:0:0:
157,133,8126,1,8,0:0:0:0:
337,110,8206,2,0,L|417:110,1,80,8|8,0:0|0:0,0:0:0:0:
389,86,8447,1,8,0:0:0:0:
203,362,8528,5,4,0:3:0:0:
119,317,8849,1,2,0:0:0:0:
71,235,9170,1,2,0:0:0:0:
73,140,9491,1,2,0:0:0:0:
125,61,9812,1,2,0:0:0:0:
210,20,10134,1,2,0:0:0:0:
371,110,10455,5,8,0:0:0:0:
124,206,10615,1,8,0:0:0:0:
377,345,11097,5,12,0:3:0:0:
441,271,11254,1,8,0:3:0:0:
281,248,11412,2,0,L|247:176,1,80,8|0,0:0|0:0,0:0:0:0:
408,106,11728,2,0,L|492:106,1,80,0|0,0:0|0:0,0:0:0:0:
383,33,12044,1,8,0:0:0:0:
511,33,12202,1,0,0:0:0:0:
271,308,12360,6,0,L|187:308,1,80,8|8,0:3|0:3,0:0:0:0:
295,236,12675,1,8,0:0:0:0:
167,236,12833,1,0,0:0:0:0:
327,168,12991,2,0,L|339:89,1,80,0|8,0:0|0:3,0:0:0:0:
178,81,13307,2,0,L|166:160,1,80,8|0,0:0|0:0,0:0:0:0:
449,286,13623,6,0,L|461:207,1,80,8|0,0:3|0:0,0:0:0:0:
300,9,13939,1,8,0:0:0:0:
238,54,14097,1,0,0:0:0:0:
240,131,14254,1,8,0:3:0:0:
305,173,14412,1,8,0:3:0:0:
445,90,14570,2,0,L|355:91,1,80,8|0,0:0|0:0,0:0:0:0:
143,202,14886,6,0,L|233:203,1,80,8|8,0:3|0:3,0:0:0:0:
62,280,15202,1,8,0:0:0:0:
0,235,15360,1,0,0:0:0:0:
2,158,15518,1,0,0:0:0:0:
67,116,15675,1,0,0:0:0:0:
207,249,15833,2,0,L|321:252,1,80,8|8,0:0|0:0,0:0:0:0:
258,223,16070,1,8,0:0:0:0:
99,34,16149,6,0,L|19:34,1,80,12|8,0:3|0:3,0:0:0:0:
180,102,16465,2,0,L|260:102,2,80,8|0|0,0:0|0:0|0:0,0:0:0:0:
83,139,16939,1,0,0:0:0:0:
243,190,17097,2,0,L|325:190,1,80,8|0,0:0|0:0,0:0:0:0:
103,244,17412,6,0,L|21:244,1,80,8|8,0:3|0:3,0:0:0:0:
128,151,17728,1,8,0:0:0:0:
0,151,17886,1,0,0:0:0:0:
160,68,18044,2,0,L|244:68,2,80,0|8|8,0:0|0:3|0:0,0:0:0:0:
63,68,18518,1,0,0:0:0:0:
281,184,18675,6,0,B|361:184,1,80,8|8,0:3|0:3,0:0:0:0:
256,269,18991,1,8,0:0:0:0:
384,269,19149,1,0,0:0:0:0:
224,199,19307,2,0,L|212:111,1,80,8|8,0:3|0:3,0:0:0:0:
374,24,19623,2,0,L|386:112,1,80,8|0,0:0|0:0,0:0:0:0:
159,236,19939,6,0,L|147:148,1,80,8|8,0:3|0:3,0:0:0:0:
308,37,20254,2,0,L|320:125,1,80,8|8,0:0|0:3,0:0:0:0:
222,94,20570,1,8,0:0:0:0:
440,201,20728,1,8,0:0:0:0:
478,205,20807,1,8,0:0:0:0:
504,234,20886,1,8,0:0:0:0:
504,273,20965,1,8,0:0:0:0:
477,302,21044,1,8,0:0:0:0:
438,305,21123,1,8,0:0:0:0:
235,199,21202,6,0,P|185:138|241:93,1,160,12|8,0:3|0:0,0:0:0:0:
330,268,21675,1,0,0:0:0:0:
170,288,21833,2,0,L|81:286,1,80,8|8,0:3|0:3,0:0:0:0:
231,186,22149,2,0,L|320:184,1,80,8|8,0:0|0:3,0:0:0:0:
170,102,22465,6,0,L|259:100,1,80,0|8,0:0|0:3,0:0:0:0:
411,28,22781,2,0,L|322:26,1,80,8|0,0:0|0:0,0:0:0:0:
436,100,23097,1,8,0:3:0:0:
309,100,23254,1,8,0:3:0:0:
469,182,23412,2,0,L|490:263,1,80,8|0,0:0|0:0,0:0:0:0:
247,328,23728,6,0,B|287:315|287:315|406:330,1,160,8|8,0:3|0:0,0:0:0:0:
307,225,24202,1,0,0:0:0:0:
147,135,24360,2,0,L|232:127,1,80,8|8,0:3|0:3,0:0:0:0:
367,30,24675,2,0,L|282:22,1,80,8|8,0:0|0:3,0:0:0:0:
191,16,24991,5,0,0:0:0:0:
287,22,25149,1,0,0:0:0:0:
447,154,25307,2,0,L|464:237,1,80,8|0,0:0|0:0,0:0:0:0:
302,322,25623,2,0,L|285:239,1,80,8|8,0:3|0:0,0:0:0:0:
447,154,25939,2,0,L|464:237,1,80,8|0,0:0|0:0,0:0:0:0:
223,145,26254,6,0,P|173:88|231:40,1,160,12|8,0:3|0:0,0:0:0:0:
319,89,26728,1,0,0:0:0:0:
159,222,26886,2,0,L|132:300,1,80,8|8,0:3|0:3,0:0:0:0:
274,231,27202,2,0,L|301:309,1,80,8|8,0:0|0:3,0:0:0:0:
139,187,27518,5,0,0:0:0:0:
77,142,27675,1,8,0:3:0:0:
79,65,27833,1,8,0:0:0:0:
144,23,27991,1,0,0:0:0:0:
284,106,28149,2,0,L|194:105,1,80,8|8,0:3|0:3,0:0:0:0:
43,281,28465,2,0,L|133:282,1,80,8|0,0:0|0:0,0:0:0:0:
365,280,28781,6,0,L|455:281,1,80,8|0,0:3|0:0,0:0:0:0:
304,179,29097,2,0,L|214:180,1,80,8|0,0:0|0:0,0:0:0:0:
128,179,29412,1,8,0:3:0:0:
224,179,29570,1,8,0:3:0:0:
64,108,29728,2,0,L|16:32,1,80,8|8,0:0|0:3,0:0:0:0:
162,102,30044,6,0,L|109:21,1,80,0|0,0:0|0:0,0:0:0:0:
389,110,30360,2,0,L|471:110,1,80,8|8,0:0|0:3,0:0:0:0:
237,197,30675,2,0,L|155:197,1,80,8|8,0:0|0:3,0:0:0:0:
399,273,30991,2,0,L|479:273,1,80,8|8,0:0|0:0,0:0:0:0:
451,297,31228,1,0,0:0:0:0:
280,329,31307,6,0,B|229:314|229:314|122:326,1,160,12|8,0:3|0:0,0:0:0:0:
220,228,31781,1,0,0:0:0:0:
380,198,31939,2,0,P|396:160|374:128,1,80,8|8,0:3|0:3,0:0:0:0:
237,94,32254,2,0,P|221:56|243:24,1,80,8|8,0:0|0:3,0:0:0:0:
345,37,32570,5,0,0:0:0:0:
217,169,32728,1,8,0:3:0:0:
377,172,32886,2,0,L|471:170,2,80,8|0|8,0:0|0:0|0:3,0:0:0:0:
296,223,33360,1,8,0:3:0:0:
136,299,33518,2,0,L|234:298,1,80,8|0,0:0|0:0,0:0:0:0:
456,313,33833,6,0,B|412:324|412:324|299:305,1,160,8|8,0:3|0:0,0:0:0:0:
396,214,34307,1,0,0:0:0:0:
236,178,34465,2,0,L|217:89,1,80,8|8,0:3|0:3,0:0:0:0:
381,109,34781,2,0,L|398:27,1,80,8|8,0:0|0:3,0:0:0:0:
236,178,35097,6,0,L|146:178,2,80,0|0|8,0:0|0:0|0:0,0:0:0:0:
316,178,35570,1,0,0:0:0:0:
212,267,35728,1,8,0:3:0:0:
340,311,35886,1,8,0:3:0:0:
120,298,36044,2,0,L|35:298,1,80,8|0,0:0|0:0,0:0:0:0:
304,335,36360,6,0,P|353:299|298:231,1,160,12|8,0:3|0:0,0:0:0:0:
210,238,36833,1,0,0:0:0:0:
50,154,36991,2,0,L|142:155,1,80,8|8,0:3|0:3,0:0:0:0:
291,66,37307,1,8,0:0:0:0:
371,65,37465,1,8,0:3:0:0:
267,143,37623,5,0,0:0:0:0:
395,147,37781,1,8,0:3:0:0:
235,303,37939,2,0,L|314:302,2,80,8|0|8,0:0|0:0|0:3,0:0:0:0:
155,251,38412,1,8,0:3:0:0:
315,127,38570,2,0,L|395:127,1,80,8|0,0:0|0:0,0:0:0:0:
171,54,38886,6,0,L|264:55,2,80,12|8|8,0:3|0:3|0:0,0:0:0:0:
267,141,39354,2,0,L|321:140,2,40,0|0|8,0:0|0:0|0:3,0:0:0:0:
171,211,39666,1,8,0:3:0:0:
331,289,39822,2,0,L|432:288,1,80,8|0,0:0|0:0,0:0:0:0:
189,46,40134,6,0,L|110:45,2,80,8|8|8,0:3|0:3|0:0,0:0:0:0:
285,121,40602,1,0,0:0:0:0:
245,121,40681,1,0,0:0:0:0:
205,121,40759,1,8,0:3:0:0:
302,223,40915,1,8,0:3:0:0:
142,248,41071,2,0,L|108:333,1,80,8|0,0:0|0:0,0:0:0:0:
346,350,41383,6,0,L|380:265,1,80,12|8,0:3|0:3,0:0:0:0:
236,195,41703,2,0,L|202:110,1,80,8|0,0:0|0:0,0:0:0:0:
347,160,42024,2,0,L|381:75,1,80,8|8,0:0|0:3,0:0:0:0:
236,342,42345,2,0,L|270:257,1,80,8|8,0:0|0:3,0:0:0:0:
46,117,42666,5,8,0:0:0:0:
312,282,42987,1,8,0:0:0:0:
302,116,43308,2,0,P|255:157|306:223,1,160,0|0,0:0|0:0,0:0:0:0:
400,229,43789,1,0,0:0:0:0:
169,290,43949,6,0,B|120:307|120:307|3:287,1,160,12|8,0:3|0:0,0:0:0:0:
110,203,44431,1,0,0:0:0:0:
270,166,44591,2,0,L|309:83,1,80,8|0,0:3|0:0,0:0:0:0:
163,19,44912,2,0,L|124:102,1,80,8|0,0:0|0:0,0:0:0:0:
233,53,45233,5,0,0:0:0:0:
105,168,45393,1,0,0:0:0:0:
266,237,45554,2,0,L|348:236,1,80,8|0,0:0|0:0,0:0:0:0:
206,300,45874,2,0,P|183:339|218:348,1,80,8|0,0:3|0:0,0:0:0:0:
364,314,46195,2,0,P|387:353|352:362,1,80,8|0,0:0|0:0,0:0:0:0:
125,133,46516,6,0,L|44:130,2,80,8|0|8,0:3|0:0|0:0,0:0:0:0:
205,80,46997,1,0,0:0:0:0:
366,108,47158,1,8,0:3:0:0:
428,153,47318,1,0,0:0:0:0:
426,230,47479,1,8,0:0:0:0:
361,272,47639,1,0,0:0:0:0:
108,269,47800,6,0,L|24:268,1,80,0|0,0:0|0:0,0:0:0:0:
132,196,48120,1,8,0:0:0:0:
3,196,48281,1,0,0:0:0:0:
163,329,48441,2,0,L|188:236,1,80,8|8,0:3|0:0,0:0:0:0:
23,30,48762,2,0,L|-2:123,1,80,8|8,0:0|0:0,0:0:0:0:
243,158,49083,6,0,P|294:109|238:64,1,160,12|8,0:3|0:0,0:0:0:0:
143,114,49564,1,0,0:0:0:0:
304,266,49725,2,0,L|386:264,1,80,8|0,0:3|0:0,0:0:0:0:
223,337,50046,2,0,L|141:339,1,80,8|0,0:0|0:0,0:0:0:0:
303,164,50366,6,0,L|387:163,1,80,0|0,0:0|0:0,0:0:0:0:
279,91,50687,1,8,0:0:0:0:
408,91,50848,1,0,0:0:0:0:
247,245,51008,2,0,L|167:243,1,80,8|0,0:3|0:0,0:0:0:0:
6,327,51329,2,0,L|99:325,1,80,8|0,0:0|0:0,0:0:0:0:
307,305,51650,5,8,0:3:0:0:
237,272,51810,1,0,0:0:0:0:
224,196,51971,1,8,0:0:0:0:
280,143,52131,1,0,0:0:0:0:
428,88,52292,2,0,L|344:87,1,80,0|0,0:0|0:0,0:0:0:0:
428,88,52612,1,8,0:0:0:0:
508,88,52773,1,0,0:0:0:0:
253,163,52933,6,0,L|166:160,1,80,0|0,0:0|0:0,0:0:0:0:
334,270,53254,2,0,L|425:269,1,80,8|0,0:0|0:0,0:0:0:0:
173,100,53575,2,0,L|93:100,1,80,8|8,0:3|0:0,0:0:0:0:
121,76,53816,1,8,0:0:0:0:
301,53,53896,2,0,L|381:53,1,80,8|8,0:0|0:0,0:0:0:0:
353,29,54137,1,8,0:0:0:0:
151,205,54217,6,0,P|100:254|156:299,1,160,12|8,0:3|0:0,0:0:0:0:
251,245,54698,1,0,0:0:0:0:
411,245,54858,1,8,0:3:0:0:
473,200,55019,1,0,0:0:0:0:
471,123,55179,1,8,0:0:0:0:
406,81,55340,1,0,0:0:0:0:
258,73,55500,6,0,L|343:73,1,80,0|0,0:0|0:0,0:0:0:0:
197,140,55821,2,0,L|154:213,1,80,8|0,0:0|0:0,0:0:0:0:
317,206,56142,2,0,L|357:277,1,80,8|0,0:3|0:0,0:0:0:0:
252,293,56463,1,8,0:0:0:0:
380,351,56623,1,0,0:0:0:0:
159,271,56784,5,8,0:3:0:0:
97,226,56944,1,0,0:0:0:0:
99,149,57104,1,8,0:0:0:0:
164,107,57265,1,0,0:0:0:0:
415,129,57425,2,0,L|328:130,1,80,8|0,0:3|0:0,0:0:0:0:
415,129,57746,1,8,0:0:0:0:
495,125,57907,1,0,0:0:0:0:
335,321,58067,6,0,L|238:323,1,80,0|0,0:0|0:0,0:0:0:0:
114,228,58388,2,0,L|193:229,1,80,8|0,0:0|0:0,0:0:0:0:
298,154,58709,1,8,0:3:0:0:
170,86,58869,1,0,0:0:0:0:
331,53,59030,2,0,L|411:53,1,80,8|8,0:0|0:0,0:0:0:0:
383,29,59270,1,8,0:0:0:0:
181,205,59350,6,0,P|130:254|186:299,1,160,12|8,0:3|0:0,0:0:0:0:
281,262,59832,1,0,0:0:0:0:
121,139,59992,2,0,L|37:138,1,80,8|0,0:3|0:0,0:0:0:0:
145,66,60313,1,8,0:0:0:0:
16,66,60473,1,0,0:0:0:0:
257,142,60634,6,0,L|341:141,1,80,8|0,0:3|0:0,0:0:0:0:
233,69,60955,1,8,0:0:0:0:
362,69,61115,1,0,0:0:0:0:
201,225,61276,2,0,L|168:298,1,80,8|0,0:3|0:0,0:0:0:0:
328,321,61596,2,0,L|361:248,1,80,8|0,0:0|0:0,0:0:0:0:
140,220,61917,6,0,L|107:293,1,80,12|0,0:3|0:0,0:0:0:0:
268,289,62238,2,0,L|372:287,1,80,8|0,0:0|0:0,0:0:0:0:
253,157,62559,1,8,0:3:0:0:
473,153,62719,1,8,0:0:0:0:
232,78,62880,2,0,L|146:78,1,80,8|0,0:0|0:0,0:0:0:0:
377,49,63201,5,8,0:0:0:0:
111,179,63522,1,8,0:0:0:0:
188,116,63842,2,0,P|246:160|207:221,1,160
111,229,64324,1,0,0:0:0:0:
342,290,64484,6,0,B|391:307|391:307|508:287,1,160,12|8,0:3|0:0,0:0:0:0:
401,203,64965,1,0,0:0:0:0:
241,166,65126,2,0,L|202:83,1,80,8|0,0:3|0:0,0:0:0:0:
348,19,65447,2,0,L|387:102,1,80,8|0,0:0|0:0,0:0:0:0:
278,53,65768,5,0,0:0:0:0:
406,168,65928,1,0,0:0:0:0:
245,237,66088,2,0,L|163:236,1,80,8|0,0:0|0:0,0:0:0:0:
305,300,66409,2,0,L|392:299,1,80,8|0,0:3|0:0,0:0:0:0:
243,75,66730,2,0,L|163:75,1,80,8|0,0:0|0:0,0:0:0:0:
386,133,67051,6,0,L|467:130,2,80,8|0|8,0:3|0:0|0:0,0:0:0:0:
306,80,67532,1,0,0:0:0:0:
145,108,67693,1,8,0:3:0:0:
83,153,67853,1,0,0:0:0:0:
85,230,68014,1,8,0:0:0:0:
150,272,68174,1,0,0:0:0:0:
403,269,68334,6,0,L|487:268,1,80,0|0,0:0|0:0,0:0:0:0:
379,196,68655,1,8,0:0:0:0:
508,196,68816,1,0,0:0:0:0:
348,329,68976,2,0,L|323:236,1,80,8|8,0:3|0:0,0:0:0:0:
488,30,69297,2,0,L|513:123,1,80,8|8,0:0|0:0,0:0:0:0:
268,158,69618,6,0,P|217:109|273:64,1,160,12|8,0:3|0:0,0:0:0:0:
368,114,70099,1,0,0:0:0:0:
207,266,70260,2,0,L|125:264,1,80,8|0,0:3|0:0,0:0:0:0:
288,337,70580,2,0,L|370:339,1,80,8|0,0:0|0:0,0:0:0:0:
208,164,70901,6,0,L|124:163,1,80,0|0,0:0|0:0,0:0:0:0:
232,91,71222,1,8,0:0:0:0:
103,91,71383,1,0,0:0:0:0:
264,245,71543,2,0,L|344:243,1,80,8|0,0:3|0:0,0:0:0:0:
505,327,71864,2,0,L|412:325,1,80,8|0,0:0|0:0,0:0:0:0:
204,305,72185,5,8,0:3:0:0:
274,272,72345,1,0,0:0:0:0:
287,196,72505,1,8,0:0:0:0:
231,143,72666,1,0,0:0:0:0:
83,88,72826,2,0,L|167:87,1,80,0|0,0:0|0:0,0:0:0:0:
83,88,73147,1,8,0:0:0:0:
3,88,73308,1,0,0:0:0:0:
258,163,73468,6,0,L|345:160,1,80,0|0,0:0|0:0,0:0:0:0:
177,270,73789,2,0,L|86:269,1,80,8|0,0:0|0:0,0:0:0:0:
338,100,74110,2,0,L|418:100,1,80,8|8,0:3|0:0,0:0:0:0:
390,76,74350,1,8,0:0:0:0:
210,53,74431,2,0,L|130:53,1,80,8|8,0:0|0:0,0:0:0:0:
158,29,74671,1,8,0:0:0:0:
360,205,74751,6,0,P|411:254|355:299,1,160,12|8,0:3|0:0,0:0:0:0:
260,245,75233,1,0,0:0:0:0:
100,245,75393,1,0,0:0:0:0:
38,200,75554,1,0,0:0:0:0:
40,123,75714,1,8,0:0:0:0:
105,81,75874,1,0,0:0:0:0:
253,73,76035,6,0,L|168:73,1,80,0|0,0:0|0:0,0:0:0:0:
314,140,76356,2,0,L|357:213,1,80,8|0,0:0|0:0,0:0:0:0:
194,206,76677,2,0,L|154:277,1,80,8|0,0:3|0:0,0:0:0:0:
259,293,76997,1,8,0:0:0:0:
131,351,77158,1,0,0:0:0:0:
352,271,77318,5,8,0:3:0:0:
414,226,77479,1,0,0:0:0:0:
412,149,77639,1,8,0:0:0:0:
347,107,77800,1,0,0:0:0:0:
96,125,77960,2,0,L|183:126,1,80,8|0,0:3|0:0,0:0:0:0:
96,125,78281,1,8,0:0:0:0:
16,125,78441,1,0,0:0:0:0:
176,321,78602,6,0,L|273:323,1,80,0|0,0:0|0:0,0:0:0:0:
397,228,78923,2,0,L|318:229,1,80,8|0,0:0|0:0,0:0:0:0:
213,154,79243,1,8,0:3:0:0:
341,86,79404,1,0,0:0:0:0:
180,53,79564,2,0,L|100:53,1,80,8|8,0:0|0:0,0:0:0:0:
128,29,79805,1,8,0:0:0:0:
330,205,79885,6,0,P|381:254|325:299,1,160,12|8,0:3|0:0,0:0:0:0:
230,262,80366,1,0,0:0:0:0:
390,139,80527,2,0,L|474:138,1,80,8|0,0:3|0:0,0:0:0:0:
366,66,80848,1,8,0:0:0:0:
495,66,81008,1,0,0:0:0:0:
254,142,81169,6,0,L|170:141,1,80,8|0,0:3|0:0,0:0:0:0:
278,69,81489,1,8,0:0:0:0:
149,69,81650,1,0,0:0:0:0:
310,225,81810,2,0,L|343:298,1,80,8|0,0:3|0:0,0:0:0:0:
183,321,82131,2,0,L|150:248,1,80,8|0,0:0|0:0,0:0:0:0:
371,220,82452,6,0,L|404:293,1,80,12|0,0:3|0:0,0:0:0:0:
243,289,82773,2,0,L|139:287,1,80,8|8,0:0|0:3,0:0:0:0:
258,157,83094,1,8,0:0:0:0:
38,153,83254,1,8,0:3:0:0:
279,78,83415,2,0,L|365:78,1,80,8|8,0:0|0:3,0:0:0:0:
135,43,83735,5,8,0:0:0:0:
400,299,84056,1,8,0:0:0:0:
320,230,84377,2,0,P|264:198|336:174,1,160
420,114,84858,1,8,0:0:0:0:
428,74,84939,1,8,0:0:0:0:
228,70,85019,1,12,0:0:0:0:
256,192,85179,12,0,88869,0:0:0:0:
