osu file format v14

[General]
AudioFilename: audio.mp3
AudioLeadIn: 0
PreviewTime: 43308
Countdown: 0
SampleSet: Soft
StackLeniency: 0.7
Mode: 2
LetterboxInBreaks: 0
WidescreenStoryboard: 0

[Editor]
Bookmarks: 10134,13623,16149,18675,21202,23728,26254,28781,31307,33833,36360,38886,41383,43949,49083,54217,59350,64484,69618,74751,79885,85019
DistanceSpacing: 1
BeatDivisor: 4
GridSize: 4
TimelineZoom: 1.4

[Metadata]
Title:Guren
TitleUnicode:紅蓮
Artist:DOES
ArtistUnicode:DOES
Creator:-Sh1n1-
Version:Genin Cup
Source:NARUTO-ナルト-疾風伝
Tags:Ki/oon Records Wataru Ujihara Yasushi Akatsuka Kēsaku Morita shippuden opening 15 op15 shini tv size ascendance
BeatmapID:1437112
BeatmapSetID:677772

[Difficulty]
HPDrainRate:3
CircleSize:2.5
OverallDifficulty:6
ApproachRate:6
SliderMultiplier:1
SliderTickRate:1

[Events]
//Background and Video events
0,0,"NarutoBG.jpg",0,0
Video,0,"BG.avi"
//Break Periods
//Storyboard Layer 0 (Background)
//Storyboard Layer 1 (Fail)
//Storyboard Layer 2 (Pass)
//Storyboard Layer 3 (Foreground)
//Storyboard Sound Samples

[TimingPoints]
781,326.086956521739,4,2,1,60,1,0
3389,321.199143468951,4,2,1,60,1,0
11097,315.789473684211,4,2,1,60,1,0
38886,312.174817898023,4,2,1,60,1,0
41383,320.855614973262,4,2,1,60,1,0
43949,-100,4,2,1,80,0,1
63522,-100,4,2,1,80,0,0
64484,-100,4,2,1,80,0,1
84056,-100,4,2,1,80,0,0
85661,-100,4,2,1,60,0,0
86302,-100,4,2,1,40,0,0
86944,-100,4,2,1,20,0,0
87586,-100,4,2,1,10,0,0
88869,-100,4,2,1,5,0,0

[Colours]
Combo1 : 130,186,242
Combo2 : 255,255,106
Combo3 : 124,124,190
Combo4 : 241,75,46

[HitObjects]
257,185,781,6,0,L|94:184,1,150,8|8,0:1|0:1,0:0:0:0:
272,69,1759,2,0,L|423:68,2,150,8|8|12,0:1|0:1|0:0,0:0:0:0:
141,279,3389,5,12,0:3:0:0:
251,219,3710,2,0,P|309:144|246:74,1,200,8|8,0:0|0:0,0:0:0:0:
141,54,4673,5,8,0:3:0:0:
31,138,4994,2,0,L|236:136,1,200,8|8,0:0|0:0,0:0:0:0:
121,247,5958,5,8,0:3:0:0:
231,189,6279,2,0,P|289:261|231:333,1,200,8|8,0:0|0:0,0:0:0:0:
121,81,7243,6,0,L|229:80,1,100,8|8,0:3|0:0,0:0:0:0:
331,52,7885,1,4,0:3:0:0:
201,220,8206,1,8,0:0:0:0:
361,305,8528,6,0,L|468:300,2,100,4|2|2,0:3|0:0|0:0,0:0:0:0:
251,338,9491,2,0,L|144:333,2,100,2|2|2,0:0|0:0|0:0,0:0:0:0:
411,156,10455,1,8,0:0:0:0:
187,146,11097,5,12,0:3:0:0:
297,272,11412,2,0,L|93:277,2,200,8|8|8,0:0|0:0|0:0,0:0:0:0:
187,136,12991,2,0,L|84:135,1,100,0|8,0:0|0:0,0:0:0:0:
248,49,13623,5,8,0:3:0:0:
358,71,13939,2,0,P|424:123|357:196,1,200,8|8,0:0|0:0,0:0:0:0:
253,198,14886,1,8,0:3:0:0:
143,317,15202,2,0,B|195:307|195:307|351:322,1,200,8|8,0:0|0:0,0:0:0:0:
181,210,16149,5,12,0:3:0:0:
71,81,16465,2,0,B|123:91|123:91|279:76,2,200,8|8|8,0:0|0:0|0:0,0:0:0:0:
181,191,18044,2,0,L|284:178,1,100,0|8,0:0|0:0,0:0:0:0:
440,147,18675,5,8,0:3:0:0:
330,172,18991,2,0,P|264:224|331:297,1,200,8|8,0:0|0:0,0:0:0:0:
435,67,19939,2,0,L|335:67,1,100,8|8,0:3|0:0,0:0:0:0:
205,159,20570,2,0,L|305:159,1,100,8|8,0:0|0:0,0:0:0:0:
455,194,21202,6,0,P|363:227|271:193,1,200,12|8,0:3|0:3,0:0:0:0:
161,283,22149,1,8,0:0:0:0:
51,161,22465,2,0,L|156:162,1,100,0|8,0:0|0:0,0:0:0:0:
261,84,23097,2,0,L|360:83,1,100,8|8,0:3|0:0,0:0:0:0:
201,198,23728,6,0,P|135:250|202:323,1,200,8|8,0:3|0:3,0:0:0:0:
306,91,24675,2,0,B|209:63|205:109|107:90,2,200,8|8|8,0:0|0:0|0:0,0:0:0:0:
466,257,26254,6,0,P|367:229|274:256,1,200,12|8,0:3|0:3,0:0:0:0:
166,202,27202,1,8,0:0:0:0:
276,91,27518,2,0,L|161:93,1,100,0|8,0:0|0:0,0:0:0:0:
66,316,28149,2,0,L|165:314,1,100,8|8,0:3|0:0,0:0:0:0:
276,231,28781,6,0,L|375:235,2,100,8|8|8,0:3|0:0|0:3,0:0:0:0:
116,160,29728,2,0,P|52:116|132:51,1,200,8|8,0:0|0:0,0:0:0:0:
230,53,30675,1,8,0:0:0:0:
100,151,30991,1,8,0:0:0:0:
260,196,31307,6,0,P|329:250|263:309,1,200,12|8,0:3|0:3,0:0:0:0:
154,296,32254,1,8,0:0:0:0:
44,156,32570,2,0,L|152:156,1,100,0|8,0:0|0:0,0:0:0:0:
254,73,33202,2,0,L|368:73,1,100,8|8,0:3|0:0,0:0:0:0:
194,275,33833,6,0,B|141:288|141:288|49:256|49:256|-5:275,1,200,8|8,0:3|0:3,0:0:0:0:
114,156,34781,2,0,L|320:156,2,200,8|8|8,0:0|0:0|0:0,0:0:0:0:
274,51,36360,6,0,L|373:51,1,100,12|8,0:3|0:0,0:0:0:0:
264,163,36991,2,0,P|199:220|262:288,1,200,8|0,0:3|0:0,0:0:0:0:
373,271,37939,1,8,0:0:0:0:
483,151,38254,2,0,L|379:151,1,100,8|8,0:3|0:0,0:0:0:0:
221,44,38886,6,0,B|274:59|274:59|421:43,1,200,12|8,0:3|0:3,0:0:0:0:
308,156,39822,1,8,0:0:0:0:
197,181,40134,2,0,P|132:238|195:306,1,200,8|8,0:3|0:3,0:0:0:0:
306,235,41071,1,8,0:0:0:0:
462,220,41383,6,0,L|515:130,1,100,12|8,0:3|0:0,0:0:0:0:
403,123,42024,2,0,L|350:33,1,100,8|8,0:0|0:0,0:0:0:0:
483,44,42666,1,8,0:0:0:0:
323,248,42987,1,8,0:0:0:0:
94,92,43949,6,0,L|193:92,1,100,12|8,0:3|0:0,0:0:0:0:
304,227,44591,2,0,L|204:227,1,100,8|8,0:3|0:0,0:0:0:0:
94,343,45233,2,0,P|28:285|104:229,1,200,0|8,0:0|0:3,0:0:0:0:
205,226,46195,1,8,0:0:0:0:
315,226,46516,6,0,L|348:127,1,100,8|8,0:3|0:0,0:0:0:0:
236,125,47158,2,0,L|208:23,1,100,8|8,0:3|0:0,0:0:0:0:
320,217,47800,2,0,P|387:274|321:333,1,200,0|8,0:0|0:3,0:0:0:0:
211,320,48762,1,8,0:0:0:0:
51,319,49083,6,0,L|6:217,1,100,12|8,0:3|0:0,0:0:0:0:
121,172,49725,2,0,L|166:70,1,100,8|8,0:3|0:0,0:0:0:0:
271,308,50366,2,0,B|215:293|215:293|58:306,1,200,0|8,0:0|0:3,0:0:0:0:
184,194,51329,1,8,0:0:0:0:
294,112,51650,6,0,L|357:32,1,100,8|8,0:3|0:0,0:0:0:0:
466,183,52292,2,0,L|366:184,1,100,0|8,0:0|0:0,0:0:0:0:
256,231,52933,2,0,P|181:275|242:336,1,200,0|8,0:0|0:3,0:0:0:0:
354,274,53896,1,8,0:0:0:0:
194,109,54217,6,0,L|94:108,1,100,12|8,0:3|0:0,0:0:0:0:
204,197,54858,2,0,L|309:198,1,100,8|8,0:3|0:0,0:0:0:0:
414,162,55500,2,0,P|481:105|411:56,1,200,0|8,0:0|0:3,0:0:0:0:
301,57,56463,1,8,0:0:0:0:
191,163,56784,6,0,L|296:164,1,100,8|8,0:3|0:0,0:0:0:0:
401,258,57425,2,0,L|296:259,1,100,8|8,0:3|0:0,0:0:0:0:
191,360,58067,2,0,B|248:344|248:344|396:359,1,200,0|8,0:0|0:3,0:0:0:0:
498,224,59030,1,8,0:0:0:0:
338,202,59350,6,0,L|233:203,1,100,12|8,0:3|0:0,0:0:0:0:
348,34,59992,2,0,P|418:85|351:139,1,200,8|8,0:3|0:3,0:0:0:0:
241,44,60955,1,8,0:0:0:0:
131,107,61276,6,0,L|17:112,1,100,8|8,0:3|0:0,0:0:0:0:
141,208,61917,2,0,L|256:208,1,100,12|8,0:3|0:0,0:0:0:0:
351,338,62559,2,0,L|144:336,1,200,8|8,0:3|0:0,0:0:0:0:
261,236,63522,1,8,0:0:0:0:
418,92,64484,6,0,L|319:92,1,100,12|8,0:3|0:0,0:0:0:0:
208,227,65126,2,0,L|308:227,1,100,8|8,0:3|0:0,0:0:0:0:
418,343,65768,2,0,P|484:285|408:229,1,200,0|8,0:0|0:3,0:0:0:0:
307,226,66730,1,8,0:0:0:0:
197,226,67051,6,0,L|164:127,1,100,8|8,0:3|0:0,0:0:0:0:
276,125,67693,2,0,L|304:23,1,100,8|8,0:3|0:0,0:0:0:0:
192,217,68335,2,0,P|125:274|191:333,1,200,0|8,0:0|0:3,0:0:0:0:
301,320,69297,1,8,0:0:0:0:
461,319,69618,6,0,L|357:318,1,100,12|8,0:3|0:0,0:0:0:0:
251,204,70260,2,0,L|366:204,1,100,8|8,0:3|0:0,0:0:0:0:
461,73,70901,2,0,B|319:84|319:84|263:69,1,200,0|8,0:0|0:3,0:0:0:0:
153,30,71864,1,8,0:0:0:0:
263,176,72185,6,0,L|363:177,1,100,8|8,0:3|0:0,0:0:0:0:
253,267,72827,2,0,L|153:266,1,100,0|8,0:0|0:0,0:0:0:0:
263,222,73468,2,0,P|330:279|264:337,1,200,0|8,0:0|0:3,0:0:0:0:
153,274,74431,1,8,0:0:0:0:
313,109,74752,6,0,L|413:108,1,100,12|8,0:3|0:0,0:0:0:0:
303,197,75393,2,0,L|198:198,1,100,8|8,0:3|0:0,0:0:0:0:
93,162,76035,2,0,P|26:105|96:56,1,200,0|8,0:0|0:3,0:0:0:0:
206,57,76998,1,8,0:0:0:0:
316,163,77319,6,0,L|211:164,1,100,8|8,0:3|0:0,0:0:0:0:
106,258,77960,2,0,L|211:259,1,100,8|8,0:3|0:0,0:0:0:0:
316,360,78602,2,0,B|259:344|259:344|111:359,1,200,0|8,0:0|0:3,0:0:0:0:
9,224,79565,1,8,0:0:0:0:
169,202,79885,6,0,L|274:203,1,100,12|8,0:3|0:0,0:0:0:0:
159,34,80527,2,0,P|89:85|156:139,1,200,8|8,0:3|0:3,0:0:0:0:
266,44,81490,1,8,0:0:0:0:
376,107,81811,6,0,L|490:112,1,100,8|8,0:3|0:0,0:0:0:0:
366,208,82452,2,0,L|251:208,1,100,12|8,0:3|0:0,0:0:0:0:
156,338,83094,2,0,L|363:336,1,200,8|8,0:0|0:0,0:0:0:0:
246,236,84057,1,8,0:0:0:0:
246,236,85019,5,12,0:0:0:0:
256,192,85340,12,0,88869,0:0:0:0:
