osu file format v14

[General]
AudioFilename: audio.mp3
AudioLeadIn: 0
PreviewTime: 43670
Countdown: 0
SampleSet: Soft
StackLeniency: 0.7
Mode: 0
LetterboxInBreaks: 0
WidescreenStoryboard: 1

[Editor]
DistanceSpacing: 0.8
BeatDivisor: 2
GridSize: 8
TimelineZoom: 1.500002

[Metadata]
Title:Donten (TV Size)
TitleUnicode:曇天 (TV Size)
Artist:DOES
ArtistUnicode:DOES
Creator:keevy
Version:Normal
Source:銀魂
Tags:aphestra Gintama Anime Jrock J-rock Japanese Rock op opening 5 male vocals 氏原ワタル Ujihara Wataru
BeatmapID:3841433
BeatmapSetID:1866550

[Difficulty]
HPDrainRate:3.5
CircleSize:3.5
OverallDifficulty:5
ApproachRate:6
SliderMultiplier:1.2
SliderTickRate:1

[Events]
//Background and Video events
0,0,"bg.jpg",0,0
//Break Periods
2,21884,23239
//Storyboard Layer 0 (Background)
//Storyboard Layer 1 (Fail)
//Storyboard Layer 2 (Pass)
//Storyboard Layer 3 (Foreground)
//Storyboard Layer 4 (Overlay)
//Storyboard Sound Samples

[TimingPoints]
854,333.333333333333,4,2,1,55,1,0
854,-100,4,2,1,55,0,0
2187,331.491712707182,4,2,1,55,1,0
2187,-100,4,2,1,55,0,0
3512,-100,4,2,1,55,0,0
4838,333.333333333333,4,2,1,55,1,0
4838,-100,4,2,1,55,0,0
6171,375,4,2,1,55,1,0
6171,-100,4,2,1,55,0,0
6501,344.827586206896,4,2,1,55,1,0
6501,-100,4,2,1,55,0,0
7535,333.333333333333,4,2,1,55,1,0
7535,-100,4,2,1,55,0,0
7868,-100,4,2,1,55,0,0
8879,361.44578313253,4,2,1,55,1,0
8879,-100,4,2,1,55,0,0
9240,331.491712707182,4,2,1,55,1,0
9240,-100,4,2,1,55,0,0
9571,-100,4,2,1,55,0,0
9902,326.086956521739,4,2,1,55,1,0
9902,-100,4,2,1,55,0,0
10228,326.086956521739,4,2,1,55,1,0
10228,-100,4,2,1,55,0,0
10554,320.855614973262,4,2,1,55,1,0
10554,-100,4,2,1,55,0,0
10874,-100,4,2,1,55,0,0
11035,-100,4,2,2,55,0,0
11195,299.999999999999,4,2,2,55,1,0
11195,-100,4,2,2,55,0,0
11495,326.086956521738,4,2,1,65,1,0
11495,-100,4,2,1,65,0,0
12310,-100,4,2,1,65,0,0
12473,-100,4,2,1,65,0,0
12799,315.78947368421,4,2,1,65,1,0
12799,-100,4,2,1,65,0,0
13746,-100,4,2,1,65,0,0
14062,320.855614973261,4,2,1,65,1,0
14062,-100,4,2,1,65,0,0
15345,317.460317460316,4,2,1,65,1,0
15345,-100,4,2,1,65,0,0
20424,315.78947368421,4,2,1,65,1,0
20424,-100,4,2,1,65,0,0
20739,-100,4,2,1,65,0,0
21055,301.507537688441,4,2,1,65,1,0
21055,-100,4,2,1,65,0,0
21205,-100,4,2,2,65,0,0
21658,350.877192982454,4,2,1,65,1,0
21658,-100,4,2,1,65,0,0
22008,333.333333333331,4,2,1,65,1,0
22008,-100,4,2,1,65,0,0
22341,329.670329670328,4,2,1,65,1,0
22341,-100,4,2,1,65,0,0
22670,-100,4,2,1,55,0,0
23000,324.324324324322,4,2,1,55,1,0
23000,-100,4,2,1,55,0,0
23648,310.880829015542,4,2,1,55,1,0
23958,338.983050847456,4,2,1,55,1,0
24297,319.148936170211,4,2,1,60,1,0
24297,-100,4,2,1,60,0,0
29403,317.460317460316,4,2,1,60,1,0
29403,-100,4,2,1,60,0,0
30672,312.499999999998,4,2,1,60,1,0
30672,-100,4,2,1,60,0,0
31921,310.880829015542,4,2,1,60,1,0
31921,-100,4,2,1,60,0,0
32542,-100,4,2,1,60,0,0
32853,-100,4,2,1,60,0,0
33941,-100,4,2,2,60,0,0
34408,319.148936170211,4,2,1,65,1,0
34408,-100,4,2,1,65,0,0
35684,310.880829015542,4,2,1,65,1,0
35684,-100,4,2,1,65,0,0
36927,319.148936170211,4,2,1,65,1,0
36927,-100,4,2,1,65,0,0
39480,-100,4,2,1,60,0,0
40118,-100,4,2,1,60,0,0
40756,314.136125654449,4,2,1,60,1,0
40756,-100,4,2,1,60,0,0
42326,-100,4,2,1,60,0,0
42797,-100,4,2,1,60,0,0
43112,-100,4,2,1,60,0,0
44054,-100,4,2,2,60,0,0
44525,317.460317460316,4,2,1,60,1,0
44525,-100,4,2,1,60,0,0
45159,-100,4,2,1,55,0,0
50874,320.855614973261,4,2,1,55,1,0
50874,-100,4,2,1,55,0,0
51515,-108.695652173913,4,2,1,55,0,0
51676,-100,4,2,1,55,0,0
51836,-100,4,2,1,55,0,0
52157,314.136125654449,4,2,1,55,1,0
52157,-100,4,2,1,55,0,0
52785,-100,4,2,1,55,0,0
52942,-100,4,2,1,55,0,0
53256,-100,4,2,1,55,0,0
53413,312.499999999999,4,2,1,55,1,0
53413,-100,4,2,1,55,0,0
54194,-100,4,2,2,65,0,0
54662,314.136125654449,4,2,1,65,1,0
54662,-100,4,2,1,65,0,0
55133,-100,4,2,1,65,0,0
55918,319.148936170212,4,2,1,65,1,0
55918,-100,4,2,1,65,0,0
56237,-100,4,2,1,65,0,0
57194,314.136125654449,4,2,1,65,1,0
57194,-100,4,2,1,65,0,0
57822,326.086956521737,4,2,1,65,1,0
57822,-100,4,2,1,65,0,0
58148,295.566502463053,4,2,1,65,1,0
58443,340.909090909089,4,2,1,65,1,0
58443,-100,4,2,1,65,0,0
58783,320.855614973261,4,2,1,65,1,0
58783,-100,4,2,1,65,0,0
59424,309.278350515463,4,2,1,65,1,0
59424,-100,4,2,1,65,0,0
59733,309.278350515463,4,2,1,65,1,0
59733,-100,4,2,1,65,0,0
60351,320.855614973261,4,2,1,65,1,0
60351,-100,4,2,1,65,0,0
60671,307.692307692307,4,2,1,65,1,0
60671,-100,4,2,1,65,0,0
60978,315.78947368421,4,2,1,65,1,0
60978,-100,4,2,1,65,0,0
61609,-100,4,2,1,65,0,0
61925,-100,4,2,1,65,0,0
62241,312.499999999999,4,2,1,65,1,0
62241,-100,4,2,1,65,0,0
63022,-100,4,2,2,65,0,0
63491,337.078651685392,4,2,1,60,1,0
63491,-100,4,2,1,60,0,0
64165,352.941176470587,4,2,1,45,1,0
64165,-100,4,2,1,45,0,0
64870,320.855614973261,4,2,1,70,1,0
64870,-100,4,2,1,70,0,0
70003,315.78947368421,4,2,1,70,1,0
70003,-100,4,2,1,70,0,0
71266,-100,4,2,1,70,0,0
74897,-100,4,2,2,70,0,0
75055,-100,4,2,1,70,0,0
76002,-100,4,2,1,70,0,0
79160,-100,4,2,1,70,0,0
80108,309.278350515463,4,2,1,70,1,0
80108,-100,4,2,1,70,0,0
80726,-100,4,2,1,70,0,0
81345,322.580645161289,4,2,1,70,1,0
81345,-100,4,2,1,70,0,0
81990,306.122448979591,4,2,1,70,1,0
81990,-100,4,2,1,70,0,0
82602,312.499999999999,4,2,1,70,1,0
82602,-100,4,2,1,70,0,0
83227,-100,4,2,1,70,0,0
83383,-100,4,2,2,70,0,0
83852,317.460317460316,4,2,1,70,1,0
83852,-97.5609756097561,4,2,1,70,0,0
84169,-100,4,2,1,70,0,0
85121,319.148936170211,4,2,1,70,1,0
85121,-100,4,2,1,70,0,0
85280,-100,4,2,1,70,0,0
85440,-100,4,2,1,70,0,0
85918,-100,4,2,1,70,0,0
86078,-100,4,2,1,70,0,0
86397,312.499999999999,4,2,1,70,1,0
86397,-100,4,2,1,70,0,0
88740,-100,4,2,2,70,0,0
88896,320.855614973261,4,2,1,70,1,0
88896,-100,4,2,1,70,0,0
89537,307.692307692307,4,2,1,70,1,0
89537,-100,4,2,1,70,0,0
90152,315.78947368421,4,2,1,70,1,0
90152,-100,4,2,1,70,0,0
91415,327.868852459016,4,2,1,70,1,0
91415,-100,4,2,1,70,0,0
92070,315.78947368421,4,2,1,70,1,0
92070,-100,4,2,1,70,0,0
92385,-100,4,2,1,70,0,0
92701,303.030303030303,4,2,1,70,1,0
92701,-100,4,2,1,70,0,0
93458,-100,4,2,2,70,0,0
93913,-100,4,2,1,70,0,0
95125,-100,4,2,1,60,0,0
96413,-100,4,2,1,50,0,0
97625,-100,4,2,1,40,0,0
98837,-100,4,2,1,30,0,0
100049,-100,4,2,1,20,0,0
101337,-100,4,2,1,10,0,0
102549,-100,4,2,1,5,0,0

[Colours]
Combo1 : 225,225,225
Combo2 : 192,192,192
Combo3 : 211,168,255
Combo4 : 198,198,255

[HitObjects]
84,313,11495,6,0,P|145:284|210:286,1,120,6|10,1:2|0:0,0:0:0:0:
292,275,12147,2,0,P|317:235|316:204,1,60,2|2,1:2|1:2,0:0:0:0:
300,178,12473,1,10,0:0:0:0:
205,144,12799,2,0,B|137:138|152:171|68:156,1,120,2|10,1:2|0:0,0:0:0:0:
46,71,13430,2,0,P|16:57|-10:20,2,60,2|2|10,1:2|1:2|0:0,0:0:0:0:
121,11,14062,6,0,P|186:-1|245:10,1,120,2|10,1:2|0:0,0:0:0:0:
297,83,14703,2,0,L|287:148,2,60,2|2|10,1:2|1:2|0:0,0:0:0:0:
385,45,15345,2,0,P|453:64|491:118,1,120,2|10,1:2|0:0,0:0:0:0:
492,151,15821,1,2,0:0:0:0:
492,151,15979,2,0,L|474:209,1,60,2|2,1:2|1:2,0:0:0:0:
495,251,16297,1,10,0:0:0:0:
452,337,16614,6,0,P|409:323|391:250,1,120,6|10,1:2|0:0,0:0:0:0:
297,226,17249,2,0,P|303:181|324:156,1,60,2|2,1:2|1:2,0:0:0:0:
353,147,17567,1,10,0:0:0:0:
279,85,17884,1,2,1:2:0:0:
183,73,18202,1,10,0:0:0:0:
87,59,18519,2,0,P|73:23|57:1,2,60,2|2|10,1:2|1:2|0:0,0:0:0:0:
125,147,19154,5,2,1:2:0:0:
101,239,19471,1,10,0:0:0:0:
54,323,19789,2,0,P|24:338|1:360,2,60,2|2|10,1:2|1:2|0:0,0:0:0:0:
144,354,20424,2,0,B|215:338|198:376|284:355,1,120,2|10,1:2|0:0,0:0:0:0:
298,327,20897,1,2,0:0:0:0:
298,327,21055,2,0,L|304:258,1,60,2|8,1:2|0:0,0:0:0:0:
276,227,21356,2,0,L|269:156,1,60,8|8,0:0|0:0,0:0:0:0:
284,128,21658,1,6,1:2:0:0:
459,98,24297,6,0,P|411:92|367:150,1,120,6|8,1:2|0:0,0:0:0:0:
333,176,24775,1,0,0:0:0:0:
333,176,24935,2,0,P|271:180|211:148,1,120,2|10,1:2|0:0,0:0:0:0:
130,190,25573,1,2,1:2:0:0:
237,348,26211,1,2,1:2:0:0:
332,335,26531,1,10,0:0:0:0:
386,255,26850,2,0,P|346:197|339:131,1,120,2|10,1:2|0:0,0:0:0:0:
285,68,27488,2,0,P|309:40|347:37,1,60,2|0,1:2|1:2,0:0:0:0:
370,7,27807,2,0,P|411:4|446:18,1,60,10|0,0:0|0:0,0:0:0:0:
476,13,28126,2,0,P|503:68|498:143,1,120,2|8,1:2|0:0,0:0:0:0:
432,191,28765,1,2,1:2:0:0:
498,260,29084,1,10,0:0:0:0:
431,328,29403,6,0,B|315:303|355:370|240:336,1,180,2|0,1:2|0:0,0:0:0:0:
209,352,30037,2,0,P|187:310|188:217,1,120,2|10,1:2|0:0,0:0:0:0:
101,184,30672,2,0,P|41:224|43:337,1,180,2|0,1:2|0:0,0:0:0:0:
73,354,31296,1,2,1:2:0:0:
259,309,31921,5,2,1:2:0:0:
215,223,32231,1,10,0:0:0:0:
298,177,32542,1,2,1:2:0:0:
221,115,32853,1,10,0:0:0:0:
300,61,33164,2,0,P|243:11|150:2,1,120,2|10,1:2|0:0,0:0:0:0:
119,48,33786,1,2,1:2:0:0:
24,28,34097,2,0,P|26:78|46:106,1,60,10|8,0:0|0:0,0:0:0:0:
16,130,34408,6,0,P|71:171|145:161,1,120,6|8,1:2|0:0,0:0:0:0:
172,175,34886,1,0,0:0:0:0:
172,175,35046,2,0,P|190:143|190:110,2,60,0|0|8,1:2|1:2|0:0,0:0:0:0:
126,259,35684,1,2,1:2:0:0:
159,349,35994,1,10,0:0:0:0:
248,315,36305,1,2,1:2:0:0:
333,357,36616,1,10,0:0:0:0:
417,312,36927,2,0,P|396:247|449:138,1,180,2|0,1:2|0:0,0:0:0:0:
469,112,37565,2,0,P|475:81|466:50,2,60,0|0|8,1:2|1:2|0:0,0:0:0:0:
376,137,38203,1,2,1:2:0:0:
299,71,38522,1,10,0:0:0:0:
223,130,38841,2,0,P|136:157|88:124,1,120,2|8,1:2|0:0,0:0:0:0:
51,72,39480,6,0,B|163:21|127:77|254:34,1,180,6|2,1:2|0:0,0:0:0:0:
268,19,40118,2,0,P|285:44|303:83,1,60,2|2,1:2|1:2,0:0:0:0:
394,76,40597,1,2,0:0:0:0:
394,76,40756,2,0,P|401:108|403:146,1,60,2|0,1:2|0:0,0:0:0:0:
454,217,41227,1,2,0:0:0:0:
454,217,41384,2,0,P|444:257|429:279,1,60,2|2,1:2|1:2,0:0:0:0:
380,354,41855,5,2,0:0:0:0:
380,354,42012,2,0,L|297:333,1,60,2|0,1:2|0:0,0:0:0:0:
229,302,42483,1,2,0:0:0:0:
229,302,42640,2,0,L|149:324,1,60,2|2,1:2|1:2,0:0:0:0:
83,369,43112,1,0,0:0:0:0:
83,369,43269,2,0,L|2:347,1,60,2|0,1:2|0:0,0:0:0:0:
10,258,43740,5,0,0:0:0:0:
10,258,43897,2,0,P|27:219|59:210,1,60,2|8,1:2|0:0,0:0:0:0:
75,178,44211,2,0,P|125:181|151:198,1,60,10|8,0:0|0:0,0:0:0:0:
176,203,44525,6,0,B|211:107|163:125|199:14,1,180,6|0,1:2|0:0,0:0:0:0:
151,7,45159,1,2,1:2:0:0:
55,16,45477,1,10,0:0:0:0:
0,94,45794,2,0,P|64:136|144:140,1,120,2|8,1:2|0:0,0:0:0:0:
194,105,46429,1,2,1:2:0:0:
279,148,46747,1,10,0:0:0:0:
327,65,47064,2,0,P|381:120|378:190,1,120,2|10,1:2|0:0,0:0:0:0:
317,228,47699,2,0,P|331:306|363:345,1,120,2|10,1:2|0:0,0:0:0:0:
442,377,48334,1,2,1:2:0:0:
507,196,48969,6,0,P|483:162|460:151,1,60,2|0,1:2|1:2,0:0:0:0:
462,105,49286,2,0,P|425:88|396:89,1,60,10|0,0:0|0:0,0:0:0:0:
366,115,49604,2,0,B|299:128|343:152|254:182,1,120,2|8,1:2|0:0,0:0:0:0:
185,125,50239,1,2,1:2:0:0:
216,34,50556,1,10,0:0:0:0:
120,21,50874,2,0,P|88:78|133:193,1,180,2|0,1:2|0:0,0:0:0:0:
88,216,51515,2,0,P|125:267|184:273,1,110.4,2|8,1:2|0:0,0:0:0:0:
262,311,52157,5,2,1:2:0:0:
303,224,52471,1,10,0:0:0:0:
241,150,52785,1,2,1:2:0:0:
277,64,53099,1,10,0:0:0:0:
357,121,53413,2,0,P|288:167|220:164,1,120,2|10,1:2|0:0,0:0:0:0:
182,105,54038,2,0,P|153:96|124:88,1,60,2|8,1:2|0:0,0:0:0:0:
84,113,54350,2,0,L|25:98,1,60,10|8,0:0|0:0,0:0:0:0:
3,140,54662,6,0,P|34:199|54:286,1,120,6|8,1:2|0:0,0:0:0:0:
51,345,55290,2,0,P|20:355|-6:376,2,60,0|0|8,1:2|1:2|0:0,0:0:0:0:
132,293,55918,1,2,1:2:0:0:
212,345,56237,1,10,0:0:0:0:
288,287,56556,1,2,1:2:0:0:
259,195,56875,1,10,0:0:0:0:
257,99,57194,2,0,B|366:74|328:130|453:89,1,180,6|0,1:2|0:0,0:0:0:0:
473,68,57822,2,0,P|495:36|497:7,2,60,0|0|8,1:2|1:2|0:0,0:0:0:0:
427,152,58443,1,2,1:2:0:0:
474,231,58783,1,10,0:0:0:0:
403,296,59103,1,2,1:2:0:0:
309,260,59424,1,10,0:0:0:0:
289,166,59733,6,0,B|166:267|261:229|203:391,1,240,6|2,1:2|1:2,0:0:0:0:
111,369,60671,1,8,0:0:0:0:
40,308,60978,2,0,B|93:159|-1:197|121:96,1,240,2|0,1:2|1:2,0:0:0:0:
192,33,61925,1,8,0:0:0:0:
216,125,62241,6,0,B|339:226|244:188|297:336,1,240,2|0,1:2|1:2,0:0:0:0:
343,349,63022,1,8,0:0:0:0:
343,349,63178,2,0,P|396:328|429:330,1,60,8|8,0:0|0:0,0:0:0:0:
440,335,63491,1,6,1:2:0:0:
484,148,64165,6,2,B|425:123|425:123|397:170|316:195,1,180,2|0,0:0|0:0,0:1:0:0:
281,181,64870,2,0,P|252:123|268:56,1,120,6|8,1:2|0:0,0:0:0:0:
267,26,65351,1,0,0:0:0:0:
267,26,65511,2,0,P|310:7|342:6,2,60,2|0|8,1:2|1:2|0:0,0:0:0:0:
180,68,66153,1,2,1:2:0:0:
88,39,66474,1,10,0:0:0:0:
19,106,66795,2,0,P|20:137|39:172,1,60,2|0,1:2|0:0,0:0:0:0:
64,197,67115,1,8,0:0:0:0:
55,292,67436,5,2,1:2:0:0:
150,283,67757,1,10,0:0:0:0:
206,360,68078,1,2,1:2:0:0:
278,296,68399,1,10,0:0:0:0:
366,332,68720,1,2,1:2:0:0:
408,246,69041,1,10,0:0:0:0:
498,278,69361,2,0,P|496:220|462:141,1,120,2|8,1:2|0:0,0:0:0:0:
377,163,70003,6,0,B|299:174|341:206|244:229,2,120,2|10|2,1:2|0:0|1:2,0:0:0:0:
402,122,70792,1,0,1:2:0:0:
402,122,70950,2,0,P|410:85|394:57,1,60,10|0,0:0|0:0,0:0:0:0:
357,45,71266,2,0,P|292:60|252:117,1,120,2|10,1:2|0:0,0:0:0:0:
253,194,71897,2,0,P|210:182|192:160,2,60,2|0|8,1:2|1:2|0:0,0:0:0:0:
347,213,72529,5,2,1:2:0:0:
400,292,72845,1,10,0:0:0:0:
347,372,73160,1,2,1:2:0:0:
251,363,73476,1,10,0:0:0:0:
194,285,73792,2,0,P|113:278|56:311,1,120,2|10,1:2|0:0,0:0:0:0:
37,268,74266,1,0,0:0:0:0:
37,268,74424,2,0,P|6:220|6:194,1,60,2|0,1:2|1:2,0:0:0:0:
23,174,74739,1,10,0:0:0:0:
79,96,75055,6,0,P|158:108|207:172,1,120,6|8,1:2|0:0,0:0:0:0:
254,200,75687,2,0,L|239:278,2,60,2|0|8,1:2|1:2|0:0,0:0:0:0:
278,107,76318,1,2,1:2:0:0:
354,49,76634,1,10,0:0:0:0:
442,86,76950,2,0,P|486:150|486:159,1,60,2|0,1:2|1:2,0:0:0:0:
486,177,77266,1,8,0:0:0:0:
465,270,77581,5,2,1:2:0:0:
369,263,77897,1,10,0:0:0:0:
321,179,78213,1,2,1:2:0:0:
361,91,78529,1,10,0:0:0:0:
298,18,78845,2,0,P|214:7|180:42,1,120,2|10,1:2|0:0,0:0:0:0:
96,7,79476,2,0,P|77:44|79:78,1,60,2|0,1:2|1:2,0:0:0:0:
31,81,79792,1,10,0:0:0:0:
81,164,80108,6,0,B|167:147|134:186|243:166,2,120,2|8|0,1:2|0:0|1:2,0:0:0:0:
44,195,80881,1,0,1:2:0:0:
44,195,81035,2,0,P|31:240|33:273,1,60,8|0,0:0|0:0,0:0:0:0:
69,281,81345,2,0,P|162:315|236:391,1,180,2|0,1:2|0:0,0:0:0:0:
268,372,81990,1,2,1:2:0:0:
456,333,82602,6,0,B|424:263|468:285|428:169,1,120,2|8,1:2|0:0,0:0:0:0:
403,191,83070,1,2,0:0:0:0:
403,191,83227,2,0,P|396:137|407:100,1,60,0|8,1:2|0:0,0:0:0:0:
433,101,83539,2,0,P|426:58|398:32,1,60,10|8,0:0|0:0,0:0:0:0:
376,31,83852,2,0,P|325:56|187:23,1,184.5,6|2,1:2|0:0,0:0:0:0:
256,192,84486,12,0,87647,1:2:0:0:
121,65,88896,6,0,P|105:127|121:207,1,120,6|8,1:2|0:0,0:0:0:0:
83,278,89537,2,0,P|49:289|5:286,2,60,0|0|8,1:2|1:2|0:0,0:0:0:0:
132,300,89998,1,0,0:0:0:0:
132,300,90152,2,0,B|200:290|184:323|295:300,1,120,0|8,1:2|0:0,0:0:0:0:
344,329,90783,2,0,P|365:351|373:379,2,60,0|0|8,1:2|1:2|0:0,0:0:0:0:
345,284,91257,5,0,0:0:0:0:
345,284,91415,1,0,1:2:0:0:
398,204,91742,1,8,0:0:0:0:
474,262,92070,2,0,P|492:212|491:196,1,60,0|0,1:2|1:2,0:0:0:0:
504,159,92385,2,0,P|489:122|470:106,1,60,8|0,0:0|0:0,0:0:0:0:
451,66,92701,2,0,P|380:92|317:66,1,120,0|8,1:2|0:0,0:0:0:0:
269,16,93307,2,0,P|240:47|238:72,1,59.0909090909092,0|8,1:2|0:0,0:0:0:0:
205,99,93610,2,0,P|213:133|235:155,1,59.0909090909092,8|8,0:0|0:0,0:0:0:0:
255,191,93913,5,6,1:2:0:0:
256,192,94064,12,0,102549,0:0:0:0:
