osu file format v14

[General]
AudioFilename: audio.mp3
AudioLeadIn: 0
PreviewTime: 43670
Countdown: 0
SampleSet: Soft
StackLeniency: 0.7
Mode: 0
LetterboxInBreaks: 0
WidescreenStoryboard: 1

[Editor]
DistanceSpacing: 2
BeatDivisor: 4
GridSize: 8
TimelineZoom: 2

[Metadata]
Title:Donten (TV Size)
TitleUnicode:曇天 (TV Size)
Artist:DOES
ArtistUnicode:DOES
Creator:keevy
Version:Insane
Source:銀魂
Tags:aphestra Gintama Anime Jrock J-rock Japanese Rock op opening 5 male vocals 氏原ワタル Ujihara Wataru
BeatmapID:3839769
BeatmapSetID:1866550

[Difficulty]
HPDrainRate:5
CircleSize:3
OverallDifficulty:8
ApproachRate:8.2
SliderMultiplier:1.4
SliderTickRate:1

[Events]
//Background and Video events
0,0,"bg.jpg",0,0
//Break Periods
//Storyboard Layer 0 (Background)
//Storyboard Layer 1 (Fail)
//Storyboard Layer 2 (Pass)
//Storyboard Layer 3 (Foreground)
//Storyboard Layer 4 (Overlay)
//Storyboard Sound Samples

[TimingPoints]
854,333.333333333333,4,2,1,55,1,0
854,-100,4,2,1,55,0,0
2187,331.491712707182,4,2,1,55,1,0
2187,-100,4,2,1,55,0,0
3512,-100,4,2,1,55,0,0
4838,333.333333333333,4,2,1,55,1,0
4838,-100,4,2,1,55,0,0
6171,375,4,2,1,55,1,0
6171,-66.6666666666667,4,2,1,55,0,0
6501,344.827586206896,4,2,1,55,1,0
6501,-100,4,2,1,55,0,0
7535,333.333333333333,4,2,1,55,1,0
7535,-66.6666666666667,4,2,1,55,0,0
7868,-100,4,2,1,55,0,0
8879,361.44578313253,4,2,1,55,1,0
8879,-66.6666666666667,4,2,1,55,0,0
9240,331.491712707182,4,2,1,55,1,0
9240,-100,4,2,1,55,0,0
9571,-66.6666666666667,4,2,1,55,0,0
9902,326.086956521739,4,2,1,55,1,0
9902,-100,4,2,1,55,0,0
10228,326.086956521739,4,2,1,55,1,0
10228,-100,4,2,1,55,0,0
10554,320.855614973262,4,2,1,55,1,0
10554,-100,4,2,1,55,0,0
10874,-66.6666666666667,4,2,1,55,0,0
11035,-66.6666666666667,4,2,2,55,0,0
11195,299.999999999999,4,2,2,55,1,0
11195,-100,4,2,2,55,0,0
11495,326.086956521738,4,2,1,65,1,0
11495,-83.3333333333333,4,2,1,65,0,0
12310,-100,4,2,1,65,0,0
12473,-100,4,2,1,65,0,0
12799,315.78947368421,4,2,1,65,1,0
12799,-100,4,2,1,65,0,0
13746,-90.9090909090909,4,2,1,65,0,0
14062,320.855614973261,4,2,1,65,1,0
14062,-100,4,2,1,65,0,0
15345,317.460317460316,4,2,1,65,1,0
15345,-83.3333333333333,4,2,1,65,0,0
20424,315.78947368421,4,2,1,65,1,0
20424,-100,4,2,1,65,0,0
20739,-100,4,2,1,65,0,0
21055,301.507537688441,4,2,1,65,1,0
21055,-100,4,2,1,65,0,0
21205,-100,4,2,2,65,0,0
21658,350.877192982454,4,2,1,65,1,0
21658,-100,4,2,1,65,0,0
22008,333.333333333331,4,2,1,65,1,0
22008,-100,4,2,1,65,0,0
22341,329.670329670328,4,2,1,65,1,0
22341,-100,4,2,1,65,0,0
22670,-100,4,2,1,55,0,0
23000,324.324324324322,4,2,1,55,1,0
23000,-100,4,2,1,55,0,0
23648,310.880829015542,4,2,1,55,1,0
23958,338.983050847456,4,2,1,55,1,0
24297,319.148936170211,4,2,1,60,1,0
24297,-100,4,2,1,60,0,0
29403,317.460317460316,4,2,1,60,1,0
29403,-100,4,2,1,60,0,0
30672,312.499999999998,4,2,1,60,1,0
30672,-100,4,2,1,60,0,0
31921,310.880829015542,4,2,1,60,1,0
31921,-100,4,2,1,60,0,0
32542,-100,4,2,1,60,0,0
32853,-100,4,2,1,60,0,0
33941,-100,4,2,2,60,0,0
34408,319.148936170211,4,2,1,65,1,0
34408,-100,4,2,1,65,0,0
35684,310.880829015542,4,2,1,65,1,0
35684,-100,4,2,1,65,0,0
36927,319.148936170211,4,2,1,65,1,0
36927,-100,4,2,1,65,0,0
39480,-100,4,2,1,60,0,0
40118,-100,4,2,1,60,0,0
40756,314.136125654449,4,2,1,60,1,0
40756,-100,4,2,1,60,0,0
42326,-100,4,2,1,60,0,0
42797,-100,4,2,1,60,0,0
43112,-100,4,2,1,60,0,0
44054,-100,4,2,2,60,0,0
44525,317.460317460316,4,2,1,60,1,0
44525,-76.9230769230769,4,2,1,60,0,0
45159,-100,4,2,1,55,0,0
50874,320.855614973261,4,2,1,55,1,0
50874,-100,4,2,1,55,0,0
51515,-104.166666666667,4,2,1,55,0,0
51676,-100,4,2,1,55,0,0
51836,-100,4,2,1,55,0,0
52157,314.136125654449,4,2,1,55,1,0
52157,-100,4,2,1,55,0,0
52785,-102.040816326531,4,2,1,55,0,0
52942,-100,4,2,1,55,0,0
53256,-100,4,2,1,55,0,0
53413,312.499999999999,4,2,1,55,1,0
53413,-100,4,2,1,55,0,0
54194,-100,4,2,2,65,0,0
54662,314.136125654449,4,2,1,65,1,0
54662,-66.6666666666667,4,2,1,65,0,0
55133,-83.3333333333333,4,2,1,65,0,0
55918,319.148936170212,4,2,1,65,1,0
55918,-83.3333333333333,4,2,1,65,0,0
56237,-90.9090909090909,4,2,1,65,0,0
57194,314.136125654449,4,2,1,65,1,0
57194,-90.9090909090909,4,2,1,65,0,0
57822,326.086956521737,4,2,1,65,1,0
57822,-100,4,2,1,65,0,0
58148,295.566502463053,4,2,1,65,1,0
58443,340.909090909089,4,2,1,65,1,0
58443,-100,4,2,1,65,0,0
58783,320.855614973261,4,2,1,65,1,0
58783,-100,4,2,1,65,0,0
59424,309.278350515463,4,2,1,65,1,0
59424,-100,4,2,1,65,0,0
59733,309.278350515463,4,2,1,65,1,0
59733,-100,4,2,1,65,0,0
60351,320.855614973261,4,2,1,65,1,0
60351,-100,4,2,1,65,0,0
60671,307.692307692307,4,2,1,65,1,0
60671,-100,4,2,1,65,0,0
60978,315.78947368421,4,2,1,65,1,0
60978,-98.0392156862745,4,2,1,65,0,0
61609,-100,4,2,1,65,0,0
61925,-100,4,2,1,65,0,0
62241,312.499999999999,4,2,1,65,1,0
62241,-100,4,2,1,65,0,0
63022,-100,4,2,2,65,0,0
63491,337.078651685392,4,2,1,60,1,0
63491,-133.333333333333,4,2,1,60,0,0
64165,352.941176470587,4,2,1,45,1,0
64165,-133.333333333333,4,2,1,45,0,0
64870,320.855614973261,4,2,1,70,1,0
64870,-83.3333333333333,4,2,1,70,0,0
70003,315.78947368421,4,2,1,70,1,0
70003,-100,4,2,1,70,0,0
71266,-83.3333333333333,4,2,1,70,0,0
74897,-83.3333333333333,4,2,2,70,0,0
75055,-76.9230769230769,4,2,1,70,0,0
76002,-83.3333333333333,4,2,1,70,0,0
79160,-100,4,2,1,70,0,0
80108,309.278350515463,4,2,1,70,1,0
80108,-76.9230769230769,4,2,1,70,0,0
80726,-86.9565217391304,4,2,1,70,0,0
81345,322.580645161289,4,2,1,70,1,0
81345,-83.3333333333333,4,2,1,70,0,0
81990,306.122448979591,4,2,1,70,1,0
81990,-83.3333333333333,4,2,1,70,0,0
82602,312.499999999999,4,2,1,70,1,0
82602,-83.3333333333333,4,2,1,70,0,0
83227,-100,4,2,1,70,0,0
83383,-100,4,2,2,70,0,0
83852,317.460317460316,4,2,1,70,1,0
83852,-100,4,2,1,70,0,0
84169,-100,4,2,1,70,0,0
85121,319.148936170211,4,2,1,70,1,0
85121,-100,4,2,1,70,0,0
85280,-100,4,2,1,70,0,0
85440,-100,4,2,1,70,0,0
85918,-100,4,2,1,70,0,0
86078,-100,4,2,1,70,0,0
86397,312.499999999999,4,2,1,70,1,0
86397,-100,4,2,1,70,0,0
88740,-100,4,2,2,70,0,0
88896,320.855614973261,4,2,1,70,1,0
88896,-100,4,2,1,70,0,0
89537,307.692307692307,4,2,1,70,1,0
89537,-100,4,2,1,70,0,0
90152,315.78947368421,4,2,1,70,1,0
90152,-100,4,2,1,70,0,0
91415,327.868852459016,4,2,1,70,1,0
91415,-100,4,2,1,70,0,0
92070,315.78947368421,4,2,1,70,1,0
92070,-100,4,2,1,70,0,0
92385,-100,4,2,1,70,0,0
92701,303.030303030303,4,2,1,70,1,0
92701,-100,4,2,1,70,0,0
93458,-100,4,2,2,70,0,0
93913,-100,4,2,1,70,0,0
95125,-100,4,2,1,60,0,0
96413,-100,4,2,1,50,0,0
97625,-100,4,2,1,40,0,0
98837,-100,4,2,1,30,0,0
100049,-100,4,2,1,20,0,0
101337,-100,4,2,1,10,0,0
102549,-100,4,2,1,5,0,0

[Colours]
Combo1 : 225,225,225
Combo2 : 192,192,192
Combo3 : 211,168,255
Combo4 : 198,198,255

[HitObjects]
369,159,6171,6,0,L|400:145,1,26.2500010013581,10|8,0:0|0:0,0:0:0:0:
369,159,6358,1,0,1:2:0:0:
159,230,7535,6,0,L|128:213,1,26.2500010013581,10|8,0:0|0:0,0:0:0:0:
159,230,7701,1,0,1:2:0:0:
313,283,8879,6,0,L|280:266,1,26.2500010013581,10|8,0:0|0:0,0:0:0:0:
313,283,9059,1,0,1:2:0:0:
210,110,9571,6,0,L|241:126,1,26.2500010013581,10|8,0:0|0:0,0:0:0:0:
210,110,9737,1,0,1:2:0:0:
116,30,10228,5,10,0:0:0:0:
37,103,10391,1,0,1:2:0:0:
103,177,10554,2,0,P|135:208|136:254,1,70,10|0,0:0|1:2,0:0:0:0:
70,284,10874,2,0,P|121:327|180:311,1,105,10|8,0:0|0:0,0:0:0:0:
208,301,11115,1,8,0:0:0:0:
257,320,11195,1,10,0:0:0:0:
300,298,11270,1,8,0:0:0:0:
342,319,11345,1,8,0:0:0:0:
388,306,11420,1,8,0:0:0:0:
429,279,11495,6,0,B|507:189|414:111|414:111,1,168,6|10,1:2|0:0,0:0:0:0:
489,55,11984,1,0,0:0:0:0:
345,59,12147,2,0,P|303:77|260:59,1,84,2|2,1:2|1:2,0:0:0:0:
179,87,12473,2,0,P|216:138|223:226,1,140,10|2,0:0|1:2,0:0:0:0:
2,223,13114,6,0,P|17:166|46:137,1,70,10|0,0:0|0:0,0:0:0:0:
179,87,13430,1,2,1:2:0:0:
144,173,13588,1,2,1:2:0:0:
225,212,13746,2,0,P|283:218|314:199,1,77,10|0,0:0|0:0,0:0:0:0:
391,212,14062,6,0,B|339:123|424:69|424:69,1,140,2|10,1:2|0:2,0:0:0:0:
499,80,14543,1,0,0:0:0:0:
510,166,14703,2,0,P|495:226|475:243,1,70,2|2,1:2|1:2,0:0:0:0:
473,340,15024,1,10,0:0:0:0:
388,263,15184,1,0,0:0:0:0:
290,308,15345,2,0,B|276:222|309:224|304:104,1,168,2|10,1:2|0:0,0:0:0:0:
258,70,15821,1,2,0:0:0:0:
193,119,15979,2,0,B|149:139|149:139|90:125,1,84,2|2,1:2|1:2,0:0:0:0:
18,171,16297,6,0,P|79:204|113:302,1,168,10|6,0:0|1:2,0:0:0:0:
211,54,16932,2,0,P|273:65|308:81,1,84,10|0,0:0|0:0,0:0:0:0:
492,11,17249,1,2,1:2:0:0:
423,77,17408,1,2,1:2:0:0:
502,131,17567,2,0,P|509:187|497:221,1,84,10|0,0:0|0:0,0:0:0:0:
507,293,17884,2,0,B|443:399|338:298|338:298,1,168,2|10,1:2|0:0,0:0:0:0:
406,241,18360,1,0,0:0:0:0:
263,293,18519,2,0,P|250:345|209:362,1,84,2|2,1:2|1:2,0:0:0:0:
123,365,18837,2,0,P|88:340|94:276,1,84,10|0,0:0|0:0,0:0:0:0:
163,243,19154,6,0,B|167:144|144:153|148:52,1,168,2|10,1:2|0:0,0:0:0:0:
17,7,19630,1,0,0:0:0:0:
3,90,19789,2,0,P|9:150|32:183,1,84,2|2,1:2|1:2,0:0:0:0:
110,170,20106,2,0,P|165:147|212:141,1,84,10|0,0:0|0:0,0:0:0:0:
298,40,20424,1,2,1:2:0:0:
356,109,20581,1,0,1:2:0:0:
336,189,20739,1,10,0:0:0:0:
266,235,20897,1,2,0:0:0:0:
226,325,21055,1,2,1:2:0:0:
319,384,21205,5,8,0:0:0:0:
343,379,21281,1,8,0:0:0:0:
364,375,21356,1,8,0:0:0:0:
385,372,21431,1,8,0:0:0:0:
404,368,21507,1,8,0:0:0:0:
425,367,21582,1,8,0:0:0:0:
440,365,21658,1,6,1:2:0:0:
460,96,23648,6,0,P|425:66|394:73,1,70,2|0,0:0|0:0,0:0:0:0:
319,53,23958,2,0,P|299:99|305:135,1,70,10|0,0:2|0:0,0:0:0:0:
251,188,24297,2,0,B|315:233|315:233|397:217,1,140,6|8,1:2|0:0,0:0:0:0:
459,228,24775,1,0,0:0:0:0:
501,303,24935,2,0,P|472:348|438:353,1,70,2|0,1:2|1:2,0:0:0:0:
381,371,25254,2,0,L|293:348,1,70,10|0,0:0|0:0,0:0:0:0:
223,377,25573,2,0,B|235:316|211:270|211:270|228:226,1,140,2|8,1:2|0:0,0:0:0:0:
330,100,26211,1,2,1:2:0:0:
283,20,26371,1,0,1:2:0:0:
190,22,26531,2,0,P|142:39|122:63,1,70,10|0,0:0|0:0,0:0:0:0:
23,90,26850,5,2,1:2:0:0:
108,143,27009,1,0,1:2:0:0:
29,189,27169,2,0,L|14:102,1,70,10|0,0:0|0:0,0:0:0:0:
10,282,27488,1,2,1:2:0:0:
63,356,27648,1,0,1:2:0:0:
144,343,27807,2,0,P|190:328|226:323,1,70,10|0,0:0|0:0,0:0:0:0:
290,264,28126,2,0,P|241:238|217:140,1,140,2|8,1:2|0:0,0:0:0:0:
427,22,28765,1,2,1:2:0:0:
378,96,28924,1,0,1:2:0:0:
477,109,29084,2,0,L|445:37,1,70,10|0,0:0|0:0,0:0:0:0:
370,9,29403,6,0,P|332:33|326:131,1,140,2|8,1:2|0:0,0:0:0:0:
377,179,29879,1,0,0:0:0:0:
460,202,30037,2,0,P|475:241|461:273,1,70,2|0,1:2|1:2,0:0:0:0:
387,299,30355,2,0,P|395:348|417:368,1,70,10|0,0:0|0:0,0:0:0:0:
303,300,30672,2,0,B|312:306|214:249|276:160,1,140,2|8,1:2|0:0,0:0:0:0:
232,36,31140,1,0,0:0:0:0:
311,89,31296,2,0,B|231:20|176:111|176:111,1,140,2|8,1:2|0:0,0:0:0:0:
36,187,31921,5,2,1:2:0:0:
105,228,32076,1,0,1:2:0:0:
63,297,32231,1,10,0:0:0:0:
131,347,32387,1,0,0:0:0:0:
210,321,32542,2,0,P|254:312|283:321,1,70,2|0,1:2|1:2,0:0:0:0:
358,332,32853,2,0,P|378:289|371:265,1,70,10|0,0:0|0:0,0:0:0:0:
278,174,33164,1,2,1:2:0:0:
251,97,33319,1,0,0:0:0:0:
301,27,33475,1,10,0:0:0:0:
393,0,33630,1,0,0:0:0:0:
477,41,33786,1,2,1:2:0:0:
486,143,33941,1,8,0:0:0:0:
481,160,34019,1,8,0:0:0:0:
476,174,34097,1,10,0:0:0:0:
471,189,34174,1,8,0:0:0:0:
466,204,34252,1,8,0:0:0:0:
461,218,34330,1,8,0:0:0:0:
455,230,34408,6,0,P|412:262|397:357,1,140,6|8,1:2|0:0,0:0:0:0:
247,282,34886,1,0,0:0:0:0:
276,367,35046,2,0,P|272:305|294:279,1,70,0|0,1:2|1:2,0:0:0:0:
305,218,35365,2,0,P|305:173|290:148,1,70,8|0,0:0|0:0,0:0:0:0:
264,73,35684,2,0,B|177:57|191:102|102:84,2,140,2|10|2,1:2|0:0|1:2,0:0:0:0:
417,104,36461,1,0,1:2:0:0:
356,47,36616,2,0,P|365:96|362:128,1,70,10|0,0:0|0:0,0:0:0:0:
465,192,36927,6,0,P|371:202|315:241,1,140,2|8,1:2|0:0,0:0:0:0:
183,183,37405,1,0,0:0:0:0:
236,249,37565,2,0,P|184:230|140:224,1,70,0|0,1:2|1:2,0:0:0:0:
116,289,37884,2,0,P|69:295|43:285,1,70,8|0,0:0|0:0,0:0:0:0:
12,212,38203,2,0,B|-47:126|52:80|52:80,1,140,2|10,1:2|0:0,0:0:0:0:
298,32,38841,1,2,1:2:0:0:
348,100,39001,1,0,1:2:0:0:
298,32,39161,2,0,L|314:120,1,70,8|0,0:0|0:0,0:0:0:0:
402,139,39480,6,0,P|353:175|321:254,1,140,6|8,1:2|0:0,0:0:0:0:
279,314,39958,1,2,0:0:0:0:
343,364,40118,1,2,1:2:0:0:
425,366,40278,2,0,P|464:332|471:298,1,70,2|10,1:2|0:2,0:0:0:0:
512,220,40597,1,0,0:0:0:0:
431,170,40756,1,2,1:2:0:0:
495,108,40913,2,0,P|497:66|465:34,1,70,2|8,1:2|0:0,0:0:0:0:
366,0,41227,1,2,0:0:0:0:
323,76,41384,1,2,1:2:0:0:
256,18,41541,2,0,P|219:17|187:45,1,70,2|8,1:2|0:0,0:0:0:0:
104,132,41855,5,2,0:2:0:0:
186,164,42012,1,2,1:2:0:0:
143,234,42169,2,0,P|141:276|158:303,1,70,2|8,1:2|0:0,0:0:0:0:
80,384,42483,1,2,0:0:0:0:
4,353,42640,1,2,1:2:0:0:
3,271,42797,2,0,P|7:226|30:201,1,70,2|10,1:2|0:0,0:0:0:0:
36,34,43112,1,2,0:0:0:0:
60,111,43269,1,2,1:2:0:0:
150,114,43426,2,0,P|194:107|215:87,1,70,2|8,1:2|0:0,0:0:0:0:
303,7,43740,1,0,0:0:0:0:
377,65,43897,1,2,1:2:0:0:
351,150,44054,1,8,0:0:0:0:
342,161,44132,1,8,0:0:0:0:
336,174,44211,1,10,0:0:0:0:
328,187,44290,1,8,0:0:0:0:
319,199,44368,1,8,0:0:0:0:
310,212,44447,1,8,0:0:0:0:
304,225,44525,6,0,B|405:286|323:272|381:384,1,182,6|8,1:2|0:0,0:0:0:0:
467,362,45001,1,0,0:0:0:0:
510,289,45159,2,0,P|490:243|492:215,1,70,2|0,1:2|1:2,0:0:0:0:
505,147,45477,2,0,P|487:107|459:90,1,70,10|0,0:0|0:0,0:0:0:0:
403,31,45794,2,0,B|356:121|273:55|273:55,1,140,2|8,1:2|0:0,0:0:0:0:
227,126,46271,1,0,0:0:0:0:
167,54,46429,2,0,P|191:101|187:126,1,70,2|0,1:2|1:2,0:0:0:0:
198,213,46747,2,2,P|195:254|205:286,1,70,10|2,0:0|0:0,0:0:0:0:
300,337,47064,6,0,P|356:299|346:216,2,140,2|10|2,1:2|0:0|1:2,0:0:0:0:
133,318,47858,1,0,1:2:0:0:
209,358,48017,2,0,P|159:368|132:357,1,70,10|0,0:0|0:0,0:0:0:0:
38,315,48334,2,0,B|56:238|25:232|42:148,1,140,2|8,1:2|0:0,0:0:0:0:
209,41,48969,1,2,1:2:0:0:
166,121,49128,1,0,1:2:0:0:
116,47,49286,2,0,L|186:105,1,70,10|0,0:0|0:0,0:0:0:0:
149,173,49604,6,0,P|221:187|274:125,1,140,2|8,1:2|0:0,0:0:0:0:
362,103,50080,1,0,0:0:0:0:
285,61,50239,2,0,P|329:71|355:60,1,70,2|0,1:2|1:2,0:0:0:0:
451,50,50556,2,0,P|468:95|457:121,1,70,10|0,0:0|0:0,0:0:0:0:
485,224,50874,2,0,B|403:168|362:265|362:265,1,140,2|8,1:2|0:0,0:0:0:0:
228,346,51355,1,0,0:0:0:0:
291,291,51515,2,0,B|209:347|168:250|168:250,1,134.4,2|8,1:2|0:0,0:0:0:0:
28,39,52157,5,2,1:2:0:0:
111,25,52314,1,0,1:2:0:0:
176,71,52471,2,0,P|162:119|161:152,1,70,10|0,0:0|0:0,0:0:0:0:
222,204,52785,1,2,1:2:0:0:
165,259,52942,1,0,1:2:0:0:
92,223,53099,2,0,P|36:229|18:256,1,70,10|0,0:0|0:0,0:0:0:0:
9,345,53413,1,2,1:2:0:0:
90,384,53569,1,0,1:2:0:0:
173,379,53725,2,0,P|211:360|250:355,1,70,10|0,0:0|0:0,0:0:0:0:
321,370,54038,1,2,1:2:0:0:
305,287,54194,1,8,0:0:0:0:
296,275,54272,1,8,0:0:0:0:
288,264,54350,1,10,0:0:0:0:
280,253,54428,1,8,0:0:0:0:
272,243,54506,1,8,0:0:0:0:
266,231,54584,1,8,0:0:0:0:
259,221,54662,6,0,B|314:201|314:201|370:256|477:236,1,210,6|8,1:2|0:0,0:0:0:0:
442,105,55133,1,0,0:0:0:0:
512,172,55290,2,0,P|471:140|432:146,1,84,0|0,1:2|1:2,0:0:0:0:
366,51,55604,2,0,P|332:83|287:69,1,84,8|0,0:0|0:0,0:0:0:0:
215,108,55918,2,0,B|117:11|70:139|70:139,1,168,2|10,1:2|0:0,0:0:0:0:
24,340,56556,1,2,1:2:0:0:
125,279,56715,1,0,1:2:0:0:
24,340,56875,2,0,P|14:292|9:250,1,77,10|0,0:0|0:0,0:0:0:0:
73,207,57194,6,0,P|128:206|188:298,1,154.000004699707,6|8,1:2|0:0,0:0:0:0:
320,303,57665,1,0,0:0:0:0:
245,338,57822,2,0,P|302:341|318:327,1,70,0|0,1:2|1:2,0:0:0:0:
410,374,58148,2,0,P|417:336|394:300,1,70,8|0,0:0|0:0,0:0:0:0:
408,222,58443,2,0,B|330:153|412:87|412:87,1,140,2|10,1:2|0:0,0:0:0:0:
228,18,59103,1,2,1:2:0:0:
308,52,59264,1,0,1:2:0:0:
232,102,59424,2,2,L|246:23,1,70,10|2,0:0|0:0,0:0:0:0:
329,15,59733,6,0,B|350:173|285:130|310:318,1,280,6|2,1:2|1:2,0:0:0:0:
447,316,60511,1,0,1:2:0:0:
369,373,60671,2,0,P|394:345|393:308,1,70,8|2,0:0|0:0,0:0:0:0:
391,225,60978,2,0,B|255:279|255:279|104:254,1,285.6,2|0,1:2|1:2,0:0:0:0:
17,139,61767,1,0,1:2:0:0:
35,230,61925,2,0,P|30:184|53:153,1,70,8|0,0:0|0:0,0:0:0:0:
79,80,62241,2,0,B|250:288|347:31|347:31,1,350,2|8,1:2|0:0,0:0:0:0:
427,20,63178,1,8,0:0:0:0:
444,20,63256,1,8,0:0:0:0:
460,30,63334,1,8,0:0:0:0:
470,43,63412,1,8,0:0:0:0:
478,57,63491,6,0,P|449:100|454:221,1,157.5,6|0,1:2|0:0,0:0:0:0:
473,286,64165,2,2,B|425:284|425:284|396:330|339:350,1,157.5,2|0,0:0|0:0,0:1:0:0:
256,370,64870,6,0,B|206:276|198:349|92:281,1,168,6|8,1:2|0:0,0:0:0:0:
40,255,65351,1,0,0:0:0:0:
49,173,65511,2,0,B|143:123|70:115|138:9,1,168,2|8,1:2|0:0,0:0:0:0:
207,14,65992,1,0,0:0:0:0:
291,37,66153,2,0,P|314:76|302:118,1,84,2|0,1:2|0:0,0:0:0:0:
207,159,66474,1,10,0:0:0:0:
163,252,66634,1,0,0:0:0:0:
263,302,66795,2,0,P|328:323|424:276,1,168,2|8,1:2|0:0,0:0:0:0:
381,95,67436,5,2,1:2:0:0:
412,16,67597,1,0,1:2:0:0:
381,95,67757,2,0,P|348:120|288:123,1,84,10|0,0:0|0:0,0:0:0:0:
227,52,68078,1,2,1:2:0:0:
138,27,68238,1,0,1:2:0:0:
54,61,68399,1,10,0:0:0:0:
14,144,68559,1,0,0:0:0:0:
51,229,68720,2,0,P|108:233|133:257,1,84,2|0,1:2|1:2,0:0:0:0:
179,313,69041,2,0,P|217:341|259:338,1,84,10|0,0:0|0:0,0:0:0:0:
335,325,69361,2,0,B|383:234|289:177|289:177,1,168,2|8,1:2|0:0,0:0:0:0:
221,51,70003,6,0,P|264:29|363:57,1,140,6|10,1:2|0:0,0:0:0:0:
480,9,70476,1,0,0:0:0:0:
506,93,70634,2,0,P|507:142|487:172,1,70,2|0,1:2|1:2,0:0:0:0:
399,262,70950,1,10,0:0:0:0:
475,295,71108,1,0,0:0:0:0:
421,357,71266,2,0,P|374:342|331:344,1,84,2|0,1:2|0:0,0:0:0:0:
256,359,71581,2,0,P|215:341|213:298,1,84,10|0,0:0|0:0,0:0:0:0:
270,248,71897,2,0,P|294:192|253:89,1,168,2|8,1:2|0:0,0:0:0:0:
97,16,72529,6,0,P|65:56|59:94,1,84,2|0,1:2|1:2,0:0:0:0:
117,148,72845,2,0,P|97:200|61:217,1,84,10|0,0:0|0:0,0:0:0:0:
29,380,73160,1,2,1:2:0:0:
74,319,73318,1,0,1:2:0:0:
157,362,73476,2,0,P|188:326|198:276,1,84,10|0,0:0|0:0,0:0:0:0:
271,228,73792,2,0,P|288:288|398:305,1,168,2|10,1:2|0:0,0:0:0:0:
470,200,74424,1,2,1:2:0:0:
415,134,74581,1,0,1:2:0:0:
496,123,74739,2,0,L|421:191,1,84,10|8,0:0|0:0,0:0:0:0:
353,197,74976,1,8,0:0:0:0:
353,197,75055,6,0,P|308:152|330:44,1,182,6|8,1:2|0:0,0:0:0:0:
31,33,75687,1,2,1:2:0:0:
123,85,75845,1,0,1:2:0:0:
148,0,76002,2,0,L|98:85,1,84,8|0,0:0|0:0,0:0:0:0:
16,170,76318,1,2,1:2:0:0:
96,202,76476,1,0,0:0:0:0:
45,271,76634,2,0,P|43:325|71:358,1,84,10|0,0:0|0:0,0:0:0:0:
141,370,76950,2,0,B|145:281|174:306|151:184,1,168,2|8,1:2|0:0,0:0:0:0:
236,50,77581,5,2,1:2:0:0:
335,71,77739,1,0,1:2:0:0:
236,50,77897,2,0,P|243:100|258:142,1,84,10|0,0:0|0:0,0:0:0:0:
330,160,78213,2,0,P|316:222|303:258,1,84,2|0,1:2|1:2,0:0:0:0:
281,348,78529,1,10,0:0:0:0:
360,384,78687,1,0,0:0:0:0:
436,350,78845,2,0,P|464:298|455:183,1,168,2|10,1:2|0:0,0:0:0:0:
396,105,79318,1,0,0:0:0:0:
470,52,79476,2,0,P|430:77|385:70,1,70,2|0,1:2|1:2,0:0:0:0:
337,28,79792,2,0,P|289:32|269:52,1,70,10|0,0:0|0:0,0:0:0:0:
199,100,80108,6,0,B|324:152|248:274|248:274,1,182,0|8,1:2|0:0,0:0:0:0:
337,280,80571,1,0,0:0:0:0:
216,363,80726,2,0,P|169:346|120:339,1,80.5,0|0,1:2|1:2,0:0:0:0:
57,333,81035,2,0,P|54:274|84:246,1,80.5,8|0,0:0|0:0,0:0:0:0:
141,223,81345,6,0,B|235:273|162:281|230:387,1,168,2|8,1:2|0:0,0:0:0:0:
371,223,81990,2,0,B|277:273|350:281|282:387,1,168,2|8,1:2|0:0,0:0:0:0:
253,199,82602,2,0,B|266:122|232:113|251:7,1,168,2|8,1:2|0:0,0:0:0:0:
325,6,83070,2,0,P|379:18|398:47,1,84,2|0,0:0|1:2,0:0:0:0:
486,63,83383,1,8,0:0:0:0:
477,80,83461,1,8,0:0:0:0:
470,93,83539,1,10,0:0:0:0:
461,109,83617,1,8,0:0:0:0:
452,123,83695,1,8,0:0:0:0:
441,138,83773,1,8,0:0:0:0:
430,154,83852,6,0,B|360:133|360:133|307:185,1,140,6|8,1:2|0:0,0:0:0:0:
228,169,84328,2,0,B|107:284|65:104|65:104,1,210,2|8,0:0|0:0,0:0:0:0:
215,22,85121,2,0,P|271:38|292:52,1,70,0|0,1:2|1:2,0:0:0:0:
365,68,85440,2,0,P|335:114|328:149,1,70,8|0,0:0|0:0,0:0:0:0:
384,198,85759,1,0,1:2:0:0:
337,271,85918,1,0,1:2:0:0:
395,332,86078,2,0,P|435:332|460:309,1,70,8|0,0:0|0:0,0:0:0:0:
492,233,86397,6,0,P|387:184|341:185,1,140,0|8,1:2|0:0,0:0:0:0:
280,162,86865,1,0,0:0:0:0:
250,238,87022,2,0,P|222:259|198:295,1,70,0|0,1:2|1:2,0:0:0:0:
133,334,87334,2,0,P|102:355|71:353,1,70,8|0,0:0|0:0,0:0:0:0:
26,281,87647,2,0,B|29:183|-10:216|14:117,1,140,0|8,1:2|0:0,0:0:0:0:
59,75,88115,1,0,0:2:0:0:
136,93,88272,2,0,P|170:122|221:104,1,70,0|0,1:2|1:2,0:0:0:0:
275,142,88584,2,0,P|285:184|277:219,1,70,8|8,0:0|0:0,0:0:0:0:
361,263,88818,5,8,0:0:0:0:
361,263,88896,2,0,B|360:179|384:188|376:109,1,140,6|8,1:2|0:0,0:0:0:0:
512,0,89537,1,0,1:2:0:0:
444,57,89690,1,0,1:2:0:0:
512,0,89844,2,0,P|510:53|503:85,1,70,8|0,0:0|0:0,0:0:0:0:
461,141,90152,2,0,P|469:191|480:218,1,70,0|0,1:2|1:2,0:0:0:0:
484,300,90467,2,0,P|408:302|372:348,1,140,8|0,0:0|1:2,0:0:0:0:
293,321,90941,1,0,1:2:0:0:
213,358,91099,2,0,P|202:304|217:273,1,70,8|0,0:0|0:0,0:0:0:0:
328,213,91415,5,0,1:2:0:0:
274,150,91578,1,0,1:2:0:0:
252,73,91742,2,0,P|203:54|177:57,1,70,8|0,0:0|0:0,0:0:0:0:
72,22,92070,1,0,1:2:0:0:
37,103,92227,1,0,1:2:0:0:
102,152,92385,2,0,P|116:191|111:225,1,70,8|0,0:0|0:0,0:0:0:0:
69,288,92701,2,0,B|85:397|189:328|189:328,1,140,0|8,1:2|0:0,0:0:0:0:
250,253,93155,1,0,0:0:0:0:
328,213,93307,1,0,1:2:0:0:
411,266,93458,5,8,0:0:0:0:
420,274,93534,1,8,0:0:0:0:
425,285,93610,1,8,0:0:0:0:
427,299,93685,1,8,0:0:0:0:
423,315,93761,1,8,0:0:0:0:
415,326,93837,1,8,0:0:0:0:
403,334,93913,1,6,1:2:0:0:
256,192,94064,12,0,102549,0:0:0:0:
