osu file format v14

[General]
AudioFilename: audio.mp3
AudioLeadIn: 0
PreviewTime: 43670
Countdown: 0
SampleSet: Soft
StackLeniency: 0.7
Mode: 0
LetterboxInBreaks: 0
WidescreenStoryboard: 0

[Editor]
DistanceSpacing: 0.8
BeatDivisor: 4
GridSize: 8
TimelineZoom: 2

[Metadata]
Title:Donten (TV Size)
TitleUnicode:曇天 (TV Size)
Artist:DOES
ArtistUnicode:DOES
Creator:keevy
Version:Extra
Source:銀魂
Tags:aphestra Gintama Anime Jrock J-rock Japanese Rock op opening 5 male vocals 氏原ワタル Ujihara Wataru
BeatmapID:3839568
BeatmapSetID:1866550

[Difficulty]
HPDrainRate:6
CircleSize:4
OverallDifficulty:9
ApproachRate:9
SliderMultiplier:1.6
SliderTickRate:1

[Events]
//Background and Video events
0,0,"bg.jpg",0,0
//Break Periods
//Storyboard Layer 0 (Background)
//Storyboard Layer 1 (Fail)
//Storyboard Layer 2 (Pass)
//Storyboard Layer 3 (Foreground)
//Storyboard Layer 4 (Overlay)
//Storyboard Sound Samples

[TimingPoints]
854,333.333333333333,4,2,1,55,1,0
854,-100,4,2,1,55,0,0
2187,331.491712707182,4,2,1,55,1,0
2187,-100,4,2,1,55,0,0
3512,-100,4,2,1,55,0,0
4838,333.333333333333,4,2,1,55,1,0
4838,-100,4,2,1,55,0,0
6171,375,4,2,1,55,1,0
6171,-66.6666666666667,4,2,1,55,0,0
6501,344.827586206896,4,2,1,55,1,0
6501,-100,4,2,1,55,0,0
7535,333.333333333333,4,2,1,55,1,0
7535,-66.6666666666667,4,2,1,55,0,0
7868,-100,4,2,1,55,0,0
8879,361.44578313253,4,2,1,55,1,0
8879,-100,4,2,1,55,0,0
9240,331.491712707182,4,2,1,55,1,0
9240,-100,4,2,1,55,0,0
9902,326.086956521739,4,2,1,55,1,0
9902,-100,4,2,1,55,0,0
10228,326.086956521739,4,2,1,55,1,0
10228,-100,4,2,1,55,0,0
10554,320.855614973262,4,2,1,55,1,0
10554,-100,4,2,1,55,0,0
10874,-66.6666666666667,4,2,1,55,0,0
11035,-66.6666666666667,4,2,2,55,0,0
11195,299.999999999999,4,2,2,55,1,0
11195,-100,4,2,2,55,0,0
11495,326.086956521738,4,2,1,65,1,0
11495,-83.3333333333333,4,2,1,65,0,0
12310,-100,4,2,1,65,0,0
12473,-100,4,2,1,65,0,0
12799,315.78947368421,4,2,1,65,1,0
12799,-66.6666666666667,4,2,1,65,0,0
13746,-90.9090909090909,4,2,1,65,0,0
14062,320.855614973261,4,2,1,65,1,0
14062,-83.3333333333333,4,2,1,65,0,0
15345,317.460317460316,4,2,1,65,1,0
15345,-83.3333333333333,4,2,1,65,0,0
20424,315.78947368421,4,2,1,65,1,0
20424,-83.3333333333333,4,2,1,65,0,0
20739,-100,4,2,1,65,0,0
21055,301.507537688441,4,2,1,65,1,0
21055,-100,4,2,1,65,0,0
21205,-100,4,2,2,65,0,0
21658,350.877192982454,4,2,1,65,1,0
21658,-100,4,2,1,65,0,0
22008,333.333333333331,4,2,1,65,1,0
22008,-100,4,2,1,65,0,0
22341,329.670329670328,4,2,1,65,1,0
22341,-100,4,2,1,65,0,0
22670,-100,4,2,1,55,0,0
23000,324.324324324322,4,2,1,55,1,0
23000,-100,4,2,1,55,0,0
23648,310.880829015542,4,2,1,55,1,0
23958,338.983050847456,4,2,1,55,1,0
24297,319.148936170211,4,2,1,60,1,0
24297,-100,4,2,1,60,0,0
29403,317.460317460316,4,2,1,60,1,0
29403,-100,4,2,1,60,0,0
30672,312.499999999998,4,2,1,60,1,0
30672,-100,4,2,1,60,0,0
31921,310.880829015542,4,2,1,60,1,0
31921,-100,4,2,1,60,0,0
32542,-100,4,2,1,60,0,0
32853,-100,4,2,1,60,0,0
33941,-100,4,2,2,60,0,0
34408,319.148936170211,4,2,1,65,1,0
34408,-100,4,2,1,65,0,0
35684,310.880829015542,4,2,1,65,1,0
35684,-100,4,2,1,65,0,0
36927,319.148936170211,4,2,1,65,1,0
36927,-100,4,2,1,65,0,0
39480,-100,4,2,1,60,0,0
40118,-100,4,2,1,60,0,0
40756,314.136125654449,4,2,1,60,1,0
40756,-100,4,2,1,60,0,0
42326,-100,4,2,1,60,0,0
42797,-100,4,2,1,60,0,0
43112,-100,4,2,1,60,0,0
44054,-100,4,2,2,60,0,0
44525,317.460317460316,4,2,1,60,1,0
44525,-76.9230769230769,4,2,1,60,0,0
45159,-100,4,2,1,55,0,0
50874,320.855614973261,4,2,1,55,1,0
50874,-100,4,2,1,55,0,0
51676,-100,4,2,1,55,0,0
51836,-100,4,2,1,55,0,0
52157,314.136125654449,4,2,1,55,1,0
52157,-100,4,2,1,55,0,0
52785,-103.092783505155,4,2,1,55,0,0
52942,-100,4,2,1,55,0,0
53256,-100,4,2,1,55,0,0
53413,312.499999999999,4,2,1,55,1,0
53413,-100,4,2,1,55,0,0
54194,-100,4,2,2,65,0,0
54662,314.136125654449,4,2,1,65,1,0
54662,-66.6666666666667,4,2,1,65,0,0
55133,-83.3333333333333,4,2,1,65,0,0
55918,319.148936170212,4,2,1,65,1,0
55918,-100,4,2,1,65,0,0
56237,-90.9090909090909,4,2,1,65,0,0
57194,314.136125654449,4,2,1,65,1,0
57194,-90.9090909090909,4,2,1,65,0,0
57822,326.086956521737,4,2,1,65,1,0
57822,-100,4,2,1,65,0,0
58148,295.566502463053,4,2,1,65,1,0
58443,340.909090909089,4,2,1,65,1,0
58443,-100,4,2,1,65,0,0
58783,320.855614973261,4,2,1,65,1,0
58783,-100,4,2,1,65,0,0
59424,309.278350515463,4,2,1,65,1,0
59424,-100,4,2,1,65,0,0
59733,309.278350515463,4,2,1,65,1,0
59733,-100,4,2,1,65,0,0
60351,320.855614973261,4,2,1,65,1,0
60351,-100,4,2,1,65,0,0
60671,307.692307692307,4,2,1,65,1,0
60671,-100,4,2,1,65,0,0
60978,315.78947368421,4,2,1,65,1,0
60978,-100,4,2,1,65,0,0
61609,-100,4,2,1,65,0,0
61925,-100,4,2,1,65,0,0
62241,312.499999999999,4,2,1,65,1,0
62241,-100,4,2,1,65,0,0
63022,-100,4,2,2,65,0,0
63491,337.078651685392,4,2,1,60,1,0
63491,-133.333333333333,4,2,1,60,0,0
64165,352.941176470587,4,2,1,45,1,0
64165,-133.333333333333,4,2,1,45,0,0
64870,320.855614973261,4,2,1,70,1,0
64870,-83.3333333333333,4,2,1,70,0,0
70003,315.78947368421,4,2,1,70,1,0
70003,-100,4,2,1,70,0,0
71266,-83.3333333333333,4,2,1,70,0,0
74897,-83.3333333333333,4,2,2,70,0,0
75055,-76.9230769230769,4,2,1,70,0,0
76002,-83.3333333333333,4,2,1,70,0,0
79160,-100,4,2,1,70,0,0
80108,309.278350515463,4,2,1,70,1,0
80108,-76.9230769230769,4,2,1,70,0,0
80726,-86.9565217391304,4,2,1,70,0,0
81345,322.580645161289,4,2,1,70,1,0
81345,-83.3333333333333,4,2,1,70,0,0
81990,306.122448979591,4,2,1,70,1,0
81990,-100,4,2,1,70,0,0
82296,-83.3333333333333,4,2,1,70,0,0
82602,312.499999999999,4,2,1,70,1,0
82602,-83.3333333333333,4,2,1,70,0,0
83227,-100,4,2,1,70,0,0
83383,-100,4,2,2,70,0,0
83852,317.460317460316,4,2,1,70,1,0
83852,-100,4,2,1,70,0,0
84169,-100,4,2,1,70,0,0
85121,319.148936170211,4,2,1,70,1,0
85121,-100,4,2,1,70,0,0
85280,-100,4,2,1,70,0,0
85440,-100,4,2,1,70,0,0
85918,-100,4,2,1,70,0,0
86078,-100,4,2,1,70,0,0
86397,312.499999999999,4,2,1,70,1,0
86397,-100,4,2,1,70,0,0
88740,-100,4,2,2,70,0,0
88896,320.855614973261,4,2,1,70,1,0
88896,-100,4,2,1,70,0,0
89537,307.692307692307,4,2,1,70,1,0
89537,-100,4,2,1,70,0,0
90152,315.78947368421,4,2,1,70,1,0
90152,-100,4,2,1,70,0,0
91415,327.868852459016,4,2,1,70,1,0
91415,-100,4,2,1,70,0,0
92070,315.78947368421,4,2,1,70,1,0
92070,-100,4,2,1,70,0,0
92385,-100,4,2,1,70,0,0
92701,303.030303030303,4,2,1,70,1,0
92701,-100,4,2,1,70,0,0
93458,-100,4,2,2,70,0,0
93913,-100,4,2,1,70,0,0
95125,-100,4,2,1,60,0,0
96413,-100,4,2,1,50,0,0
97625,-100,4,2,1,40,0,0
98837,-100,4,2,1,30,0,0
100049,-100,4,2,1,20,0,0
101337,-100,4,2,1,10,0,0
102549,-100,4,2,1,5,0,0

[Colours]
Combo1 : 225,225,225
Combo2 : 192,192,192
Combo3 : 211,168,255
Combo4 : 198,198,255

[HitObjects]
66,270,6171,5,8,0:0:0:0:
66,270,6217,2,0,P|125:246|171:242,1,120,8|0,0:0|1:2,0:0:0:0:
435,69,7535,5,8,0:0:0:0:
435,69,7576,2,0,P|418:123|422:182,1,120,8|0,0:0|1:2,0:0:0:0:
151,59,8879,5,8,0:0:0:0:
151,59,8924,2,0,P|175:94|182:127,1,60,8|0,0:0|1:2,0:0:0:0:
361,325,9571,5,8,0:0:0:0:
361,325,9612,2,0,P|337:290|330:257,1,60,8|0,0:0|1:2,0:0:0:0:
62,163,10228,5,8,0:0:0:0:
261,179,10391,1,0,1:2:0:0:
109,55,10554,1,8,0:0:0:0:
205,270,10714,1,0,1:2:0:0:
378,77,10874,2,0,P|315:84|253:102,1,120,8|8,0:0|0:0,0:0:0:0:
216,120,11115,1,8,0:0:0:0:
234,168,11195,5,8,0:0:0:0:
261,179,11270,1,8,0:0:0:0:
303,173,11345,1,8,0:0:0:0:
349,164,11420,1,8,0:0:0:0:
398,183,11495,6,0,P|386:248|383:334,1,144,6|0,1:2|0:0,0:0:0:0:
278,352,11821,2,0,P|300:298|353:282,1,96,10|0,0:0|0:0,0:0:0:0:
486,210,12147,1,2,1:2:0:0:
272,145,12310,1,2,1:2:0:0:
349,61,12473,2,0,P|349:128|349:159,1,80,10|0,0:0|0:0,0:0:0:0:
486,210,12799,6,0,B|380:179|410:249|289:209,1,180,2|0,1:2|0:0,0:0:0:0:
238,224,13114,1,10,0:0:0:0:
379,303,13272,1,0,0:0:0:0:
238,224,13430,1,2,1:2:0:0:
379,303,13588,1,2,1:2:0:0:
200,374,13746,2,0,P|181:308|196:273,1,88,10|0,0:0|0:0,0:0:0:0:
69,89,14062,6,0,B|125:71|125:71|165:123|246:128,1,192,2|10,1:2|0:0,0:0:0:0:
306,71,14543,1,0,0:0:0:0:
106,265,14703,2,0,P|90:207|116:179,1,96,2|2,1:2|1:2,0:0:0:0:
306,71,15024,2,0,P|284:134|295:226,1,144,10|0,0:0|0:0,0:0:0:0:
355,266,15345,6,0,B|463:235|379:191|520:165,1,192,2|10,1:2|0:0,0:0:0:0:
510,166,15821,1,2,0:0:0:0:
382,117,15979,2,0,P|329:91|278:69,1,96,2|2,1:2|1:2,0:0:0:0:
260,161,16297,2,0,P|204:180|152:200,1,96,10|0,0:0|0:0,0:0:0:0:
7,221,16614,6,0,B|84:233|84:233|115:266|115:266|215:290,1,192,6|10,1:2|0:0,0:0:0:0:
435,182,17091,1,0,0:0:0:0:
293,343,17249,1,2,1:2:0:0:
485,243,17408,1,2,1:2:0:0:
293,343,17567,2,0,P|267:287|275:237,1,96,10|0,0:0|0:0,0:0:0:0:
377,54,17884,6,0,P|424:125|431:223,1,144,2|0,1:2|0:0,0:0:0:0:
485,243,18202,2,0,P|438:281|382:268,1,96,10|0,0:0|0:0,0:0:0:0:
160,114,18519,1,2,1:2:0:0:
160,114,18678,1,2,1:2:0:0:
91,203,18837,2,0,P|71:139|60:90,1,96,10|0,0:0|0:0,0:0:0:0:
318,194,19154,6,0,B|432:156|347:118|487:80,1,192,2|10,1:2|0:0,0:0:0:0:
468,85,19630,1,0,0:0:0:0:
488,213,19789,2,0,P|430:174|392:162,1,96,2|2,1:2|1:2,0:0:0:0:
361,89,20106,2,0,P|305:90|251:110,1,96,10|0,0:0|0:0,0:0:0:0:
160,198,20424,6,0,P|243:195|307:286,1,192,2|10,1:2|0:0,0:0:0:0:
305,274,20897,1,2,0:0:0:0:
169,380,21055,2,0,P|168:327|178:285,1,80,2|8,1:2|0:0,0:0:0:0:
130,272,21281,1,8,0:0:0:0:
85,271,21356,1,8,0:0:0:0:
53,300,21431,1,8,0:0:0:0:
28,319,21507,1,8,0:0:0:0:
9,320,21582,1,8,0:0:0:0:
0,313,21658,5,6,1:2:0:0:
145,303,23648,5,2,0:0:0:0:
294,108,23958,1,10,0:2:0:0:
431,274,24297,6,0,P|371:258|351:159,1,160,6|8,1:2|0:0,0:0:0:0:
345,171,24775,1,0,0:0:0:0:
294,108,24935,1,2,1:2:0:0:
349,47,25094,1,0,1:2:0:0:
294,108,25254,2,0,P|244:88|200:79,1,80,10|0,0:0|0:0,0:0:0:0:
71,80,25573,6,0,B|166:52|118:21|224:-5,1,160,2|8,1:2|0:0,0:0:0:0:
45,272,26211,1,2,1:2:0:0:
19,196,26371,1,0,1:2:0:0:
162,242,26531,2,0,P|128:241|98:205,1,80,10|0,0:0|0:0,0:0:0:0:
412,128,26850,5,2,1:2:0:0:
395,209,27009,1,0,1:2:0:0:
253,267,27169,5,10,0:0:0:0:
293,330,27328,1,0,0:0:0:0:
486,151,27488,5,2,1:2:0:0:
340,93,27648,1,0,1:2:0:0:
251,173,27807,5,10,0:0:0:0:
156,219,27967,1,0,0:0:0:0:
111,304,28126,6,0,P|35:252|47:184,1,160,2|8,1:2|0:0,0:0:0:0:
340,93,28765,1,2,1:2:0:0:
275,46,28924,1,0,1:2:0:0:
340,93,29084,2,0,P|353:46|366:9,1,80,10|0,0:0|0:0,0:0:0:0:
500,125,29403,6,0,P|446:123|383:210,1,160,2|8,1:2|0:0,0:0:0:0:
401,275,29879,1,0,0:0:0:0:
491,284,30037,2,0,P|478:234|467:197,1,80,2|0,1:2|1:2,0:0:0:0:
309,256,30355,2,0,P|322:306|333:343,1,80,10|0,0:0|0:0,0:0:0:0:
383,199,30672,6,0,B|293:170|347:137|222:106,1,160,2|8,1:2|0:0,0:0:0:0:
250,114,31140,1,0,0:0:0:0:
109,292,31296,2,0,B|198:268|140:233|245:200,1,160,2|8,1:2|0:0,0:0:0:0:
63,67,31921,6,0,P|67:116|82:154,1,80,2|0,1:2|1:2,0:0:0:0:
250,114,32231,2,0,P|246:65|231:27,1,80,10|0,0:0|0:0,0:0:0:0:
161,127,32542,6,0,P|129:164|112:201,1,80,2|0,1:2|1:2,0:0:0:0:
265,296,32853,2,0,P|296:258|313:221,1,80,10|0,0:0|0:0,0:0:0:0:
149,299,33164,5,2,1:2:0:0:
345,39,33475,1,10,0:0:0:0:
457,340,33786,5,2,1:2:0:0:
231,58,33941,1,8,0:0:0:0:
187,31,34019,1,8,0:0:0:0:
132,45,34097,1,10,0:0:0:0:
102,95,34174,1,8,0:0:0:0:
114,150,34252,1,8,0:0:0:0:
168,175,34330,1,8,0:0:0:0:
226,170,34408,6,0,L|263:7,1,160,6|8,1:2|0:0,0:0:0:0:
457,340,35046,1,0,1:2:0:0:
392,250,35205,1,0,1:2:0:0:
457,340,35365,2,0,P|475:295|484:248,1,80,8|0,0:0|0:0,0:0:0:0:
219,263,35684,2,0,B|131:232|185:204|69:163,1,160,2|10,1:2|0:0,0:0:0:0:
13,146,36150,1,0,0:0:0:0:
9,302,36305,6,0,P|51:271|86:251,1,80,2|0,1:2|1:2,0:0:0:0:
91,171,36616,2,0,P|142:161|181:160,1,80,10|0,0:0|0:0,0:0:0:0:
366,151,36927,6,0,P|310:202|316:301,1,160,2|8,1:2|0:0,0:0:0:0:
307,283,37405,1,0,0:0:0:0:
401,308,37565,2,0,P|446:284|479:269,1,80,0|0,1:2|1:2,0:0:0:0:
272,365,37884,2,0,P|229:354|189:350,1,80,8|0,0:0|0:0,0:0:0:0:
11,277,38203,6,0,B|71:280|121:239|121:239|151:269,1,160,2|10,1:2|0:0,0:0:0:0:
309,133,38841,1,2,1:2:0:0:
371,68,39001,1,0,1:2:0:0:
309,133,39161,2,0,P|294:87|293:47,1,80,8|0,0:0|0:0,0:0:0:0:
77,3,39480,5,6,1:2:0:0:
174,79,39639,2,0,P|170:32|152:-9,1,80,2|8,1:2|0:0,0:0:0:0:
104,156,39958,1,2,0:0:0:0:
77,3,40118,1,2,1:2:0:0:
15,118,40278,2,0,P|2:80|0:40,1,80,2|8,1:2|0:0,0:0:0:0:
270,74,40597,1,2,0:0:0:0:
270,74,40756,6,0,P|209:97|198:205,1,160,2|8,1:2|0:0,0:0:0:0:
104,156,41227,1,2,0:0:0:0:
153,286,41384,2,0,P|195:263|230:250,1,80,2|2,1:2|1:2,0:0:0:0:
282,196,41698,2,0,P|328:211|370:235,1,80,8|2,0:0|0:0,0:0:0:0:
500,231,42012,6,0,B|415:197|473:173|360:127,1,160,2|8,1:2|0:0,0:0:0:0:
376,134,42483,1,2,0:0:0:0:
446,75,42640,2,0,P|489:51|516:29,1,80,2|2,1:2|1:2,0:0:0:0:
361,46,42954,2,0,P|318:31|276:11,1,80,10|0,0:0|0:0,0:0:0:0:
70,83,43269,6,0,P|140:87|196:184,1,160,2|8,1:2|0:0,0:0:0:0:
193,153,43897,1,2,1:2:0:0:
290,292,44054,1,8,0:0:0:0:
260,315,44132,1,8,0:0:0:0:
214,311,44211,1,10,0:0:0:0:
171,287,44290,1,8,0:0:0:0:
121,279,44368,1,8,0:0:0:0:
71,295,44447,1,8,0:0:0:0:
52,330,44525,6,0,B|177:305|108:255|237:231,1,208,6|8,1:2|0:0,0:0:0:0:
452,329,45159,1,2,1:2:0:0:
359,371,45318,1,0,1:2:0:0:
452,329,45477,2,0,P|394:303|356:293,1,80,10|0,0:0|0:0,0:0:0:0:
306,191,45794,6,0,P|375:213|479:223,1,160,2|8,1:2|0:0,0:0:0:0:
461,223,46271,1,0,0:0:0:0:
411,61,46429,1,2,1:2:0:0:
479,103,46588,1,0,1:2:0:0:
486,21,46747,2,2,P|437:33|396:46,1,80,10|2,0:0|0:0,0:0:0:0:
274,107,47064,5,2,1:2:0:0:
208,66,47223,1,0,1:2:0:0:
171,132,47382,1,10,0:0:0:0:
237,172,47540,1,0,0:0:0:0:
254,187,47699,5,2,1:2:0:0:
144,153,47858,1,0,1:2:0:0:
181,27,48017,1,10,0:0:0:0:
305,63,48175,1,0,0:0:0:0:
353,187,48334,6,0,P|308:197|242:291,1,160,2|8,1:2|0:0,0:0:0:0:
70,283,48969,1,2,1:2:0:0:
127,349,49128,1,0,1:2:0:0:
70,283,49286,2,0,P|115:268|168:259,1,80,10|0,0:0|0:0,0:0:0:0:
261,231,49604,6,0,B|179:201|229:175|100:127,1,160,2|8,1:2|0:0,0:0:0:0:
131,140,50080,1,0,0:0:0:0:
166,66,50239,2,0,P|210:53|247:41,1,80,2|0,1:2|1:2,0:0:0:0:
68,72,50556,2,0,P|48:33|32:-3,1,80,10|0,0:0|0:0,0:0:0:0:
49,160,50874,6,0,P|3:214|12:300,2,160,2|8|2,1:2|0:0|1:2,0:0:0:0:
49,160,51676,1,0,1:2:0:0:
132,222,51836,2,0,P|180:197|220:188,1,80,8|0,0:0|0:0,0:0:0:0:
306,132,52157,5,2,1:2:0:0:
344,201,52314,1,0,1:2:0:0:
400,138,52471,2,0,P|353:118|314:104,1,80,10|0,0:0|0:0,0:0:0:0:
257,11,52785,2,0,P|339:32|424:40,1,155.199999999999,2|10,1:2|0:0,0:0:0:0:
413,39,53256,1,0,0:0:0:0:
506,115,53413,2,0,P|495:175|392:249,1,160,2|10,1:2|0:0,0:0:0:0:
490,307,54038,5,2,1:2:0:0:
386,159,54194,1,8,0:0:0:0:
349,193,54272,1,8,0:0:0:0:
333,240,54350,1,10,0:0:0:0:
349,290,54428,1,8,0:0:0:0:
391,322,54506,1,8,0:0:0:0:
441,329,54584,1,8,0:0:0:0:
490,307,54662,6,0,B|337:257|403:366|236:313,1,240,6|8,1:2|0:0,0:0:0:0:
197,256,55133,1,0,0:0:0:0:
170,366,55290,1,0,1:2:0:0:
170,366,55447,1,0,1:2:0:0:
170,366,55604,2,0,P|147:288|162:174,1,191.999994140625,8|2,0:0|1:2,0:0:0:0:
159,179,56077,1,0,1:2:0:0:
100,261,56237,2,0,P|63:275|13:298,1,88,10|0,0:0|0:0,0:0:0:0:
246,223,56556,2,0,P|299:241|333:255,1,88,2|0,1:2|1:2,0:0:0:0:
143,103,56875,2,0,P|132:61|117:11,1,88,10|0,0:0|0:0,0:0:0:0:
337,98,57194,6,0,B|439:73|376:41|519:10,1,176.000005371094,6|8,1:2|0:0,0:0:0:0:
512,224,57822,1,0,1:2:0:0:
512,224,57985,1,0,1:2:0:0:
433,173,58148,2,0,P|435:224|454:273,1,80,8|0,0:0|0:0,0:0:0:0:
361,384,58443,2,0,P|354:305|330:218,1,160,2|10,1:2|0:0,0:0:0:0:
333,227,58943,1,0,0:0:0:0:
283,341,59103,2,0,P|237:359|196:362,1,80,2|0,1:2|1:2,0:0:0:0:
433,320,59424,2,2,P|481:339|521:367,1,80,10|2,0:0|0:0,0:0:0:0:
291,158,59733,6,0,P|228:151|210:52,1,160,6|8,1:2|0:0,0:0:0:0:
201,67,60196,1,2,0:0:0:0:
152,9,60351,2,2,P|108:23|73:36,1,80,2|0,1:2|1:2,0:0:0:0:
5,77,60671,2,0,P|2:130|-1:167,1,80,8|2,0:0|0:0,0:0:0:0:
159,358,60978,6,0,B|123:323|123:323|148:266|135:191,1,160,2|8,1:2|0:0,0:0:0:0:
138,215,61451,1,0,0:0:0:0:
246,257,61609,1,0,1:2:0:0:
322,173,61767,1,0,1:2:0:0:
348,280,61925,2,0,P|301:260|259:248,1,80,8|0,0:0|0:0,0:0:0:0:
422,153,62241,6,0,P|482:163|505:265,1,160,2|8,1:2|0:0,0:0:0:0:
386,384,62866,1,0,1:2:0:0:
267,280,63022,1,8,0:0:0:0:
210,278,63100,1,8,0:0:0:0:
180,317,63178,1,8,0:0:0:0:
187,360,63256,1,8,0:0:0:0:
209,372,63334,1,8,0:0:0:0:
225,370,63412,1,8,0:0:0:0:
230,362,63491,2,0,P|224:302|196:170,1,180,6|0,1:2|0:0,0:0:0:0:
244,115,64165,6,2,B|289:98|289:98|330:155|400:162,1,180,2|0,0:0|0:0,0:1:0:0:
476,315,64870,6,0,B|453:187|498:239|482:115,1,192,6|8,1:2|0:0,0:0:0:0:
484,126,65351,1,0,0:0:0:0:
377,143,65511,1,2,1:2:0:0:
312,12,65672,1,0,1:2:0:0:
377,143,65832,2,0,P|337:137|288:102,1,96,8|0,0:0|0:0,0:0:0:0:
142,125,66153,6,0,P|221:154|246:221,1,144,2|0,1:2|0:0,0:0:0:0:
289,271,66474,2,0,P|325:248|395:236,1,96,10|0,0:0|0:0,0:0:0:0:
205,368,66795,2,0,P|132:349|30:273,1,192,2|8,1:2|0:0,0:0:0:0:
37,282,67276,1,0,0:0:0:0:
141,267,67436,5,2,1:2:0:0:
163,156,67597,1,0,1:2:0:0:
237,234,67757,2,0,P|180:241|126:250,1,96,10|0,0:0|0:0,0:0:0:0:
317,146,68078,2,0,P|328:93|344:40,1,96,2|0,1:2|1:2,0:0:0:0:
349,263,68399,2,0,P|386:304|419:335,1,96,10|0,0:0|0:0,0:0:0:0:
317,146,68720,2,0,B|203:113|277:85|139:57,1,192,2|10,1:2|0:0,0:0:0:0:
149,59,69201,1,0,0:0:0:0:
67,143,69361,2,0,P|41:97|37:43,1,96,2|0,1:2|1:2,0:0:0:0:
249,0,69682,2,0,P|274:47|274:99,1,96,8|0,0:0|0:0,0:0:0:0:
201,201,70003,6,0,P|276:196|333:272,2,160,6|10|2,1:2|0:0|1:2,0:0:0:0:
280,313,70792,1,0,1:2:0:0:
137,268,70950,2,0,P|93:288|54:319,1,80,10|0,0:0|0:0,0:0:0:0:
357,349,71266,2,0,B|467:311|387:277|537:230,1,192,2|10,1:2|0:0,0:0:0:0:
509,239,71739,1,0,0:0:0:0:
466,105,71897,1,2,1:2:0:0:
351,201,72055,1,0,1:2:0:0:
466,105,72213,2,0,P|409:86|368:92,1,96,8|0,0:0|0:0,0:0:0:0:
179,18,72529,5,2,1:2:0:0:
211,115,72687,1,0,1:2:0:0:
112,131,72845,1,10,0:0:0:0:
211,115,73003,1,0,0:0:0:0:
308,89,73160,1,2,1:2:0:0:
211,115,73318,1,0,1:2:0:0:
234,202,73476,1,10,0:0:0:0:
211,115,73634,1,0,0:0:0:0:
136,224,73792,6,0,P|209:228|281:325,1,192,2|10,1:2|0:0,0:0:0:0:
279,315,74266,1,0,0:0:0:0:
188,369,74424,2,0,P|133:354|104:310,1,96,2|0,1:2|1:2,0:0:0:0:
29,320,74739,2,0,P|22:263|42:222,1,96,10|8,0:0|0:0,0:0:0:0:
54,149,74976,1,8,0:0:0:0:
69,158,75055,6,0,B|181:132|89:74|263:32,1,208,6|8,1:2|0:0,0:0:0:0:
478,36,75687,1,2,1:2:0:0:
342,158,75845,1,0,1:2:0:0:
478,36,76002,2,0,P|497:92|489:149,1,96,8|0,0:0|0:0,0:0:0:0:
348,339,76318,6,0,B|366:297|366:297|319:237|344:153,1,192,2|10,1:2|0:0,0:0:0:0:
342,158,76792,1,0,0:0:0:0:
121,168,76950,1,2,1:2:0:0:
257,244,77108,1,0,1:2:0:0:
121,168,77266,2,0,P|109:226|119:282,1,96,8|0,0:0|0:0,0:0:0:0:
342,158,77581,6,0,B|245:117|302:86|176:46,1,192,2|10,1:2|0:0,0:0:0:0:
187,49,78055,1,0,0:0:0:0:
355,64,78213,2,0,P|405:43|454:34,1,96,2|0,1:2|1:2,0:0:0:0:
188,145,78529,2,0,P|135:128|90:99,1,96,10|0,0:0|0:0,0:0:0:0:
11,252,78845,6,0,P|104:276|128:327,1,144,2|0,1:2|0:0,0:0:0:0:
212,326,79160,2,0,P|211:271|229:218,1,80,10|0,0:0|0:0,0:0:0:0:
311,381,79476,1,2,1:2:0:0:
311,381,79634,1,0,1:2:0:0:
413,263,79792,2,0,P|415:317|399:371,1,80,10|0,0:0|0:0,0:0:0:0:
310,219,80108,6,0,B|353:200|353:200|424:262|516:253,1,208,2|8,1:2|0:0,0:0:0:0:
500,254,80571,1,0,0:0:0:0:
430,92,80726,2,0,P|402:135|388:183,1,92,0|0,1:2|1:2,0:0:0:0:
223,211,81035,2,0,P|236:265|262:299,1,92,8|0,0:0|0:0,0:0:0:0:
39,380,81345,6,0,P|125:352|128:249,2,191.999994140625,2|8|2,1:2|0:0|1:2,0:0:0:0:
39,380,82143,1,0,1:2:0:0:
188,342,82296,2,0,P|239:329|292:324,1,96,8|0,0:0|0:0,0:0:0:0:
51,286,82602,2,0,B|156:250|95:217|225:175,1,192,2|8,1:2|0:0,0:0:0:0:
207,180,83070,1,2,0:0:0:0:
34,181,83227,5,0,1:2:0:0:
228,273,83383,1,8,0:0:0:0:
279,250,83461,1,8,0:0:0:0:
302,200,83539,1,10,0:0:0:0:
296,144,83617,1,8,0:0:0:0:
255,106,83695,1,8,0:0:0:0:
202,91,83773,1,8,0:0:0:0:
149,112,83852,6,0,P|123:181|174:271,1,160,6|8,1:2|0:0,0:0:0:0:
155,256,84328,1,2,0:0:0:0:
127,358,84486,2,0,P|178:336|224:329,1,80,0|0,1:2|1:2,0:0:0:0:
252,262,84804,2,0,P|294:268|343:288,1,80,8|0,0:0|0:0,0:0:0:0:
456,358,85121,5,0,1:2:0:0:
512,228,85280,1,0,1:2:0:0:
456,358,85440,2,0,P|442:304|440:265,1,80,8|0,0:0|0:0,0:0:0:0:
500,114,85759,1,0,1:2:0:0:
430,165,85918,1,0,1:2:0:0:
420,76,86078,2,0,P|464:102|492:122,1,80,8|0,0:0|0:0,0:0:0:0:
338,126,86397,6,0,B|272:128|219:98|219:98|182:124,1,160,0|8,1:2|0:0,0:0:0:0:
189,118,86865,1,0,0:0:0:0:
41,35,87022,1,0,1:2:0:0:
99,142,87178,1,0,1:2:0:0:
41,35,87334,2,0,P|24:88|23:124,1,80,8|0,0:0|0:0,0:0:0:0:
137,225,87647,6,0,P|81:227|9:309,1,160,0|8,1:2|0:0,0:0:0:0:
6,251,88115,1,0,0:0:0:0:
134,384,88272,2,0,P|123:338|114:292,1,80,0|0,1:2|1:2,0:0:0:0:
278,269,88584,2,0,P|291:316|298:352,1,80,8|8,0:0|0:0,0:0:0:0:
196,281,88818,1,8,0:0:0:0:
196,281,88896,6,0,B|188:176|163:224|159:92,1,160,6|8,1:2|0:0,0:0:0:0:
160,125,89377,1,0,0:0:0:0:
105,237,89537,2,0,P|57:227|18:213,1,80,0|0,1:2|1:2,0:0:0:0:
246,158,89844,2,0,P|290:140|329:130,1,80,8|0,0:0|0:0,0:0:0:0:
102,18,90152,5,0,1:2:0:0:
103,18,90309,1,0,1:2:0:0:
39,130,90467,2,0,P|22:86|20:43,1,80,8|0,0:0|0:0,0:0:0:0:
131,127,90783,1,0,1:2:0:0:
131,127,90941,1,0,1:2:0:0:
207,22,91099,2,0,P|224:66|226:109,1,80,8|0,0:0|0:0,0:0:0:0:
341,145,91415,6,0,B|444:114|371:86|509:47,1,160,0|8,1:2|0:0,0:0:0:0:
472,58,91906,1,0,0:0:0:0:
512,224,92070,2,0,P|492:162|481:129,1,80,0|0,1:2|1:2,0:0:0:0:
389,298,92385,2,0,P|409:360|420:393,1,80,8|0,0:0|0:0,0:0:0:0:
313,229,92701,6,0,P|405:185|407:119,1,160,0|8,1:2|0:0,0:0:0:0:
26,234,93307,1,0,1:2:0:0:
179,383,93458,1,8,0:0:0:0:
237,372,93534,1,8,0:0:0:0:
264,324,93610,1,8,0:0:0:0:
253,270,93685,1,8,0:0:0:0:
207,241,93761,1,8,0:0:0:0:
152,248,93837,1,8,0:0:0:0:
126,293,93913,5,6,1:2:0:0:
256,192,94064,12,0,102549,0:0:0:0:
