osu file format v14

[General]
AudioFilename: audio.mp3
AudioLeadIn: 0
PreviewTime: 43670
Countdown: 0
SampleSet: Soft
StackLeniency: 0.7
Mode: 0
LetterboxInBreaks: 0
WidescreenStoryboard: 1

[Editor]
DistanceSpacing: 0.8
BeatDivisor: 2
GridSize: 8
TimelineZoom: 2

[Metadata]
Title:Donten (TV Size)
TitleUnicode:曇天 (TV Size)
Artist:DOES
ArtistUnicode:DOES
Creator:keevy
Version:Easy
Source:銀魂
Tags:aphestra Gintama Anime Jrock J-rock Japanese Rock op opening 5 male vocals 氏原ワタル Ujihara Wataru
BeatmapID:3841518
BeatmapSetID:1866550

[Difficulty]
HPDrainRate:2.5
CircleSize:3
OverallDifficulty:4
ApproachRate:5
SliderMultiplier:1
SliderTickRate:1

[Events]
//Background and Video events
0,0,"bg.jpg",0,0
//Break Periods
2,21884,23089
2,40318,42697
//Storyboard Layer 0 (Background)
//Storyboard Layer 1 (Fail)
//Storyboard Layer 2 (Pass)
//Storyboard Layer 3 (Foreground)
//Storyboard Layer 4 (Overlay)
//Storyboard Sound Samples

[TimingPoints]
854,333.333333333333,4,2,1,55,1,0
854,-100,4,2,1,55,0,0
2187,331.491712707182,4,2,1,55,1,0
2187,-100,4,2,1,55,0,0
3512,-100,4,2,1,55,0,0
4838,333.333333333333,4,2,1,55,1,0
4838,-100,4,2,1,55,0,0
6171,375,4,2,1,55,1,0
6171,-100,4,2,1,55,0,0
6501,344.827586206896,4,2,1,55,1,0
6501,-100,4,2,1,55,0,0
7535,333.333333333333,4,2,1,55,1,0
7535,-100,4,2,1,55,0,0
7868,-100,4,2,1,55,0,0
8879,361.44578313253,4,2,1,55,1,0
8879,-100,4,2,1,55,0,0
9240,331.491712707182,4,2,1,55,1,0
9240,-100,4,2,1,55,0,0
9571,-100,4,2,1,55,0,0
9902,326.086956521739,4,2,1,55,1,0
9902,-100,4,2,1,55,0,0
10228,326.086956521739,4,2,1,55,1,0
10228,-100,4,2,1,55,0,0
10554,320.855614973262,4,2,1,55,1,0
10554,-100,4,2,1,55,0,0
10874,-100,4,2,1,55,0,0
11035,-100,4,2,2,55,0,0
11195,299.999999999999,4,2,2,55,1,0
11195,-100,4,2,2,55,0,0
11495,326.086956521738,4,2,1,65,1,0
11495,-100,4,2,1,65,0,0
12310,-100,4,2,1,65,0,0
12473,-100,4,2,1,65,0,0
12799,315.78947368421,4,2,1,65,1,0
12799,-100,4,2,1,65,0,0
13746,-100,4,2,1,65,0,0
14062,320.855614973261,4,2,1,65,1,0
14062,-100,4,2,1,65,0,0
15345,317.460317460316,4,2,1,65,1,0
15345,-100,4,2,1,65,0,0
20424,315.78947368421,4,2,1,65,1,0
20424,-100,4,2,1,65,0,0
20739,-100,4,2,1,65,0,0
21055,301.507537688441,4,2,1,65,1,0
21055,-100,4,2,1,65,0,0
21205,-100,4,2,2,65,0,0
21658,350.877192982454,4,2,1,65,1,0
21658,-100,4,2,1,65,0,0
22008,333.333333333331,4,2,1,65,1,0
22008,-100,4,2,1,65,0,0
22341,329.670329670328,4,2,1,65,1,0
22341,-100,4,2,1,65,0,0
22670,-100,4,2,1,55,0,0
23000,324.324324324322,4,2,1,55,1,0
23000,-100,4,2,1,55,0,0
23648,310.880829015542,4,2,1,55,1,0
23958,338.983050847456,4,2,1,55,1,0
24297,319.148936170211,4,2,1,60,1,0
24297,-100,4,2,1,60,0,0
29403,317.460317460316,4,2,1,60,1,0
29403,-100,4,2,1,60,0,0
30672,312.499999999998,4,2,1,60,1,0
30672,-100,4,2,1,60,0,0
31921,310.880829015542,4,2,1,60,1,0
31921,-100,4,2,1,60,0,0
32542,-100,4,2,1,60,0,0
32853,-100,4,2,1,60,0,0
33941,-100,4,2,2,60,0,0
34408,319.148936170211,4,2,1,65,1,0
34408,-100,4,2,1,65,0,0
35684,310.880829015542,4,2,1,65,1,0
35684,-100,4,2,1,65,0,0
36927,319.148936170211,4,2,1,65,1,0
36927,-100,4,2,1,65,0,0
39480,-100,4,2,1,60,0,0
40118,-100,4,2,1,60,0,0
40756,314.136125654449,4,2,1,60,1,0
40756,-100,4,2,1,60,0,0
42326,-100,4,2,1,60,0,0
42797,-100,4,2,1,60,0,0
43112,-100,4,2,1,60,0,0
44054,-100,4,2,2,60,0,0
44525,317.460317460316,4,2,1,60,1,0
44525,-100,4,2,1,60,0,0
45159,-100,4,2,1,55,0,0
50874,320.855614973261,4,2,1,55,1,0
50874,-100,4,2,1,55,0,0
51515,-108.695652173913,4,2,1,55,0,0
51676,-100,4,2,1,55,0,0
51836,-100,4,2,1,55,0,0
52157,314.136125654449,4,2,1,55,1,0
52157,-100,4,2,1,55,0,0
52785,-103.092783505155,4,2,1,55,0,0
52942,-100,4,2,1,55,0,0
53256,-100,4,2,1,55,0,0
53413,312.499999999999,4,2,1,55,1,0
53413,-100,4,2,1,55,0,0
54194,-100,4,2,2,65,0,0
54662,314.136125654449,4,2,1,65,1,0
54662,-100,4,2,1,65,0,0
55133,-100,4,2,1,65,0,0
55918,319.148936170212,4,2,1,65,1,0
55918,-100,4,2,1,65,0,0
56237,-100,4,2,1,65,0,0
57194,314.136125654449,4,2,1,65,1,0
57194,-100,4,2,1,65,0,0
57822,326.086956521737,4,2,1,65,1,0
57822,-100,4,2,1,65,0,0
58148,295.566502463053,4,2,1,65,1,0
58443,340.909090909089,4,2,1,65,1,0
58443,-100,4,2,1,65,0,0
58783,320.855614973261,4,2,1,65,1,0
58783,-100,4,2,1,65,0,0
59424,309.278350515463,4,2,1,65,1,0
59424,-100,4,2,1,65,0,0
59733,309.278350515463,4,2,1,65,1,0
59733,-100,4,2,1,65,0,0
60351,320.855614973261,4,2,1,65,1,0
60351,-100,4,2,1,65,0,0
60671,307.692307692307,4,2,1,65,1,0
60671,-100,4,2,1,65,0,0
60978,315.78947368421,4,2,1,65,1,0
60978,-100,4,2,1,65,0,0
61609,-100,4,2,1,65,0,0
61925,-100,4,2,1,65,0,0
62241,312.499999999999,4,2,1,65,1,0
62241,-100,4,2,1,65,0,0
63022,-100,4,2,2,65,0,0
63491,337.078651685392,4,2,1,60,1,0
63491,-100,4,2,1,60,0,0
64165,352.941176470587,4,2,1,45,1,0
64165,-100,4,2,1,45,0,0
64870,320.855614973261,4,2,1,70,1,0
64870,-100,4,2,1,70,0,0
70003,315.78947368421,4,2,1,70,1,0
70003,-100,4,2,1,70,0,0
71266,-100,4,2,1,70,0,0
74897,-100,4,2,2,70,0,0
75055,-100,4,2,1,70,0,0
76002,-100,4,2,1,70,0,0
79160,-100,4,2,1,70,0,0
80108,309.278350515463,4,2,1,70,1,0
80108,-100,4,2,1,70,0,0
80726,-100,4,2,1,70,0,0
81345,322.580645161289,4,2,1,70,1,0
81345,-100,4,2,1,70,0,0
81990,306.122448979591,4,2,1,70,1,0
81990,-100,4,2,1,70,0,0
82602,312.499999999999,4,2,1,70,1,0
82602,-100,4,2,1,70,0,0
83227,-100,4,2,1,70,0,0
83383,-100,4,2,2,70,0,0
83852,317.460317460316,4,2,1,70,1,0
83852,-91.324200913242,4,2,1,70,0,0
84169,-100,4,2,1,70,0,0
85121,319.148936170211,4,2,1,70,1,0
85121,-100,4,2,1,70,0,0
85280,-100,4,2,1,70,0,0
85440,-100,4,2,1,70,0,0
85918,-100,4,2,1,70,0,0
86078,-100,4,2,1,70,0,0
86397,312.499999999999,4,2,1,70,1,0
86397,-100,4,2,1,70,0,0
88740,-100,4,2,2,70,0,0
88896,320.855614973261,4,2,1,70,1,0
88896,-100,4,2,1,70,0,0
89537,307.692307692307,4,2,1,70,1,0
89537,-100,4,2,1,70,0,0
90152,315.78947368421,4,2,1,70,1,0
90152,-100,4,2,1,70,0,0
91415,327.868852459016,4,2,1,70,1,0
91415,-100,4,2,1,70,0,0
92070,315.78947368421,4,2,1,70,1,0
92070,-100,4,2,1,70,0,0
92385,-100,4,2,1,70,0,0
92701,303.030303030303,4,2,1,70,1,0
92701,-100,4,2,1,70,0,0
93458,-100,4,2,2,70,0,0
93913,-100,4,2,1,70,0,0
95125,-100,4,2,1,60,0,0
96413,-100,4,2,1,50,0,0
97625,-100,4,2,1,40,0,0
98837,-100,4,2,1,30,0,0
100049,-100,4,2,1,20,0,0
101337,-100,4,2,1,10,0,0
102549,-100,4,2,1,5,0,0

[Colours]
Combo1 : 225,225,225
Combo2 : 192,192,192
Combo3 : 211,168,255
Combo4 : 198,198,255

[HitObjects]
52,176,11495,6,0,P|112:186|178:300,1,200,6|2,1:2|1:2,0:0:0:0:
248,343,12473,1,10,0:0:0:0:
327,341,12799,2,0,P|380:320|396:279,1,100,2|10,1:2|0:0,0:0:0:0:
469,252,13430,1,2,1:2:0:0:
451,92,14062,2,0,B|324:63|367:130|249:100,1,200,2|2,1:2|1:2,0:0:0:0:
205,39,15024,1,10,0:0:0:0:
125,47,15345,2,0,P|89:82|75:137,2,100,2|10|2,1:2|0:0|1:2,0:0:0:0:
271,111,16614,6,0,P|238:166|230:303,1,200,6|2,1:2|1:2,0:0:0:0:
167,350,17567,1,10,0:0:0:0:
88,336,17884,1,2,1:2:0:0:
39,271,18202,1,10,0:0:0:0:
38,190,18519,1,2,1:2:0:0:
118,51,19154,2,0,B|168:33|168:33|226:77|305:79,1,200,2|2,1:2|1:2,0:0:0:0:
371,34,20106,1,10,0:0:0:0:
446,66,20424,1,2,1:2:0:0:
475,140,20739,1,10,0:0:0:0:
430,206,21055,1,2,1:2:0:0:
297,282,21658,5,6,1:2:0:0:
114,74,24297,6,0,P|55:133|38:260,1,200,6|2,1:2|1:2,0:0:0:0:
95,296,25254,1,10,0:0:0:0:
174,283,25573,2,0,P|238:277|304:292,1,100,2|8,1:2|0:0,0:0:0:0:
340,325,26211,1,2,1:2:0:0:
497,294,26850,2,0,L|480:190,1,100,2|10,1:2|0:0,0:0:0:0:
419,143,27488,1,2,1:2:0:0:
341,123,27807,1,10,0:0:0:0:
282,177,28126,1,2,1:2:0:0:
170,62,28765,2,0,P|207:15|287:10,1,100,2|10,1:2|0:0,0:0:0:0:
317,32,29403,6,0,P|360:98|367:248,1,200,2|2,1:2|1:2,0:0:0:0:
434,269,30355,1,10,0:0:0:0:
364,310,30672,2,0,B|233:281|310:322|162:351,1,200,2|2,1:2|1:2,0:0:0:0:
45,254,31921,1,2,1:2:0:0:
87,186,32231,1,10,0:0:0:0:
33,127,32542,2,0,P|20:64|40:24,1,100,2|10,1:2|0:0,0:0:0:0:
109,10,33164,2,0,P|183:15|257:128,1,200,2|2,1:2|1:2,0:0:0:0:
227,183,34097,1,10,0:0:0:0:
270,247,34408,6,0,B|386:286|306:309|435:356,1,200,6|0,1:2|1:2,0:0:0:0:
468,199,35684,1,2,1:2:0:0:
472,118,35994,1,10,0:0:0:0:
423,55,36305,1,2,1:2:0:0:
345,35,36616,1,10,0:0:0:0:
282,84,36927,6,0,P|320:153|342:286,1,200,2|0,1:2|1:2,0:0:0:0:
196,336,38203,1,2,1:2:0:0:
116,324,38522,1,10,0:0:0:0:
69,258,38841,1,2,1:2:0:0:
78,178,39161,1,8,0:0:0:0:
33,109,39480,6,0,B|72:85|72:85|141:122|243:100,1,200,6|2,1:2|1:2,0:0:0:0:
399,41,43897,6,0,P|369:93|364:160,1,100,2|10,1:2|0:0,0:0:0:0:
291,166,44525,2,0,P|297:243|391:335,1,200,6|2,1:2|1:2,0:0:0:0:
457,321,45477,1,10,0:0:0:0:
502,255,45794,2,0,P|474:199|427:175,1,100,2|8,1:2|0:0,0:0:0:0:
378,133,46429,1,2,1:2:0:0:
253,32,47064,5,2,1:2:0:0:
201,93,47382,1,10,0:0:0:0:
127,62,47699,2,0,P|67:68|31:111,1,100,2|10,1:2|0:0,0:0:0:0:
20,171,48334,1,2,1:2:0:0:
144,271,48969,2,0,P|194:242|252:230,1,100,2|10,1:2|0:0,0:0:0:0:
297,280,49604,2,0,B|338:300|338:300|396:259|496:262,1,200,2|2,1:2|1:2,0:0:0:0:
508,338,50556,1,10,0:0:0:0:
432,366,50874,2,0,P|395:313|395:181,1,200,2|2,1:2|1:2,0:0:0:0:
500,55,52157,5,2,1:2:0:0:
427,20,52471,1,10,0:0:0:0:
364,69,52785,2,0,P|310:87|258:80,1,96.9999999999997,2|10,1:2|0:0,0:0:0:0:
201,35,53413,2,0,P|121:32|103:68,1,100,2|10,1:2|0:0,0:0:0:0:
59,99,54038,1,2,1:2:0:0:
111,159,54350,1,10,0:0:0:0:
120,238,54662,6,0,B|235:209|189:263|321:226,2,200,6|0|2,1:2|1:2|1:2,0:0:0:0:
45,267,56237,1,10,0:0:0:0:
61,345,56556,1,2,1:2:0:0:
134,377,56875,1,10,0:0:0:0:
214,375,57194,2,0,P|327:355|379:272,1,200,6|0,1:2|1:2,0:0:0:0:
279,181,58443,5,2,1:2:0:0:
313,108,58783,1,10,0:0:0:0:
389,85,59103,1,2,1:2:0:0:
459,123,59424,1,10,0:0:0:0:
507,186,59733,2,0,P|461:225|422:366,1,200,6|2,1:2|1:2,0:0:0:0:
338,361,60671,1,8,0:0:0:0:
264,332,60978,2,0,B|225:198|317:254|194:122,1,200,2|0,1:2|1:2,0:0:0:0:
164,88,61925,1,8,0:0:0:0:
118,155,62241,2,0,B|31:251|104:205|71:339,1,200,2|0,1:2|1:2,0:0:0:0:
213,372,63491,5,6,1:2:0:0:
234,221,64165,2,2,B|280:209|280:209|333:269|439:264,1,200,2|6,0:0|1:2,0:1:0:0:
500,127,65511,2,0,P|465:47|418:27,1,100,2|8,1:2|0:0,0:0:0:0:
378,29,66153,1,2,1:2:0:0:
303,58,66474,1,10,0:0:0:0:
228,28,66795,2,0,P|172:19|124:40,1,100,2|8,1:2|0:0,0:0:0:0:
53,22,67436,2,0,P|97:92|121:220,1,200,2|2,1:2|1:2,0:0:0:0:
103,284,68399,1,10,0:0:0:0:
167,331,68720,2,0,P|233:321|257:293,1,100,2|10,1:2|0:0,0:0:0:0:
280,223,69361,1,2,1:2:0:0:
305,62,70003,5,2,1:2:0:0:
381,38,70318,1,10,0:0:0:0:
457,67,70634,1,2,1:2:0:0:
498,135,70950,1,10,0:0:0:0:
452,201,71266,2,0,P|395:164|350:159,1,100,2|10,1:2|0:0,0:0:0:0:
307,215,71897,1,2,1:2:0:0:
206,339,72529,6,0,P|131:335|89:293,1,100,2|10,1:2|0:0,0:0:0:0:
42,282,73160,2,0,P|41:210|72:184,1,100,2|10,1:2|0:0,0:0:0:0:
119,142,73792,1,2,1:2:0:0:
186,184,74108,1,10,0:0:0:0:
264,170,74424,1,2,1:2:0:0:
332,210,74739,1,10,0:0:0:0:
381,272,75055,6,0,P|452:259|485:145,2,200,6|2|2,1:2|1:2|1:2,0:0:0:0:
318,222,76634,1,10,0:0:0:0:
245,259,76950,2,0,P|229:314|234:360,1,100,2|8,1:2|0:0,0:0:0:0:
153,368,77581,1,2,1:2:0:0:
97,310,77897,1,10,0:0:0:0:
94,229,78213,1,2,1:2:0:0:
159,180,78529,1,10,0:0:0:0:
191,106,78845,2,0,P|155:39|27:16,1,200,2|2,1:2|1:2,0:0:0:0:
12,86,79792,1,10,0:0:0:0:
64,148,80108,6,0,B|183:123|156:171|297:136,1,200,2|0,1:2|1:2,0:0:0:0:
368,25,81345,2,0,P|408:82|411:135,1,100,2|8,1:2|0:0,0:0:0:0:
449,182,81990,1,2,1:2:0:0:
424,340,82602,2,0,P|345:283|335:245,1,100,2|8,1:2|0:0,0:0:0:0:
273,242,83227,1,0,1:2:0:0:
300,167,83539,1,10,0:0:0:0:
250,103,83852,6,0,P|146:77|86:134,1,164.25,6|2,1:2|0:0,0:0:0:0:
256,192,84486,12,6,88896,1:2:0:0:
