osu file format v14

[General]
AudioFilename: audio.mp3
AudioLeadIn: 0
PreviewTime: 38329
Countdown: 0
SampleSet: None
StackLeniency: 0.3
Mode: 0
LetterboxInBreaks: 0
WidescreenStoryboard: 0

[Editor]
Bookmarks: 167,8234,24368,32436,40503,41511,42520,45545,46553,49579,50587,53612,54621,56637,57646,58654,61679,62688,65713,66721,69747,70755,72772,76805,92940,101007,109074,110083,111091,114116,115125,118150,119158,122184,123192,125209,126217,127226,130251,131259,134284,135293,138318,139326,141343,142352,143360,146385,147394,150419,151427,154453,155461,157478,165545,166553,167562,170587,171595,174621,175629,178654,179663,181679,182688,183696,186721,187730,190755,191763,194789,195797,197814,198822,199831,202856,203864,206889,207898,210923,211931,213948
DistanceSpacing: 0.8
BeatDivisor: 4
GridSize: 4
TimelineZoom: 2.999999

[Metadata]
Title:Cake by the Ocean
TitleUnicode:Cake by the Ocean
Artist:DNCE
ArtistUnicode:DNCE
Creator:Axarious
Version:start living dangerously
Source:
Tags:
BeatmapID:930307
BeatmapSetID:431309

[Difficulty]
HPDrainRate:4
CircleSize:4
OverallDifficulty:8.7
ApproachRate:10
SliderMultiplier:2.4
SliderTickRate:1

[Events]
//Background and Video events
0,0,"cakebytheocean.jpg",0,0
//Break Periods
2,72972,75347
2,157678,159045
//Storyboard Layer 0 (Background)
//Storyboard Layer 1 (Fail)
//Storyboard Layer 2 (Pass)
//Storyboard Layer 3 (Foreground)
//Storyboard Sound Samples

[TimingPoints]
167.291196165966,504.201680672269,4,3,0,100,1,0
7730,-100,4,3,0,100,0,0
7793,-100,4,2,0,40,0,0
7856,-100,4,3,0,100,0,0
7919,-100,4,2,0,40,0,0
7982,-100,4,3,0,100,0,0
8045,-100,4,2,0,40,0,0
8108,-100,4,3,0,80,0,0
8171,-100,4,2,0,40,0,0
8234,-100,4,3,0,100,0,0
24368,-80,4,3,0,100,0,0
31679,-50,4,3,0,100,0,0
31900,-50,4,3,0,5,0,0
31931,-40,4,3,0,100,0,0
32152,-40,4,3,0,5,0,0
32184,-133.333333333333,4,3,0,100,0,0
32373,-133.333333333333,4,3,0,5,0,0
32436,-80,4,3,0,100,0,0
36469,-100,4,2,0,100,0,0
38486,-133.333333333333,4,3,0,100,0,0
39747,-80,4,3,0,100,0,0
40503,-66.6666666666667,4,3,0,100,0,1
56385,-50,4,3,0,100,0,0
56637,-57.1428571428571,4,3,0,100,0,1
72772,-100,4,2,0,100,0,0
76805,-80,4,2,0,100,0,0
92940,-66.6666666666667,4,3,0,100,0,0
100251,-50,4,3,0,100,0,0
100471,-50,4,2,0,5,0,0
100503,-40,4,3,0,100,0,0
100724,-50,4,2,0,5,0,0
100755,-133.333333333333,4,3,0,100,0,0
100944,-133.333333333333,4,2,0,5,0,0
101007,-57.1428571428571,4,3,0,100,0,0
105041,-66.6666666666667,4,2,0,100,0,0
108066,-178.571428571429,4,3,0,70,0,0
108255,-178.571428571429,4,2,0,5,0,0
108318,-133.333333333333,4,3,0,85,0,0
108507,-133.333333333333,4,3,0,5,0,0
108570,-106.382978723404,4,3,0,100,0,0
108759,-106.382978723404,4,2,0,5,0,0
108822,-57.1428571428571,4,3,0,100,0,0
109074,-50,4,3,0,100,0,1
124957,-50,4,3,0,100,0,0
125209,-44.4444444444445,4,3,0,100,0,1
141091,-44.4444444444445,4,3,0,100,0,0
141343,-40,4,3,0,100,0,1
157478,-50,4,2,0,100,0,0
165545,-36.3636363636364,4,3,0,100,0,1
181427,-36.3636363636364,4,3,0,100,0,0
181679,-33.3333333333333,4,3,0,100,0,1
197562,-33.3333333333333,4,3,0,100,0,0
197814,-30.7692307692308,4,3,0,100,0,1
213822,-30.7692307692308,4,2,0,80,0,1
213948,-30.7692307692308,4,3,0,5,0,0

[Colours]
Combo1 : 140,159,236
Combo2 : 251,213,162
Combo3 : 156,218,248
Combo4 : 250,152,167

[HitObjects]
16,360,167,5,0,0:0:0:0:
443,304,671,1,8,2:0:0:0:
16,360,923,1,0,0:0:0:0:
256,192,1175,2,0,L|128:216,1,120
49,264,1553,1,0,0:0:0:0:
136,316,1679,1,8,2:0:0:0:
79,48,1931,2,0,P|51:118|54:184,1,120
443,304,2688,5,8,2:0:0:0:
178,152,2940,2,0,L|296:130,1,120
510,242,3444,1,0,0:0:0:0:
423,214,3570,1,0,0:0:0:0:
443,304,3696,1,8,2:0:0:0:
232,376,3948,2,0,P|204:306|207:240,1,120
490,152,4705,5,8,2:0:0:0:
296,280,4957,2,0,L|356:276,1,60,0|0,0:0|2:0,2:0:0:0:
203,262,5209,2,0,L|64:249,1,120,0|0,0:0|2:0,2:0:0:0:
232,376,5587,1,0,2:0:0:0:
266,183,5713,1,8,2:0:0:0:
490,152,5965,2,0,L|370:163,1,120
6,201,6721,5,8,2:0:0:0:
232,376,6974,1,0,0:0:0:0:
271,93,7226,1,0,0:0:0:0:
97,208,7478,2,0,L|190:213,1,90,8|0,2:0|2:0,0:0:0:0:
175,240,7730,6,0,L|224:234,1,30,8|0,1:0|2:0,0:0:0:0:
292,246,7856,6,0,L|284:293,1,30,0|0,2:0|2:0,2:0:0:0:
351,178,7982,6,0,L|359:131,3,30,2|0|0|0,2:0|2:0|2:0|2:0,0:0:0:0:
422,243,8234,6,0,L|442:122,1,120,4|0,1:0|0:0,0:0:0:0:
219,213,8738,2,0,L|199:94,1,120,8|0,2:0|0:0,0:0:0:0:
40,229,9242,2,0,P|84:266|95:324,1,120
6,312,9621,1,0,2:0:0:0:
179,294,9747,1,8,2:0:0:0:
40,229,9999,5,0,0:0:0:0:
385,260,10251,1,0,0:0:0:0:
173,112,10503,1,0,2:0:0:0:
99,161,10629,1,0,2:0:0:0:
179,200,10755,1,8,2:0:0:0:
190,26,11007,5,0,0:0:0:0:
40,229,11259,2,0,P|32:259|75:349,1,120
267,195,11637,1,0,2:0:0:0:
123,269,11763,2,0,L|182:267,1,60,8|0,2:0|2:0,0:0:0:0:
267,195,12016,2,2,L|326:197,1,60,2|0,2:0|2:0,2:0:0:0:
451,6,12268,6,0,P|401:40|318:39,1,120,0|0,0:0|2:0,0:0:0:0:
256,2,12646,1,0,2:0:0:0:
69,16,12772,2,0,P|128:21|177:55,1,120,8|0,2:0|0:0,0:0:0:0:
272,314,13276,2,0,L|266:180,1,120
348,141,13654,1,0,2:0:0:0:
181,149,13780,1,8,2:0:0:0:
450,102,14032,1,0,0:0:0:0:
357,358,14284,6,0,P|434:340|490:306,1,120
133,335,14789,2,0,P|207:361|272:363,1,120,8|0,2:0|0:0,0:0:0:0:
185,47,15293,2,0,P|112:79|64:123,1,120
260,125,15671,1,0,2:0:0:0:
350,14,15797,2,0,P|320:14|290:18,1,60,8|0,2:0|2:0,0:0:0:0:
260,125,16049,2,0,L|270:195,1,60,2|0,2:0|2:0,0:0:0:0:
297,267,16301,6,0,L|315:140,1,120,4|0,2:0|0:0,0:0:0:0:
32,350,16805,2,0,B|17:334|17:334|120:347,1,120,8|0,2:0|0:0,0:0:0:0:
394,301,17310,2,0,P|338:362|266:365,1,120
212,324,17688,1,0,2:0:0:0:
160,193,17814,2,0,L|142:250,1,60,8|0,2:0|2:0,0:0:0:0:
291,207,18066,2,0,L|297:267,1,60,0|0,0:0|2:0,0:0:0:0:
122,191,18318,6,0,L|-21:179,1,120
332,73,18822,2,0,P|341:145|293:193,1,120,8|0,2:0|0:0,0:0:0:0:
217,146,19200,1,0,2:0:0:0:
122,191,19326,2,0,P|55:162|37:97,1,120
116,53,19705,1,0,2:0:0:0:
217,146,19831,2,0,L|235:258,1,60,8|0,2:0|2:0,0:0:0:0:
347,350,20083,2,0,L|287:341,1,60,2|0,2:0|2:0,0:0:0:0:
144,329,20335,6,0,B|176:314|176:314|371:340,1,180,4|0,2:0|2:0,2:0:0:0:
463,347,20839,2,0,B|431:362|431:362|348:350,1,120,8|0,2:0|2:0,2:0:0:0:
217,146,21343,2,0,P|224:84|288:35,1,120,0|0,2:0|2:0,2:0:0:0:
237,167,21721,1,0,2:0:0:0:
257,188,21847,6,0,B|400:207|400:207|432:192,1,180,8|0,2:0|2:0,2:0:0:0:
498,111,22352,2,0,B|415:99|415:99|383:114,1,120,0|0,0:0|2:0,2:0:0:0:
382,114,22856,1,8,2:0:0:0:
383,211,23108,1,0,2:0:0:0:
366,93,23360,1,0,0:0:0:0:
377,357,23612,5,0,2:0:0:0:
360,239,23738,1,0,2:0:0:0:
407,374,23864,2,0,L|505:365,1,90,8|0,2:0|2:0,0:0:0:0:
360,239,24116,2,0,L|436:243,1,60,2|0,2:0|2:0,0:0:0:0:
505,249,24368,5,4,2:0:0:0:
338,263,24621,2,0,L|263:266,1,75,0|0,0:0|2:0,0:0:0:0:
28,257,24873,2,0,P|110:258|168:315,1,150,8|0,2:0|0:0,0:0:0:0:
272,219,25251,1,0,2:0:0:0:
183,194,25377,2,0,L|166:103,1,75,0|0,0:0|2:0,0:0:0:0:
28,257,25629,1,0,0:0:0:0:
218,376,25755,1,0,2:0:0:0:
160,300,25881,2,0,L|235:297,1,75,8|0,2:0|2:0,0:0:0:0:
347,174,26133,2,0,L|422:177,1,75,0|0,0:0|2:0,0:0:0:0:
512,182,26385,5,0,0:0:0:0:
183,194,26637,1,0,0:0:0:0:
272,219,26763,1,0,2:0:0:0:
235,297,26889,2,0,L|160:300,1,75,8|0,2:0|2:0,0:0:0:0:
348,318,27142,2,0,L|273:315,1,75,0|0,0:0|2:0,0:0:0:0:
384,300,27394,5,0,0:0:0:0:
384,300,27646,1,0,0:0:0:0:
272,219,27772,1,0,2:0:0:0:
160,299,27898,2,0,L|50:307,1,75,8|0,2:0|2:0,0:0:0:0:
56,308,28150,2,0,P|54:354|89:392,1,75,0|0,0:0|2:0,0:0:0:0:
249,317,28402,6,0,P|250:270|216:233,1,75,0|0,0:0|2:0,0:0:0:0:
50,218,28654,1,0,0:0:0:0:
160,299,28780,1,0,2:0:0:0:
272,219,28906,2,0,P|273:172|239:135,1,75,8|0,2:0|2:0,0:0:0:0:
17,192,29158,2,0,P|15:238|50:276,1,75,0|0,0:0|2:0,0:0:0:0:
160,299,29410,6,0,L|173:137,1,150
82,92,29789,1,0,2:0:0:0:
197,226,29915,2,0,L|271:218,1,75,8|0,2:0|2:0,0:0:0:0:
82,92,30167,2,0,L|156:99,1,75,0|0,0:0|2:0,0:0:0:0:
356,115,30419,6,0,L|538:132,1,150,0|0,0:0|2:0,0:0:0:0:
272,218,30797,1,0,2:0:0:0:
156,99,30923,2,0,L|82:92,1,75,8|0,2:0|2:0,0:0:0:0:
291,184,31175,2,0,L|284:258,1,75,0|0,0:0|2:0,0:0:0:0:
376,49,31427,1,0,0:0:0:0:
376,49,31679,6,0,P|403:133|305:187,1,210
291,184,31931,6,0,P|416:160|512:248,1,262.5,8|0,2:0|0:0,0:0:0:0:
476,309,32184,6,0,L|464:376,1,67.5000025749207,2|0,2:0|0:0,0:0:0:0:
445,280,32436,5,4,2:0:0:0:
291,184,32688,5,0,0:0:0:0:
376,49,32814,1,0,0:0:0:0:
368,232,32940,2,0,L|351:325,1,75,8|0,2:0|2:0,2:0:0:0:
294,92,33192,2,0,L|221:30,1,75,0|0,0:0|2:0,2:0:0:0:
454,98,33444,2,0,L|543:66,1,75,0|0,0:0|2:0,2:0:0:0:
450,190,33696,1,0,0:0:0:0:
376,49,33822,1,0,0:0:0:0:
291,184,33948,1,8,2:0:0:0:
430,186,34200,5,0,0:0:0:0:
382,68,34326,1,0,0:0:0:0:
304,168,34453,2,0,P|265:180|219:173,1,75,0|0,0:0|2:0,2:0:0:0:
48,61,34705,2,0,P|77:88|94:132,1,75,0|0,0:0|2:0,2:0:0:0:
84,336,34957,2,0,P|93:296|122:259,1,75,8|0,2:0|2:0,2:0:0:0:
356,246,35209,1,0,0:0:0:0:
193,308,35335,1,0,2:0:0:0:
185,217,35461,5,0,0:0:0:0:
414,313,35713,1,0,0:0:0:0:
356,246,35839,1,0,2:0:0:0:
512,184,35965,5,8,2:0:0:0:
274,213,36217,1,2,2:0:0:0:
490,270,36469,5,0,0:0:0:0:
356,246,36721,1,0,0:0:0:0:
414,313,36847,1,0,0:0:0:0:
344,159,36974,1,0,0:0:0:0:
185,217,37100,1,0,0:0:0:0:
363,72,37226,2,0,P|376:45|381:15,1,60,0|0,0:0|2:0,2:0:0:0:
255,156,37478,6,0,P|260:186|343:249,1,120,0|0,0:0|2:0,2:0:0:0:
466,222,37856,1,0,0:0:0:0:
473,306,37982,2,0,L|414:313,1,60,0|0,0:0|2:0,0:0:0:0:
344,159,38234,2,0,L|423:168,1,60,0|0,0:0|2:0,0:0:0:0:
466,222,38486,5,0,2:0:0:0:
274,212,38738,1,0,2:0:0:0:
404,166,38864,1,0,2:0:0:0:
414,313,38990,2,0,L|304:325,1,90.0000034332277,0|0,2:0|2:0,2:0:0:0:
215,298,39368,2,0,L|105:286,1,90.0000034332277,0|0,2:0|2:0,2:0:0:0:
42,225,39747,5,2,0:0:0:0:
256,192,39999,1,2,0:0:0:0:
120,23,40251,1,2,0:0:0:0:
168,235,40503,6,0,P|234:289|319:268,1,180.000006866455,4|0,1:0|0:0,0:0:0:0:
414,100,40881,1,0,2:0:0:0:
174,137,41007,2,0,L|23:160,1,90.0000034332277,8|0,2:0|2:0,0:0:0:0:
345,361,41259,2,0,L|193:384,1,90.0000034332277,0|0,0:0|2:0,0:0:0:0:
102,308,41511,5,0,0:0:0:0:
320,267,41637,1,0,2:0:0:0:
168,235,41763,1,0,0:0:0:0:
345,361,41889,1,0,2:0:0:0:
102,308,42016,5,8,2:0:0:0:
320,267,42142,1,0,2:0:0:0:
46,223,42268,1,0,0:0:0:0:
341,165,42394,1,0,2:0:0:0:
168,235,42520,6,0,P|148:146|234:75,1,180.000006866455
411,91,42898,1,0,2:0:0:0:
490,234,43024,2,0,L|475:351,1,90.0000034332277,8|0,2:0|2:0,0:0:0:0:
254,261,43276,2,0,L|239:144,1,90.0000034332277,0|0,0:0|2:0,0:0:0:0:
503,134,43528,5,0,0:0:0:0:
390,253,43654,1,0,2:0:0:0:
341,165,43780,1,8,2:0:0:0:
490,234,43906,1,0,0:0:0:0:
411,91,44032,1,8,2:0:0:0:
254,261,44158,1,0,2:0:0:0:
427,175,44284,2,0,B|451:137|451:137|442:16,1,135.000005149841,2|0,2:0|2:0,0:0:0:0:
259,16,44537,6,0,P|341:39|355:123,1,180.000006866455,4|0,2:0|0:0,0:0:0:0:
185,214,44915,1,0,2:0:0:0:
18,137,45041,2,0,L|28:34,1,90.0000034332277,8|0,2:0|2:0,0:0:0:0:
283,93,45293,2,0,L|273:196,1,90.0000034332277,0|0,0:0|2:0,0:0:0:0:
108,381,45545,5,0,0:0:0:0:
92,198,45671,1,0,2:0:0:0:
274,182,45797,1,0,0:0:0:0:
124,287,45923,1,0,2:0:0:0:
18,137,46049,6,0,P|85:104|150:114,1,90.0000034332277,8|0,2:0|2:0,0:0:0:0:
108,381,46301,2,0,P|46:339|22:278,1,90.0000034332277,0|0,0:0|2:0,0:0:0:0:
274,182,46553,6,0,B|279:250|279:250|266:293|266:293|272:377,1,180.000006866455
185,214,46931,1,0,2:0:0:0:
370,383,47058,2,0,P|408:359|434:323,1,90.0000034332277,8|0,2:0|2:0,0:0:0:0:
381,113,47310,2,0,P|342:91|298:88,1,90.0000034332277,0|0,0:0|2:0,0:0:0:0:
185,214,47562,5,0,0:0:0:0:
434,323,47688,1,0,2:0:0:0:
298,88,47814,1,8,2:0:0:0:
271,360,47940,1,0,2:0:0:0:
453,157,48066,1,8,2:0:0:0:
187,101,48192,1,0,2:0:0:0:
308,213,48318,2,0,L|398:226,1,90.0000034332277,2|0,2:0|2:0,0:0:0:0:
162,323,48570,6,0,P|98:282|81:178,1,180.000006866455,4|0,2:0|2:0,0:0:0:0:
298,88,48948,1,0,2:0:0:0:
398,226,49074,2,0,L|380:353,1,90.0000034332277,8|0,2:0|2:0,0:0:0:0:
173,125,49326,2,0,L|191:252,1,90.0000034332277,0|0,0:0|2:0,0:0:0:0:
453,157,49579,5,0,0:0:0:0:
161,322,49705,1,0,2:0:0:0:
487,239,49831,1,0,0:0:0:0:
173,125,49957,1,0,2:0:0:0:
465,69,50083,5,8,2:0:0:0:
186,214,50209,1,0,2:0:0:0:
398,226,50335,1,0,0:0:0:0:
173,125,50461,1,0,2:0:0:0:
369,353,50587,6,0,B|434:359|434:359|462:333|470:291|458:253,1,180.000006866455
281,149,50965,1,0,2:0:0:0:
79,185,51091,2,0,P|53:225|47:268,1,90.0000034332277,8|0,2:0|2:0,0:0:0:0:
383,122,51343,2,0,P|361:80|326:53,1,90.0000034332277,0|0,0:0|2:0,0:0:0:0:
99,30,51595,5,0,0:0:0:0:
79,185,51721,1,0,2:0:0:0:
171,68,51847,5,8,2:0:0:0:
174,251,51974,1,0,2:0:0:0:
251,78,52100,5,8,2:0:0:0:
285,284,52226,1,0,2:0:0:0:
328,54,52352,5,2,2:0:0:0:
401,272,52478,1,0,2:0:0:0:
394,6,52604,6,0,P|438:3|493:137,1,180.000006866455,4|0,2:0|2:0,0:0:0:0:
401,272,52982,1,0,2:0:0:0:
216,200,53108,2,0,P|202:123|224:78,1,90.0000034332277,8|0,2:0|2:0,0:0:0:0:
422,88,53360,2,0,P|436:165|414:210,1,90.0000034332277,0|0,0:0|2:0,0:0:0:0:
285,284,53612,5,0,0:0:0:0:
328,54,53738,1,0,2:0:0:0:
174,251,53864,5,0,0:0:0:0:
251,78,53990,1,0,2:0:0:0:
79,185,54116,5,8,2:0:0:0:
171,68,54242,1,0,2:0:0:0:
15,87,54368,5,0,0:0:0:0:
99,30,54495,1,0,2:0:0:0:
79,185,54621,6,0,L|52:392,1,180.000006866455
15,87,54999,1,0,2:0:0:0:
196,166,55125,2,0,P|176:206|174:251,1,90.0000034332277,8|0,2:0|2:0,0:0:0:0:
481,140,55377,2,0,P|501:180|504:225,1,90.0000034332277,0|0,0:0|2:0,0:0:0:0:
285,284,55629,5,0,0:0:0:0:
79,185,55755,1,0,2:0:0:0:
401,272,55881,1,8,2:0:0:0:
174,251,56007,1,0,2:0:0:0:
0,384,56133,6,0,L|13:281,1,90.0000034332277,8|0,2:0|2:0,0:0:0:0:
196,166,56385,2,0,L|180:42,1,120,2|0,2:0|2:0,0:0:0:0:
23,205,56637,6,0,P|76:297|167:344,1,210.000002002716,4|0,1:0|2:0,0:0:0:0:
401,272,57016,1,0,2:0:0:0:
174,251,57142,2,0,P|115:262|68:281,1,105.000001001358,8|0,2:0|2:0,0:0:0:0:
485,345,57394,2,0,P|504:288|512:238,1,105.000001001358,0|0,0:0|2:0,0:0:0:0:
289,239,57646,5,0,0:0:0:0:
380,382,57772,1,0,2:0:0:0:
390,138,57898,1,0,0:0:0:0:
174,251,58024,1,0,2:0:0:0:
485,345,58150,5,8,2:0:0:0:
275,324,58276,1,0,2:0:0:0:
411,29,58402,1,0,0:0:0:0:
174,251,58528,1,0,2:0:0:0:
390,138,58654,6,0,B|421:107|421:107|378:267,1,210.000002002716
174,251,59032,1,0,2:0:0:0:
380,382,59158,2,0,P|430:369|470:335,1,105.000001001358,8|0,2:0|2:0,0:0:0:0:
75,195,59410,2,0,P|60:252|83:320,1,105.000001001358,0|0,0:0|2:0,0:0:0:0:
268,361,59663,5,0,0:0:0:0:
224,155,59789,1,0,2:0:0:0:
47,40,59915,1,8,2:0:0:0:
174,251,60041,5,0,2:0:0:0:
331,173,60167,1,8,2:0:0:0:
386,6,60293,1,0,2:0:0:0:
224,155,60419,2,0,P|237:231|303:279,1,157.500001502037,2|0,2:0|2:0,0:0:0:0:
473,357,60671,6,0,B|448:332|412:322|376:329|376:329|356:360|323:375|286:371,1,210.000002002716,4|0,2:0|2:0,0:0:0:0:
108,291,61049,1,0,2:0:0:0:
202,250,61175,2,0,P|253:251|298:277,1,105.000001001358,8|0,2:0|2:0,0:0:0:0:
25,230,61427,2,0,P|0:185|0:133,1,105.000001001358,0|0,0:0|2:0,0:0:0:0:
203,16,61679,5,0,0:0:0:0:
104,157,61805,1,0,2:0:0:0:
32,1,61931,1,0,0:0:0:0:
279,177,62058,1,0,2:0:0:0:
3,302,62184,6,0,P|2:250|27:204,1,105.000001001358,8|0,2:0|2:0,0:0:0:0:
352,254,62436,2,0,P|307:281|256:282,1,105.000001001358,0|0,0:0|2:0,0:0:0:0:
208,44,62688,6,0,B|286:57|286:57|337:46|337:46|426:60,1,210.000002002716
279,177,63066,1,0,2:0:0:0:
509,8,63192,2,0,P|521:58|508:109,1,105.000001001358,8|0,2:0|2:0,0:0:0:0:
175,201,63444,2,0,P|174:148|198:103,1,105.000001001358,0|0,0:0|2:0,0:0:0:0:
436,162,63696,5,0,0:0:0:0:
279,177,63822,1,0,2:0:0:0:
441,252,63948,1,8,2:0:0:0:
508,108,64074,1,0,2:0:0:0:
361,210,64200,1,8,2:0:0:0:
453,340,64326,1,0,2:0:0:0:
436,162,64453,2,0,L|423:9,1,105.000001001358,2|0,2:0|2:0,0:0:0:0:
102,91,64705,6,0,P|21:196|113:293,1,210.000002002716,4|0,2:0|0:0,0:0:0:0:
237,326,65083,1,0,2:0:0:0:
226,185,65209,2,0,P|184:179|101:197,1,105.000001001358,8|0,2:0|2:0,0:0:0:0:
354,246,65461,2,0,P|379:212|406:131,1,105.000001001358,0|0,0:0|2:0,0:0:0:0:
209,84,65713,5,0,0:0:0:0:
142,290,65839,1,0,2:0:0:0:
354,246,65965,1,0,0:0:0:0:
226,185,66091,1,0,2:0:0:0:
374,359,66217,5,8,2:0:0:0:
354,131,66343,1,0,2:0:0:0:
237,326,66469,1,0,0:0:0:0:
447,238,66595,1,0,2:0:0:0:
226,185,66721,6,0,B|147:170|147:170|96:180|96:180|5:163,1,210.000002002716
142,290,67100,1,0,2:0:0:0:
209,84,67226,2,0,P|158:66|84:90,1,105.000001001358,8|0,2:0|2:0,0:0:0:0:
39,271,67478,2,0,L|145:290,1,105.000001001358,0|0,0:0|2:0,0:0:0:0:
374,359,67730,5,0,0:0:0:0:
431,121,67856,1,0,2:0:0:0:
251,352,67982,5,8,2:0:0:0:
354,131,68108,1,0,2:0:0:0:
142,290,68234,5,8,2:0:0:0:
278,118,68360,1,0,2:0:0:0:
63,193,68486,5,2,2:0:0:0:
209,84,68612,1,0,2:0:0:0:
230,264,68738,6,0,B|271:297|271:297|461:282,1,210.000002002716,4|0,2:0|2:0,0:0:0:0:
354,131,69116,1,0,2:0:0:0:
170,194,69242,2,0,P|142:238|141:289,1,105.000001001358,8|0,2:0|2:0,0:0:0:0:
444,114,69495,2,0,P|420:67|375:41,1,105.000001001358,0|0,0:0|2:0,0:0:0:0:
148,31,69747,5,0,0:0:0:0:
63,193,69873,1,0,2:0:0:0:
209,84,69999,5,0,0:0:0:0:
142,290,70125,1,0,2:0:0:0:
278,118,70251,5,8,2:0:0:0:
251,352,70377,1,0,2:0:0:0:
354,131,70503,5,0,0:0:0:0:
374,359,70629,1,0,2:0:0:0:
431,121,70755,6,0,B|437:93|437:93|408:30|328:20|283:71,1,210.000002002716
316,286,71133,1,0,2:0:0:0:
487,149,71259,2,0,L|357:161,1,105.000001001358,8|0,2:0|2:0,0:0:0:0:
211,276,71511,2,0,L|106:266,1,105.000001001358,0|0,0:0|2:0,0:0:0:0:
51,354,71763,6,0,P|115:369|185:333,1,105.000001001358,0|0,0:0|2:0,0:0:0:0:
293,205,72016,2,0,P|308:141|272:71,1,105.000001001358,8|0,2:0|2:0,0:0:0:0:
107,266,72268,6,0,B|137:250|180:252|208:271|208:271|228:300|261:317|298:313,1,210.000002002716,8|2,2:0|2:0,0:0:0:0:
492,250,72646,2,0,L|387:256,1,105.000001001358,0|4,2:0|1:0,2:0:0:0:
256,192,75797,12,0,76553,0:0:0:0:
143,116,76805,6,0,B|152:75|152:75|192:129|186:201|143:243,1,225,0|0,0:0|2:0,0:0:0:0:
125,383,77310,2,0,P|113:310|144:242,1,150,8|0,2:0|0:0,0:0:0:0:
302,156,77814,2,0,L|451:170,1,150
233,326,78192,2,0,L|322:317,1,75,0|8,0:0|2:0,0:0:0:0:
346,85,78570,2,0,L|435:93,1,75
189,255,78822,6,0,L|338:241,1,150
121,106,79326,2,0,L|323:87,1,150,8|0,2:0|0:0,0:0:0:0:
270,92,79831,5,0,0:0:0:0:
420,91,80083,1,0,0:0:0:0:
344,48,80209,1,0,0:0:0:0:
344,133,80335,1,8,2:0:0:0:
121,106,80587,2,0,L|0:117,1,75,0|0,0:0|2:0,0:0:0:0:
29,230,80839,6,0,P|100:247|163:210,1,150
87,151,81343,1,8,2:0:0:0:
87,151,81595,1,0,0:0:0:0:
223,128,81847,2,0,B|263:119|308:132|334:162|334:162|267:188,1,150
164,210,82226,2,0,P|124:157|126:98,1,75,0|8,0:0|2:0,0:0:0:0:
308,172,82604,1,0,0:0:0:0:
164,210,82856,6,0,P|152:293|215:364,1,150
72,92,83360,2,0,L|245:102,1,150,8|0,2:0|0:0,0:0:0:0:
452,141,83864,2,0,P|387:106|316:122,1,150
250,190,84242,2,0,L|258:289,1,75,0|8,0:0|2:0,0:0:0:0:
228,26,84621,2,0,L|220:125,1,75,2|0,2:0|0:0,0:0:0:0:
161,169,84873,6,0,P|89:184|24:149,1,150,4|0,2:0|0:0,0:0:0:0:
228,26,85377,2,0,L|386:38,1,150,8|0,2:0|0:0,0:0:0:0:
396,209,85881,1,0,0:0:0:0:
250,190,86133,1,0,0:0:0:0:
222,100,86259,1,0,0:0:0:0:
316,122,86385,1,8,2:0:0:0:
502,277,86637,1,0,0:0:0:0:
299,289,86889,6,0,B|240:309|173:315|206:262|139:268|80:289,1,225
20,374,87394,2,0,B|57:381|57:381|43:258,1,150,8|0,2:0|0:0,0:0:0:0:
14,40,87898,2,0,B|-11:67|-11:67|0:178,1,150
100,187,88276,1,0,0:0:0:0:
100,187,88402,2,0,L|264:174,1,150,8|2,2:0|2:0,0:0:0:0:
487,282,88906,6,0,B|402:315|402:315|356:318|312:286|306:239,1,225,4|0,2:0|2:0,0:0:0:0:
337,160,89410,2,0,P|383:201|377:289,1,150,8|0,2:0|0:0,0:0:0:0:
215,298,89915,2,0,L|65:286,1,150
306,239,90293,1,0,0:0:0:0:
306,239,90419,6,0,B|221:206|221:206|175:203|131:235|125:282,1,225,8|0,2:0|2:0,0:0:0:0:
156,361,90923,2,0,P|202:320|196:232,1,150,4|0,2:0|0:0,0:0:0:0:
30,122,91427,1,0,0:0:0:0:
125,281,91679,1,0,0:0:0:0:
306,239,91931,1,0,2:0:0:0:
321,53,92184,1,0,0:0:0:0:
321,53,92310,1,0,0:0:0:0:
321,53,92436,1,0,0:0:0:0:
199,194,92688,2,0,L|214:298,1,75,2|0,2:0|2:0,2:0:0:0:
156,361,92940,5,4,2:0:0:0:
306,239,93192,2,0,L|291:135,1,90.0000034332277,0|0,0:0|2:0,0:0:0:0:
321,53,93444,1,8,2:0:0:0:
199,194,93696,5,0,0:0:0:0:
264,362,93822,1,0,2:0:0:0:
293,150,93948,2,0,L|278:46,1,90.0000034332277,0|0,0:0|2:0,0:0:0:0:
199,194,94200,1,0,0:0:0:0:
306,239,94326,1,0,2:0:0:0:
471,128,94453,2,0,P|432:108|361:134,1,90.0000034332277,8|0,2:0|2:0,0:0:0:0:
306,239,94705,2,0,L|321:343,1,90.0000034332277,0|0,0:0|2:0,0:0:0:0:
416,195,94957,6,0,L|199:194,1,180.000006866455,0|0,0:0|2:0,0:0:0:0:
94,233,95335,1,0,2:0:0:0:
306,239,95461,2,0,P|319:197|278:123,1,90.0000034332277,8|0,2:0|2:0,0:0:0:0:
131,90,95713,1,0,0:0:0:0:
94,233,95839,1,0,2:0:0:0:
236,194,95965,2,0,P|198:170|116:191,1,90.0000034332277,0|0,0:0|2:0,0:0:0:0:
0,326,96217,2,0,L|132:312,1,90.0000034332277,0|0,2:0|2:0,0:0:0:0:
268,382,96469,1,8,2:0:0:0:
172,256,96721,2,0,L|186:388,1,90.0000034332277,2|0,2:0|2:0,0:0:0:0:
268,382,96974,5,0,0:0:0:0:
172,256,97226,2,0,L|158:124,1,90.0000034332277,0|0,0:0|2:0,0:0:0:0:
421,93,97478,2,0,P|435:168|359:236,1,180.000006866455,8|0,2:0|0:0,0:0:0:0:
213,67,97856,1,0,2:0:0:0:
320,10,97982,2,0,L|452:-4,1,90.0000034332277,0|0,0:0|2:0,0:0:0:0:
347,145,98234,2,0,L|215:159,1,90.0000034332277,0|0,0:0|2:0,0:0:0:0:
64,90,98486,1,8,2:0:0:0:
213,67,98612,1,0,2:0:0:0:
158,208,98738,2,0,P|108:209|54:173,1,90.0000034332277,0|0,0:0|2:0,0:0:0:0:
258,154,98990,6,0,L|238:357,1,180.000006866455
158,208,99368,1,0,2:0:0:0:
213,67,99495,2,0,P|285:59|317:77,1,90.0000034332277,8|0,2:0|2:0,0:0:0:0:
105,290,99747,2,0,P|62:231|61:194,1,90.0000034332277,0|0,0:0|2:0,0:0:0:0:
254,267,99999,1,0,0:0:0:0:
254,267,100251,6,0,B|423:280|423:280|366:302,1,210
354,305,100503,6,0,P|350:239|506:252,1,262.5,8|0,2:0|0:0,0:0:0:0:
490,318,100755,6,0,L|481:384,1,67.5000025749207,2|0,2:0|0:0,0:0:0:0:
426,268,101007,5,4,2:0:0:0:
354,305,101259,5,0,0:0:0:0:
316,123,101385,1,0,2:0:0:0:
254,267,101511,2,0,P|231:219|234:165,1,105.000001001358,8|0,2:0|2:0,0:0:0:0:
490,318,101763,1,0,0:0:0:0:
426,268,101889,1,0,2:0:0:0:
353,305,102016,2,0,P|324:347|276:373,1,105.000001001358,0|0,0:0|2:0,0:0:0:0:
233,168,102268,1,0,0:0:0:0:
156,236,102394,1,0,2:0:0:0:
337,200,102520,2,0,P|388:204|433:232,1,105.000001001358,8|0,2:0|2:0,0:0:0:0:
73,303,102772,2,0,P|50:255|53:201,1,105.000001001358,0|0,0:0|2:0,0:0:0:0:
254,267,103024,6,0,P|155:230|226:167,1,210.000002002716
333,92,103402,1,0,2:0:0:0:
371,254,103528,2,0,P|367:305|339:350,1,105.000001001358,8|0,2:0|2:0,0:0:0:0:
254,267,103780,1,0,0:0:0:0:
363,171,103906,1,0,2:0:0:0:
487,244,104032,2,0,L|466:365,1,105.000001001358,0|0,0:0|2:0,0:0:0:0:
225,381,104284,1,0,2:0:0:0:
195,168,104410,1,0,2:0:0:0:
394,248,104537,2,0,P|334:249|292:211,1,105.000001001358,8|0,2:0|2:0,0:0:0:0:
233,21,104789,2,0,P|263:72|251:127,1,105.000001001358,2|0,2:0|2:0,0:0:0:0:
182,86,105041,5,0,2:0:0:0:
254,307,105293,1,0,0:0:0:0:
243,229,105419,1,0,0:0:0:0:
394,248,105545,1,0,0:0:0:0:
195,168,105671,1,0,0:0:0:0:
225,381,105797,2,0,P|286:380|321:346,1,90.0000034332277,0|0,0:0|2:0,0:0:0:0:
316,259,106049,6,0,P|279:233|176:304,1,180.000006866455
254,307,106427,2,0,B|387:289|387:289|441:310,1,180.000006866455,0|0,0:0|2:0,0:0:0:0:
458,379,106805,2,0,P|413:384|375:363,1,90.0000034332277,0|0,0:0|2:0,0:0:0:0:
316,259,107058,5,0,2:0:0:0:
234,219,107310,1,0,2:0:0:0:
418,192,107436,1,0,2:0:0:0:
254,307,107562,2,0,P|159:271|150:191,1,180.000006866455,0|0,2:0|2:0,0:0:0:0:
236,108,107940,1,0,2:0:0:0:
197,84,108066,6,0,L|206:134,1,50.4000006152344,2|0,0:0|2:0,2:0:0:0:
236,108,108318,6,0,L|228:175,1,67.5000025749207,2|0,0:0|2:0,2:0:0:0:
266,141,108570,6,0,L|227:234,1,84.5999987091065,2|0,0:0|2:0,2:0:0:0:
285,180,108822,6,0,L|201:282,1,105.000001001358,2|2,0:0|0:0,2:0:0:0:
129,329,109074,6,0,B|155:364|204:382|249:367|249:367|269:337|307:321|340:328,1,240,4|0,1:0|0:0,0:0:0:0:
485,345,109453,1,0,2:0:0:0:
352,384,109579,2,0,P|343:316|401:253,1,120,8|0,2:0|2:0,0:0:0:0:
234,219,109831,2,0,P|201:169|146:150,1,120,0|0,0:0|2:0,0:0:0:0:
129,329,110083,5,0,0:0:0:0:
341,328,110209,1,0,2:0:0:0:
146,243,110335,1,0,0:0:0:0:
323,242,110461,1,0,2:0:0:0:
67,198,110587,5,8,2:0:0:0:
323,242,110713,1,0,2:0:0:0:
19,277,110839,1,0,0:0:0:0:
341,328,110965,1,0,2:0:0:0:
128,328,111091,6,0,P|150:213|263:182,1,240
492,223,111469,1,0,2:0:0:0:
354,304,111595,2,0,L|235:291,1,120,8|0,2:0|2:0,0:0:0:0:
204,95,111847,2,0,L|84:108,1,120,0|0,0:0|2:0,0:0:0:0:
43,255,112100,5,0,0:0:0:0:
235,291,112226,1,0,2:0:0:0:
129,329,112352,1,8,2:0:0:0:
256,180,112478,1,0,2:0:0:0:
383,329,112604,1,8,2:0:0:0:
277,291,112730,1,0,2:0:0:0:
469,255,112856,2,0,B|497:201|497:201|486:69,1,180,2|0,2:0|2:0,0:0:0:0:
328,116,113108,6,0,P|308:213|401:178,1,240,4|0,2:0|2:0,0:0:0:0:
364,16,113486,1,0,2:0:0:0:
210,84,113612,2,0,P|193:116|205:252,1,120,8|0,2:0|2:0,0:0:0:0:
479,256,113864,2,0,P|496:224|484:88,1,120,0|0,0:0|2:0,0:0:0:0:
328,116,114116,5,0,0:0:0:0:
277,291,114242,1,0,2:0:0:0:
400,179,114368,1,0,0:0:0:0:
364,16,114495,1,0,2:0:0:0:
309,209,114621,6,0,P|374:271|457:257,1,120,8|0,2:0|2:0,0:0:0:0:
328,116,114873,2,0,L|185:126,1,120,0|0,0:0|2:0,0:0:0:0:
22,208,115125,6,0,B|0:189|0:189|156:212|156:212|109:260,1,240
37,313,115503,1,0,2:0:0:0:
7,103,115629,2,0,B|164:126,1,120,8|0,2:0|2:0,0:0:0:0:
222,274,115881,2,0,B|379:251,1,120,0|0,0:0|2:0,0:0:0:0:
511,167,116133,5,0,2:0:0:0:
328,116,116259,1,0,2:0:0:0:
222,274,116385,1,8,2:0:0:0:
372,379,116511,5,0,2:0:0:0:
301,211,116637,1,8,2:0:0:0:
120,226,116763,1,0,2:0:0:0:
385,266,116889,2,0,P|400:192|367:134,1,120,2|0,2:0|2:0,0:0:0:0:
191,331,117142,6,0,B|231:312|231:312|298:307|298:307|317:347|359:369|405:361,1,240,4|0,2:0|0:0,0:0:0:0:
482,196,117520,1,0,2:0:0:0:
301,211,117646,2,0,L|172:221,1,120,8|0,2:0|2:0,0:0:0:0:
385,266,117898,2,0,P|400:192|367:134,1,120,0|0,0:0|2:0,0:0:0:0:
120,226,118150,5,0,0:0:0:0:
378,324,118276,1,0,2:0:0:0:
227,93,118402,1,0,0:0:0:0:
214,368,118528,1,0,2:0:0:0:
384,153,118654,5,8,2:0:0:0:
113,114,118780,1,0,2:0:0:0:
303,277,118906,1,0,0:0:0:0:
466,87,119032,1,0,2:0:0:0:
227,93,119158,6,0,B|192:114|192:114|185:209|185:209|217:240|217:240|211:329,1,240
41,230,119537,1,0,2:0:0:0:
286,171,119663,2,0,B|344:179|344:179|362:190|374:207|381:227,1,120,8|0,2:0|2:0,0:0:0:0:
155,384,119915,2,0,B|137:373|123:358|116:338|116:338|120:279,1,120,0|0,0:0|2:0,0:0:0:0:
303,277,120167,5,0,0:0:0:0:
41,230,120293,1,0,2:0:0:0:
381,226,120419,5,8,2:0:0:0:
120,279,120545,1,0,2:0:0:0:
431,147,120671,5,8,2:0:0:0:
213,299,120797,1,0,2:0:0:0:
445,52,120923,5,2,2:0:0:0:
303,277,121049,1,0,2:0:0:0:
41,229,121175,6,0,P|133:162|238:208,1,240,4|0,2:0|2:0,0:0:0:0:
431,147,121553,1,0,2:0:0:0:
387,345,121679,2,0,P|366:285|365:226,1,120,8|0,2:0|2:0,0:0:0:0:
362,11,121931,2,0,P|359:70|339:126,1,120,0|0,0:0|2:0,0:0:0:0:
248,149,122184,5,0,0:0:0:0:
510,196,122310,1,0,2:0:0:0:
170,200,122436,5,0,0:0:0:0:
431,147,122562,1,0,2:0:0:0:
120,279,122688,5,8,2:0:0:0:
338,127,122814,1,0,2:0:0:0:
106,374,122940,5,0,0:0:0:0:
248,149,123066,1,0,2:0:0:0:
510,196,123192,6,0,B|493:362|493:362|467:282,1,240,0|0,0:0|2:0,0:0:0:0:
401,56,123570,1,0,2:0:0:0:
195,338,123696,2,0,P|282:224|401:238,1,240,8|0,2:0|0:0,0:0:0:0:
284,369,124074,2,0,L|411:355,1,120,0|0,2:0|0:0,0:0:0:0:
195,338,124453,5,8,2:0:0:0:
470,292,124579,1,0,0:0:0:0:
120,279,124705,2,0,P|93:222|114:123,1,120,8|0,2:0|2:0,0:0:0:0:
296,4,124957,5,2,2:0:0:0:
293,185,125083,1,0,0:0:0:0:
195,338,125209,2,0,B|148:371|80:380|22:361|22:361|31:332|53:308|79:295,1,270.000010299683,4|0,1:0|2:0,0:0:0:0:
415,212,125587,1,0,2:0:0:0:
418,359,125713,2,0,P|364:350|287:282,1,135.000005149842,8|0,2:0|2:0,0:0:0:0:
79,295,125965,2,0,P|59:243|80:143,1,135.000005149842,0|0,0:0|2:0,0:0:0:0:
195,338,126217,5,0,0:0:0:0:
376,295,126343,1,0,2:0:0:0:
391,109,126469,1,0,0:0:0:0:
219,38,126595,1,0,2:0:0:0:
98,179,126721,6,0,P|97:124|151:36,1,135.000005149842,8|0,2:0|2:0,0:0:0:0:
391,109,126974,1,0,0:0:0:0:
376,295,127100,1,0,2:0:0:0:
194,338,127226,2,0,P|142:322|75:243,1,135.000005149842,0|0,0:0|2:0,0:0:0:0:
290,350,127478,2,0,P|363:273|250:258,1,270.000010299683,0|8,0:0|2:0,0:0:0:0:
350,210,127856,1,0,2:0:0:0:
391,109,127982,2,0,P|345:60|282:38,1,135.000005149842,0|0,0:0|2:0,0:0:0:0:
0,216,128234,6,0,B|25:154|85:115|147:122|147:122|170:139|181:168|178:197,1,270.000010299683,0|8,0:0|2:0,0:0:0:0:
37,352,128612,1,0,2:0:0:0:
259,125,128738,2,0,P|305:203|296:384,1,270.000010299683,8|2,2:0|2:0,0:0:0:0:
96,268,129116,1,0,2:0:0:0:
148,64,129242,6,0,P|226:18|407:27,1,270.000010299683,4|0,2:0|0:0,0:0:0:0:
464,212,129621,1,0,2:0:0:0:
219,297,129747,2,0,P|153:303|94:266,1,135.000005149842,8|0,2:0|2:0,0:0:0:0:
247,107,129999,2,0,P|285:161|282:230,1,135.000005149842,0|0,0:0|2:0,0:0:0:0:
69,178,130251,2,0,P|96:117|158:85,1,135.000005149842,0|0,0:0|2:0,0:0:0:0:
179,345,130503,6,0,P|246:337|311:317,1,135.000005149842,0|0,0:0|2:0,0:0:0:0:
45,120,130755,2,0,P|19:182|5:248,1,135.000005149842,8|0,2:0|2:0,0:0:0:0:
218,17,131007,1,0,0:0:0:0:
178,194,131133,1,0,2:0:0:0:
48,319,131259,6,0,P|70:187|187:90,1,270.000010299683
375,349,131637,1,0,2:0:0:0:
308,116,131763,2,0,P|267:62|217:16,1,135.000005149842,8|0,2:0|2:0,0:0:0:0:
375,349,132016,2,0,P|370:281|353:216,1,135.000005149842,0|0,0:0|2:0,0:0:0:0:
45,176,132268,6,0,B|12:184|-7:217|0:251|0:251|59:263|120:239|153:188,1,270.000010299683,0|8,0:0|2:0,0:0:0:0:
200,287,132646,1,0,2:0:0:0:
276,354,132772,2,0,P|305:260|256:248,1,135.000005149842,8|0,2:0|2:0,0:0:0:0:
217,16,133024,2,0,P|254:73|259:146,1,135.000005149842,2|0,2:0|2:0,0:0:0:0:
200,287,133276,6,0,B|185:315|152:329|119:326|119:326|74:298|41:235|45:177,1,270.000010299683,4|0,2:0|0:0,0:0:0:0:
333,66,133654,1,0,2:0:0:0:
458,249,133780,2,0,P|397:218|356:157,1,135.000005149842,8|0,2:0|2:0,0:0:0:0:
139,183,134032,2,0,P|194:145|261:138,1,135.000005149842,0|0,0:0|2:0,0:0:0:0:
270,364,134284,5,0,0:0:0:0:
96,258,134410,1,0,2:0:0:0:
143,61,134537,1,0,0:0:0:0:
345,44,134663,1,0,2:0:0:0:
423,231,134789,6,0,P|354:238|287:209,1,135.000005149842,8|0,2:0|2:0,0:0:0:0:
119,349,135041,2,0,P|145:287|197:245,1,135.000005149842,0|0,0:0|2:0,0:0:0:0:
28,259,135293,6,0,P|139:331|270:312,1,270.000010299683
423,231,135671,1,0,2:0:0:0:
197,245,135797,2,0,P|114:141|121:9,1,270.000010299683,8|0,2:0|0:0,0:0:0:0:
294,214,136175,1,0,2:0:0:0:
118,349,136301,5,0,0:0:0:0:
219,145,136427,2,0,P|225:96|206:5,2,135.000005149842,0|8|0,2:0|2:0|2:0,0:0:0:0:
28,259,136805,5,8,2:0:0:0:
294,214,136931,2,0,P|333:243|421:272,2,135.000005149842,0|2|0,2:0|2:0|2:0,0:0:0:0:
118,349,137310,6,0,P|134:185|362:77,1,405.000015449525,4|0,2:0|2:0,0:0:0:0:
453,204,137814,2,0,P|323:224|218:144,1,270.000010299683,8|0,2:0|0:0,0:0:0:0:
209,12,138192,1,0,2:0:0:0:
379,142,138318,6,0,P|443:122|510:119,1,135.000005149842,0|0,0:0|2:0,0:0:0:0:
415,358,138570,2,0,P|457:306|512:267,1,135.000005149842,0|0,0:0|2:0,0:0:0:0:
218,144,138822,6,0,P|296:214|409:226,1,135.000005149842,8|0,2:0|2:0,0:0:0:0:
56,204,139074,2,0,P|83:305|171:376,1,135.000005149842,0|0,0:0|2:0,0:0:0:0:
415,358,139326,6,0,P|485:182|424:6,1,270.000010299683,0|0,0:0|2:0,0:0:0:0:
91,66,139705,1,0,2:0:0:0:
386,57,139831,2,0,P|320:173|207:244,1,270.000010299683,8|0,2:0|2:0,0:0:0:0:
56,204,140209,1,0,2:0:0:0:
266,347,140335,6,0,P|345:285|391:226,1,135.000005149842,0|0,0:0|2:0,0:0:0:0:
93,129,140587,2,0,P|107:228|135:297,1,135.000005149842,8|0,2:0|2:0,0:0:0:0:
368,88,140839,2,0,P|274:50|200:40,1,135.000005149842,8|0,2:0|2:0,0:0:0:0:
56,204,141091,1,2,2:0:0:0:
249,146,141217,1,0,2:0:0:0:
266,347,141343,6,0,P|203:182|425:75,1,450,4|0,1:0|2:0,0:0:0:0:
436,356,141847,2,0,P|277:265|313:201,1,300,8|0,2:0|0:0,0:0:0:0:
509,127,142226,1,0,2:0:0:0:
374,278,142352,6,0,P|343:211|360:140,1,150,0|0,0:0|2:0,0:0:0:0:
512,305,142604,2,0,P|438:298|385:248,1,150,0|0,0:0|2:0,0:0:0:0:
133,384,142856,6,0,P|206:377|260:326,1,150,8|0,2:0|2:0,0:0:0:0:
271,159,143108,2,0,P|228:98|157:77,1,150,0|0,0:0|2:0,0:0:0:0:
160,272,143360,6,0,P|276:253|251:83,1,300
57,78,143738,1,0,2:0:0:0:
226,26,143864,2,0,P|425:66|494:154,1,300,8|0,2:0|0:0,0:0:0:0:
375,248,144242,1,0,2:0:0:0:
121,315,144368,5,0,0:0:0:0:
297,205,144495,1,0,2:0:0:0:
501,231,144621,1,8,2:0:0:0:
329,73,144747,1,0,2:0:0:0:
97,101,144873,6,0,P|179:155|297:76,1,150,8|0,2:0|2:0,0:0:0:0:
437,171,145125,2,0,P|472:235|459:307,1,150,2|0,2:0|2:0,0:0:0:0:
121,315,145377,6,0,P|246:218|378:250,1,300,4|0,2:0|0:0,0:0:0:0:
331,358,145755,1,0,2:0:0:0:
458,307,145881,2,0,P|472:235|437:171,1,150,8|0,2:0|2:0,0:0:0:0:
226,150,146133,2,0,P|153:148|97:101,1,150,0|0,0:0|2:0,0:0:0:0:
330,94,146385,6,0,P|291:156|223:181,1,150,0|0,0:0|2:0,0:0:0:0:
183,384,146637,2,0,P|127:335|54:334,1,150,0|0,0:0|2:0,0:0:0:0:
331,357,146889,6,0,P|243:306|352:282,1,225,8|0,2:0|2:0,0:0:0:0:
359,267,147142,2,0,P|414:315|487:317,1,150,0|0,0:0|2:0,0:0:0:0:
419,366,147394,6,0,B|339:291|326:170|395:77|395:77|428:104|450:149|455:197,1,450,0|0,0:0|2:0,0:0:0:0:
163,171,147898,2,0,P|352:156|443:57,1,300,8|0,2:0|0:0,0:0:0:0:
352,0,148276,1,0,2:0:0:0:
454,191,148402,2,0,P|445:265|407:329,1,150,0|0,0:0|2:0,0:0:0:0:
48,384,148654,2,0,P|9:320|0:246,1,150,8|0,2:0|2:0,0:0:0:0:
163,171,148906,2,0,P|222:126|257:60,1,150,8|0,2:0|2:0,0:0:0:0:
169,0,149158,2,0,P|88:75|71:184,1,225,2|0,2:0|2:0,0:0:0:0:
172,277,149410,6,0,B|282:293|393:228|422:123|422:123|379:124|339:142|305:173,1,450,4|0,2:0|2:0,0:0:0:0:
232,226,149915,2,0,P|212:298|177:364,1,150,8|0,2:0|2:0,0:0:0:0:
280,77,150167,2,0,P|346:44|420:28,1,150,0|0,0:0|2:0,0:0:0:0:
511,128,150419,6,0,P|391:312|181:366,1,300,0|0,0:0|2:0,0:3:0:0:
178,365,150797,1,0,2:0:0:0:
43,302,150923,2,0,P|106:342|177:364,1,150,8|0,2:0|2:0,0:0:0:0:
232,226,151175,2,0,P|213:298|178:364,1,150,0|0,0:0|2:0,0:0:0:0:
129,177,151427,6,0,B|134:200|135:223|131:248|131:248|85:187|69:102|91:21,1,300
249,25,151805,1,0,2:0:0:0:
399,82,151931,2,0,B|327:100|261:157|232:227|232:227|255:218|275:206|292:190,1,300,8|0,2:0|0:0,0:0:0:0:
399,82,152310,1,0,2:0:0:0:
384,282,152436,6,0,P|352:215|349:141,1,150,0|0,0:0|2:0,0:0:0:0:
327,48,152688,2,0,P|324:122|292:190,1,150,8|0,2:0|2:0,0:0:0:0:
44,303,152940,1,8,2:0:0:0:
232,227,153066,1,0,2:0:0:0:
430,268,153192,1,2,2:0:0:0:
278,116,153318,1,0,2:0:0:0:
70,165,153444,6,0,P|118:244|396:316,2,300,4|0|8,2:0|0:0|2:0,0:0:0:0:
136,368,154074,1,0,2:0:0:0:
232,227,154200,1,0,0:0:0:0:
374,321,154326,1,0,2:0:0:0:
281,289,154453,6,0,L|430:268,1,150,0|0,0:0|2:0,0:0:0:0:
44,303,154705,1,0,0:0:0:0:
219,350,154831,1,0,2:0:0:0:
177,213,154957,6,0,L|5:188,1,150,8|0,2:0|2:0,0:0:0:0:
281,289,155209,1,0,0:0:0:0:
136,368,155335,1,0,2:0:0:0:
203,108,155461,6,0,B|202:92|197:79|190:68|190:68|254:109|335:100|385:48|385:48|423:42|459:53|485:81|485:81|460:68|431:66|403:75,1,450,0|0,0:0|2:0,0:0:0:0:
216,0,155965,2,0,P|294:124|434:166,2,300,8|0|0,2:0|0:0|0:0,0:0:0:0:
132,90,156595,2,0,P|68:127|29:191,1,150,0|8,2:0|2:0,0:0:0:0:
295,171,156847,1,0,0:0:0:0:
162,296,156974,2,0,P|162:228|240:128,1,150,8|0,2:0|2:0,0:0:0:0:
339,256,157226,2,0,P|397:222|523:240,1,150,2|0,2:0|2:0,0:0:0:0:
256,297,157478,5,4,1:0:0:0:
256,192,159495,12,0,163276,0:0:0:0:
29,118,163528,6,0,P|275:125|521:282,3,480
507,88,165167,1,0,0:0:0:0:
406,138,165293,2,0,P|402:48|430:6,1,120
476,236,165545,6,0,B|385:193|262:196|170:244|170:244|221:271|283:282|343:277,1,495.000004720688,4|0,1:0|2:0,0:0:0:0:
491,208,166049,6,0,P|423:253|344:276,1,165.000001573563,8|0,2:0|2:0,0:0:0:0:
201,348,166301,2,0,P|124:318|60:266,1,165.000001573563,0|0,0:0|2:0,0:0:0:0:
49,135,166553,2,0,P|182:166|275:380,1,330.000003147125
199,75,166931,1,0,2:0:0:0:
67,302,167058,2,0,P|169:179|330:166,1,330.000003147125,8|0,2:0|0:0,0:0:0:0:
476,236,167436,1,0,2:0:0:0:
315,272,167562,2,0,L|138:313,1,165.000001573563,0|0,0:0|2:0,0:0:0:0:
336,355,167814,6,0,B|331:274|350:188|389:125|389:125|402:153|404:183|397:213,3,330.000003147125,0|8|0|0,0:0|2:0|0:0|0:0,0:0:0:0:
443,31,168696,1,0,2:0:0:0:
443,31,168822,2,0,P|486:118|493:202,1,165.000001573563,8|0,2:0|2:0,0:0:0:0:
163,245,169074,2,0,P|227:193|270:123,1,165.000001573563,8|0,2:0|2:0,0:0:0:0:
375,287,169326,1,2,2:0:0:0:
366,97,169453,1,0,2:0:0:0:
336,355,169579,6,0,P|336:250|293:18,2,330.000003147125,4|0|8,2:0|0:0|2:0,0:0:0:0:
442,192,170209,1,0,2:0:0:0:
353,0,170335,2,0,P|328:74|325:156,1,165.000001573563,0|0,0:0|2:0,0:0:0:0:
353,277,170587,2,0,P|280:316|200:333,1,165.000001573563,0|0,0:0|2:0,0:0:0:0:
511,44,170839,2,0,P|486:123|442:192,1,165.000001573563,0|0,0:0|2:0,0:0:0:0:
336,355,171091,2,0,P|277:326|89:337,1,247.500002360344,8|0,2:0|2:0,0:0:0:0:
175,201,171343,2,0,P|200:276|276:304,1,165.000001573563,0|0,0:0|2:0,0:0:0:0:
501,235,171595,6,0,P|338:244|200:331,1,330.000003147125
353,277,171974,1,0,2:0:0:0:
442,192,172100,2,0,P|486:123|511:44,1,165.000001573563,8|0,2:0|2:0,0:0:0:0:
200,332,172352,2,0,P|280:315|353:277,1,165.000001573563,0|0,0:0|2:0,0:0:0:0:
416,68,172604,5,0,0:0:0:0:
413,333,172730,1,0,2:0:0:0:
327,41,172856,1,8,2:0:0:0:
157,244,172982,1,0,2:0:0:0:
349,132,173108,6,0,P|320:215|254:295,1,165.000001573563,8|0,2:0|2:0,0:0:0:0:
139,328,173360,2,0,B|146:343|156:359|172:371|172:371|160:305|123:248|77:207,1,247.500002360344,2|0,2:0|2:0,0:0:0:0:
111,12,173612,6,0,B|143:135|106:287|0:384|0:384|0:357|3:328|13:298,1,495.000004720688,4|0,2:0|2:0,0:0:0:0:
375,323,174116,6,0,P|293:308|211:312,1,165.000001573563,8|0,2:0|2:0,0:0:0:0:
104,162,174368,2,0,P|51:225|13:298,1,165.000001573563,0|0,0:0|2:0,0:0:0:0:
172,229,174621,5,0,0:0:0:0:
194,25,174747,1,0,2:0:0:0:
79,254,174873,1,0,0:0:0:0:
31,15,174999,1,0,2:0:0:0:
257,179,175125,6,0,P|310:116|348:43,1,165.000001573563,8|0,2:0|2:0,0:0:0:0:
31,15,175377,2,0,P|75:84|104:162,1,165.000001573563,0|0,0:0|2:0,0:0:0:0:
222,354,175629,6,0,P|255:222|104:347,1,495.000004720688,0|0,0:0|2:0,0:0:0:0:
301,327,176133,2,0,P|243:273|166:291,1,165.000001573563,8|0,2:0|2:0,0:0:0:0:
14,178,176385,2,0,P|-13:276|20:373,1,165.000001573563,0|0,0:0|2:0,0:0:0:0:
222,354,176637,5,0,0:0:0:0:
255,179,176763,1,0,2:0:0:0:
100,343,176889,1,8,2:0:0:0:
102,162,177016,1,0,2:0:0:0:
301,327,177142,5,8,2:0:0:0:
302,97,177268,1,0,2:0:0:0:
166,291,177394,1,2,2:0:0:0:
214,48,177520,1,0,2:0:0:0:
245,262,177646,6,0,B|341:262|419:180|412:82|412:82|401:96|394:113|390:132,1,330.000003147125,4|0,2:0|0:0,0:0:0:0:
384,261,178024,1,0,2:0:0:0:
456,368,178150,2,0,P|374:362|301:327,1,165.000001573563,8|0,2:0|2:0,0:0:0:0:
166,291,178402,2,0,P|84:296|10:332,1,165.000001573563,0|0,0:0|2:0,0:0:0:0:
77,200,178654,6,0,P|222:275|385:260,3,330.000003147125,0|0|8|0,0:0|0:0|2:0|0:0,0:0:0:0:
501,195,179537,1,0,2:0:0:0:
298,243,179663,2,0,P|93:170|61:384,1,495.000004720688,0|0,0:0|2:0,0:0:0:0:
247,384,180167,2,0,P|286:315|275:233,1,165.000001573563,8|0,2:0|2:0,0:0:0:0:
89,75,180419,2,0,P|129:143|205:174,1,165.000001573563,0|0,0:0|2:0,0:0:0:0:
360,204,180671,5,0,0:0:0:0:
166,291,180797,1,0,2:0:0:0:
291,145,180923,1,8,2:0:0:0:
247,384,181049,1,0,2:0:0:0:
503,254,181175,2,0,P|440:203|360:204,1,165.000001573563,8|0,2:0|2:0,0:0:0:0:
291,145,181427,1,2,2:0:0:0:
401,320,181553,1,0,2:0:0:0:
496,8,181679,6,0,P|409:217|46:183,1,540.000020599366,4|0,1:0|2:0,0:0:0:0:
7,38,182184,2,0,L|219:49,1,180.000006866455,8|0,2:0|2:0,0:0:0:0:
291,145,182436,2,0,L|503:156,1,180.000006866455,0|0,0:0|2:0,0:0:0:0:
426,320,182688,6,0,P|261:369|23:289,1,360.000013732911
124,248,183066,2,0,L|101:69,1,180.000006866455,0|8,2:0|2:0,0:0:0:0:
11,384,183318,1,0,2:0:0:0:
22,153,183444,2,0,L|234:164,1,180.000006866455,0|0,0:0|2:0,0:0:0:0:
471,155,183696,6,0,P|402:55|244:30,1,270.000010299683,0|0,0:0|2:0,0:0:0:0:
124,248,183948,2,0,P|192:347|350:372,1,270.000010299683,0|0,0:0|2:0,0:0:0:0:
381,171,184200,2,0,L|22:153,2,360.000013732911,8|0|0,2:0|2:0|0:0,0:0:0:0:
502,68,184831,1,0,2:0:0:0:
440,242,184957,2,0,B|404:324|404:324|506:307,1,180.000006866455,8|0,2:0|2:0,0:0:0:0:
381,171,185209,2,0,B|309:340,1,180.000006866455,8|0,2:0|2:0,0:0:0:0:
471,155,185461,2,0,B|363:11|363:11|452:0,1,270.000010299683,2|0,2:0|2:0,0:0:0:0:
502,68,185713,6,0,L|145:112,1,360.000013732911,4|0,2:0|2:0,0:0:0:0:
20,128,186091,1,0,2:0:0:0:
128,332,186217,2,0,B|147:368|147:368|179:179,1,180.000006866455,8|0,2:0|2:0,0:0:0:0:
260,149,186469,2,0,P|99:222|32:384,2,360.000013732911
459,217,187100,1,0,2:0:0:0:
300,356,187226,2,0,P|211:362|128:332,1,180.000006866455,8|0,2:0|2:0,0:0:0:0:
366,164,187478,2,0,P|415:238|431:324,1,180.000006866455,0|0,0:0|2:0,0:0:0:0:
260,149,187730,6,0,B|330:136|411:160|459:217|459:217|419:234|368:236|322:225,1,360.000013732911
169,127,188108,1,0,2:0:0:0:
300,356,188234,2,0,P|373:303|426:231,1,180.000006866455,8|0,2:0|2:0,0:0:0:0:
22,253,188486,2,0,P|111:249|195:218,1,180.000006866455,0|0,0:0|2:0,0:0:0:0:
492,331,188738,5,0,0:0:0:0:
321,224,188864,1,0,2:0:0:0:
126,275,188990,1,8,2:0:0:0:
260,149,189116,1,0,2:0:0:0:
425,231,189242,2,0,P|372:303|300:356,1,180.000006866455,8|0,2:0|2:0,0:0:0:0:
22,253,189495,2,0,P|112:249|196:218,1,180.000006866455,2|0,2:0|2:0,0:0:0:0:
510,206,189747,6,0,P|347:132|169:127,1,360.000013732911,4|0,2:0|0:0,0:0:0:0:
20,304,190125,1,0,2:0:0:0:
84,164,190251,2,0,B|28:206|-9:277|-11:349|-11:349|4:336|14:321|20:305,1,270.000010299683,8|0,2:0|2:0,0:0:0:0:
347,202,190503,2,0,B|366:200|384:201|403:207|403:207|341:242|261:245|196:218,1,270.000010299683,0|0,0:0|2:0,0:0:0:0:
111,267,190755,6,0,P|146:353|199:282,3,180.000006866455,0|0|0|0,0:0|2:0|0:0|2:0,0:0:0:0:
267,129,191259,1,8,2:0:0:0:
96,73,191385,1,0,2:0:0:0:
418,30,191511,2,0,P|466:95|506:232,1,180.000006866455,0|0,0:0|2:0,0:0:0:0:
512,362,191763,6,0,B|22:275|22:275|70:332|146:355|225:346,1,720.000027465821,0|8,0:0|2:0,0:0:0:0:
393,120,192394,1,0,2:0:0:0:
372,253,192520,2,0,P|307:314|223:346,1,180.000006866455,0|0,0:0|2:0,0:0:0:0:
62,62,192772,2,0,P|102:225|270:228,3,360.000013732911,0|8|8|2,0:0|2:0|2:0|2:0,0:0:0:0:
320,0,193654,1,0,2:0:0:0:
393,120,193780,6,0,P|353:283|185:286,1,360.000013732911,4|0,2:0|0:0,0:0:0:0:
188,116,194158,1,0,2:0:0:0:
107,356,194284,2,0,P|12:238|158:200,1,360.000013732911,8|0,2:0|0:0,0:0:0:0:
246,358,194663,1,0,2:0:0:0:
407,277,194789,5,0,0:0:0:0:
98,267,194915,1,0,2:0:0:0:
337,335,195041,1,0,0:0:0:0:
186,286,195167,1,0,2:0:0:0:
321,245,195293,5,8,2:0:0:0:
202,376,195419,1,0,2:0:0:0:
407,277,195545,1,0,0:0:0:0:
107,356,195671,1,0,2:0:0:0:
337,335,195797,6,0,B|439:325|439:325|118:215|118:215|212:313,1,540.000020599366,0|0,0:0|2:0,0:0:0:0:
202,376,196301,2,0,B|254:2,2,360.000013732911,8|0|0,2:0|0:0|0:0,0:0:0:0:
98,267,196931,1,0,2:0:0:0:
356,241,197058,2,0,P|267:247|187:286,1,180.000006866455,8|0,2:0|2:0,0:0:0:0:
337,335,197310,2,0,P|410:260|325:26,1,360.000013732911,8|2,2:0|2:0,0:0:0:0:
157,38,197688,1,0,2:0:0:0:
202,376,197814,6,0,B|237:117,1,195.000005578995,4|0,1:0|2:0,0:0:0:0:
252,20,198066,1,0,0:0:0:0:
81,99,198192,1,0,2:0:0:0:
337,335,198318,6,0,B|372:76,1,195.000005578995,8|0,2:0|2:0,0:0:0:0:
157,38,198570,1,0,0:0:0:0:
347,37,198696,1,0,2:0:0:0:
66,384,198822,6,0,B|31:125,1,195.000005578995,0|0,0:0|2:0,0:0:0:0:
16,28,199074,1,0,0:0:0:0:
171,134,199200,1,0,2:0:0:0:
202,376,199326,6,0,B|167:117,1,195.000005578995,8|0,2:0|2:0,0:0:0:0:
252,20,199578,1,0,0:0:0:0:
81,99,199705,1,0,2:0:0:0:
347,37,199831,6,0,P|438:82|512:152,1,195.000005578995,0|0,0:0|2:0,0:0:0:0:
63,56,200083,2,0,P|159:23|260:20,1,195.000005578995,0|0,0:0|2:0,0:0:0:0:
411,126,200335,6,0,P|314:131|223:163,1,195.000005578995,8|0,2:0|2:0,0:0:0:0:
35,377,200587,2,0,P|80:286|149:212,1,195.000005578995,0|0,0:0|2:0,0:0:0:0:
202,376,200839,5,0,0:0:0:0:
136,122,200965,1,0,2:0:0:0:
230,259,201091,1,8,2:0:0:0:
252,20,201217,1,0,0:0:0:0:
142,217,201343,6,0,P|77:289|35:377,1,195.000005578995,8|0,2:0|2:0,0:0:0:0:
252,20,201595,2,0,P|155:25|64:57,1,195.000005578995,2|0,2:0|2:0,0:0:0:0:
223,163,201847,6,0,B|299:194|390:196|464:167|464:167|369:113|245:96|136:122,1,585.000016736985,4|0,2:0|2:0,0:0:0:0:
22,157,202352,2,0,B|57:416,1,195.000005578995,8|0,2:0|2:0,0:0:0:0:
442,69,202604,2,0,B|407:328,1,195.000005578995,0|0,0:0|2:0,0:0:0:0:
344,356,202856,2,0,P|112:238|251:19,1,585.000016736985,0|0,0:0|2:0,0:0:0:0:
22,157,203360,2,0,P|198:189|251:19,1,390.00001115799,8|0,2:0|0:0,0:0:0:0:
63,57,203738,1,0,2:0:0:0:
62,294,203864,6,0,P|163:301|284:245,1,195.000005578995,0|0,0:0|2:0,0:0:0:0:
338,32,204116,2,0,P|246:0|150:7,1,195.000005578995,0|0,0:0|2:0,0:0:0:0:
22,157,204368,2,0,P|259:177|402:301,1,390.00001115799,8|0,2:0|0:0,0:0:0:0:
125,225,204747,1,0,2:0:0:0:
249,269,204873,6,0,P|324:199|361:100,1,195.000005578995,0|0,0:0|2:0,0:0:0:0:
446,187,205125,2,0,P|408:98|338:32,1,195.000005578995,8|0,2:0|2:0,0:0:0:0:
63,57,205377,1,8,2:0:0:0:
251,18,205503,1,0,2:0:0:0:
22,157,205629,1,2,2:0:0:0:
150,7,205755,1,0,2:0:0:0:
55,261,205881,6,0,B|18:357|18:357|361:302,1,390.00001115799,4|0,2:0|0:0,0:0:0:0:
493,280,206259,1,0,2:0:0:0:
331,334,206385,2,0,B|138:364,1,195.000005578995,8|0,2:0|2:0,0:0:0:0:
22,157,206637,2,0,P|122:219|241:220,1,195.000005578995,0|0,0:0|2:0,0:0:0:0:
481,152,206889,6,0,P|367:183|162:25,1,390.00001115799
72,72,207268,1,0,2:0:0:0:
262,34,207394,2,0,L|233:266,1,195.000005578995,8|0,2:0|2:0,0:0:0:0:
138,364,207646,1,0,0:0:0:0:
331,334,207772,1,0,2:0:0:0:
164,272,207898,6,0,P|278:303|483:145,1,390.00001115799
164,31,208276,1,0,2:0:0:0:
22,157,208402,2,0,P|8:251|46:343,1,195.000005578995,8|0,2:0|2:0,0:0:0:0:
331,334,208654,2,0,B|138:364,1,195.000005578995,0|0,0:0|2:0,0:0:0:0:
120,157,208906,5,0,0:0:0:0:
111,271,209032,1,0,2:0:0:0:
72,72,209158,1,8,2:0:0:0:
22,157,209284,1,0,2:0:0:0:
216,174,209410,5,8,2:0:0:0:
331,334,209537,1,0,2:0:0:0:
120,157,209663,1,2,2:0:0:0:
138,363,209789,1,0,2:0:0:0:
290,111,209915,6,0,B|264:304|264:304|178:46,1,390.00001115799,4|0,2:0|2:0,0:0:0:0:
278,0,210293,1,0,2:0:0:0:
410,49,210419,2,0,B|358:89|358:89|165:102|165:102|110:68|110:68|0:76,2,390.00001115799,8|0|0,2:0|0:0|0:0,0:0:0:0:
192,7,211049,1,0,2:0:0:0:
196,224,211175,2,0,P|290:355|553:297,2,390.00001115799,0|8|0,0:0|2:0|0:0,0:0:0:0:
196,224,211931,6,0,P|393:184|517:21,1,390.00001115799
326,94,212310,1,0,2:0:0:0:
154,14,212436,2,0,P|90:204|169:393,2,390.00001115799,8|0|0,2:0|0:0|0:0,0:0:0:0:
236,71,213066,2,0,P|343:122|457:102,1,195.000005578995,0|8,2:0|2:0,0:0:0:0:
510,292,213318,1,0,0:0:0:0:
407,370,213444,2,0,P|254:259|236:71,1,390.00001115799,8|2,2:0|2:0,0:0:0:0:
417,117,213822,2,0,P|332:70|236:70,1,195.000005578995
