osu file format v14

[General]
AudioFilename: audio.mp3
AudioLeadIn: 0
PreviewTime: 160004
Countdown: 1
SampleSet: Normal
StackLeniency: 0.7
Mode: 1
LetterboxInBreaks: 0
WidescreenStoryboard: 0

[Editor]
DistanceSpacing: 1
BeatDivisor: 4
GridSize: 4
TimelineZoom: 2.7

[Metadata]
Title:uNDeRWoRLD MoNaRCHy
TitleUnicode:uNDeRWoRLD MoNaRCHy
Artist:DM vs. POCKET
ArtistUnicode:DM vs. POCKET
Creator:Soldsaga KunG
Version:AsGOni
Source:
Tags:
BeatmapID:1620866
BeatmapSetID:770957

[Difficulty]
HPDrainRate:5
CircleSize:5
OverallDifficulty:5
ApproachRate:10
SliderMultiplier:2.1
SliderTickRate:1

[Events]
//Background and Video events
0,0,"BGAsgore.jpg",0,0
//Break Periods
//Storyboard Layer 0 (Background)
//Storyboard Layer 1 (Fail)
//Storyboard Layer 2 (Pass)
//Storyboard Layer 3 (Foreground)
//Storyboard Sound Samples

[TimingPoints]
30004,338.983050847458,4,1,0,80,1,0
55088,-125,4,1,0,80,0,0
86953,-111.111111111111,4,1,0,80,0,0
98139,-100,4,1,0,80,0,0
141190,-133.333333333333,4,1,0,80,0,0
152037,-117.647058823529,4,1,0,80,0,0
162885,-100,4,1,0,80,0,1
206275,-100,4,1,0,80,0,0
313732,-100,4,1,0,80,0,1
333732,-100,4,1,0,80,0,0
335427,-100,4,1,0,80,0,1
355427,-100,4,1,0,80,0,0

[HitObjects]
256,192,30003,5,12,0:0:0:0:
256,192,30173,1,0,0:0:0:0:
256,192,30342,1,8,0:0:0:0:
256,192,30512,1,0,0:0:0:0:
256,192,30681,1,8,0:0:0:0:
256,192,30851,1,8,0:0:0:0:
256,192,31020,1,0,0:0:0:0:
256,192,31190,1,8,0:0:0:0:
256,192,31529,1,8,0:0:0:0:
256,192,31698,1,0,0:0:0:0:
256,192,31868,1,0,0:0:0:0:
256,192,32037,1,8,0:0:0:0:
256,192,32207,1,8,0:0:0:0:
256,192,32376,1,8,0:0:0:0:
256,192,32715,1,0,0:0:0:0:
256,192,32885,1,0,0:0:0:0:
256,192,33054,1,8,0:0:0:0:
256,192,33224,1,0,0:0:0:0:
256,192,33393,1,8,0:0:0:0:
256,192,33563,1,8,0:0:0:0:
256,192,33732,1,0,0:0:0:0:
256,192,33902,1,8,0:0:0:0:
256,192,34241,1,8,0:0:0:0:
256,192,34410,1,0,0:0:0:0:
256,192,34580,1,0,0:0:0:0:
256,192,34749,1,4,0:0:0:0:
256,192,35427,1,12,0:0:0:0:
256,192,35597,1,0,0:0:0:0:
256,192,35766,1,8,0:0:0:0:
256,192,35936,1,0,0:0:0:0:
256,192,36105,1,0,0:0:0:0:
256,192,36275,1,8,0:0:0:0:
256,192,36444,1,0,0:0:0:0:
256,192,36614,1,4,0:0:0:0:
256,192,36953,1,4,0:0:0:0:
256,192,37122,1,0,0:0:0:0:
256,192,37292,1,8,0:0:0:0:
256,192,37461,1,8,0:0:0:0:
256,192,37631,1,0,0:0:0:0:
256,192,37800,1,12,0:0:0:0:
256,192,38139,1,4,0:0:0:0:
256,192,38309,1,8,0:0:0:0:
256,192,38478,1,0,0:0:0:0:
256,192,38648,1,0,0:0:0:0:
256,192,38817,1,8,0:0:0:0:
256,192,38987,1,0,0:0:0:0:
256,192,39156,1,8,0:0:0:0:
256,192,39326,1,12,0:0:0:0:
256,192,39665,1,12,0:0:0:0:
256,192,39834,1,0,0:0:0:0:
256,192,40003,1,0,0:0:0:0:
256,192,40173,1,8,0:0:0:0:
256,192,40342,1,8,0:0:0:0:
256,192,40427,1,0,0:0:0:0:
256,192,40512,1,8,0:0:0:0:
256,192,40681,1,8,0:0:0:0:
256,192,40851,1,4,0:0:0:0:
256,192,41020,1,0,0:0:0:0:
256,192,41190,1,8,0:0:0:0:
256,192,41359,1,0,0:0:0:0:
256,192,41444,1,0,0:0:0:0:
256,192,41528,1,8,0:0:0:0:
256,192,41698,1,8,0:0:0:0:
256,192,41868,1,0,0:0:0:0:
256,192,42037,1,12,0:0:0:0:
256,192,42376,1,4,0:0:0:0:
256,192,42546,1,0,0:0:0:0:
256,192,42715,1,0,0:0:0:0:
256,192,42885,1,8,0:0:0:0:
256,192,43054,1,8,0:0:0:0:
256,192,43224,1,12,0:0:0:0:
256,192,43563,1,4,0:0:0:0:
256,192,43732,1,0,0:0:0:0:
256,192,43902,1,8,0:0:0:0:
256,192,44071,1,0,0:0:0:0:
256,192,44241,1,8,0:0:0:0:
256,192,44410,1,8,0:0:0:0:
256,192,44580,1,0,0:0:0:0:
256,192,44749,1,12,0:0:0:0:
256,192,45088,1,4,0:0:0:0:
256,192,45258,1,8,0:0:0:0:
256,192,45427,1,0,0:0:0:0:
256,192,45512,1,0,0:0:0:0:
256,192,45597,1,8,0:0:0:0:
256,192,46275,1,4,0:0:0:0:
256,192,46444,1,0,0:0:0:0:
256,192,46614,1,8,0:0:0:0:
256,192,46783,1,0,0:0:0:0:
256,192,46953,1,8,0:0:0:0:
256,192,47122,1,8,0:0:0:0:
256,192,47292,1,0,0:0:0:0:
256,192,47461,1,12,0:0:0:0:
256,192,47800,1,4,0:0:0:0:
256,192,47970,1,0,0:0:0:0:
256,192,48139,1,8,0:0:0:0:
256,192,48225,1,0,0:0:0:0:
256,192,48309,1,8,0:0:0:0:
256,192,48479,1,0,0:0:0:0:
256,192,48648,1,12,0:0:0:0:
256,192,48987,1,4,0:0:0:0:
256,192,49156,1,0,0:0:0:0:
256,192,49326,1,8,0:0:0:0:
256,192,49495,1,0,0:0:0:0:
256,192,49665,1,8,0:0:0:0:
256,192,49834,1,8,0:0:0:0:
256,192,50003,1,8,0:0:0:0:
256,192,50173,1,8,0:0:0:0:
256,192,50512,1,0,0:0:0:0:
256,192,50597,1,8,0:0:0:0:
256,192,50681,1,0,0:0:0:0:
256,192,50851,1,0,0:0:0:0:
256,192,51020,1,8,0:0:0:0:
256,192,51190,1,0,0:0:0:0:
256,192,51359,1,8,0:0:0:0:
256,192,51698,2,0,B|452:344|452:344|388:88|384:88|48:84|52:84|88:352|88:352|316:136,1,1260
256,192,56105,1,0,0:0:0:0:
256,192,56444,1,0,0:0:0:0:
256,192,56783,1,8,0:0:0:0:
256,192,57122,1,0,0:0:0:0:
256,192,57631,1,0,0:0:0:0:
256,192,58309,1,0,0:0:0:0:
256,192,58817,1,0,0:0:0:0:
256,192,59156,1,0,0:0:0:0:
256,192,59495,1,0,0:0:0:0:
256,192,59834,1,0,0:0:0:0:
256,192,60342,1,0,0:0:0:0:
256,192,61020,1,0,0:0:0:0:
256,192,61529,1,0,0:0:0:0:
256,192,61868,1,8,0:0:0:0:
256,192,62207,1,8,0:0:0:0:
256,192,62546,1,0,0:0:0:0:
256,192,63054,1,0,0:0:0:0:
256,192,63732,1,0,0:0:0:0:
256,192,64241,1,0,0:0:0:0:
256,192,64580,1,8,0:0:0:0:
256,192,64919,1,0,0:0:0:0:
256,192,65258,1,8,0:0:0:0:
256,192,65766,1,8,0:0:0:0:
256,192,66444,1,0,0:0:0:0:
256,192,66953,1,8,0:0:0:0:
256,192,67292,1,8,0:0:0:0:
256,192,67631,1,0,0:0:0:0:
256,192,67970,1,8,0:0:0:0:
256,192,68478,1,8,0:0:0:0:
256,192,69156,1,8,0:0:0:0:
256,192,69665,1,0,0:0:0:0:
256,192,70003,1,0,0:0:0:0:
256,192,70342,1,8,0:0:0:0:
256,192,70681,1,0,0:0:0:0:
256,192,71190,1,8,0:0:0:0:
256,192,71868,1,8,0:0:0:0:
256,192,72376,1,0,0:0:0:0:
256,192,72715,1,0,0:0:0:0:
256,192,73054,1,8,0:0:0:0:
256,192,73393,1,0,0:0:0:0:
256,192,73902,1,8,0:0:0:0:
256,192,74410,1,8,0:0:0:0:
256,192,74749,1,8,0:0:0:0:
256,192,75427,1,8,0:0:0:0:
256,192,76105,1,12,0:0:0:0:
256,192,76614,1,12,0:0:0:0:
256,192,77292,1,12,0:0:0:0:
256,192,77800,1,4,0:0:0:0:
256,192,78139,1,4,0:0:0:0:
256,192,78478,1,12,0:0:0:0:
256,192,78817,1,4,0:0:0:0:
256,192,79326,1,4,0:0:0:0:
256,192,80004,1,4,0:0:0:0:
256,192,80512,1,4,0:0:0:0:
256,192,80851,1,4,0:0:0:0:
256,192,81190,1,12,0:0:0:0:
256,192,81529,1,4,0:0:0:0:
256,192,82037,1,12,0:0:0:0:
256,192,82715,1,4,0:0:0:0:
256,192,83224,1,4,0:0:0:0:
256,192,83563,1,4,0:0:0:0:
256,192,83902,1,12,0:0:0:0:
256,192,84241,1,4,0:0:0:0:
256,192,84749,1,12,0:0:0:0:
256,192,85427,1,12,0:0:0:0:
256,192,85597,1,0,0:0:0:0:
256,192,85936,1,12,0:0:0:0:
256,192,86105,1,0,0:0:0:0:
256,192,86274,1,0,0:0:0:0:
256,192,86614,1,12,0:0:0:0:
256,192,86953,1,0,0:0:0:0:
256,192,87292,1,8,0:0:0:0:
256,192,87461,1,0,0:0:0:0:
256,192,87970,1,8,0:0:0:0:
256,192,88139,1,0,0:0:0:0:
256,192,88648,1,8,0:0:0:0:
256,192,88817,1,0,0:0:0:0:
256,192,88987,1,0,0:0:0:0:
256,192,89156,1,0,0:0:0:0:
256,192,89326,1,8,0:0:0:0:
256,192,89665,1,0,0:0:0:0:
256,192,90004,1,8,0:0:0:0:
256,192,90173,1,0,0:0:0:0:
256,192,90681,1,8,0:0:0:0:
256,192,90851,1,0,0:0:0:0:
256,192,91359,1,8,0:0:0:0:
256,192,91529,1,0,0:0:0:0:
256,192,91698,1,0,0:0:0:0:
256,192,91868,1,8,0:0:0:0:
256,192,92037,1,0,0:0:0:0:
256,192,92207,1,8,0:0:0:0:
256,192,92292,1,0,0:0:0:0:
256,192,92376,1,0,0:0:0:0:
256,192,92715,1,8,0:0:0:0:
256,192,92885,1,0,0:0:0:0:
256,192,93393,1,8,0:0:0:0:
256,192,93563,1,0,0:0:0:0:
256,192,94071,1,8,0:0:0:0:
256,192,94241,1,0,0:0:0:0:
256,192,94410,1,8,0:0:0:0:
256,192,94580,1,0,0:0:0:0:
256,192,94749,1,8,0:0:0:0:
256,192,95088,1,0,0:0:0:0:
256,192,95427,1,8,0:0:0:0:
256,192,95597,1,0,0:0:0:0:
256,192,96105,1,8,0:0:0:0:
256,192,96275,1,0,0:0:0:0:
256,192,96444,1,12,0:0:0:0:
256,192,97122,1,4,0:0:0:0:
256,192,97800,1,0,0:0:0:0:
256,192,98139,1,12,0:0:0:0:
256,192,98309,1,0,0:0:0:0:
256,192,98393,1,0,0:0:0:0:
256,192,98478,1,8,0:0:0:0:
256,192,98648,1,8,0:0:0:0:
256,192,98817,1,8,0:0:0:0:
256,192,98902,1,8,0:0:0:0:
256,192,98987,1,0,0:0:0:0:
256,192,99071,1,0,0:0:0:0:
256,192,99156,1,8,0:0:0:0:
256,192,99326,1,0,0:0:0:0:
256,192,99495,1,8,0:0:0:0:
256,192,99665,1,8,0:0:0:0:
256,192,99749,1,8,0:0:0:0:
256,192,99834,1,8,0:0:0:0:
256,192,100004,1,0,0:0:0:0:
256,192,100173,1,0,0:0:0:0:
256,192,100258,1,8,0:0:0:0:
256,192,100342,1,0,0:0:0:0:
256,192,100512,1,0,0:0:0:0:
256,192,100681,1,0,0:0:0:0:
256,192,100851,1,8,0:0:0:0:
256,192,101020,1,0,0:0:0:0:
256,192,101105,1,8,0:0:0:0:
256,192,101190,1,0,0:0:0:0:
256,192,101275,1,0,0:0:0:0:
256,192,101359,1,8,0:0:0:0:
256,192,101529,1,0,0:0:0:0:
256,192,101614,1,0,0:0:0:0:
256,192,101698,1,8,0:0:0:0:
256,192,101868,1,0,0:0:0:0:
256,192,102037,1,0,0:0:0:0:
256,192,102207,1,8,0:0:0:0:
256,192,102292,1,0,0:0:0:0:
256,192,102376,1,0,0:0:0:0:
256,192,102546,1,0,0:0:0:0:
256,192,102715,1,8,0:0:0:0:
256,192,102800,1,8,0:0:0:0:
256,192,102885,1,8,0:0:0:0:
256,192,103054,1,8,0:0:0:0:
256,192,103224,1,0,0:0:0:0:
256,192,103563,1,12,0:0:0:0:
256,192,103732,1,0,0:0:0:0:
256,192,103817,1,8,0:0:0:0:
256,192,103902,1,0,0:0:0:0:
256,192,103987,1,8,0:0:0:0:
256,192,104071,1,0,0:0:0:0:
256,192,104241,1,0,0:0:0:0:
256,192,104326,1,0,0:0:0:0:
256,192,104410,1,8,0:0:0:0:
256,192,104580,1,0,0:0:0:0:
256,192,104749,1,8,0:0:0:0:
256,192,104919,1,8,0:0:0:0:
256,192,105088,1,0,0:0:0:0:
256,192,105173,1,0,0:0:0:0:
256,192,105258,1,8,0:0:0:0:
256,192,105427,1,0,0:0:0:0:
256,192,105597,1,4,0:0:0:0:
256,192,105766,1,12,0:0:0:0:
256,192,105936,1,0,0:0:0:0:
256,192,106105,1,0,0:0:0:0:
256,192,106275,1,8,0:0:0:0:
256,192,106444,1,0,0:0:0:0:
256,192,106529,1,0,0:0:0:0:
256,192,106614,1,8,0:0:0:0:
256,192,106783,1,8,0:0:0:0:
256,192,106868,1,0,0:0:0:0:
256,192,106953,1,8,0:0:0:0:
256,192,107122,1,8,0:0:0:0:
256,192,107292,1,0,0:0:0:0:
256,192,107461,1,0,0:0:0:0:
256,192,107546,1,0,0:0:0:0:
256,192,107631,1,8,0:0:0:0:
256,192,107800,1,12,0:0:0:0:
256,192,107970,1,4,0:0:0:0:
256,192,108139,1,0,0:0:0:0:
256,192,108224,1,8,0:0:0:0:
256,192,108309,1,0,0:0:0:0:
256,192,108393,1,0,0:0:0:0:
256,192,108478,1,8,0:0:0:0:
256,192,108648,1,0,0:0:0:0:
256,192,108987,1,12,0:0:0:0:
256,192,109156,1,0,0:0:0:0:
256,192,109241,1,0,0:0:0:0:
256,192,109326,1,0,0:0:0:0:
256,192,109495,1,8,0:0:0:0:
256,192,109665,1,8,0:0:0:0:
256,192,109749,1,0,0:0:0:0:
256,192,109834,1,8,0:0:0:0:
256,192,110004,1,0,0:0:0:0:
256,192,110173,1,0,0:0:0:0:
256,192,110342,1,8,0:0:0:0:
256,192,110512,1,8,0:0:0:0:
256,192,110597,1,8,0:0:0:0:
256,192,110681,1,0,0:0:0:0:
256,192,110766,1,0,0:0:0:0:
256,192,110851,1,8,0:0:0:0:
256,192,111020,1,0,0:0:0:0:
256,192,111190,1,8,0:0:0:0:
256,192,111359,1,0,0:0:0:0:
256,192,111529,1,0,0:0:0:0:
256,192,111698,1,8,0:0:0:0:
256,192,111868,1,0,0:0:0:0:
256,192,111953,1,0,0:0:0:0:
256,192,112037,1,8,0:0:0:0:
256,192,112207,1,8,0:0:0:0:
256,192,112376,1,8,0:0:0:0:
256,192,112461,1,0,0:0:0:0:
256,192,112546,1,8,0:0:0:0:
256,192,112715,1,0,0:0:0:0:
256,192,112800,1,8,0:0:0:0:
256,192,112885,1,0,0:0:0:0:
256,192,112970,1,8,0:0:0:0:
256,192,113054,1,0,0:0:0:0:
256,192,113224,1,0,0:0:0:0:
256,192,113309,1,8,0:0:0:0:
256,192,113393,1,0,0:0:0:0:
256,192,113478,1,0,0:0:0:0:
256,192,113563,1,8,0:0:0:0:
256,192,113732,1,0,0:0:0:0:
256,192,113902,1,8,0:0:0:0:
256,192,114071,1,4,0:0:0:0:
256,192,114410,1,12,0:0:0:0:
256,192,114580,1,8,0:0:0:0:
256,192,114665,1,8,0:0:0:0:
256,192,114749,1,0,0:0:0:0:
256,192,114834,1,0,0:0:0:0:
256,192,114919,1,8,0:0:0:0:
256,192,115088,1,8,0:0:0:0:
256,192,115258,1,8,0:0:0:0:
256,192,115342,1,0,0:0:0:0:
256,192,115427,1,8,0:0:0:0:
256,192,115597,1,0,0:0:0:0:
256,192,115766,1,8,0:0:0:0:
256,192,115936,1,8,0:0:0:0:
256,192,116020,1,8,0:0:0:0:
256,192,116105,1,8,0:0:0:0:
256,192,116190,1,8,0:0:0:0:
256,192,116275,1,8,0:0:0:0:
256,192,116444,1,0,0:0:0:0:
256,192,116529,1,0,0:0:0:0:
256,192,116614,1,8,0:0:0:0:
256,192,116783,1,4,0:0:0:0:
256,192,116953,1,4,0:0:0:0:
256,192,117122,1,8,0:0:0:0:
256,192,117292,1,0,0:0:0:0:
256,192,117461,1,8,0:0:0:0:
256,192,117546,1,8,0:0:0:0:
256,192,117631,1,8,0:0:0:0:
256,192,117800,1,0,0:0:0:0:
256,192,117885,1,8,0:0:0:0:
256,192,117970,1,0,0:0:0:0:
256,192,118139,1,4,0:0:0:0:
256,192,118817,1,12,0:0:0:0:
256,192,119495,1,4,0:0:0:0:
256,192,119834,1,12,0:0:0:0:
256,192,120004,1,0,0:0:0:0:
256,192,120089,1,0,0:0:0:0:
256,192,120173,1,0,0:0:0:0:
256,192,120342,1,8,0:0:0:0:
256,192,120512,1,0,0:0:0:0:
256,192,120597,1,8,0:0:0:0:
256,192,120681,1,8,0:0:0:0:
256,192,120766,1,0,0:0:0:0:
256,192,120851,1,8,0:0:0:0:
256,192,121020,1,0,0:0:0:0:
256,192,121190,1,8,0:0:0:0:
256,192,121359,1,0,0:0:0:0:
256,192,121529,1,8,0:0:0:0:
256,192,121614,1,8,0:0:0:0:
256,192,121698,1,8,0:0:0:0:
256,192,121868,1,0,0:0:0:0:
256,192,122037,1,8,0:0:0:0:
256,192,122122,1,0,0:0:0:0:
256,192,122207,1,0,0:0:0:0:
256,192,122376,1,0,0:0:0:0:
256,192,122546,1,8,0:0:0:0:
256,192,122715,1,0,0:0:0:0:
256,192,122885,1,0,0:0:0:0:
256,192,122970,1,0,0:0:0:0:
256,192,123054,1,8,0:0:0:0:
256,192,123224,1,8,0:0:0:0:
256,192,123393,1,8,0:0:0:0:
256,192,123478,1,0,0:0:0:0:
256,192,123563,1,8,0:0:0:0:
256,192,123732,1,0,0:0:0:0:
256,192,123902,1,8,0:0:0:0:
256,192,124071,1,0,0:0:0:0:
256,192,124156,1,8,0:0:0:0:
256,192,124241,1,0,0:0:0:0:
256,192,124410,1,0,0:0:0:0:
256,192,124580,1,8,0:0:0:0:
256,192,124749,1,8,0:0:0:0:
256,192,124919,1,4,0:0:0:0:
256,192,125258,1,12,0:0:0:0:
256,192,125427,1,0,0:0:0:0:
256,192,125512,1,8,0:0:0:0:
256,192,125597,1,0,0:0:0:0:
256,192,125681,1,0,0:0:0:0:
256,192,125766,1,8,0:0:0:0:
256,192,125936,1,0,0:0:0:0:
256,192,126020,1,0,0:0:0:0:
256,192,126105,1,8,0:0:0:0:
256,192,126275,1,8,0:0:0:0:
256,192,126359,1,0,0:0:0:0:
256,192,126444,1,8,0:0:0:0:
256,192,126614,1,8,0:0:0:0:
256,192,126783,1,8,0:0:0:0:
256,192,126868,1,8,0:0:0:0:
256,192,126953,1,8,0:0:0:0:
256,192,127037,1,0,0:0:0:0:
256,192,127122,1,0,0:0:0:0:
256,192,127207,1,0,0:0:0:0:
256,192,127292,1,8,0:0:0:0:
256,192,127461,1,12,0:0:0:0:
256,192,127631,1,0,0:0:0:0:
256,192,127715,1,8,0:0:0:0:
256,192,127800,1,8,0:0:0:0:
256,192,127885,1,0,0:0:0:0:
256,192,127970,1,8,0:0:0:0:
256,192,128139,1,0,0:0:0:0:
256,192,128309,1,8,0:0:0:0:
256,192,128393,1,8,0:0:0:0:
256,192,128478,1,8,0:0:0:0:
256,192,128563,1,0,0:0:0:0:
256,192,128648,1,8,0:0:0:0:
256,192,128817,1,8,0:0:0:0:
256,192,128987,1,4,0:0:0:0:
256,192,129156,1,0,0:0:0:0:
256,192,129241,1,0,0:0:0:0:
256,192,129326,1,8,0:0:0:0:
256,192,129495,1,12,0:0:0:0:
256,192,129665,1,0,0:0:0:0:
256,192,129749,1,8,0:0:0:0:
256,192,129834,1,0,0:0:0:0:
256,192,129919,1,0,0:0:0:0:
256,192,130004,1,8,0:0:0:0:
256,192,130173,1,8,0:0:0:0:
256,192,130342,1,4,0:0:0:0:
256,192,130681,1,12,0:0:0:0:
256,192,130851,1,0,0:0:0:0:
256,192,130936,1,0,0:0:0:0:
256,192,131020,1,8,0:0:0:0:
256,192,131190,1,8,0:0:0:0:
256,192,131359,1,8,0:0:0:0:
256,192,131444,1,0,0:0:0:0:
256,192,131529,1,8,0:0:0:0:
256,192,131698,1,0,0:0:0:0:
256,192,131868,1,0,0:0:0:0:
256,192,131953,1,0,0:0:0:0:
256,192,132037,1,8,0:0:0:0:
256,192,132207,1,0,0:0:0:0:
256,192,132292,1,8,0:0:0:0:
256,192,132376,1,0,0:0:0:0:
256,192,132461,1,0,0:0:0:0:
256,192,132546,1,8,0:0:0:0:
256,192,132715,1,0,0:0:0:0:
256,192,132885,1,8,0:0:0:0:
256,192,133054,1,8,0:0:0:0:
256,192,133139,1,0,0:0:0:0:
256,192,133224,1,8,0:0:0:0:
256,192,133393,1,4,0:0:0:0:
256,192,133563,1,0,0:0:0:0:
256,192,133648,1,0,0:0:0:0:
256,192,133732,1,8,0:0:0:0:
256,192,133902,1,8,0:0:0:0:
256,192,134071,1,0,0:0:0:0:
256,192,134241,1,8,0:0:0:0:
256,192,134326,1,0,0:0:0:0:
256,192,134410,1,0,0:0:0:0:
256,192,134580,1,0,0:0:0:0:
256,192,134749,1,8,0:0:0:0:
256,192,134919,1,0,0:0:0:0:
256,192,135004,1,8,0:0:0:0:
256,192,135088,1,0,0:0:0:0:
256,192,135173,1,8,0:0:0:0:
256,192,135258,1,8,0:0:0:0:
256,192,135427,1,0,0:0:0:0:
256,192,135597,1,8,0:0:0:0:
256,192,135766,1,4,0:0:0:0:
256,192,136105,1,12,0:0:0:0:
256,192,136275,1,0,0:0:0:0:
256,192,136359,1,0,0:0:0:0:
256,192,136444,1,8,0:0:0:0:
256,192,136614,1,0,0:0:0:0:
256,192,136698,1,8,0:0:0:0:
256,192,136783,1,0,0:0:0:0:
256,192,136868,1,0,0:0:0:0:
256,192,136953,1,8,0:0:0:0:
256,192,137122,1,8,0:0:0:0:
256,192,137292,1,0,0:0:0:0:
256,192,137376,1,8,0:0:0:0:
256,192,137461,1,0,0:0:0:0:
256,192,137631,1,0,0:0:0:0:
256,192,137715,1,0,0:0:0:0:
256,192,137800,1,8,0:0:0:0:
256,192,137970,1,0,0:0:0:0:
256,192,138139,1,8,0:0:0:0:
256,192,138309,1,12,0:0:0:0:
256,192,138478,1,4,0:0:0:0:
256,192,138648,1,0,0:0:0:0:
256,192,138817,1,0,0:0:0:0:
256,192,138987,1,8,0:0:0:0:
256,192,139071,1,0,0:0:0:0:
256,192,139156,1,0,0:0:0:0:
256,192,139326,1,8,0:0:0:0:
256,192,139495,1,8,0:0:0:0:
256,192,139580,1,8,0:0:0:0:
256,192,139665,1,8,0:0:0:0:
256,192,139834,1,4,0:0:0:0:
256,192,140512,1,4,0:0:0:0:
256,192,141190,1,0,0:0:0:0:
256,192,141359,1,0,0:0:0:0:
256,192,141529,1,8,0:0:0:0:
256,192,141698,1,0,0:0:0:0:
256,192,141868,1,0,0:0:0:0:
256,192,142376,1,0,0:0:0:0:
256,192,142715,1,0,0:0:0:0:
256,192,142885,1,8,0:0:0:0:
256,192,143054,1,0,0:0:0:0:
256,192,143224,1,0,0:0:0:0:
256,192,143563,1,0,0:0:0:0:
256,192,143902,1,0,0:0:0:0:
256,192,144071,1,0,0:0:0:0:
256,192,144241,1,8,0:0:0:0:
256,192,144410,1,0,0:0:0:0:
256,192,144580,1,0,0:0:0:0:
256,192,145088,1,0,0:0:0:0:
256,192,145427,1,0,0:0:0:0:
256,192,145597,1,8,0:0:0:0:
256,192,145766,1,0,0:0:0:0:
256,192,145936,1,0,0:0:0:0:
256,192,146275,1,0,0:0:0:0:
256,192,146614,1,0,0:0:0:0:
256,192,146783,1,0,0:0:0:0:
256,192,146953,1,8,0:0:0:0:
256,192,147122,1,8,0:0:0:0:
256,192,147292,1,0,0:0:0:0:
256,192,147800,1,0,0:0:0:0:
256,192,148139,1,0,0:0:0:0:
256,192,148309,1,8,0:0:0:0:
256,192,148478,1,8,0:0:0:0:
256,192,148648,1,0,0:0:0:0:
256,192,148987,1,8,0:0:0:0:
256,192,149326,1,0,0:0:0:0:
256,192,149834,1,8,0:0:0:0:
256,192,150342,1,0,0:0:0:0:
256,192,150681,1,8,0:0:0:0:
256,192,150851,1,0,0:0:0:0:
256,192,151190,1,0,0:0:0:0:
256,192,151698,1,8,0:0:0:0:
256,192,152037,1,0,0:0:0:0:
256,192,152207,1,0,0:0:0:0:
256,192,152376,1,8,0:0:0:0:
256,192,152546,1,0,0:0:0:0:
256,192,152715,1,0,0:0:0:0:
256,192,153224,1,0,0:0:0:0:
256,192,153563,1,0,0:0:0:0:
256,192,153732,1,8,0:0:0:0:
256,192,153902,1,8,0:0:0:0:
256,192,154071,1,0,0:0:0:0:
256,192,154749,1,0,0:0:0:0:
256,192,154919,1,0,0:0:0:0:
256,192,155088,1,8,0:0:0:0:
256,192,155258,1,0,0:0:0:0:
256,192,155427,1,0,0:0:0:0:
256,192,155936,1,0,0:0:0:0:
256,192,156275,1,8,0:0:0:0:
256,192,156444,1,8,0:0:0:0:
256,192,156614,1,0,0:0:0:0:
256,192,156783,1,8,0:0:0:0:
256,192,157122,1,8,0:0:0:0:
256,192,157461,1,0,0:0:0:0:
256,192,157631,1,0,0:0:0:0:
256,192,157800,1,8,0:0:0:0:
256,192,157970,1,0,0:0:0:0:
256,192,158139,1,0,0:0:0:0:
256,192,158478,1,8,0:0:0:0:
256,192,158648,1,0,0:0:0:0:
256,192,158987,1,0,0:0:0:0:
256,192,159156,1,8,0:0:0:0:
256,192,159326,1,8,0:0:0:0:
256,192,159495,1,0,0:0:0:0:
256,192,159834,1,8,0:0:0:0:
256,192,160173,1,4,0:0:0:0:
256,192,160681,1,12,0:0:0:0:
256,192,161190,1,12,0:0:0:0:
256,192,161529,1,4,0:0:0:0:
256,192,161698,1,4,0:0:0:0:
256,192,162037,1,12,0:0:0:0:
256,192,162546,1,12,0:0:0:0:
256,192,162885,1,4,0:0:0:0:
256,192,163054,1,0,0:0:0:0:
256,192,163224,1,8,0:0:0:0:
256,192,163393,1,8,0:0:0:0:
256,192,163478,1,0,0:0:0:0:
256,192,163563,1,8,0:0:0:0:
256,192,163648,1,0,0:0:0:0:
256,192,163732,1,8,0:0:0:0:
256,192,163817,1,8,0:0:0:0:
256,192,163902,1,0,0:0:0:0:
256,192,163987,1,0,0:0:0:0:
256,192,164071,1,8,0:0:0:0:
256,192,164241,1,0,0:0:0:0:
256,192,164410,1,0,0:0:0:0:
256,192,164580,1,8,0:0:0:0:
256,192,164749,1,0,0:0:0:0:
256,192,164919,1,8,0:0:0:0:
256,192,165004,1,8,0:0:0:0:
256,192,165088,1,8,0:0:0:0:
256,192,165173,1,0,0:0:0:0:
256,192,165258,1,0,0:0:0:0:
256,192,165342,1,0,0:0:0:0:
256,192,165427,1,8,0:0:0:0:
256,192,165597,1,0,0:0:0:0:
256,192,165766,1,0,0:0:0:0:
256,192,165936,1,8,0:0:0:0:
256,192,166105,1,8,0:0:0:0:
256,192,166190,1,0,0:0:0:0:
256,192,166275,1,8,0:0:0:0:
256,192,166444,1,8,0:0:0:0:
256,192,166614,1,0,0:0:0:0:
256,192,166783,1,8,0:0:0:0:
256,192,166953,1,0,0:0:0:0:
256,192,167122,1,0,0:0:0:0:
256,192,167292,1,8,0:0:0:0:
256,192,167461,1,8,0:0:0:0:
256,192,167546,1,0,0:0:0:0:
256,192,167631,1,8,0:0:0:0:
256,192,167800,1,8,0:0:0:0:
256,192,167885,1,8,0:0:0:0:
256,192,167970,1,8,0:0:0:0:
256,192,168054,1,0,0:0:0:0:
256,192,168139,1,8,0:0:0:0:
256,192,168224,1,0,0:0:0:0:
256,192,168309,1,0,0:0:0:0:
256,192,168478,1,0,0:0:0:0:
256,192,168563,1,0,0:0:0:0:
256,192,168648,1,8,0:0:0:0:
256,192,168817,1,8,0:0:0:0:
256,192,168987,1,8,0:0:0:0:
256,192,169071,1,0,0:0:0:0:
256,192,169156,1,8,0:0:0:0:
256,192,169241,1,0,0:0:0:0:
256,192,169326,1,8,0:0:0:0:
256,192,169495,1,8,0:0:0:0:
256,192,169665,1,0,0:0:0:0:
256,192,169834,1,0,0:0:0:0:
256,192,169919,1,0,0:0:0:0:
256,192,170004,1,8,0:0:0:0:
256,192,170173,1,8,0:0:0:0:
256,192,170258,1,8,0:0:0:0:
256,192,170342,1,0,0:0:0:0:
256,192,170512,1,8,0:0:0:0:
256,192,170681,1,0,0:0:0:0:
256,192,170766,1,0,0:0:0:0:
256,192,170851,1,8,0:0:0:0:
256,192,170936,1,0,0:0:0:0:
256,192,171020,1,0,0:0:0:0:
256,192,171190,1,0,0:0:0:0:
256,192,171359,1,8,0:0:0:0:
256,192,171529,1,8,0:0:0:0:
256,192,171614,1,0,0:0:0:0:
256,192,171698,1,8,0:0:0:0:
256,192,171868,1,0,0:0:0:0:
256,192,172037,1,8,0:0:0:0:
256,192,172207,1,0,0:0:0:0:
256,192,172376,1,8,0:0:0:0:
256,192,172546,1,8,0:0:0:0:
256,192,172715,1,0,0:0:0:0:
256,192,172885,1,8,0:0:0:0:
256,192,172970,1,8,0:0:0:0:
256,192,173054,1,8,0:0:0:0:
256,192,173224,1,8,0:0:0:0:
256,192,173309,1,0,0:0:0:0:
256,192,173393,1,8,0:0:0:0:
256,192,173563,1,8,0:0:0:0:
256,192,173732,1,4,0:0:0:0:
256,192,173902,1,0,0:0:0:0:
256,192,173987,1,0,0:0:0:0:
256,192,174071,1,8,0:0:0:0:
256,192,174156,1,8,0:0:0:0:
256,192,174241,1,8,0:0:0:0:
256,192,174326,1,8,0:0:0:0:
256,192,174410,1,0,0:0:0:0:
256,192,174495,1,8,0:0:0:0:
256,192,174580,1,8,0:0:0:0:
256,192,174665,1,0,0:0:0:0:
256,192,174749,1,8,0:0:0:0:
256,192,174919,1,8,0:0:0:0:
256,192,175004,1,8,0:0:0:0:
256,192,175088,1,0,0:0:0:0:
256,192,175258,1,0,0:0:0:0:
256,192,175427,1,8,0:0:0:0:
256,192,175597,1,0,0:0:0:0:
256,192,175681,1,8,0:0:0:0:
256,192,175766,1,0,0:0:0:0:
256,192,175851,1,8,0:0:0:0:
256,192,175936,1,0,0:0:0:0:
256,192,176105,1,0,0:0:0:0:
256,192,176275,1,8,0:0:0:0:
256,192,176444,1,0,0:0:0:0:
256,192,176614,1,0,0:0:0:0:
256,192,176783,1,8,0:0:0:0:
256,192,176953,1,0,0:0:0:0:
256,192,177037,1,0,0:0:0:0:
256,192,177122,1,8,0:0:0:0:
256,192,177207,1,0,0:0:0:0:
256,192,177292,1,8,0:0:0:0:
256,192,177376,1,8,0:0:0:0:
256,192,177461,1,0,0:0:0:0:
256,192,177546,1,8,0:0:0:0:
256,192,177631,1,0,0:0:0:0:
256,192,177800,1,0,0:0:0:0:
256,192,177970,1,8,0:0:0:0:
256,192,178139,1,8,0:0:0:0:
256,192,178309,1,8,0:0:0:0:
256,192,178393,1,0,0:0:0:0:
256,192,178478,1,8,0:0:0:0:
256,192,178563,1,0,0:0:0:0:
256,192,178648,1,8,0:0:0:0:
256,192,178817,1,0,0:0:0:0:
256,192,178987,1,8,0:0:0:0:
256,192,179156,1,0,0:0:0:0:
256,192,179326,1,8,0:0:0:0:
256,192,179410,1,0,0:0:0:0:
256,192,179495,1,8,0:0:0:0:
256,192,179580,1,0,0:0:0:0:
256,192,179665,1,0,0:0:0:0:
256,192,179834,1,0,0:0:0:0:
256,192,180004,1,8,0:0:0:0:
256,192,180088,1,8,0:0:0:0:
256,192,180173,1,0,0:0:0:0:
256,192,180342,1,8,0:0:0:0:
256,192,180512,1,0,0:0:0:0:
256,192,180597,1,0,0:0:0:0:
256,192,180681,1,8,0:0:0:0:
256,192,180766,1,8,0:0:0:0:
256,192,180851,1,0,0:0:0:0:
256,192,181020,1,8,0:0:0:0:
256,192,181105,1,8,0:0:0:0:
256,192,181190,1,8,0:0:0:0:
256,192,181275,1,8,0:0:0:0:
256,192,181359,1,0,0:0:0:0:
256,192,181529,1,0,0:0:0:0:
256,192,181698,1,8,0:0:0:0:
256,192,181868,1,0,0:0:0:0:
256,192,182037,1,0,0:0:0:0:
256,192,182207,1,8,0:0:0:0:
256,192,182376,1,8,0:0:0:0:
256,192,182461,1,8,0:0:0:0:
256,192,182546,1,0,0:0:0:0:
256,192,182715,1,0,0:0:0:0:
256,192,182885,1,8,0:0:0:0:
256,192,183054,1,0,0:0:0:0:
256,192,183139,1,0,0:0:0:0:
256,192,183224,1,8,0:0:0:0:
256,192,183393,1,8,0:0:0:0:
256,192,183563,1,8,0:0:0:0:
256,192,183648,1,0,0:0:0:0:
256,192,183732,1,8,0:0:0:0:
256,192,183818,1,0,0:0:0:0:
256,192,183902,1,8,0:0:0:0:
256,192,184071,1,8,0:0:0:0:
256,192,184241,1,8,0:0:0:0:
256,192,184326,1,8,0:0:0:0:
256,192,184411,1,8,0:0:0:0:
256,192,184580,1,4,0:0:0:0:
256,192,184749,1,0,0:0:0:0:
256,192,184834,1,0,0:0:0:0:
256,192,184919,1,8,0:0:0:0:
256,192,185004,1,0,0:0:0:0:
256,192,185088,1,8,0:0:0:0:
256,192,185173,1,8,0:0:0:0:
256,192,185258,1,8,0:0:0:0:
256,192,185342,1,0,0:0:0:0:
256,192,185427,1,8,0:0:0:0:
256,192,185512,1,8,0:0:0:0:
256,192,185597,1,0,0:0:0:0:
256,192,185766,1,8,0:0:0:0:
256,192,185851,1,8,0:0:0:0:
256,192,185936,1,0,0:0:0:0:
256,192,186105,1,0,0:0:0:0:
256,192,186275,1,8,0:0:0:0:
256,192,186359,1,8,0:0:0:0:
256,192,186444,1,8,0:0:0:0:
256,192,186529,1,0,0:0:0:0:
256,192,186614,1,8,0:0:0:0:
256,192,186783,1,0,0:0:0:0:
256,192,186953,1,8,0:0:0:0:
256,192,187122,1,8,0:0:0:0:
256,192,187292,1,0,0:0:0:0:
256,192,187461,1,8,0:0:0:0:
256,192,187546,1,8,0:0:0:0:
256,192,187631,1,0,0:0:0:0:
256,192,187800,1,8,0:0:0:0:
256,192,187885,1,0,0:0:0:0:
256,192,187970,1,8,0:0:0:0:
256,192,188054,1,0,0:0:0:0:
256,192,188139,1,8,0:0:0:0:
256,192,188309,1,0,0:0:0:0:
256,192,188478,1,8,0:0:0:0:
256,192,188648,1,0,0:0:0:0:
256,192,188817,1,8,0:0:0:0:
256,192,188987,1,8,0:0:0:0:
256,192,189156,1,0,0:0:0:0:
256,192,189241,1,8,0:0:0:0:
256,192,189326,1,0,0:0:0:0:
256,192,189495,1,0,0:0:0:0:
256,192,189665,1,8,0:0:0:0:
256,192,189749,1,8,0:0:0:0:
256,192,189834,1,8,0:0:0:0:
256,192,190004,1,0,0:0:0:0:
256,192,190173,1,8,0:0:0:0:
256,192,190342,1,8,0:0:0:0:
256,192,190427,1,8,0:0:0:0:
256,192,190512,1,0,0:0:0:0:
256,192,190597,1,0,0:0:0:0:
256,192,190681,1,8,0:0:0:0:
256,192,190851,1,0,0:0:0:0:
256,192,191020,1,8,0:0:0:0:
256,192,191190,1,8,0:0:0:0:
256,192,191275,1,8,0:0:0:0:
256,192,191359,1,0,0:0:0:0:
256,192,191444,1,0,0:0:0:0:
256,192,191529,1,8,0:0:0:0:
256,192,191614,1,0,0:0:0:0:
256,192,191698,1,8,0:0:0:0:
256,192,191868,1,0,0:0:0:0:
256,192,192037,1,8,0:0:0:0:
256,192,192122,1,8,0:0:0:0:
256,192,192207,1,0,0:0:0:0:
256,192,192376,1,0,0:0:0:0:
256,192,192546,1,8,0:0:0:0:
256,192,192631,1,0,0:0:0:0:
256,192,192715,1,8,0:0:0:0:
256,192,192885,1,0,0:0:0:0:
256,192,193054,1,8,0:0:0:0:
256,192,193224,1,0,0:0:0:0:
256,192,193393,1,8,0:0:0:0:
256,192,193563,1,8,0:0:0:0:
256,192,193648,1,0,0:0:0:0:
256,192,193732,1,8,0:0:0:0:
256,192,193902,1,0,0:0:0:0:
256,192,194071,1,8,0:0:0:0:
256,192,194241,1,8,0:0:0:0:
256,192,194326,1,8,0:0:0:0:
256,192,194410,1,8,0:0:0:0:
256,192,194580,1,0,0:0:0:0:
256,192,194750,1,8,0:0:0:0:
256,192,194919,1,8,0:0:0:0:
256,192,195004,1,0,0:0:0:0:
256,192,195088,1,8,0:0:0:0:
256,192,195172,1,8,0:0:0:0:
256,192,195258,1,8,0:0:0:0:
256,192,195427,1,4,0:0:0:0:
256,192,195597,1,0,0:0:0:0:
256,192,195766,1,8,0:0:0:0:
256,192,195936,1,0,0:0:0:0:
256,192,196020,1,8,0:0:0:0:
256,192,196105,1,8,0:0:0:0:
256,192,196190,1,0,0:0:0:0:
256,192,196275,1,8,0:0:0:0:
256,192,196359,1,0,0:0:0:0:
256,192,196444,1,8,0:0:0:0:
256,192,196529,1,8,0:0:0:0:
256,192,196614,1,0,0:0:0:0:
256,192,196698,1,8,0:0:0:0:
256,192,196783,1,0,0:0:0:0:
256,192,196953,1,0,0:0:0:0:
256,192,197122,1,8,0:0:0:0:
256,192,197292,1,8,0:0:0:0:
256,192,197376,1,8,0:0:0:0:
256,192,197461,1,8,0:0:0:0:
256,192,197631,1,8,0:0:0:0:
256,192,197715,1,0,0:0:0:0:
256,192,197800,1,8,0:0:0:0:
256,192,197885,1,8,0:0:0:0:
256,192,197970,1,8,0:0:0:0:
256,192,198139,1,0,0:0:0:0:
256,192,198309,1,8,0:0:0:0:
256,192,198478,1,8,0:0:0:0:
256,192,198648,1,0,0:0:0:0:
256,192,198732,1,8,0:0:0:0:
256,192,198817,1,0,0:0:0:0:
256,192,198987,1,0,0:0:0:0:
256,192,199156,1,8,0:0:0:0:
256,192,199326,1,0,0:0:0:0:
256,192,199495,1,0,0:0:0:0:
256,192,199665,1,8,0:0:0:0:
256,192,199834,1,8,0:0:0:0:
256,192,200004,1,8,0:0:0:0:
256,192,200088,1,0,0:0:0:0:
256,192,200173,1,8,0:0:0:0:
256,192,200258,1,0,0:0:0:0:
256,192,200342,1,8,0:0:0:0:
256,192,200512,1,0,0:0:0:0:
256,192,200681,1,8,0:0:0:0:
256,192,200851,1,0,0:0:0:0:
256,192,201020,1,8,0:0:0:0:
256,192,201190,1,8,0:0:0:0:
256,192,201359,1,0,0:0:0:0:
256,192,201444,1,8,0:0:0:0:
256,192,201529,1,0,0:0:0:0:
256,192,201698,1,0,0:0:0:0:
256,192,201868,1,8,0:0:0:0:
256,192,201953,1,8,0:0:0:0:
256,192,202037,1,0,0:0:0:0:
256,192,202207,1,0,0:0:0:0:
256,192,202376,1,8,0:0:0:0:
256,192,202461,1,8,0:0:0:0:
256,192,202546,1,8,0:0:0:0:
256,192,202631,1,8,0:0:0:0:
256,192,202715,1,0,0:0:0:0:
256,192,202885,1,0,0:0:0:0:
256,192,203054,1,8,0:0:0:0:
256,192,203224,1,8,0:0:0:0:
256,192,203393,1,8,0:0:0:0:
256,192,203563,1,0,0:0:0:0:
256,192,203732,1,8,0:0:0:0:
256,192,203817,1,0,0:0:0:0:
256,192,203902,1,0,0:0:0:0:
256,192,204071,1,0,0:0:0:0:
256,192,204156,1,0,0:0:0:0:
256,192,204241,1,8,0:0:0:0:
256,192,204410,1,0,0:0:0:0:
256,192,204580,1,8,0:0:0:0:
256,192,204665,1,8,0:0:0:0:
256,192,204749,1,8,0:0:0:0:
256,192,204834,1,0,0:0:0:0:
256,192,204919,1,0,0:0:0:0:
256,192,205088,1,0,0:0:0:0:
256,192,205258,1,8,0:0:0:0:
256,192,205427,1,8,0:0:0:0:
256,192,205512,1,8,0:0:0:0:
256,192,205597,1,0,0:0:0:0:
256,192,205681,1,8,0:0:0:0:
256,192,205766,1,8,0:0:0:0:
256,192,205851,1,0,0:0:0:0:
256,192,205936,1,8,0:0:0:0:
256,192,206020,1,0,0:0:0:0:
256,192,206105,1,8,0:0:0:0:
256,192,206275,1,4,0:0:0:0:
256,192,206614,1,8,0:0:0:0:
256,192,206783,1,0,0:0:0:0:
256,192,207122,1,8,0:0:0:0:
256,192,207292,1,0,0:0:0:0:
256,192,207631,1,8,0:0:0:0:
256,192,207800,1,0,0:0:0:0:
256,192,208139,1,8,0:0:0:0:
256,192,208309,1,0,0:0:0:0:
256,192,208648,1,8,0:0:0:0:
256,192,208817,1,0,0:0:0:0:
256,192,209156,1,8,0:0:0:0:
256,192,209326,1,0,0:0:0:0:
256,192,209665,1,8,0:0:0:0:
256,192,209834,1,0,0:0:0:0:
256,192,210173,1,8,0:0:0:0:
256,192,210342,1,0,0:0:0:0:
256,192,210681,1,0,0:0:0:0:
256,192,211020,1,0,0:0:0:0:
256,192,211359,1,0,0:0:0:0:
256,192,211698,1,0,0:0:0:0:
256,192,212037,1,0,0:0:0:0:
256,192,212376,1,0,0:0:0:0:
256,192,212715,1,0,0:0:0:0:
256,192,213054,1,0,0:0:0:0:
256,192,213393,1,0,0:0:0:0:
256,192,213732,1,0,0:0:0:0:
256,192,214071,1,0,0:0:0:0:
256,192,214410,1,0,0:0:0:0:
256,192,214580,1,0,0:0:0:0:
256,192,214749,1,0,0:0:0:0:
256,192,214919,1,0,0:0:0:0:
256,192,215088,1,0,0:0:0:0:
256,192,215258,1,0,0:0:0:0:
256,192,215427,1,0,0:0:0:0:
256,192,215597,1,0,0:0:0:0:
256,192,215766,1,0,0:0:0:0:
256,192,215936,1,0,0:0:0:0:
256,192,216105,1,0,0:0:0:0:
256,192,216275,1,0,0:0:0:0:
256,192,216444,1,4,0:0:0:0:
256,192,216783,1,12,0:0:0:0:
256,192,217122,1,4,0:0:0:0:
256,192,217461,1,12,0:0:0:0:
256,192,217631,1,4,0:0:0:0:
256,192,217800,1,4,0:0:0:0:
256,192,218139,1,12,0:0:0:0:
256,192,218478,1,4,0:0:0:0:
256,192,218648,1,0,0:0:0:0:
256,192,218987,1,0,0:0:0:0:
256,192,219326,1,0,0:0:0:0:
256,192,219410,1,0,0:0:0:0:
256,192,219495,1,8,0:0:0:0:
256,192,219834,1,0,0:0:0:0:
256,192,220004,1,8,0:0:0:0:
256,192,220173,1,8,0:0:0:0:
256,192,220342,1,0,0:0:0:0:
256,192,220512,1,0,0:0:0:0:
256,192,220597,1,0,0:0:0:0:
256,192,220681,1,0,0:0:0:0:
256,192,221020,1,0,0:0:0:0:
256,192,221359,1,0,0:0:0:0:
256,192,221529,1,8,0:0:0:0:
256,192,221868,1,8,0:0:0:0:
256,192,221953,1,0,0:0:0:0:
256,192,222037,1,0,0:0:0:0:
256,192,222207,1,0,0:0:0:0:
256,192,222376,1,8,0:0:0:0:
256,192,222546,1,0,0:0:0:0:
256,192,222631,1,0,0:0:0:0:
256,192,222715,1,8,0:0:0:0:
256,192,222885,1,8,0:0:0:0:
256,192,223054,1,0,0:0:0:0:
256,192,223224,1,0,0:0:0:0:
256,192,223393,1,0,0:0:0:0:
256,192,223478,1,0,0:0:0:0:
256,192,223563,1,8,0:0:0:0:
256,192,223902,1,0,0:0:0:0:
256,192,224071,1,8,0:0:0:0:
256,192,224241,1,8,0:0:0:0:
256,192,224410,1,0,0:0:0:0:
256,192,224580,1,0,0:0:0:0:
256,192,224665,1,0,0:0:0:0:
256,192,224749,1,0,0:0:0:0:
256,192,225088,1,0,0:0:0:0:
256,192,225427,1,0,0:0:0:0:
256,192,225597,1,12,0:0:0:0:
256,192,225936,1,4,0:0:0:0:
256,192,226275,1,12,0:0:0:0:
256,192,226614,1,0,0:0:0:0:
256,192,226783,1,4,0:0:0:0:
256,192,227122,1,0,0:0:0:0:
256,192,227461,1,0,0:0:0:0:
256,192,227546,1,0,0:0:0:0:
256,192,227631,1,8,0:0:0:0:
256,192,227970,1,8,0:0:0:0:
256,192,228054,1,8,0:0:0:0:
256,192,228139,1,8,0:0:0:0:
256,192,228309,1,0,0:0:0:0:
256,192,228478,1,8,0:0:0:0:
256,192,228648,1,0,0:0:0:0:
256,192,228732,1,0,0:0:0:0:
256,192,228817,1,0,0:0:0:0:
256,192,229156,1,0,0:0:0:0:
256,192,229495,1,0,0:0:0:0:
256,192,229580,1,0,0:0:0:0:
256,192,229665,1,8,0:0:0:0:
256,192,230004,1,8,0:0:0:0:
256,192,230088,1,8,0:0:0:0:
256,192,230173,1,0,0:0:0:0:
256,192,230342,1,0,0:0:0:0:
256,192,230512,1,8,0:0:0:0:
256,192,230681,1,8,0:0:0:0:
256,192,230766,1,8,0:0:0:0:
256,192,230851,1,0,0:0:0:0:
256,192,231190,1,0,0:0:0:0:
256,192,231529,1,0,0:0:0:0:
256,192,231614,1,0,0:0:0:0:
256,192,231698,1,8,0:0:0:0:
256,192,232037,1,0,0:0:0:0:
256,192,232207,1,8,0:0:0:0:
256,192,232376,1,8,0:0:0:0:
256,192,232546,1,0,0:0:0:0:
256,192,232715,1,0,0:0:0:0:
256,192,232800,1,0,0:0:0:0:
256,192,232885,1,0,0:0:0:0:
256,192,233224,1,0,0:0:0:0:
256,192,233563,1,0,0:0:0:0:
256,192,233648,1,0,0:0:0:0:
256,192,233732,1,8,0:0:0:0:
256,192,233902,1,0,0:0:0:0:
256,192,234071,1,8,0:0:0:0:
256,192,234241,1,8,0:0:0:0:
256,192,234410,1,8,0:0:0:0:
256,192,234580,1,0,0:0:0:0:
256,192,234749,1,0,0:0:0:0:
256,192,234834,1,8,0:0:0:0:
256,192,234919,1,0,0:0:0:0:
256,192,235088,1,0,0:0:0:0:
256,192,235258,1,0,0:0:0:0:
256,192,235342,1,0,0:0:0:0:
256,192,235427,1,8,0:0:0:0:
256,192,235597,1,0,0:0:0:0:
256,192,235766,1,8,0:0:0:0:
256,192,236105,1,8,0:0:0:0:
256,192,236275,1,8,0:0:0:0:
256,192,236359,1,0,0:0:0:0:
256,192,236444,1,8,0:0:0:0:
