osu file format v14

[General]
AudioFilename: audio.mp3
AudioLeadIn: 0
PreviewTime: -1
Countdown: 0
SampleSet: None
StackLeniency: 0.7
Mode: 3
LetterboxInBreaks: 0
SpecialStyle: 0
WidescreenStoryboard: 0
SamplesMatchPlaybackRate: 1

[Editor]
DistanceSpacing: 1.84
BeatDivisor: 8
GridSize: 4
TimelineZoom: 2.6

[Metadata]
Title:uNDeRWoRLD MoNaRCHy
TitleUnicode:uNDeRWoRLD MoNaRCHy
Artist:DM vs. POCKET
ArtistUnicode:DM vs. POCKET
Creator:Combistein
Version:4K MONARCHY
Source:
Tags:
BeatmapID:1308280
BeatmapSetID:620615

[Difficulty]
HPDrainRate:5
CircleSize:4
OverallDifficulty:2
ApproachRate:5
SliderMultiplier:1.4
SliderTickRate:1

[Events]
//Background and Video events
0,0,"asgore.png",0,0
//Break Periods
2,54610,64058
//Storyboard Layer 0 (Background)
//Storyboard Layer 1 (Fail)
//Storyboard Layer 2 (Pass)
//Storyboard Layer 3 (Foreground)
//Storyboard Sound Samples

[TimingPoints]
2022,338.983050847458,4,2,0,0,1,0
18293,361.44578313253,4,2,0,0,1,0
19015,379.746835443038,4,2,0,0,1,0
19394,425.531914893617,4,2,0,0,1,0
19819,476.190476190476,4,2,0,0,1,0
20771,550.45871559633,4,2,0,0,1,0
21871,638.297872340426,4,2,0,0,1,0
22509,697.674418604651,4,2,0,0,1,0
23206,810.810810810811,4,2,0,0,1,0
24016,909.090909090909,4,2,0,0,1,0
24925,1090.90909090909,4,2,0,0,1,0
26015,1290.32258064516,4,2,0,0,1,0
27305,375,4,2,0,0,1,0
30004,338.983050847458,4,2,0,0,1,0
75936,-86.9565217391304,4,2,0,0,0,0
86953,-90.9090909090909,4,2,0,0,0,0
107292,-117.647058823529,4,2,0,0,0,0
108987,-95.2380952380952,4,2,0,0,0,0
118139,-200,4,2,0,0,0,0
118478,-200,4,2,0,0,0,0
118563,-117.647058823529,4,2,0,0,0,0
119156,-90.9090909090909,4,2,0,0,0,0
119410,-125,4,2,0,0,0,0
119749,-105.263157894737,4,2,0,0,0,0
119792,-100,4,2,0,0,0,0
124156,-86.9565217391304,4,2,0,0,0,0
124919,-166.666666666667,4,2,0,0,0,0
125173,-105.263157894737,4,2,0,0,0,0
125258,-105.263157894737,4,2,0,0,0,0
129580,-86.9565217391306,4,2,0,0,0,0
130258,-153.846153846153,4,2,0,0,0,0
130597,-153.846153846153,4,2,0,0,0,0
130681,-90.9090909090909,4,2,0,0,0,1
132970,-153.846153846153,4,2,0,0,0,1
133309,-90.9090909090909,4,2,0,0,0,1
135681,-153.846153846153,4,2,0,0,0,1
135936,-100,4,2,0,0,0,1
136020,-100,4,2,0,0,0,1
138732,-100,4,2,0,0,0,1
139834,-100,4,2,0,0,0,0
141105,-100,4,2,0,0,0,0
159665,-105.263157894737,4,2,0,0,0,0
160088,-105.263157894737,4,2,0,0,0,0
160131,-133.333333333333,4,2,0,0,0,0
160342,-133.333333333333,4,2,0,0,0,0
161359,-133.333333333333,4,2,0,0,0,0
161614,-133.333333333333,4,2,0,0,0,0
161953,-133.333333333333,4,2,0,0,0,0
162207,-133.333333333333,4,2,0,0,0,0
162461,-133.333333333333,4,2,0,0,0,0
162588,-100,4,2,0,0,0,0
183224,-105.263157894737,4,2,0,0,0,0
184537,-100,4,2,0,0,0,0
206698,-98.0392156862745,4,2,0,0,0,0
206953,-98.0392156862745,4,2,0,0,0,0
207037,-98.0392156862745,4,2,0,0,0,0
207207,-102.040816326531,4,2,0,0,0,0
214241,-100,4,2,0,0,0,0
214665,-100,4,2,0,0,0,0
215004,-100,4,2,0,0,0,0
215342,-100,4,2,0,0,0,0
215681,-100,4,2,0,0,0,0
216359,-100,4,2,0,0,0,0
216444,338.983050847458,3,2,0,0,1,0
216613,-133.333333333334,3,2,0,0,0,0
218054,-133.333333333333,4,2,0,0,0,0
218223,-100,4,2,0,0,0,0
218478,338.983050847458,3,2,0,0,1,0
218478,-100,3,2,0,0,0,0
218732,-100,3,2,0,0,0,0
220427,-100,3,2,0,0,0,0
225639,-181.818181818181,3,2,0,0,0,0
225766,-100,3,2,0,0,0,0
225978,-181.818181818181,3,2,0,0,0,0
226105,-100,3,2,0,0,0,0
226316,-181.818181818181,3,2,0,0,0,0
226444,-100,3,2,0,0,0,0
226528,-100,3,2,0,0,0,0
226867,-100,3,2,0,0,0,0
230596,-100,3,2,0,0,0,0
230935,-100,3,2,0,0,0,0
234664,-100,3,2,0,0,0,0
235003,-100,3,2,0,0,0,0
244833,-100,3,2,0,0,0,0
291699,338.983050847458,4,2,0,0,1,0
291783,-100,4,2,0,0,0,0
291953,-100,4,2,0,0,0,0
301105,-153.846153846154,4,2,0,0,0,0
301529,-153.846153846154,4,2,0,0,0,0
301783,-117.647058823529,4,2,0,0,0,0
302207,-117.647058823529,4,2,0,0,0,0
302461,-166.666666666667,4,2,0,0,0,0
302800,-95.2380952380952,4,2,0,0,0,0
302885,-95.2380952380952,4,2,0,0,0,0
305173,-133.333333333333,4,2,0,0,0,0
305512,-95.2380952380952,4,2,0,0,0,0
307885,-142.857142857143,4,2,0,0,0,0
308139,-142.857142857143,4,2,0,0,0,0
308224,-95.2380952380952,4,2,0,0,0,0
312037,-133.333333333333,4,2,0,0,0,0
312376,-133.333333333333,4,2,0,0,0,0
312631,-80,4,2,0,0,0,0
313054,-80,4,2,0,0,0,0
313309,-153.846153846154,4,2,0,0,0,0
313648,-153.846153846154,4,2,0,0,0,0
313732,-86.9565217391304,4,2,0,0,0,1
318054,-80,4,2,0,0,0,1
318817,-133.333333333333,4,2,0,0,0,1
319071,-86.9565217391304,4,2,0,0,0,1
319156,-86.9565217391304,4,2,0,0,0,1
323478,-86.9565217391304,4,2,0,0,0,1
324241,-133.333333333333,4,2,0,0,0,0
324495,-133.333333333333,4,2,0,0,0,0
324580,-86.9565217391304,4,2,0,0,0,1
326868,-117.647058823529,4,2,0,0,0,1
327292,-86.9565217391304,4,2,0,0,0,1
329834,-86.9565217391304,4,2,0,0,0,1
330004,-90.0900900900902,4,2,0,0,0,1
332292,-94.3396226415095,4,2,0,0,0,1
332631,-86.9565217391304,4,2,0,0,0,1
333732,-133.333333333333,4,2,0,0,0,0
334071,-133.333333333333,4,2,0,0,0,0
334326,-86.9565217391304,4,2,0,0,0,0
334749,-86.9565217391304,4,2,0,0,0,0
335004,-142.857142857143,4,2,0,0,0,0
335343,-142.857142857143,4,2,0,0,0,0
335427,-86.9565217391304,4,2,0,0,0,1
339749,-86.9565217391304,4,2,0,0,0,1
340512,-133.333333333333,4,2,0,0,0,1
340766,-133.333333333333,4,2,0,0,0,1
340851,-86.9565217391303,4,2,0,0,0,1
345173,-86.9565217391304,4,2,0,0,0,1
345936,-133.333333333333,4,2,0,0,0,0
346190,-133.333333333333,4,2,0,0,0,0
346275,-86.9565217391304,4,2,0,0,0,1
348648,-117.647058823529,4,2,0,0,0,1
348902,-86.9565217391304,4,2,0,0,0,1
351275,-105.263157894737,4,2,0,0,0,1
351529,-105.263157894737,4,2,0,0,0,1
351614,-100,4,2,0,0,0,1
353902,-95.2380952380952,4,2,0,0,0,1
355427,-100,4,2,0,0,0,0
355512,-100,4,2,0,0,0,0
378054,-100,4,2,0,0,0,0
397376,-100,4,2,0,0,0,0
408224,-95.2380952380952,4,2,0,0,0,0
408309,-95.2380952380952,4,2,0,0,0,1
430173,-117.64705882353,4,2,0,0,0,0
430682,-95.2380952380952,4,2,0,0,0,1
430766,-95.2380952380952,4,2,0,0,0,0

[HitObjects]
64,192,2022,5,0,0:0:0:0:
320,192,2022,1,0,0:0:0:0:
192,192,2699,1,0,0:0:0:0:
448,192,3377,128,0,4733:0:0:0:0:
64,192,3377,128,0,4733:0:0:0:0:
192,192,4733,1,0,0:0:0:0:
448,192,5411,1,0,0:0:0:0:
320,192,6089,128,0,7445:0:0:0:0:
64,192,6089,128,0,7445:0:0:0:0:
448,192,7445,128,0,8801:0:0:0:0:
192,192,8123,1,0,0:0:0:0:
64,192,8801,1,0,0:0:0:0:
192,192,9140,1,0,0:0:0:0:
320,192,9479,1,0,0:0:0:0:
448,192,9818,1,0,0:0:0:0:
64,192,10157,1,0,0:0:0:0:
320,192,10157,1,0,0:0:0:0:
192,192,10496,1,0,0:0:0:0:
320,192,10835,1,0,0:0:0:0:
448,192,10835,1,0,0:0:0:0:
192,192,11174,1,0,0:0:0:0:
64,192,11513,1,0,0:0:0:0:
320,192,11513,1,0,0:0:0:0:
192,192,12699,1,0,0:0:0:0:
320,192,12784,1,0,0:0:0:0:
448,192,12869,128,0,13547:0:0:0:0:
64,192,12869,128,0,13547:0:0:0:0:
192,192,13547,128,0,14225:0:0:0:0:
320,192,13547,128,0,14225:0:0:0:0:
448,192,14225,128,0,16259:0:0:0:0:
64,192,14225,128,0,15581:0:0:0:0:
192,192,15581,128,0,16259:0:0:0:0:
320,192,16259,128,0,16937:0:0:0:0:
64,192,16259,128,0,16937:0:0:0:0:
192,192,16937,128,0,18293:0:0:0:0:
448,192,16937,128,0,18293:0:0:0:0:
64,192,18293,128,0,18654:0:0:0:0:
320,192,18293,128,0,18654:0:0:0:0:
192,192,18654,128,0,19015:0:0:0:0:
64,192,19015,128,0,19394:0:0:0:0:
448,192,19015,128,0,19394:0:0:0:0:
320,192,19394,128,0,19819:0:0:0:0:
192,192,19819,128,0,20771:0:0:0:0:
448,192,19819,128,0,20771:0:0:0:0:
320,192,20771,128,0,21871:0:0:0:0:
64,192,20771,128,0,21871:0:0:0:0:
192,192,21871,128,0,22509:0:0:0:0:
448,192,21871,128,0,22509:0:0:0:0:
64,192,22509,128,0,23206:0:0:0:0:
192,192,23206,128,0,24016:0:0:0:0:
320,192,23206,128,0,24016:0:0:0:0:
448,192,24016,128,0,24925:0:0:0:0:
64,192,24016,128,0,24925:0:0:0:0:
192,192,24925,128,0,29775:0:0:0:0:
320,192,24925,128,0,29775:0:0:0:0:
448,192,26015,128,0,29775:0:0:0:0:
64,192,27305,128,0,29775:0:0:0:0:
64,192,30004,1,0,0:0:0:0:
320,192,30004,1,0,0:0:0:0:
448,192,30004,1,0,0:0:0:0:
192,192,30173,1,0,0:0:0:0:
64,192,30342,1,0,0:0:0:0:
192,192,30512,1,0,0:0:0:0:
320,192,30681,1,0,0:0:0:0:
64,192,30681,1,0,0:0:0:0:
448,192,30851,1,0,0:0:0:0:
320,192,31020,1,0,0:0:0:0:
64,192,31190,1,0,0:0:0:0:
192,192,31190,1,0,0:0:0:0:
320,192,31359,1,0,0:0:0:0:
448,192,31529,1,0,0:0:0:0:
192,192,31698,1,0,0:0:0:0:
320,192,31698,1,0,0:0:0:0:
64,192,31868,1,0,0:0:0:0:
192,192,32037,1,0,0:0:0:0:
320,192,32037,1,0,0:0:0:0:
448,192,32037,1,0,0:0:0:0:
64,192,32207,1,0,0:0:0:0:
192,192,32376,1,0,0:0:0:0:
320,192,32546,1,0,0:0:0:0:
64,192,32715,1,0,0:0:0:0:
448,192,32715,1,0,0:0:0:0:
192,192,32885,1,0,0:0:0:0:
320,192,33054,1,0,0:0:0:0:
64,192,33224,1,0,0:0:0:0:
192,192,33393,1,0,0:0:0:0:
320,192,33393,1,0,0:0:0:0:
448,192,33393,1,0,0:0:0:0:
64,192,33563,1,0,0:0:0:0:
448,192,33732,1,0,0:0:0:0:
192,192,33902,1,0,0:0:0:0:
320,192,33902,1,0,0:0:0:0:
64,192,34071,1,0,0:0:0:0:
448,192,34241,1,0,0:0:0:0:
64,192,34410,1,0,0:0:0:0:
192,192,34410,1,0,0:0:0:0:
320,192,34580,1,0,0:0:0:0:
192,192,34749,1,0,0:0:0:0:
448,192,34749,1,0,0:0:0:0:
64,192,34749,1,0,0:0:0:0:
64,192,35427,1,0,0:0:0:0:
320,192,35427,1,0,0:0:0:0:
448,192,35427,1,0,0:0:0:0:
192,192,35597,1,0,0:0:0:0:
320,192,35766,1,0,0:0:0:0:
448,192,35936,1,0,0:0:0:0:
64,192,36105,1,0,0:0:0:0:
320,192,36105,1,0,0:0:0:0:
192,192,36275,1,0,0:0:0:0:
320,192,36444,1,0,0:0:0:0:
448,192,36614,1,0,0:0:0:0:
64,192,36614,1,0,0:0:0:0:
192,192,36783,1,0,0:0:0:0:
320,192,36953,1,0,0:0:0:0:
192,192,37122,1,0,0:0:0:0:
448,192,37122,1,0,0:0:0:0:
64,192,37292,1,0,0:0:0:0:
192,192,37461,1,0,0:0:0:0:
320,192,37461,1,0,0:0:0:0:
448,192,37461,1,0,0:0:0:0:
64,192,37631,1,0,0:0:0:0:
448,192,37800,1,0,0:0:0:0:
64,192,37970,1,0,0:0:0:0:
192,192,38139,1,0,0:0:0:0:
320,192,38139,1,0,0:0:0:0:
448,192,38309,1,0,0:0:0:0:
320,192,38478,1,0,0:0:0:0:
192,192,38648,1,0,0:0:0:0:
64,192,38817,1,0,0:0:0:0:
448,192,38817,1,0,0:0:0:0:
192,192,38987,1,0,0:0:0:0:
320,192,39156,1,0,0:0:0:0:
64,192,39326,1,0,0:0:0:0:
192,192,39326,1,0,0:0:0:0:
448,192,39495,1,0,0:0:0:0:
320,192,39665,1,0,0:0:0:0:
192,192,39834,1,0,0:0:0:0:
64,192,39834,1,0,0:0:0:0:
448,192,40004,1,0,0:0:0:0:
192,192,40173,1,0,0:0:0:0:
320,192,40173,1,0,0:0:0:0:
64,192,40173,1,0,0:0:0:0:
448,192,40342,1,0,0:0:0:0:
320,192,40512,1,0,0:0:0:0:
192,192,40681,1,0,0:0:0:0:
64,192,40851,1,0,0:0:0:0:
320,192,40851,1,0,0:0:0:0:
448,192,40851,1,0,0:0:0:0:
192,192,41020,1,0,0:0:0:0:
64,192,41190,1,0,0:0:0:0:
192,192,41359,1,0,0:0:0:0:
320,192,41529,1,0,0:0:0:0:
64,192,41529,1,0,0:0:0:0:
448,192,41698,1,0,0:0:0:0:
320,192,41868,1,0,0:0:0:0:
64,192,42037,1,0,0:0:0:0:
192,192,42037,1,0,0:0:0:0:
320,192,42207,1,0,0:0:0:0:
448,192,42376,1,0,0:0:0:0:
192,192,42546,1,0,0:0:0:0:
320,192,42546,1,0,0:0:0:0:
64,192,42715,1,0,0:0:0:0:
192,192,42885,1,0,0:0:0:0:
320,192,42885,1,0,0:0:0:0:
448,192,42885,1,0,0:0:0:0:
64,192,43054,1,0,0:0:0:0:
192,192,43224,1,0,0:0:0:0:
320,192,43393,1,0,0:0:0:0:
64,192,43563,1,0,0:0:0:0:
448,192,43563,1,0,0:0:0:0:
192,192,43732,1,0,0:0:0:0:
320,192,43902,1,0,0:0:0:0:
64,192,44071,1,0,0:0:0:0:
192,192,44241,1,0,0:0:0:0:
320,192,44241,1,0,0:0:0:0:
448,192,44241,1,0,0:0:0:0:
64,192,44410,1,0,0:0:0:0:
448,192,44580,1,0,0:0:0:0:
192,192,44749,1,0,0:0:0:0:
320,192,44749,1,0,0:0:0:0:
64,192,44919,1,0,0:0:0:0:
448,192,45088,1,0,0:0:0:0:
64,192,45258,1,0,0:0:0:0:
192,192,45258,1,0,0:0:0:0:
320,192,45427,1,0,0:0:0:0:
192,192,45597,1,0,0:0:0:0:
448,192,45597,1,0,0:0:0:0:
64,192,45597,1,0,0:0:0:0:
64,192,46275,1,0,0:0:0:0:
320,192,46275,1,0,0:0:0:0:
448,192,46275,1,0,0:0:0:0:
192,192,46444,1,0,0:0:0:0:
320,192,46614,1,0,0:0:0:0:
448,192,46783,1,0,0:0:0:0:
64,192,46953,1,0,0:0:0:0:
320,192,46953,1,0,0:0:0:0:
192,192,47122,1,0,0:0:0:0:
320,192,47292,1,0,0:0:0:0:
448,192,47461,1,0,0:0:0:0:
64,192,47461,1,0,0:0:0:0:
192,192,47631,1,0,0:0:0:0:
320,192,47800,1,0,0:0:0:0:
192,192,47970,1,0,0:0:0:0:
448,192,47970,1,0,0:0:0:0:
64,192,48139,1,0,0:0:0:0:
192,192,48309,1,0,0:0:0:0:
320,192,48309,1,0,0:0:0:0:
448,192,48309,1,0,0:0:0:0:
64,192,48478,1,0,0:0:0:0:
448,192,48648,1,0,0:0:0:0:
64,192,48817,1,0,0:0:0:0:
192,192,48987,1,0,0:0:0:0:
320,192,48987,1,0,0:0:0:0:
448,192,49156,1,0,0:0:0:0:
320,192,49326,1,0,0:0:0:0:
192,192,49495,1,0,0:0:0:0:
64,192,49665,1,0,0:0:0:0:
448,192,49665,1,0,0:0:0:0:
192,192,49834,1,0,0:0:0:0:
320,192,50004,1,0,0:0:0:0:
64,192,50173,1,0,0:0:0:0:
192,192,50173,1,0,0:0:0:0:
448,192,50342,1,0,0:0:0:0:
320,192,50512,1,0,0:0:0:0:
192,192,50681,1,0,0:0:0:0:
64,192,50681,1,0,0:0:0:0:
320,192,50851,1,0,0:0:0:0:
192,192,51020,1,0,0:0:0:0:
448,192,51020,1,0,0:0:0:0:
64,192,51020,1,0,0:0:0:0:
320,192,51190,1,0,0:0:0:0:
192,192,51190,1,0,0:0:0:0:
64,192,51359,1,0,0:0:0:0:
320,192,51359,1,0,0:0:0:0:
448,192,51359,1,0,0:0:0:0:
64,192,51698,128,0,53732:0:0:0:0:
320,192,51698,128,0,53732:0:0:0:0:
192,192,51698,128,0,53732:0:0:0:0:
448,192,54410,1,0,0:0:0:0:
320,192,54410,1,0,0:0:0:0:
192,192,54410,1,0,0:0:0:0:
64,192,65258,132,0,65300:0:0:0:0:
192,192,65258,128,0,65300:0:0:0:0:
448,192,65766,128,0,65809:0:0:0:0:
320,192,65766,128,0,65809:0:0:0:0:
192,192,66444,128,0,66487:0:0:0:0:
64,192,66444,128,0,66487:0:0:0:0:
320,192,66953,128,0,66995:0:0:0:0:
448,192,66953,128,0,66995:0:0:0:0:
192,192,67292,128,0,67334:0:0:0:0:
64,192,67292,128,0,67334:0:0:0:0:
320,192,67631,128,0,67970:0:0:0:0:
64,192,67970,128,0,68012:0:0:0:0:
448,192,67970,128,0,68012:0:0:0:0:
448,192,68478,128,0,68520:0:0:0:0:
64,192,68478,128,0,68520:0:0:0:0:
64,192,69156,128,0,69198:0:0:0:0:
192,192,69156,128,0,69198:0:0:0:0:
320,192,69665,128,0,69707:0:0:0:0:
448,192,69665,128,0,69707:0:0:0:0:
192,192,70004,128,0,70046:0:0:0:0:
320,192,70004,128,0,70046:0:0:0:0:
64,192,70342,128,0,70681:0:0:0:0:
192,192,70681,128,0,70724:0:0:0:0:
448,192,70681,128,0,70724:0:0:0:0:
64,192,71190,128,0,71232:0:0:0:0:
320,192,71190,128,0,71232:0:0:0:0:
64,192,71868,128,0,71910:0:0:0:0:
448,192,71868,128,0,71910:0:0:0:0:
64,192,72376,128,0,72419:0:0:0:0:
320,192,72376,128,0,72419:0:0:0:0:
192,192,72715,128,0,72758:0:0:0:0:
448,192,72715,128,0,72758:0:0:0:0:
64,192,73054,128,0,73393:0:0:0:0:
320,192,73054,128,0,73393:0:0:0:0:
192,192,73393,128,0,73436:0:0:0:0:
448,192,73393,128,0,73436:0:0:0:0:
64,192,73902,128,0,73944:0:0:0:0:
192,192,73902,128,0,73944:0:0:0:0:
448,192,74410,128,0,74749:0:0:0:0:
192,192,74410,128,0,74749:0:0:0:0:
320,192,74749,128,0,74792:0:0:0:0:
64,192,74749,128,0,74792:0:0:0:0:
192,192,75427,128,0,75470:0:0:0:0:
448,192,75427,128,0,75470:0:0:0:0:
64,192,76105,1,0,0:0:0:0:
192,192,76105,1,0,0:0:0:0:
320,192,76105,1,0,0:0:0:0:
192,192,76614,1,0,0:0:0:0:
320,192,76614,1,0,0:0:0:0:
448,192,76614,1,0,0:0:0:0:
64,192,77292,1,0,0:0:0:0:
192,192,77292,1,0,0:0:0:0:
320,192,77292,1,0,0:0:0:0:
64,192,77800,1,0,0:0:0:0:
320,192,77800,1,0,0:0:0:0:
448,192,77800,1,0,0:0:0:0:
64,192,78139,1,0,0:0:0:0:
192,192,78139,1,0,0:0:0:0:
448,192,78139,1,0,0:0:0:0:
320,192,78478,128,0,78817:0:0:0:0:
192,192,78478,128,0,78817:0:0:0:0:
64,192,78817,1,0,0:0:0:0:
448,192,78817,1,0,0:0:0:0:
192,192,79326,1,0,0:0:0:0:
320,192,79326,1,0,0:0:0:0:
448,192,79326,1,0,0:0:0:0:
64,192,80004,1,0,0:0:0:0:
192,192,80004,1,0,0:0:0:0:
320,192,80004,1,0,0:0:0:0:
192,192,80512,1,0,0:0:0:0:
320,192,80512,1,0,0:0:0:0:
448,192,80512,1,0,0:0:0:0:
64,192,80851,1,0,0:0:0:0:
192,192,80851,1,0,0:0:0:0:
320,192,80851,1,0,0:0:0:0:
192,192,81190,128,0,81529:0:0:0:0:
448,192,81190,128,0,81529:0:0:0:0:
64,192,81529,1,0,0:0:0:0:
320,192,81529,1,0,0:0:0:0:
64,192,82037,1,0,0:0:0:0:
320,192,82037,1,0,0:0:0:0:
448,192,82037,1,0,0:0:0:0:
64,192,82715,1,0,0:0:0:0:
192,192,82715,1,0,0:0:0:0:
448,192,82715,1,0,0:0:0:0:
320,192,83224,1,0,0:0:0:0:
192,192,83224,1,0,0:0:0:0:
448,192,83224,1,0,0:0:0:0:
64,192,83563,1,0,0:0:0:0:
192,192,83563,1,0,0:0:0:0:
320,192,83563,1,0,0:0:0:0:
448,192,83902,128,0,84241:0:0:0:0:
64,192,83902,128,0,84241:0:0:0:0:
192,192,84241,1,0,0:0:0:0:
320,192,84241,1,0,0:0:0:0:
192,192,84749,1,0,0:0:0:0:
320,192,84749,1,0,0:0:0:0:
448,192,84749,1,0,0:0:0:0:
448,192,85427,128,0,85470:0:0:0:0:
64,192,85597,1,0,0:0:0:0:
192,192,85597,1,0,0:0:0:0:
64,192,85936,128,0,85978:0:0:0:0:
320,192,86105,1,0,0:0:0:0:
448,192,86105,1,0,0:0:0:0:
192,192,86275,128,0,86317:0:0:0:0:
192,192,86614,1,0,0:0:0:0:
320,192,86614,1,0,0:0:0:0:
64,192,86614,128,0,86953:0:0:0:0:
320,192,86953,1,0,0:0:0:0:
448,192,86953,1,0,0:0:0:0:
64,192,87292,1,0,0:0:0:0:
192,192,87292,1,0,0:0:0:0:
320,192,87292,1,0,0:0:0:0:
320,192,87461,1,0,0:0:0:0:
448,192,87461,1,0,0:0:0:0:
64,192,87970,1,0,0:0:0:0:
192,192,87970,1,0,0:0:0:0:
320,192,87970,1,0,0:0:0:0:
320,192,88139,1,0,0:0:0:0:
448,192,88139,1,0,0:0:0:0:
64,192,88648,1,0,0:0:0:0:
192,192,88648,1,0,0:0:0:0:
320,192,88648,1,0,0:0:0:0:
448,192,88817,1,0,0:0:0:0:
320,192,88817,1,0,0:0:0:0:
64,192,88987,1,0,0:0:0:0:
192,192,89156,1,0,0:0:0:0:
320,192,89156,1,0,0:0:0:0:
448,192,89326,1,0,0:0:0:0:
192,192,89326,1,0,0:0:0:0:
64,192,89326,1,0,0:0:0:0:
64,192,89665,1,0,0:0:0:0:
448,192,89665,1,0,0:0:0:0:
192,192,90004,1,0,0:0:0:0:
320,192,90004,1,0,0:0:0:0:
64,192,90004,1,0,0:0:0:0:
192,192,90173,1,0,0:0:0:0:
448,192,90173,1,0,0:0:0:0:
192,192,90681,1,0,0:0:0:0:
320,192,90681,1,0,0:0:0:0:
448,192,90681,1,0,0:0:0:0:
320,192,90851,1,0,0:0:0:0:
64,192,90851,1,0,0:0:0:0:
192,192,91359,1,0,0:0:0:0:
320,192,91359,1,0,0:0:0:0:
448,192,91359,1,0,0:0:0:0:
64,192,91529,1,0,0:0:0:0:
192,192,91529,1,0,0:0:0:0:
448,192,91698,1,0,0:0:0:0:
192,192,91868,1,0,0:0:0:0:
320,192,91868,1,0,0:0:0:0:
64,192,92037,1,0,0:0:0:0:
320,192,92037,1,0,0:0:0:0:
448,192,92037,1,0,0:0:0:0:
64,192,92376,1,0,0:0:0:0:
448,192,92376,1,0,0:0:0:0:
192,192,92376,1,0,0:0:0:0:
64,192,92715,1,0,0:0:0:0:
192,192,92715,1,0,0:0:0:0:
320,192,92715,1,0,0:0:0:0:
64,192,92885,1,0,0:0:0:0:
448,192,92885,1,0,0:0:0:0:
192,192,93393,1,0,0:0:0:0:
320,192,93393,1,0,0:0:0:0:
448,192,93393,1,0,0:0:0:0:
64,192,93563,1,0,0:0:0:0:
448,192,93563,1,0,0:0:0:0:
64,192,94071,1,0,0:0:0:0:
320,192,94071,1,0,0:0:0:0:
448,192,94071,1,0,0:0:0:0:
320,192,94241,1,0,0:0:0:0:
192,192,94241,1,0,0:0:0:0:
64,192,94410,1,0,0:0:0:0:
192,192,94580,1,0,0:0:0:0:
320,192,94580,1,0,0:0:0:0:
64,192,94749,1,0,0:0:0:0:
192,192,94749,1,0,0:0:0:0:
448,192,94749,1,0,0:0:0:0:
64,192,95088,1,0,0:0:0:0:
320,192,95088,1,0,0:0:0:0:
192,192,95427,1,0,0:0:0:0:
320,192,95427,1,0,0:0:0:0:
448,192,95427,1,0,0:0:0:0:
64,192,95597,1,0,0:0:0:0:
192,192,95597,1,0,0:0:0:0:
192,192,96105,1,0,0:0:0:0:
320,192,96105,1,0,0:0:0:0:
64,192,96105,1,0,0:0:0:0:
64,192,96444,1,0,0:0:0:0:
320,192,96444,1,0,0:0:0:0:
448,192,96444,1,0,0:0:0:0:
64,192,97122,1,0,0:0:0:0:
192,192,97122,1,0,0:0:0:0:
448,192,97122,1,0,0:0:0:0:
64,192,97800,1,0,0:0:0:0:
320,192,97800,1,0,0:0:0:0:
448,192,97800,1,0,0:0:0:0:
320,192,98139,1,0,0:0:0:0:
64,192,98139,128,0,98309:0:0:0:0:
192,192,98139,1,0,0:0:0:0:
448,192,98393,1,0,0:0:0:0:
320,192,98478,1,0,0:0:0:0:
64,192,98563,1,0,0:0:0:0:
192,192,98648,1,0,0:0:0:0:
320,192,98648,1,0,0:0:0:0:
448,192,98817,1,0,0:0:0:0:
320,192,98902,1,0,0:0:0:0:
192,192,98987,1,0,0:0:0:0:
64,192,99071,1,0,0:0:0:0:
192,192,99156,1,0,0:0:0:0:
320,192,99156,1,0,0:0:0:0:
448,192,99326,1,0,0:0:0:0:
192,192,99495,1,0,0:0:0:0:
320,192,99495,1,0,0:0:0:0:
64,192,99495,1,0,0:0:0:0:
448,192,99665,1,0,0:0:0:0:
320,192,99749,1,0,0:0:0:0:
64,192,99834,1,0,0:0:0:0:
192,192,99919,1,0,0:0:0:0:
320,192,100004,1,0,0:0:0:0:
448,192,100004,1,0,0:0:0:0:
64,192,100173,1,0,0:0:0:0:
192,192,100258,1,0,0:0:0:0:
320,192,100342,1,0,0:0:0:0:
448,192,100342,1,0,0:0:0:0:
192,192,100512,1,0,0:0:0:0:
320,192,100512,1,0,0:0:0:0:
64,192,100681,1,0,0:0:0:0:
320,192,100851,1,0,0:0:0:0:
448,192,100851,1,0,0:0:0:0:
192,192,100851,1,0,0:0:0:0:
64,192,101020,1,0,0:0:0:0:
448,192,101020,1,0,0:0:0:0:
192,192,101105,1,0,0:0:0:0:
320,192,101190,1,0,0:0:0:0:
448,192,101275,1,0,0:0:0:0:
320,192,101359,1,0,0:0:0:0:
64,192,101359,1,0,0:0:0:0:
192,192,101359,1,0,0:0:0:0:
448,192,101529,1,0,0:0:0:0:
320,192,101614,1,0,0:0:0:0:
192,192,101698,1,0,0:0:0:0:
64,192,101783,1,0,0:0:0:0:
448,192,101868,1,0,0:0:0:0:
320,192,101868,1,0,0:0:0:0:
192,192,101868,1,0,0:0:0:0:
192,192,102037,1,0,0:0:0:0:
320,192,102207,1,0,0:0:0:0:
64,192,102207,1,0,0:0:0:0:
448,192,102207,1,0,0:0:0:0:
192,192,102376,1,0,0:0:0:0:
320,192,102461,1,0,0:0:0:0:
64,192,102546,1,0,0:0:0:0:
448,192,102546,1,0,0:0:0:0:
192,192,102546,1,0,0:0:0:0:
320,192,102715,1,0,0:0:0:0:
64,192,102885,1,0,0:0:0:0:
192,192,102885,1,0,0:0:0:0:
320,192,102885,1,0,0:0:0:0:
448,192,103054,1,0,0:0:0:0:
320,192,103139,1,0,0:0:0:0:
192,192,103224,1,0,0:0:0:0:
64,192,103224,1,0,0:0:0:0:
192,192,103563,1,0,0:0:0:0:
320,192,103563,1,0,0:0:0:0:
64,192,103563,1,0,0:0:0:0:
320,192,103817,1,0,0:0:0:0:
192,192,103902,1,0,0:0:0:0:
64,192,103987,1,0,0:0:0:0:
192,192,104071,1,0,0:0:0:0:
448,192,104071,1,0,0:0:0:0:
320,192,104071,1,0,0:0:0:0:
64,192,104241,1,0,0:0:0:0:
192,192,104326,1,0,0:0:0:0:
320,192,104410,1,0,0:0:0:0:
448,192,104495,1,0,0:0:0:0:
64,192,104580,1,0,0:0:0:0:
192,192,104580,1,0,0:0:0:0:
320,192,104749,1,0,0:0:0:0:
64,192,104919,1,0,0:0:0:0:
448,192,104919,1,0,0:0:0:0:
192,192,104919,1,0,0:0:0:0:
320,192,105088,1,0,0:0:0:0:
192,192,105173,1,0,0:0:0:0:
64,192,105258,1,0,0:0:0:0:
192,192,105342,1,0,0:0:0:0:
448,192,105427,1,0,0:0:0:0:
320,192,105427,1,0,0:0:0:0:
64,192,105597,1,0,0:0:0:0:
192,192,105681,1,0,0:0:0:0:
448,192,105766,1,0,0:0:0:0:
320,192,105766,1,0,0:0:0:0:
320,192,105936,1,0,0:0:0:0:
192,192,105936,1,0,0:0:0:0:
64,192,106105,1,0,0:0:0:0:
192,192,106275,1,0,0:0:0:0:
448,192,106275,1,0,0:0:0:0:
320,192,106275,1,0,0:0:0:0:
448,192,106444,1,0,0:0:0:0:
64,192,106444,1,0,0:0:0:0:
192,192,106529,1,0,0:0:0:0:
320,192,106614,1,0,0:0:0:0:
448,192,106698,1,0,0:0:0:0:
192,192,106783,1,0,0:0:0:0:
64,192,106783,1,0,0:0:0:0:
320,192,106783,1,0,0:0:0:0:
448,192,106953,1,0,0:0:0:0:
320,192,107037,1,0,0:0:0:0:
192,192,107122,1,0,0:0:0:0:
64,192,107207,1,0,0:0:0:0:
192,192,107292,1,0,0:0:0:0:
320,192,107292,1,0,0:0:0:0:
448,192,107292,1,0,0:0:0:0:
448,192,107631,1,0,0:0:0:0:
64,192,107631,1,0,0:0:0:0:
320,192,107631,1,0,0:0:0:0:
192,192,107970,1,0,0:0:0:0:
448,192,107970,1,0,0:0:0:0:
64,192,107970,1,0,0:0:0:0:
320,192,108309,1,0,0:0:0:0:
192,192,108309,1,0,0:0:0:0:
64,192,108309,1,0,0:0:0:0:
64,192,108648,1,0,0:0:0:0:
192,192,108648,1,0,0:0:0:0:
448,192,108648,1,0,0:0:0:0:
320,192,108987,1,0,0:0:0:0:
192,192,108987,1,0,0:0:0:0:
448,192,108987,128,0,109156:0:0:0:0:
64,192,109241,1,0,0:0:0:0:
192,192,109326,1,0,0:0:0:0:
320,192,109410,1,0,0:0:0:0:
192,192,109495,1,0,0:0:0:0:
64,192,109495,1,0,0:0:0:0:
448,192,109495,1,0,0:0:0:0:
320,192,109665,1,0,0:0:0:0:
192,192,109749,1,0,0:0:0:0:
64,192,109834,1,0,0:0:0:0:
448,192,109919,1,0,0:0:0:0:
192,192,110004,1,0,0:0:0:0:
320,192,110004,1,0,0:0:0:0:
64,192,110173,1,0,0:0:0:0:
192,192,110342,1,0,0:0:0:0:
448,192,110342,1,0,0:0:0:0:
320,192,110342,1,0,0:0:0:0:
64,192,110512,1,0,0:0:0:0:
192,192,110597,1,0,0:0:0:0:
320,192,110681,1,0,0:0:0:0:
448,192,110766,1,0,0:0:0:0:
320,192,110851,1,0,0:0:0:0:
192,192,110851,1,0,0:0:0:0:
64,192,111020,1,0,0:0:0:0:
192,192,111105,1,0,0:0:0:0:
320,192,111190,1,0,0:0:0:0:
448,192,111275,1,0,0:0:0:0:
192,192,111359,1,0,0:0:0:0:
320,192,111359,1,0,0:0:0:0:
320,192,111698,1,0,0:0:0:0:
448,192,111698,1,0,0:0:0:0:
192,192,111698,1,0,0:0:0:0:
64,192,111868,1,0,0:0:0:0:
192,192,111953,1,0,0:0:0:0:
320,192,112037,1,0,0:0:0:0:
448,192,112122,1,0,0:0:0:0:
320,192,112207,1,0,0:0:0:0:
64,192,112207,1,0,0:0:0:0:
192,192,112207,1,0,0:0:0:0:
448,192,112376,1,0,0:0:0:0:
320,192,112461,1,0,0:0:0:0:
192,192,112546,1,0,0:0:0:0:
64,192,112631,1,0,0:0:0:0:
448,192,112715,1,0,0:0:0:0:
320,192,112715,1,0,0:0:0:0:
192,192,112715,1,0,0:0:0:0:
192,192,112885,1,0,0:0:0:0:
320,192,113054,1,0,0:0:0:0:
64,192,113054,1,0,0:0:0:0:
448,192,113054,1,0,0:0:0:0:
192,192,113224,1,0,0:0:0:0:
320,192,113309,1,0,0:0:0:0:
64,192,113393,1,0,0:0:0:0:
448,192,113393,1,0,0:0:0:0:
192,192,113393,1,0,0:0:0:0:
320,192,113563,1,0,0:0:0:0:
64,192,113732,1,0,0:0:0:0:
192,192,113732,1,0,0:0:0:0:
320,192,113732,1,0,0:0:0:0:
448,192,113902,1,0,0:0:0:0:
320,192,113987,1,0,0:0:0:0:
192,192,114071,1,0,0:0:0:0:
64,192,114071,1,0,0:0:0:0:
64,192,114410,1,0,0:0:0:0:
448,192,114410,1,0,0:0:0:0:
320,192,114410,1,0,0:0:0:0:
192,192,114495,1,0,0:0:0:0:
320,192,114580,1,0,0:0:0:0:
448,192,114665,1,0,0:0:0:0:
64,192,114749,1,0,0:0:0:0:
192,192,114834,1,0,0:0:0:0:
320,192,114919,1,0,0:0:0:0:
448,192,114919,1,0,0:0:0:0:
64,192,115088,1,0,0:0:0:0:
192,192,115173,1,0,0:0:0:0:
320,192,115258,1,0,0:0:0:0:
448,192,115342,1,0,0:0:0:0:
64,192,115427,1,0,0:0:0:0:
192,192,115427,1,0,0:0:0:0:
320,192,115597,1,0,0:0:0:0:
64,192,115766,1,0,0:0:0:0:
448,192,115766,1,0,0:0:0:0:
320,192,115936,1,0,0:0:0:0:
192,192,116020,1,0,0:0:0:0:
64,192,116105,1,0,0:0:0:0:
448,192,116190,1,0,0:0:0:0:
192,192,116275,1,0,0:0:0:0:
320,192,116275,1,0,0:0:0:0:
64,192,116444,1,0,0:0:0:0:
192,192,116614,1,0,0:0:0:0:
320,192,116614,1,0,0:0:0:0:
448,192,116783,1,0,0:0:0:0:
320,192,116783,1,0,0:0:0:0:
192,192,116953,1,0,0:0:0:0:
320,192,116953,1,0,0:0:0:0:
64,192,117122,1,0,0:0:0:0:
192,192,117122,1,0,0:0:0:0:
448,192,117122,1,0,0:0:0:0:
320,192,117292,1,0,0:0:0:0:
192,192,117376,1,0,0:0:0:0:
64,192,117461,1,0,0:0:0:0:
448,192,117546,1,0,0:0:0:0:
192,192,117631,1,0,0:0:0:0:
320,192,117631,1,0,0:0:0:0:
64,192,117800,1,0,0:0:0:0:
192,192,117885,1,0,0:0:0:0:
320,192,117970,1,0,0:0:0:0:
448,192,118054,1,0,0:0:0:0:
64,192,118139,1,0,0:0:0:0:
192,192,118139,1,0,0:0:0:0:
320,192,118139,1,0,0:0:0:0:
192,192,118817,1,0,0:0:0:0:
320,192,118817,1,0,0:0:0:0:
448,192,118817,1,0,0:0:0:0:
64,192,119495,1,0,0:0:0:0:
192,192,119495,1,0,0:0:0:0:
320,192,119495,1,0,0:0:0:0:
64,192,119834,1,0,0:0:0:0:
320,192,119834,128,0,120004:0:0:0:0:
448,192,119834,1,0,0:0:0:0:
64,192,120088,1,0,0:0:0:0:
192,192,120173,1,0,0:0:0:0:
320,192,120258,1,0,0:0:0:0:
64,192,120342,1,0,0:0:0:0:
192,192,120342,1,0,0:0:0:0:
320,192,120512,1,0,0:0:0:0:
448,192,120597,1,0,0:0:0:0:
64,192,120681,1,0,0:0:0:0:
192,192,120766,1,0,0:0:0:0:
320,192,120851,1,0,0:0:0:0:
448,192,120851,1,0,0:0:0:0:
192,192,121020,1,0,0:0:0:0:
64,192,121190,1,0,0:0:0:0:
320,192,121190,1,0,0:0:0:0:
448,192,121190,1,0,0:0:0:0:
192,192,121359,1,0,0:0:0:0:
320,192,121444,1,0,0:0:0:0:
64,192,121529,1,0,0:0:0:0:
192,192,121614,1,0,0:0:0:0:
448,192,121698,1,0,0:0:0:0:
320,192,121698,1,0,0:0:0:0:
64,192,121868,1,0,0:0:0:0:
192,192,121953,1,0,0:0:0:0:
448,192,122037,1,0,0:0:0:0:
320,192,122037,1,0,0:0:0:0:
320,192,122207,1,0,0:0:0:0:
192,192,122207,1,0,0:0:0:0:
64,192,122376,1,0,0:0:0:0:
192,192,122546,1,0,0:0:0:0:
448,192,122546,1,0,0:0:0:0:
320,192,122546,1,0,0:0:0:0:
448,192,122715,1,0,0:0:0:0:
64,192,122715,1,0,0:0:0:0:
192,192,122800,1,0,0:0:0:0:
320,192,122885,1,0,0:0:0:0:
448,192,122970,1,0,0:0:0:0:
192,192,123054,1,0,0:0:0:0:
64,192,123054,1,0,0:0:0:0:
320,192,123054,1,0,0:0:0:0:
448,192,123224,1,0,0:0:0:0:
320,192,123309,1,0,0:0:0:0:
192,192,123393,1,0,0:0:0:0:
64,192,123478,1,0,0:0:0:0:
192,192,123563,1,0,0:0:0:0:
320,192,123563,1,0,0:0:0:0:
448,192,123563,1,0,0:0:0:0:
192,192,123732,1,0,0:0:0:0:
448,192,123902,1,0,0:0:0:0:
64,192,123902,1,0,0:0:0:0:
320,192,123902,1,0,0:0:0:0:
192,192,124071,1,0,0:0:0:0:
320,192,124156,1,0,0:0:0:0:
192,192,124241,1,0,0:0:0:0:
448,192,124241,1,0,0:0:0:0:
64,192,124241,1,0,0:0:0:0:
320,192,124410,1,0,0:0:0:0:
320,192,124580,1,0,0:0:0:0:
192,192,124580,1,0,0:0:0:0:
64,192,124580,1,0,0:0:0:0:
448,192,124749,1,0,0:0:0:0:
320,192,124834,1,0,0:0:0:0:
64,192,124919,1,0,0:0:0:0:
192,192,124919,1,0,0:0:0:0:
448,192,125258,1,0,0:0:0:0:
320,192,125258,1,0,0:0:0:0:
192,192,125258,1,0,0:0:0:0:
64,192,125512,1,0,0:0:0:0:
192,192,125597,1,0,0:0:0:0:
320,192,125681,1,0,0:0:0:0:
64,192,125766,1,0,0:0:0:0:
448,192,125766,1,0,0:0:0:0:
192,192,125766,1,0,0:0:0:0:
64,192,125936,1,0,0:0:0:0:
192,192,126020,1,0,0:0:0:0:
320,192,126105,1,0,0:0:0:0:
448,192,126190,1,0,0:0:0:0:
192,192,126275,1,0,0:0:0:0:
64,192,126275,1,0,0:0:0:0:
320,192,126444,1,0,0:0:0:0:
192,192,126614,1,0,0:0:0:0:
448,192,126614,1,0,0:0:0:0:
64,192,126614,1,0,0:0:0:0:
320,192,126783,1,0,0:0:0:0:
192,192,126868,1,0,0:0:0:0:
64,192,126953,1,0,0:0:0:0:
192,192,127037,1,0,0:0:0:0:
320,192,127122,1,0,0:0:0:0:
448,192,127122,1,0,0:0:0:0:
64,192,127292,1,0,0:0:0:0:
192,192,127376,1,0,0:0:0:0:
320,192,127461,1,0,0:0:0:0:
448,192,127461,1,0,0:0:0:0:
192,192,127631,1,0,0:0:0:0:
320,192,127631,1,0,0:0:0:0:
64,192,127800,1,0,0:0:0:0:
320,192,127970,1,0,0:0:0:0:
448,192,127970,1,0,0:0:0:0:
192,192,127970,1,0,0:0:0:0:
64,192,128139,1,0,0:0:0:0:
448,192,128139,1,0,0:0:0:0:
192,192,128224,1,0,0:0:0:0:
320,192,128309,1,0,0:0:0:0:
448,192,128393,1,0,0:0:0:0:
320,192,128478,1,0,0:0:0:0:
64,192,128478,1,0,0:0:0:0:
192,192,128478,1,0,0:0:0:0:
448,192,128648,1,0,0:0:0:0:
320,192,128732,1,0,0:0:0:0:
192,192,128817,1,0,0:0:0:0:
64,192,128902,1,0,0:0:0:0:
448,192,128987,1,0,0:0:0:0:
320,192,128987,1,0,0:0:0:0:
192,192,128987,1,0,0:0:0:0:
320,192,129326,1,0,0:0:0:0:
64,192,129326,1,0,0:0:0:0:
448,192,129326,1,0,0:0:0:0:
64,192,129665,1,0,0:0:0:0:
448,192,129665,1,0,0:0:0:0:
192,192,129665,1,0,0:0:0:0:
64,192,130004,1,0,0:0:0:0:
192,192,130004,1,0,0:0:0:0:
320,192,130004,1,0,0:0:0:0:
448,192,130342,1,0,0:0:0:0:
192,192,130342,1,0,0:0:0:0:
64,192,130342,1,0,0:0:0:0:
448,192,130681,128,0,130851:0:0:0:0:
192,192,130681,1,0,0:0:0:0:
320,192,130681,1,0,0:0:0:0:
64,192,130936,1,0,0:0:0:0:
192,192,131020,1,0,0:0:0:0:
320,192,131105,1,0,0:0:0:0:
448,192,131190,1,0,0:0:0:0:
64,192,131190,1,0,0:0:0:0:
192,192,131190,1,0,0:0:0:0:
320,192,131359,1,0,0:0:0:0:
192,192,131444,1,0,0:0:0:0:
64,192,131529,1,0,0:0:0:0:
448,192,131614,1,0,0:0:0:0:
320,192,131698,1,0,0:0:0:0:
192,192,131698,1,0,0:0:0:0:
64,192,131868,1,0,0:0:0:0:
320,192,132037,1,0,0:0:0:0:
448,192,132037,1,0,0:0:0:0:
192,192,132037,1,0,0:0:0:0:
64,192,132207,1,0,0:0:0:0:
192,192,132292,1,0,0:0:0:0:
320,192,132376,1,0,0:0:0:0:
448,192,132461,1,0,0:0:0:0:
192,192,132546,1,0,0:0:0:0:
320,192,132546,1,0,0:0:0:0:
64,192,132715,1,0,0:0:0:0:
192,192,132800,1,0,0:0:0:0:
320,192,132885,1,0,0:0:0:0:
448,192,132970,1,0,0:0:0:0:
320,192,133054,1,0,0:0:0:0:
192,192,133054,1,0,0:0:0:0:
192,192,133393,1,0,0:0:0:0:
448,192,133393,1,0,0:0:0:0:
320,192,133393,1,0,0:0:0:0:
64,192,133563,1,0,0:0:0:0:
192,192,133648,1,0,0:0:0:0:
320,192,133732,1,0,0:0:0:0:
448,192,133817,1,0,0:0:0:0:
192,192,133902,1,0,0:0:0:0:
64,192,133902,1,0,0:0:0:0:
320,192,133902,1,0,0:0:0:0:
448,192,134071,1,0,0:0:0:0:
320,192,134156,1,0,0:0:0:0:
192,192,134241,1,0,0:0:0:0:
64,192,134326,1,0,0:0:0:0:
192,192,134410,1,0,0:0:0:0:
320,192,134410,1,0,0:0:0:0:
448,192,134410,1,0,0:0:0:0:
192,192,134580,1,0,0:0:0:0:
448,192,134749,1,0,0:0:0:0:
64,192,134749,1,0,0:0:0:0:
320,192,134749,1,0,0:0:0:0:
192,192,134919,1,0,0:0:0:0:
320,192,135004,1,0,0:0:0:0:
192,192,135088,1,0,0:0:0:0:
448,192,135088,1,0,0:0:0:0:
64,192,135088,1,0,0:0:0:0:
320,192,135258,1,0,0:0:0:0:
320,192,135427,1,0,0:0:0:0:
192,192,135427,1,0,0:0:0:0:
64,192,135427,1,0,0:0:0:0:
448,192,135597,1,0,0:0:0:0:
320,192,135681,1,0,0:0:0:0:
64,192,135766,1,0,0:0:0:0:
192,192,135766,1,0,0:0:0:0:
320,192,136105,1,0,0:0:0:0:
448,192,136105,1,0,0:0:0:0:
64,192,136105,1,0,0:0:0:0:
192,192,136190,1,0,0:0:0:0:
320,192,136275,1,0,0:0:0:0:
448,192,136359,1,0,0:0:0:0:
64,192,136444,1,0,0:0:0:0:
192,192,136529,1,0,0:0:0:0:
448,192,136614,1,0,0:0:0:0:
320,192,136614,1,0,0:0:0:0:
64,192,136783,1,0,0:0:0:0:
192,192,136868,1,0,0:0:0:0:
320,192,136953,1,0,0:0:0:0:
448,192,137037,1,0,0:0:0:0:
192,192,137122,1,0,0:0:0:0:
64,192,137122,1,0,0:0:0:0:
320,192,137292,1,0,0:0:0:0:
448,192,137461,1,0,0:0:0:0:
64,192,137461,1,0,0:0:0:0:
320,192,137631,1,0,0:0:0:0:
192,192,137715,1,0,0:0:0:0:
64,192,137800,1,0,0:0:0:0:
448,192,137885,1,0,0:0:0:0:
320,192,137970,1,0,0:0:0:0:
192,192,137970,1,0,0:0:0:0:
64,192,138139,1,0,0:0:0:0:
320,192,138309,1,0,0:0:0:0:
192,192,138309,1,0,0:0:0:0:
320,192,138478,1,0,0:0:0:0:
448,192,138478,1,0,0:0:0:0:
320,192,138648,1,0,0:0:0:0:
192,192,138648,1,0,0:0:0:0:
448,192,138817,1,0,0:0:0:0:
192,192,138817,1,0,0:0:0:0:
64,192,138817,1,0,0:0:0:0:
320,192,138987,1,0,0:0:0:0:
192,192,139071,1,0,0:0:0:0:
64,192,139156,1,0,0:0:0:0:
448,192,139241,1,0,0:0:0:0:
320,192,139326,1,0,0:0:0:0:
192,192,139326,1,0,0:0:0:0:
64,192,139495,1,0,0:0:0:0:
192,192,139580,1,0,0:0:0:0:
320,192,139665,1,0,0:0:0:0:
448,192,139749,1,0,0:0:0:0:
320,192,139834,1,0,0:0:0:0:
192,192,139834,1,0,0:0:0:0:
64,192,139834,1,0,0:0:0:0:
448,192,140512,1,0,0:0:0:0:
320,192,140512,1,0,0:0:0:0:
192,192,140512,1,0,0:0:0:0:
320,192,141190,1,0,0:0:0:0:
192,192,141190,1,0,0:0:0:0:
64,192,141190,1,0,0:0:0:0:
448,192,141359,1,0,0:0:0:0:
320,192,141529,1,0,0:0:0:0:
448,192,141698,1,0,0:0:0:0:
64,192,141868,1,0,0:0:0:0:
64,192,142376,1,0,0:0:0:0:
192,192,142715,1,0,0:0:0:0:
320,192,142885,1,0,0:0:0:0:
448,192,143054,1,0,0:0:0:0:
320,192,143224,1,0,0:0:0:0:
64,192,143563,128,0,143902:0:0:0:0:
192,192,143902,1,0,0:0:0:0:
448,192,144071,1,0,0:0:0:0:
64,192,144241,1,0,0:0:0:0:
448,192,144410,1,0,0:0:0:0:
192,192,144580,1,0,0:0:0:0:
192,192,145088,1,0,0:0:0:0:
64,192,145427,1,0,0:0:0:0:
192,192,145597,1,0,0:0:0:0:
448,192,145766,1,0,0:0:0:0:
320,192,145936,1,0,0:0:0:0:
192,192,146275,128,0,146614:0:0:0:0:
64,192,146614,1,0,0:0:0:0:
448,192,146614,1,0,0:0:0:0:
320,192,146783,1,0,0:0:0:0:
64,192,146953,1,0,0:0:0:0:
192,192,146953,1,0,0:0:0:0:
320,192,147122,1,0,0:0:0:0:
192,192,147292,1,0,0:0:0:0:
448,192,147292,1,0,0:0:0:0:
192,192,147800,1,0,0:0:0:0:
448,192,147800,1,0,0:0:0:0:
64,192,148139,1,0,0:0:0:0:
192,192,148309,1,0,0:0:0:0:
448,192,148309,1,0,0:0:0:0:
320,192,148478,1,0,0:0:0:0:
64,192,148648,1,0,0:0:0:0:
192,192,148648,1,0,0:0:0:0:
448,192,148987,128,0,149326:0:0:0:0:
64,192,149326,1,0,0:0:0:0:
448,192,149834,1,0,0:0:0:0:
320,192,150342,1,0,0:0:0:0:
192,192,150681,1,0,0:0:0:0:
64,192,150851,1,0,0:0:0:0:
320,192,151190,1,0,0:0:0:0:
448,192,151190,1,0,0:0:0:0:
192,192,151698,1,0,0:0:0:0:
320,192,151698,1,0,0:0:0:0:
64,192,151698,128,0,151741:0:0:0:0:
192,192,152037,1,0,0:0:0:0:
320,192,152037,1,0,0:0:0:0:
448,192,152037,1,0,0:0:0:0:
64,192,152207,1,0,0:0:0:0:
320,192,152376,1,0,0:0:0:0:
448,192,152376,1,0,0:0:0:0:
64,192,152546,1,0,0:0:0:0:
192,192,152546,1,0,0:0:0:0:
320,192,152715,1,0,0:0:0:0:
448,192,152885,1,0,0:0:0:0:
320,192,153054,1,0,0:0:0:0:
64,192,153054,1,0,0:0:0:0:
192,192,153224,1,0,0:0:0:0:
64,192,153393,1,0,0:0:0:0:
192,192,153563,1,0,0:0:0:0:
320,192,153732,1,0,0:0:0:0:
448,192,153732,1,0,0:0:0:0:
64,192,153902,1,0,0:0:0:0:
192,192,153902,1,0,0:0:0:0:
320,192,154071,1,0,0:0:0:0:
192,192,154241,1,0,0:0:0:0:
448,192,154241,1,0,0:0:0:0:
192,192,154410,1,0,0:0:0:0:
64,192,154410,128,0,154749:0:0:0:0:
320,192,154749,1,0,0:0:0:0:
448,192,154749,1,0,0:0:0:0:
192,192,154919,1,0,0:0:0:0:
64,192,155088,1,0,0:0:0:0:
320,192,155088,1,0,0:0:0:0:
448,192,155258,1,0,0:0:0:0:
192,192,155258,1,0,0:0:0:0:
320,192,155427,1,0,0:0:0:0:
192,192,155597,1,0,0:0:0:0:
64,192,155766,1,0,0:0:0:0:
448,192,155766,1,0,0:0:0:0:
192,192,155936,1,0,0:0:0:0:
320,192,155936,1,0,0:0:0:0:
448,192,156105,1,0,0:0:0:0:
320,192,156275,1,0,0:0:0:0:
192,192,156444,1,0,0:0:0:0:
64,192,156444,1,0,0:0:0:0:
320,192,156614,1,0,0:0:0:0:
448,192,156614,1,0,0:0:0:0:
64,192,156783,1,0,0:0:0:0:
448,192,156953,128,0,156995:0:0:0:0:
192,192,157122,1,0,0:0:0:0:
320,192,157122,1,0,0:0:0:0:
64,192,157122,128,0,157461:0:0:0:0:
320,192,157461,1,0,0:0:0:0:
448,192,157461,1,0,0:0:0:0:
192,192,157631,1,0,0:0:0:0:
64,192,157800,1,0,0:0:0:0:
448,192,157800,1,0,0:0:0:0:
192,192,157970,1,0,0:0:0:0:
320,192,157970,1,0,0:0:0:0:
64,192,158139,1,0,0:0:0:0:
448,192,158309,1,0,0:0:0:0:
192,192,158478,1,0,0:0:0:0:
64,192,158478,1,0,0:0:0:0:
320,192,158648,1,0,0:0:0:0:
448,192,158648,1,0,0:0:0:0:
64,192,158817,1,0,0:0:0:0:
192,192,158987,1,0,0:0:0:0:
64,192,159156,1,0,0:0:0:0:
320,192,159156,1,0,0:0:0:0:
192,192,159326,1,0,0:0:0:0:
448,192,159326,1,0,0:0:0:0:
64,192,159495,1,0,0:0:0:0:
320,192,159665,1,0,0:0:0:0:
448,192,159665,1,0,0:0:0:0:
64,192,159834,128,0,160173:0:0:0:0:
448,192,159834,128,0,160173:0:0:0:0:
192,192,159834,1,0,0:0:0:0:
192,192,160173,1,0,0:0:0:0:
320,192,160173,128,0,160681:0:0:0:0:
448,192,160681,128,0,161190:0:0:0:0:
320,192,161190,128,0,161529:0:0:0:0:
192,192,161529,128,0,161698:0:0:0:0:
64,192,161698,128,0,162037:0:0:0:0:
448,192,162037,128,0,162546:0:0:0:0:
64,192,162546,1,0,0:0:0:0:
192,192,162546,1,0,0:0:0:0:
320,192,162546,1,0,0:0:0:0:
192,192,162885,1,0,0:0:0:0:
320,192,162885,1,0,0:0:0:0:
448,192,162885,128,0,163054:0:0:0:0:
64,192,163054,1,0,0:0:0:0:
192,192,163054,1,0,0:0:0:0:
192,192,163224,1,0,0:0:0:0:
320,192,163224,1,0,0:0:0:0:
448,192,163224,1,0,0:0:0:0:
64,192,163393,1,0,0:0:0:0:
192,192,163478,1,0,0:0:0:0:
320,192,163563,1,0,0:0:0:0:
448,192,163648,1,0,0:0:0:0:
64,192,163732,1,0,0:0:0:0:
192,192,163732,1,0,0:0:0:0:
320,192,163732,1,0,0:0:0:0:
448,192,163902,1,0,0:0:0:0:
320,192,163987,1,0,0:0:0:0:
192,192,164071,1,0,0:0:0:0:
64,192,164156,1,0,0:0:0:0:
320,192,164241,1,0,0:0:0:0:
448,192,164241,1,0,0:0:0:0:
192,192,164410,1,0,0:0:0:0:
320,192,164410,1,0,0:0:0:0:
64,192,164580,1,0,0:0:0:0:
448,192,164580,1,0,0:0:0:0:
192,192,164580,1,0,0:0:0:0:
320,192,164749,1,0,0:0:0:0:
192,192,164834,1,0,0:0:0:0:
64,192,164919,1,0,0:0:0:0:
448,192,165004,1,0,0:0:0:0:
192,192,165088,1,0,0:0:0:0:
320,192,165088,1,0,0:0:0:0:
64,192,165088,1,0,0:0:0:0:
448,192,165258,1,0,0:0:0:0:
320,192,165342,1,0,0:0:0:0:
192,192,165427,1,0,0:0:0:0:
64,192,165512,1,0,0:0:0:0:
320,192,165597,1,0,0:0:0:0:
448,192,165597,1,0,0:0:0:0:
192,192,165766,1,0,0:0:0:0:
320,192,165766,1,0,0:0:0:0:
192,192,165936,1,0,0:0:0:0:
64,192,165936,1,0,0:0:0:0:
448,192,165936,1,0,0:0:0:0:
320,192,166105,1,0,0:0:0:0:
192,192,166190,1,0,0:0:0:0:
64,192,166275,1,0,0:0:0:0:
448,192,166359,1,0,0:0:0:0:
64,192,166444,1,0,0:0:0:0:
192,192,166444,1,0,0:0:0:0:
320,192,166444,1,0,0:0:0:0:
448,192,166614,1,0,0:0:0:0:
64,192,166698,1,0,0:0:0:0:
192,192,166783,1,0,0:0:0:0:
320,192,166868,1,0,0:0:0:0:
64,192,166953,1,0,0:0:0:0:
448,192,166953,1,0,0:0:0:0:
192,192,167122,1,0,0:0:0:0:
320,192,167122,1,0,0:0:0:0:
192,192,167292,1,0,0:0:0:0:
448,192,167292,1,0,0:0:0:0:
64,192,167292,128,0,167800:0:0:0:0:
320,192,167461,1,0,0:0:0:0:
192,192,167546,1,0,0:0:0:0:
320,192,167631,1,0,0:0:0:0:
448,192,167715,1,0,0:0:0:0:
320,192,167800,1,0,0:0:0:0:
192,192,167800,1,0,0:0:0:0:
192,192,167970,1,0,0:0:0:0:
64,192,168139,1,0,0:0:0:0:
320,192,168139,1,0,0:0:0:0:
192,192,168309,1,0,0:0:0:0:
448,192,168309,1,0,0:0:0:0:
64,192,168478,1,0,0:0:0:0:
320,192,168478,1,0,0:0:0:0:
192,192,168648,1,0,0:0:0:0:
448,192,168648,1,0,0:0:0:0:
64,192,168648,1,0,0:0:0:0:
320,192,168817,1,0,0:0:0:0:
448,192,168902,1,0,0:0:0:0:
64,192,168987,1,0,0:0:0:0:
192,192,169071,1,0,0:0:0:0:
320,192,169156,1,0,0:0:0:0:
448,192,169156,1,0,0:0:0:0:
64,192,169156,1,0,0:0:0:0:
192,192,169326,1,0,0:0:0:0:
64,192,169410,1,0,0:0:0:0:
448,192,169495,1,0,0:0:0:0:
320,192,169580,1,0,0:0:0:0:
192,192,169665,1,0,0:0:0:0:
64,192,169665,1,0,0:0:0:0:
192,192,169834,1,0,0:0:0:0:
320,192,169834,1,0,0:0:0:0:
64,192,170004,1,0,0:0:0:0:
448,192,170004,1,0,0:0:0:0:
320,192,170004,1,0,0:0:0:0:
192,192,170173,1,0,0:0:0:0:
320,192,170258,1,0,0:0:0:0:
448,192,170342,1,0,0:0:0:0:
64,192,170427,1,0,0:0:0:0:
192,192,170512,1,0,0:0:0:0:
320,192,170512,1,0,0:0:0:0:
448,192,170512,1,0,0:0:0:0:
64,192,170681,1,0,0:0:0:0:
192,192,170766,1,0,0:0:0:0:
320,192,170851,1,0,0:0:0:0:
448,192,170936,1,0,0:0:0:0:
64,192,171020,1,0,0:0:0:0:
192,192,171020,1,0,0:0:0:0:
320,192,171190,1,0,0:0:0:0:
448,192,171190,1,0,0:0:0:0:
64,192,171359,1,0,0:0:0:0:
192,192,171359,1,0,0:0:0:0:
320,192,171359,1,0,0:0:0:0:
448,192,171529,1,0,0:0:0:0:
320,192,171614,1,0,0:0:0:0:
64,192,171698,1,0,0:0:0:0:
192,192,171783,1,0,0:0:0:0:
320,192,171868,1,0,0:0:0:0:
448,192,171868,1,0,0:0:0:0:
64,192,171868,1,0,0:0:0:0:
192,192,172037,1,0,0:0:0:0:
320,192,172122,1,0,0:0:0:0:
448,192,172207,1,0,0:0:0:0:
64,192,172292,1,0,0:0:0:0:
192,192,172376,1,0,0:0:0:0:
320,192,172376,1,0,0:0:0:0:
64,192,172546,1,0,0:0:0:0:
448,192,172546,1,0,0:0:0:0:
192,192,172715,1,0,0:0:0:0:
320,192,172715,1,0,0:0:0:0:
448,192,172715,1,0,0:0:0:0:
64,192,172885,1,0,0:0:0:0:
192,192,172970,1,0,0:0:0:0:
320,192,173054,1,0,0:0:0:0:
448,192,173139,1,0,0:0:0:0:
64,192,173224,1,0,0:0:0:0:
192,192,173224,1,0,0:0:0:0:
320,192,173224,1,0,0:0:0:0:
448,192,173393,1,0,0:0:0:0:
320,192,173478,1,0,0:0:0:0:
64,192,173563,1,0,0:0:0:0:
192,192,173563,1,0,0:0:0:0:
192,192,173732,1,0,0:0:0:0:
320,192,173732,1,0,0:0:0:0:
448,192,173732,128,0,173902:0:0:0:0:
64,192,173902,1,0,0:0:0:0:
192,192,173902,1,0,0:0:0:0:
64,192,174071,1,0,0:0:0:0:
320,192,174071,1,0,0:0:0:0:
448,192,174071,1,0,0:0:0:0:
192,192,174241,1,0,0:0:0:0:
320,192,174326,1,0,0:0:0:0:
448,192,174410,1,0,0:0:0:0:
64,192,174495,1,0,0:0:0:0:
448,192,174580,1,0,0:0:0:0:
192,192,174580,1,0,0:0:0:0:
320,192,174580,1,0,0:0:0:0:
64,192,174749,1,0,0:0:0:0:
192,192,174834,1,0,0:0:0:0:
320,192,174919,1,0,0:0:0:0:
448,192,175004,1,0,0:0:0:0:
64,192,175088,1,0,0:0:0:0:
192,192,175088,1,0,0:0:0:0:
192,192,175258,1,0,0:0:0:0:
320,192,175258,1,0,0:0:0:0:
64,192,175427,1,0,0:0:0:0:
448,192,175427,1,0,0:0:0:0:
320,192,175427,1,0,0:0:0:0:
192,192,175597,1,0,0:0:0:0:
320,192,175681,1,0,0:0:0:0:
448,192,175766,1,0,0:0:0:0:
64,192,175851,1,0,0:0:0:0:
192,192,175936,1,0,0:0:0:0:
320,192,175936,1,0,0:0:0:0:
448,192,175936,1,0,0:0:0:0:
64,192,176105,1,0,0:0:0:0:
192,192,176190,1,0,0:0:0:0:
320,192,176275,1,0,0:0:0:0:
448,192,176359,1,0,0:0:0:0:
320,192,176444,1,0,0:0:0:0:
192,192,176444,1,0,0:0:0:0:
64,192,176614,1,0,0:0:0:0:
448,192,176614,1,0,0:0:0:0:
192,192,176783,1,0,0:0:0:0:
320,192,176783,1,0,0:0:0:0:
448,192,176783,1,0,0:0:0:0:
320,192,176953,1,0,0:0:0:0:
192,192,177037,1,0,0:0:0:0:
64,192,177122,1,0,0:0:0:0:
448,192,177207,1,0,0:0:0:0:
64,192,177292,1,0,0:0:0:0:
192,192,177292,1,0,0:0:0:0:
320,192,177292,1,0,0:0:0:0:
448,192,177461,1,0,0:0:0:0:
64,192,177546,1,0,0:0:0:0:
192,192,177631,1,0,0:0:0:0:
320,192,177715,1,0,0:0:0:0:
64,192,177800,1,0,0:0:0:0:
448,192,177800,1,0,0:0:0:0:
192,192,177970,1,0,0:0:0:0:
320,192,177970,1,0,0:0:0:0:
64,192,178139,1,0,0:0:0:0:
320,192,178139,1,0,0:0:0:0:
448,192,178139,1,0,0:0:0:0:
192,192,178309,1,0,0:0:0:0:
320,192,178393,1,0,0:0:0:0:
448,192,178478,1,0,0:0:0:0:
320,192,178563,1,0,0:0:0:0:
192,192,178648,1,0,0:0:0:0:
448,192,178648,1,0,0:0:0:0:
64,192,178648,1,0,0:0:0:0:
192,192,178817,1,0,0:0:0:0:
64,192,178987,1,0,0:0:0:0:
320,192,178987,1,0,0:0:0:0:
192,192,179156,1,0,0:0:0:0:
448,192,179156,1,0,0:0:0:0:
64,192,179326,1,0,0:0:0:0:
320,192,179326,1,0,0:0:0:0:
192,192,179495,1,0,0:0:0:0:
448,192,179495,1,0,0:0:0:0:
64,192,179495,1,0,0:0:0:0:
320,192,179665,1,0,0:0:0:0:
448,192,179749,1,0,0:0:0:0:
64,192,179834,1,0,0:0:0:0:
192,192,179919,1,0,0:0:0:0:
320,192,180004,1,0,0:0:0:0:
448,192,180004,1,0,0:0:0:0:
64,192,180004,1,0,0:0:0:0:
192,192,180173,1,0,0:0:0:0:
64,192,180258,1,0,0:0:0:0:
448,192,180342,1,0,0:0:0:0:
320,192,180427,1,0,0:0:0:0:
192,192,180512,1,0,0:0:0:0:
64,192,180512,1,0,0:0:0:0:
192,192,180681,1,0,0:0:0:0:
320,192,180681,1,0,0:0:0:0:
64,192,180851,1,0,0:0:0:0:
448,192,180851,1,0,0:0:0:0:
320,192,180851,1,0,0:0:0:0:
192,192,181020,1,0,0:0:0:0:
320,192,181105,1,0,0:0:0:0:
448,192,181190,1,0,0:0:0:0:
64,192,181275,1,0,0:0:0:0:
192,192,181359,1,0,0:0:0:0:
320,192,181359,1,0,0:0:0:0:
448,192,181359,1,0,0:0:0:0:
64,192,181529,1,0,0:0:0:0:
192,192,181614,1,0,0:0:0:0:
320,192,181698,1,0,0:0:0:0:
448,192,181783,1,0,0:0:0:0:
64,192,181868,1,0,0:0:0:0:
192,192,181868,1,0,0:0:0:0:
320,192,182037,1,0,0:0:0:0:
448,192,182037,1,0,0:0:0:0:
64,192,182207,1,0,0:0:0:0:
192,192,182207,1,0,0:0:0:0:
320,192,182207,1,0,0:0:0:0:
448,192,182376,1,0,0:0:0:0:
320,192,182461,1,0,0:0:0:0:
64,192,182546,1,0,0:0:0:0:
192,192,182631,1,0,0:0:0:0:
320,192,182715,1,0,0:0:0:0:
448,192,182715,1,0,0:0:0:0:
64,192,182715,1,0,0:0:0:0:
192,192,182885,1,0,0:0:0:0:
320,192,182970,1,0,0:0:0:0:
448,192,183054,1,0,0:0:0:0:
64,192,183139,1,0,0:0:0:0:
192,192,183224,1,0,0:0:0:0:
320,192,183224,1,0,0:0:0:0:
64,192,183393,1,0,0:0:0:0:
448,192,183393,1,0,0:0:0:0:
192,192,183563,1,0,0:0:0:0:
320,192,183563,1,0,0:0:0:0:
448,192,183563,1,0,0:0:0:0:
64,192,183732,1,0,0:0:0:0:
192,192,183817,1,0,0:0:0:0:
320,192,183902,1,0,0:0:0:0:
448,192,183987,1,0,0:0:0:0:
64,192,184071,1,0,0:0:0:0:
192,192,184071,1,0,0:0:0:0:
320,192,184071,1,0,0:0:0:0:
448,192,184241,1,0,0:0:0:0:
320,192,184326,1,0,0:0:0:0:
192,192,184410,1,0,0:0:0:0:
64,192,184495,1,0,0:0:0:0:
192,192,184580,1,0,0:0:0:0:
320,192,184580,1,0,0:0:0:0:
448,192,184580,128,0,184749:0:0:0:0:
64,192,184749,1,0,0:0:0:0:
192,192,184749,1,0,0:0:0:0:
192,192,184919,1,0,0:0:0:0:
320,192,184919,1,0,0:0:0:0:
448,192,184919,1,0,0:0:0:0:
64,192,185088,1,0,0:0:0:0:
192,192,185173,1,0,0:0:0:0:
320,192,185258,1,0,0:0:0:0:
448,192,185342,1,0,0:0:0:0:
64,192,185427,1,0,0:0:0:0:
192,192,185427,1,0,0:0:0:0:
320,192,185427,1,0,0:0:0:0:
448,192,185597,1,0,0:0:0:0:
320,192,185681,1,0,0:0:0:0:
192,192,185766,1,0,0:0:0:0:
64,192,185851,1,0,0:0:0:0:
320,192,185936,1,0,0:0:0:0:
448,192,185936,1,0,0:0:0:0:
192,192,186105,1,0,0:0:0:0:
320,192,186105,1,0,0:0:0:0:
64,192,186275,1,0,0:0:0:0:
192,192,186275,1,0,0:0:0:0:
448,192,186275,128,0,186614:0:0:0:0:
320,192,186444,1,0,0:0:0:0:
192,192,186529,1,0,0:0:0:0:
64,192,186614,1,0,0:0:0:0:
320,192,186698,1,0,0:0:0:0:
192,192,186783,1,0,0:0:0:0:
64,192,186783,1,0,0:0:0:0:
448,192,186953,1,0,0:0:0:0:
320,192,187037,1,0,0:0:0:0:
192,192,187122,1,0,0:0:0:0:
64,192,187207,1,0,0:0:0:0:
320,192,187292,1,0,0:0:0:0:
448,192,187292,1,0,0:0:0:0:
192,192,187461,1,0,0:0:0:0:
320,192,187461,1,0,0:0:0:0:
192,192,187631,1,0,0:0:0:0:
64,192,187631,1,0,0:0:0:0:
448,192,187631,1,0,0:0:0:0:
320,192,187800,1,0,0:0:0:0:
192,192,187885,1,0,0:0:0:0:
64,192,187970,1,0,0:0:0:0:
448,192,188054,1,0,0:0:0:0:
64,192,188139,1,0,0:0:0:0:
192,192,188139,1,0,0:0:0:0:
320,192,188139,1,0,0:0:0:0:
448,192,188309,1,0,0:0:0:0:
64,192,188393,1,0,0:0:0:0:
192,192,188478,1,0,0:0:0:0:
320,192,188563,1,0,0:0:0:0:
64,192,188648,1,0,0:0:0:0:
448,192,188648,1,0,0:0:0:0:
192,192,188817,1,0,0:0:0:0:
320,192,188817,1,0,0:0:0:0:
192,192,188987,1,0,0:0:0:0:
448,192,188987,1,0,0:0:0:0:
64,192,188987,128,0,189495:0:0:0:0:
320,192,189156,1,0,0:0:0:0:
448,192,189241,1,0,0:0:0:0:
320,192,189326,1,0,0:0:0:0:
192,192,189410,1,0,0:0:0:0:
448,192,189495,1,0,0:0:0:0:
320,192,189495,1,0,0:0:0:0:
192,192,189665,1,0,0:0:0:0:
64,192,189834,1,0,0:0:0:0:
320,192,189834,1,0,0:0:0:0:
192,192,190004,1,0,0:0:0:0:
448,192,190004,1,0,0:0:0:0:
64,192,190173,1,0,0:0:0:0:
320,192,190173,1,0,0:0:0:0:
192,192,190342,1,0,0:0:0:0:
448,192,190342,1,0,0:0:0:0:
64,192,190342,1,0,0:0:0:0:
320,192,190512,1,0,0:0:0:0:
448,192,190597,1,0,0:0:0:0:
64,192,190681,1,0,0:0:0:0:
192,192,190766,1,0,0:0:0:0:
320,192,190851,1,0,0:0:0:0:
448,192,190851,1,0,0:0:0:0:
64,192,190851,1,0,0:0:0:0:
192,192,191020,1,0,0:0:0:0:
64,192,191105,1,0,0:0:0:0:
448,192,191190,1,0,0:0:0:0:
320,192,191275,1,0,0:0:0:0:
192,192,191359,1,0,0:0:0:0:
64,192,191359,1,0,0:0:0:0:
192,192,191529,1,0,0:0:0:0:
320,192,191529,1,0,0:0:0:0:
64,192,191698,1,0,0:0:0:0:
448,192,191698,1,0,0:0:0:0:
320,192,191698,1,0,0:0:0:0:
192,192,191868,1,0,0:0:0:0:
320,192,191953,1,0,0:0:0:0:
448,192,192037,1,0,0:0:0:0:
64,192,192122,1,0,0:0:0:0:
192,192,192207,1,0,0:0:0:0:
320,192,192207,1,0,0:0:0:0:
448,192,192207,1,0,0:0:0:0:
64,192,192376,1,0,0:0:0:0:
192,192,192461,1,0,0:0:0:0:
320,192,192546,1,0,0:0:0:0:
448,192,192631,1,0,0:0:0:0:
192,192,192715,1,0,0:0:0:0:
64,192,192715,128,0,193224:0:0:0:0:
320,192,192885,1,0,0:0:0:0:
448,192,192885,1,0,0:0:0:0:
192,192,193054,1,0,0:0:0:0:
320,192,193054,1,0,0:0:0:0:
448,192,193224,128,0,193732:0:0:0:0:
320,192,193309,1,0,0:0:0:0:
192,192,193393,1,0,0:0:0:0:
64,192,193478,1,0,0:0:0:0:
320,192,193563,1,0,0:0:0:0:
192,192,193563,1,0,0:0:0:0:
192,192,193732,1,0,0:0:0:0:
320,192,193817,1,0,0:0:0:0:
448,192,193902,1,0,0:0:0:0:
64,192,193987,1,0,0:0:0:0:
192,192,194071,1,0,0:0:0:0:
320,192,194071,1,0,0:0:0:0:
64,192,194241,1,0,0:0:0:0:
448,192,194241,1,0,0:0:0:0:
192,192,194410,1,0,0:0:0:0:
320,192,194410,1,0,0:0:0:0:
448,192,194410,1,0,0:0:0:0:
64,192,194580,1,0,0:0:0:0:
192,192,194665,1,0,0:0:0:0:
320,192,194749,1,0,0:0:0:0:
448,192,194834,1,0,0:0:0:0:
64,192,194919,1,0,0:0:0:0:
192,192,194919,1,0,0:0:0:0:
320,192,194919,1,0,0:0:0:0:
448,192,195088,1,0,0:0:0:0:
320,192,195173,1,0,0:0:0:0:
64,192,195258,1,0,0:0:0:0:
192,192,195258,1,0,0:0:0:0:
192,192,195427,1,0,0:0:0:0:
320,192,195427,1,0,0:0:0:0:
448,192,195427,128,0,195597:0:0:0:0:
64,192,195597,1,0,0:0:0:0:
192,192,195597,1,0,0:0:0:0:
192,192,195766,1,0,0:0:0:0:
320,192,195766,1,0,0:0:0:0:
448,192,195766,1,0,0:0:0:0:
64,192,195936,1,0,0:0:0:0:
192,192,196020,1,0,0:0:0:0:
320,192,196105,1,0,0:0:0:0:
448,192,196190,1,0,0:0:0:0:
64,192,196275,1,0,0:0:0:0:
192,192,196275,1,0,0:0:0:0:
320,192,196275,1,0,0:0:0:0:
448,192,196444,1,0,0:0:0:0:
320,192,196529,1,0,0:0:0:0:
192,192,196614,1,0,0:0:0:0:
64,192,196698,1,0,0:0:0:0:
320,192,196783,1,0,0:0:0:0:
448,192,196783,1,0,0:0:0:0:
192,192,196953,1,0,0:0:0:0:
320,192,196953,1,0,0:0:0:0:
64,192,197122,1,0,0:0:0:0:
448,192,197122,1,0,0:0:0:0:
192,192,197122,1,0,0:0:0:0:
320,192,197292,1,0,0:0:0:0:
192,192,197376,1,0,0:0:0:0:
64,192,197461,1,0,0:0:0:0:
448,192,197546,1,0,0:0:0:0:
192,192,197631,1,0,0:0:0:0:
320,192,197631,1,0,0:0:0:0:
64,192,197631,1,0,0:0:0:0:
448,192,197800,1,0,0:0:0:0:
320,192,197885,1,0,0:0:0:0:
192,192,197970,1,0,0:0:0:0:
64,192,198054,1,0,0:0:0:0:
320,192,198139,1,0,0:0:0:0:
448,192,198139,1,0,0:0:0:0:
192,192,198309,1,0,0:0:0:0:
320,192,198309,1,0,0:0:0:0:
192,192,198478,1,0,0:0:0:0:
64,192,198478,1,0,0:0:0:0:
448,192,198478,1,0,0:0:0:0:
320,192,198648,1,0,0:0:0:0:
192,192,198732,1,0,0:0:0:0:
64,192,198817,1,0,0:0:0:0:
448,192,198902,1,0,0:0:0:0:
64,192,198987,1,0,0:0:0:0:
192,192,198987,1,0,0:0:0:0:
320,192,198987,1,0,0:0:0:0:
448,192,199156,1,0,0:0:0:0:
64,192,199241,1,0,0:0:0:0:
192,192,199326,1,0,0:0:0:0:
320,192,199410,1,0,0:0:0:0:
64,192,199495,1,0,0:0:0:0:
448,192,199495,1,0,0:0:0:0:
192,192,199665,1,0,0:0:0:0:
320,192,199665,1,0,0:0:0:0:
192,192,199834,1,0,0:0:0:0:
448,192,199834,1,0,0:0:0:0:
64,192,199834,128,0,200342:0:0:0:0:
320,192,200004,1,0,0:0:0:0:
448,192,200088,1,0,0:0:0:0:
320,192,200173,1,0,0:0:0:0:
192,192,200258,1,0,0:0:0:0:
320,192,200342,1,0,0:0:0:0:
448,192,200342,1,0,0:0:0:0:
192,192,200512,1,0,0:0:0:0:
64,192,200681,1,0,0:0:0:0:
320,192,200681,1,0,0:0:0:0:
192,192,200851,1,0,0:0:0:0:
448,192,200851,1,0,0:0:0:0:
64,192,201020,1,0,0:0:0:0:
320,192,201020,1,0,0:0:0:0:
192,192,201190,1,0,0:0:0:0:
448,192,201190,1,0,0:0:0:0:
64,192,201190,1,0,0:0:0:0:
320,192,201359,1,0,0:0:0:0:
448,192,201444,1,0,0:0:0:0:
64,192,201529,1,0,0:0:0:0:
192,192,201614,1,0,0:0:0:0:
320,192,201698,1,0,0:0:0:0:
448,192,201698,1,0,0:0:0:0:
64,192,201698,1,0,0:0:0:0:
192,192,201868,1,0,0:0:0:0:
64,192,201953,1,0,0:0:0:0:
448,192,202037,1,0,0:0:0:0:
320,192,202122,1,0,0:0:0:0:
192,192,202207,1,0,0:0:0:0:
64,192,202207,1,0,0:0:0:0:
192,192,202376,1,0,0:0:0:0:
320,192,202376,1,0,0:0:0:0:
64,192,202546,1,0,0:0:0:0:
448,192,202546,1,0,0:0:0:0:
320,192,202546,1,0,0:0:0:0:
192,192,202715,1,0,0:0:0:0:
320,192,202800,1,0,0:0:0:0:
448,192,202885,1,0,0:0:0:0:
64,192,202970,1,0,0:0:0:0:
192,192,203054,1,0,0:0:0:0:
320,192,203054,1,0,0:0:0:0:
448,192,203054,1,0,0:0:0:0:
64,192,203224,1,0,0:0:0:0:
192,192,203309,1,0,0:0:0:0:
320,192,203393,1,0,0:0:0:0:
448,192,203478,1,0,0:0:0:0:
64,192,203563,1,0,0:0:0:0:
192,192,203563,1,0,0:0:0:0:
320,192,203732,1,0,0:0:0:0:
448,192,203732,1,0,0:0:0:0:
64,192,203902,1,0,0:0:0:0:
192,192,203902,1,0,0:0:0:0:
320,192,203902,1,0,0:0:0:0:
448,192,204071,1,0,0:0:0:0:
320,192,204156,1,0,0:0:0:0:
64,192,204241,1,0,0:0:0:0:
192,192,204326,1,0,0:0:0:0:
320,192,204410,1,0,0:0:0:0:
448,192,204410,1,0,0:0:0:0:
64,192,204410,1,0,0:0:0:0:
192,192,204580,1,0,0:0:0:0:
320,192,204665,1,0,0:0:0:0:
448,192,204749,1,0,0:0:0:0:
64,192,204834,1,0,0:0:0:0:
192,192,204919,1,0,0:0:0:0:
320,192,204919,1,0,0:0:0:0:
64,192,205088,1,0,0:0:0:0:
448,192,205088,1,0,0:0:0:0:
192,192,205258,1,0,0:0:0:0:
320,192,205258,1,0,0:0:0:0:
448,192,205258,1,0,0:0:0:0:
64,192,205427,1,0,0:0:0:0:
192,192,205512,1,0,0:0:0:0:
320,192,205597,1,0,0:0:0:0:
448,192,205681,1,0,0:0:0:0:
64,192,205766,1,0,0:0:0:0:
192,192,205766,1,0,0:0:0:0:
320,192,205766,1,0,0:0:0:0:
448,192,205936,1,0,0:0:0:0:
320,192,206020,1,0,0:0:0:0:
64,192,206105,1,0,0:0:0:0:
192,192,206105,1,0,0:0:0:0:
192,192,206275,1,0,0:0:0:0:
320,192,206275,1,0,0:0:0:0:
448,192,206275,128,0,206444:0:0:0:0:
64,192,206444,1,0,0:0:0:0:
192,192,206614,1,0,0:0:0:0:
320,192,206614,1,0,0:0:0:0:
64,192,206783,1,0,0:0:0:0:
448,192,206783,1,0,0:0:0:0:
192,192,206953,1,0,0:0:0:0:
448,192,207122,1,0,0:0:0:0:
64,192,207122,1,0,0:0:0:0:
192,192,207292,1,0,0:0:0:0:
320,192,207292,1,0,0:0:0:0:
448,192,207461,1,0,0:0:0:0:
192,192,207631,1,0,0:0:0:0:
64,192,207631,1,0,0:0:0:0:
320,192,207800,1,0,0:0:0:0:
448,192,207800,1,0,0:0:0:0:
64,192,207970,1,0,0:0:0:0:
192,192,208054,1,0,0:0:0:0:
320,192,208139,1,0,0:0:0:0:
448,192,208139,1,0,0:0:0:0:
64,192,208309,1,0,0:0:0:0:
192,192,208309,1,0,0:0:0:0:
448,192,208478,1,0,0:0:0:0:
320,192,208563,1,0,0:0:0:0:
192,192,208648,1,0,0:0:0:0:
64,192,208648,1,0,0:0:0:0:
320,192,208817,1,0,0:0:0:0:
448,192,208817,1,0,0:0:0:0:
64,192,208987,1,0,0:0:0:0:
192,192,209156,1,0,0:0:0:0:
320,192,209156,1,0,0:0:0:0:
64,192,209326,1,0,0:0:0:0:
448,192,209326,1,0,0:0:0:0:
192,192,209495,1,0,0:0:0:0:
64,192,209665,1,0,0:0:0:0:
448,192,209665,1,0,0:0:0:0:
192,192,209834,1,0,0:0:0:0:
320,192,209834,1,0,0:0:0:0:
64,192,210004,1,0,0:0:0:0:
320,192,210173,1,0,0:0:0:0:
448,192,210173,1,0,0:0:0:0:
64,192,210342,1,0,0:0:0:0:
192,192,210342,1,0,0:0:0:0:
448,192,210512,1,0,0:0:0:0:
192,192,210681,1,0,0:0:0:0:
320,192,210681,1,0,0:0:0:0:
64,192,210851,1,0,0:0:0:0:
320,192,211020,1,0,0:0:0:0:
448,192,211020,1,0,0:0:0:0:
64,192,211190,1,0,0:0:0:0:
192,192,211359,1,0,0:0:0:0:
320,192,211359,1,0,0:0:0:0:
448,192,211529,1,0,0:0:0:0:
64,192,211698,1,0,0:0:0:0:
320,192,211698,1,0,0:0:0:0:
192,192,211868,1,0,0:0:0:0:
64,192,212037,1,0,0:0:0:0:
448,192,212037,1,0,0:0:0:0:
192,192,212207,1,0,0:0:0:0:
64,192,212376,1,0,0:0:0:0:
320,192,212376,1,0,0:0:0:0:
192,192,212715,1,0,0:0:0:0:
320,192,212715,1,0,0:0:0:0:
64,192,213054,1,0,0:0:0:0:
192,192,213054,1,0,0:0:0:0:
320,192,213393,1,0,0:0:0:0:
448,192,213393,1,0,0:0:0:0:
64,192,213732,1,0,0:0:0:0:
320,192,213732,1,0,0:0:0:0:
192,192,214071,1,0,0:0:0:0:
448,192,214071,1,0,0:0:0:0:
64,192,214410,1,0,0:0:0:0:
192,192,214410,1,0,0:0:0:0:
192,192,214580,1,0,0:0:0:0:
320,192,214580,1,0,0:0:0:0:
320,192,214749,1,0,0:0:0:0:
448,192,214749,1,0,0:0:0:0:
192,192,214919,1,0,0:0:0:0:
320,192,214919,1,0,0:0:0:0:
64,192,215088,1,0,0:0:0:0:
192,192,215088,1,0,0:0:0:0:
192,192,215258,1,0,0:0:0:0:
320,192,215258,1,0,0:0:0:0:
320,192,215427,1,0,0:0:0:0:
448,192,215427,1,0,0:0:0:0:
192,192,215597,1,0,0:0:0:0:
320,192,215597,1,0,0:0:0:0:
64,192,215766,1,0,0:0:0:0:
192,192,215766,1,0,0:0:0:0:
192,192,215936,1,0,0:0:0:0:
320,192,215936,1,0,0:0:0:0:
320,192,216105,1,0,0:0:0:0:
448,192,216105,1,0,0:0:0:0:
192,192,216275,1,0,0:0:0:0:
320,192,216275,1,0,0:0:0:0:
64,192,216275,1,0,0:0:0:0:
64,192,216444,128,0,216782:0:0:0:0:
448,192,216444,128,0,216782:0:0:0:0:
192,192,216782,128,0,217121:0:0:0:0:
320,192,216782,128,0,217121:0:0:0:0:
64,192,217121,128,0,217460:0:0:0:0:
448,192,217121,128,0,217460:0:0:0:0:
320,192,217460,1,0,0:0:0:0:
192,192,217460,128,0,217630:0:0:0:0:
64,192,217630,128,0,217799:0:0:0:0:
448,192,217799,128,0,218138:0:0:0:0:
320,192,218138,128,0,218478:0:0:0:0:
64,192,218478,1,0,0:0:0:0:
192,192,218478,1,0,0:0:0:0:
448,192,218562,1,0,0:0:0:0:
320,192,218562,1,0,0:0:0:0:
64,192,218647,1,0,0:0:0:0:
192,192,218647,1,0,0:0:0:0:
448,192,218816,1,0,0:0:0:0:
192,192,218986,1,0,0:0:0:0:
320,192,218986,1,0,0:0:0:0:
448,192,219155,1,0,0:0:0:0:
64,192,219325,1,0,0:0:0:0:
192,192,219325,1,0,0:0:0:0:
192,192,219494,1,0,0:0:0:0:
320,192,219494,1,0,0:0:0:0:
448,192,219494,128,0,219833:0:0:0:0:
64,192,219833,1,0,0:0:0:0:
192,192,219918,1,0,0:0:0:0:
320,192,220003,1,0,0:0:0:0:
448,192,220088,1,0,0:0:0:0:
320,192,220172,1,0,0:0:0:0:
192,192,220257,1,0,0:0:0:0:
64,192,220342,1,0,0:0:0:0:
192,192,220427,1,0,0:0:0:0:
320,192,220511,1,0,0:0:0:0:
448,192,220511,1,0,0:0:0:0:
64,192,220596,1,0,0:0:0:0:
192,192,220596,1,0,0:0:0:0:
320,192,220681,1,0,0:0:0:0:
448,192,220681,1,0,0:0:0:0:
64,192,220850,1,0,0:0:0:0:
320,192,221020,1,0,0:0:0:0:
192,192,221020,1,0,0:0:0:0:
448,192,221189,1,0,0:0:0:0:
64,192,221359,1,0,0:0:0:0:
192,192,221359,1,0,0:0:0:0:
192,192,221528,1,0,0:0:0:0:
448,192,221528,128,0,221867:0:0:0:0:
320,192,221528,1,0,0:0:0:0:
64,192,221867,1,0,0:0:0:0:
192,192,221952,1,0,0:0:0:0:
320,192,222037,1,0,0:0:0:0:
448,192,222122,1,0,0:0:0:0:
64,192,222206,1,0,0:0:0:0:
192,192,222206,1,0,0:0:0:0:
320,192,222376,1,0,0:0:0:0:
448,192,222461,1,0,0:0:0:0:
64,192,222545,1,0,0:0:0:0:
192,192,222545,1,0,0:0:0:0:
320,192,222630,1,0,0:0:0:0:
448,192,222630,1,0,0:0:0:0:
192,192,222715,1,0,0:0:0:0:
64,192,222715,1,0,0:0:0:0:
320,192,222884,1,0,0:0:0:0:
64,192,223054,1,0,0:0:0:0:
448,192,223054,1,0,0:0:0:0:
192,192,223223,1,0,0:0:0:0:
64,192,223393,1,0,0:0:0:0:
320,192,223393,1,0,0:0:0:0:
192,192,223562,1,0,0:0:0:0:
320,192,223562,1,0,0:0:0:0:
448,192,223562,128,0,223901:0:0:0:0:
64,192,223901,1,0,0:0:0:0:
192,192,223986,1,0,0:0:0:0:
320,192,224071,1,0,0:0:0:0:
448,192,224155,1,0,0:0:0:0:
64,192,224240,1,0,0:0:0:0:
192,192,224325,1,0,0:0:0:0:
320,192,224410,1,0,0:0:0:0:
448,192,224494,1,0,0:0:0:0:
64,192,224579,1,0,0:0:0:0:
192,192,224579,1,0,0:0:0:0:
320,192,224664,1,0,0:0:0:0:
448,192,224664,1,0,0:0:0:0:
192,192,224749,1,0,0:0:0:0:
64,192,224749,1,0,0:0:0:0:
448,192,224918,1,0,0:0:0:0:
192,192,225088,1,0,0:0:0:0:
320,192,225088,1,0,0:0:0:0:
64,192,225257,1,0,0:0:0:0:
320,192,225427,1,0,0:0:0:0:
448,192,225427,1,0,0:0:0:0:
64,192,225596,1,0,0:0:0:0:
192,192,225596,1,0,0:0:0:0:
320,192,225596,1,0,0:0:0:0:
192,192,225935,1,0,0:0:0:0:
320,192,225935,1,0,0:0:0:0:
448,192,225935,1,0,0:0:0:0:
64,192,226274,1,0,0:0:0:0:
192,192,226274,1,0,0:0:0:0:
320,192,226274,1,0,0:0:0:0:
192,192,226613,1,0,0:0:0:0:
64,192,226613,1,0,0:0:0:0:
320,192,226698,1,0,0:0:0:0:
448,192,226698,1,0,0:0:0:0:
192,192,226783,1,0,0:0:0:0:
64,192,226783,1,0,0:0:0:0:
448,192,226952,1,0,0:0:0:0:
320,192,227122,1,0,0:0:0:0:
192,192,227122,1,0,0:0:0:0:
448,192,227291,1,0,0:0:0:0:
192,192,227461,1,0,0:0:0:0:
64,192,227461,1,0,0:0:0:0:
448,192,227630,128,0,227969:0:0:0:0:
320,192,227630,1,0,0:0:0:0:
192,192,227630,1,0,0:0:0:0:
64,192,227969,1,0,0:0:0:0:
192,192,228054,1,0,0:0:0:0:
320,192,228139,1,0,0:0:0:0:
448,192,228223,1,0,0:0:0:0:
320,192,228308,1,0,0:0:0:0:
192,192,228393,1,0,0:0:0:0:
64,192,228478,1,0,0:0:0:0:
192,192,228562,1,0,0:0:0:0:
448,192,228647,1,0,0:0:0:0:
320,192,228647,1,0,0:0:0:0:
192,192,228732,1,0,0:0:0:0:
64,192,228732,1,0,0:0:0:0:
448,192,228816,1,0,0:0:0:0:
320,192,228816,1,0,0:0:0:0:
64,192,228986,1,0,0:0:0:0:
192,192,229155,1,0,0:0:0:0:
320,192,229155,1,0,0:0:0:0:
448,192,229325,1,0,0:0:0:0:
192,192,229494,1,0,0:0:0:0:
64,192,229494,1,0,0:0:0:0:
320,192,229664,1,0,0:0:0:0:
448,192,229664,128,0,230003:0:0:0:0:
192,192,229664,1,0,0:0:0:0:
64,192,230003,1,0,0:0:0:0:
192,192,230088,1,0,0:0:0:0:
320,192,230172,1,0,0:0:0:0:
448,192,230257,1,0,0:0:0:0:
192,192,230342,1,0,0:0:0:0:
64,192,230342,1,0,0:0:0:0:
320,192,230511,1,0,0:0:0:0:
448,192,230596,1,0,0:0:0:0:
192,192,230681,1,0,0:0:0:0:
64,192,230681,1,0,0:0:0:0:
448,192,230766,1,0,0:0:0:0:
320,192,230766,1,0,0:0:0:0:
64,192,230850,1,0,0:0:0:0:
192,192,230850,1,0,0:0:0:0:
320,192,231020,1,0,0:0:0:0:
448,192,231189,1,0,0:0:0:0:
64,192,231189,1,0,0:0:0:0:
192,192,231359,1,0,0:0:0:0:
320,192,231528,1,0,0:0:0:0:
64,192,231528,1,0,0:0:0:0:
448,192,231698,128,0,232037:0:0:0:0:
320,192,231698,1,0,0:0:0:0:
192,192,231698,1,0,0:0:0:0:
64,192,232037,1,0,0:0:0:0:
192,192,232122,1,0,0:0:0:0:
320,192,232206,1,0,0:0:0:0:
448,192,232291,1,0,0:0:0:0:
64,192,232376,1,0,0:0:0:0:
192,192,232461,1,0,0:0:0:0:
320,192,232545,1,0,0:0:0:0:
448,192,232630,1,0,0:0:0:0:
192,192,232715,1,0,0:0:0:0:
64,192,232715,1,0,0:0:0:0:
448,192,232800,1,0,0:0:0:0:
320,192,232800,1,0,0:0:0:0:
64,192,232884,1,0,0:0:0:0:
192,192,232884,1,0,0:0:0:0:
448,192,233054,1,0,0:0:0:0:
320,192,233223,1,0,0:0:0:0:
192,192,233223,1,0,0:0:0:0:
64,192,233393,1,0,0:0:0:0:
448,192,233562,1,0,0:0:0:0:
320,192,233562,1,0,0:0:0:0:
320,192,233732,1,0,0:0:0:0:
192,192,233732,1,0,0:0:0:0:
64,192,233732,128,0,234071:0:0:0:0:
320,192,234071,1,0,0:0:0:0:
192,192,234071,1,0,0:0:0:0:
448,192,234071,1,0,0:0:0:0:
64,192,234240,1,0,0:0:0:0:
192,192,234240,1,0,0:0:0:0:
320,192,234410,1,0,0:0:0:0:
64,192,234410,1,0,0:0:0:0:
448,192,234410,1,0,0:0:0:0:
192,192,234579,1,0,0:0:0:0:
320,192,234579,1,0,0:0:0:0:
320,192,234749,1,0,0:0:0:0:
448,192,234749,1,0,0:0:0:0:
192,192,234833,1,0,0:0:0:0:
64,192,234833,1,0,0:0:0:0:
320,192,234918,1,0,0:0:0:0:
448,192,234918,1,0,0:0:0:0:
192,192,235088,1,0,0:0:0:0:
64,192,235257,1,0,0:0:0:0:
448,192,235257,1,0,0:0:0:0:
320,192,235427,1,0,0:0:0:0:
192,192,235596,1,0,0:0:0:0:
448,192,235596,1,0,0:0:0:0:
64,192,235766,1,0,0:0:0:0:
192,192,235766,1,0,0:0:0:0:
320,192,235766,1,0,0:0:0:0:
448,192,235935,1,0,0:0:0:0:
64,192,236105,1,0,0:0:0:0:
192,192,236189,1,0,0:0:0:0:
320,192,236274,1,0,0:0:0:0:
448,192,236359,1,0,0:0:0:0:
64,192,236359,1,0,0:0:0:0:
192,192,236444,1,0,0:0:0:0:
320,192,236528,1,0,0:0:0:0:
448,192,236613,1,0,0:0:0:0:
64,192,236613,1,0,0:0:0:0:
192,192,236698,1,0,0:0:0:0:
320,192,236783,1,0,0:0:0:0:
448,192,236783,1,0,0:0:0:0:
64,192,236867,1,0,0:0:0:0:
192,192,236867,1,0,0:0:0:0:
320,192,236952,1,0,0:0:0:0:
448,192,236952,1,0,0:0:0:0:
64,192,237122,1,0,0:0:0:0:
192,192,237291,1,0,0:0:0:0:
320,192,237291,1,0,0:0:0:0:
448,192,237461,1,0,0:0:0:0:
64,192,237630,1,0,0:0:0:0:
192,192,237630,1,0,0:0:0:0:
192,192,237800,1,0,0:0:0:0:
320,192,237800,1,0,0:0:0:0:
448,192,237800,128,0,238139:0:0:0:0:
64,192,238139,1,0,0:0:0:0:
192,192,238139,1,0,0:0:0:0:
320,192,238139,1,0,0:0:0:0:
320,192,238308,1,0,0:0:0:0:
448,192,238308,1,0,0:0:0:0:
64,192,238478,1,0,0:0:0:0:
192,192,238478,1,0,0:0:0:0:
320,192,238478,1,0,0:0:0:0:
320,192,238647,1,0,0:0:0:0:
448,192,238647,1,0,0:0:0:0:
64,192,238816,1,0,0:0:0:0:
192,192,238816,1,0,0:0:0:0:
320,192,238901,1,0,0:0:0:0:
448,192,238901,1,0,0:0:0:0:
192,192,238986,1,0,0:0:0:0:
64,192,238986,1,0,0:0:0:0:
320,192,239155,1,0,0:0:0:0:
192,192,239325,1,0,0:0:0:0:
448,192,239325,1,0,0:0:0:0:
320,192,239494,1,0,0:0:0:0:
64,192,239664,1,0,0:0:0:0:
448,192,239664,1,0,0:0:0:0:
192,192,239833,1,0,0:0:0:0:
320,192,239833,1,0,0:0:0:0:
448,192,239833,128,0,240172:0:0:0:0:
64,192,240172,1,0,0:0:0:0:
192,192,240257,1,0,0:0:0:0:
320,192,240342,1,0,0:0:0:0:
448,192,240427,1,0,0:0:0:0:
64,192,240427,1,0,0:0:0:0:
192,192,240511,1,0,0:0:0:0:
320,192,240596,1,0,0:0:0:0:
448,192,240681,1,0,0:0:0:0:
64,192,240681,1,0,0:0:0:0:
192,192,240766,1,0,0:0:0:0:
320,192,240850,1,0,0:0:0:0:
448,192,240850,1,0,0:0:0:0:
64,192,240935,1,0,0:0:0:0:
192,192,240935,1,0,0:0:0:0:
320,192,241020,1,0,0:0:0:0:
448,192,241020,1,0,0:0:0:0:
64,192,241189,1,0,0:0:0:0:
192,192,241359,1,0,0:0:0:0:
320,192,241359,1,0,0:0:0:0:
448,192,241528,1,0,0:0:0:0:
64,192,241698,1,0,0:0:0:0:
192,192,241698,1,0,0:0:0:0:
192,192,241867,1,0,0:0:0:0:
320,192,241867,1,0,0:0:0:0:
448,192,241867,128,0,242206:0:0:0:0:
320,192,242206,1,0,0:0:0:0:
192,192,242291,1,0,0:0:0:0:
64,192,242376,1,0,0:0:0:0:
448,192,242376,1,0,0:0:0:0:
320,192,242461,1,0,0:0:0:0:
192,192,242545,1,0,0:0:0:0:
64,192,242545,1,0,0:0:0:0:
448,192,242715,1,0,0:0:0:0:
320,192,242800,1,0,0:0:0:0:
192,192,242884,1,0,0:0:0:0:
64,192,242884,1,0,0:0:0:0:
320,192,242969,1,0,0:0:0:0:
448,192,242969,1,0,0:0:0:0:
192,192,243054,1,0,0:0:0:0:
64,192,243054,1,0,0:0:0:0:
448,192,243223,1,0,0:0:0:0:
320,192,243308,1,0,0:0:0:0:
192,192,243393,1,0,0:0:0:0:
64,192,243393,1,0,0:0:0:0:
448,192,243562,1,0,0:0:0:0:
320,192,243647,1,0,0:0:0:0:
192,192,243732,1,0,0:0:0:0:
64,192,243732,1,0,0:0:0:0:
192,192,243901,1,0,0:0:0:0:
320,192,243901,1,0,0:0:0:0:
448,192,243901,128,0,244240:0:0:0:0:
64,192,244240,1,0,0:0:0:0:
192,192,244325,1,0,0:0:0:0:
448,192,244410,1,0,0:0:0:0:
320,192,244494,1,0,0:0:0:0:
64,192,244579,1,0,0:0:0:0:
192,192,244664,1,0,0:0:0:0:
448,192,244749,1,0,0:0:0:0:
320,192,244833,1,0,0:0:0:0:
64,192,244918,1,0,0:0:0:0:
192,192,244918,1,0,0:0:0:0:
320,192,245003,1,0,0:0:0:0:
448,192,245003,1,0,0:0:0:0:
192,192,245088,1,0,0:0:0:0:
64,192,245088,1,0,0:0:0:0:
448,192,245257,1,0,0:0:0:0:
320,192,245342,1,0,0:0:0:0:
192,192,245427,1,0,0:0:0:0:
64,192,245427,1,0,0:0:0:0:
448,192,245596,1,0,0:0:0:0:
320,192,245681,1,0,0:0:0:0:
192,192,245766,1,0,0:0:0:0:
64,192,245766,1,0,0:0:0:0:
192,192,245935,1,0,0:0:0:0:
320,192,245935,1,0,0:0:0:0:
448,192,245935,128,0,246274:0:0:0:0:
64,192,246274,1,0,0:0:0:0:
192,192,246359,1,0,0:0:0:0:
320,192,246444,1,0,0:0:0:0:
448,192,246444,1,0,0:0:0:0:
64,192,246613,1,0,0:0:0:0:
192,192,246613,1,0,0:0:0:0:
320,192,246613,1,0,0:0:0:0:
320,192,246783,1,0,0:0:0:0:
448,192,246783,1,0,0:0:0:0:
192,192,246952,1,0,0:0:0:0:
64,192,246952,128,0,247969:0:0:0:0:
448,192,247122,1,0,0:0:0:0:
320,192,247291,1,0,0:0:0:0:
448,192,247461,1,0,0:0:0:0:
192,192,247630,1,0,0:0:0:0:
448,192,247969,128,0,248986:0:0:0:0:
192,192,247969,1,0,0:0:0:0:
320,192,248139,1,0,0:0:0:0:
64,192,248308,1,0,0:0:0:0:
320,192,248478,1,0,0:0:0:0:
192,192,248647,1,0,0:0:0:0:
64,192,248986,128,0,250003:0:0:0:0:
320,192,248986,1,0,0:0:0:0:
448,192,249155,1,0,0:0:0:0:
192,192,249325,1,0,0:0:0:0:
448,192,249494,1,0,0:0:0:0:
320,192,249664,1,0,0:0:0:0:
448,192,250003,128,0,251020:0:0:0:0:
320,192,250003,1,0,0:0:0:0:
192,192,250172,1,0,0:0:0:0:
64,192,250342,1,0,0:0:0:0:
320,192,250511,1,0,0:0:0:0:
192,192,250681,1,0,0:0:0:0:
64,192,251020,128,0,252037:0:0:0:0:
320,192,251020,1,0,0:0:0:0:
448,192,251189,1,0,0:0:0:0:
192,192,251359,1,0,0:0:0:0:
448,192,251528,1,0,0:0:0:0:
320,192,251698,1,0,0:0:0:0:
448,192,252037,128,0,253054:0:0:0:0:
320,192,252037,1,0,0:0:0:0:
192,192,252206,1,0,0:0:0:0:
64,192,252376,1,0,0:0:0:0:
320,192,252545,1,0,0:0:0:0:
192,192,252715,1,0,0:0:0:0:
64,192,253054,128,0,254071:0:0:0:0:
192,192,253054,1,0,0:0:0:0:
320,192,253393,1,0,0:0:0:0:
448,192,253732,1,0,0:0:0:0:
448,192,254071,128,0,255088:0:0:0:0:
192,192,254071,1,0,0:0:0:0:
320,192,254410,1,0,0:0:0:0:
192,192,254579,1,0,0:0:0:0:
320,192,254749,1,0,0:0:0:0:
64,192,254918,1,0,0:0:0:0:
192,192,255088,1,0,0:0:0:0:
320,192,255088,1,0,0:0:0:0:
64,192,255257,1,0,0:0:0:0:
192,192,255257,1,0,0:0:0:0:
448,192,255427,1,0,0:0:0:0:
192,192,255596,1,0,0:0:0:0:
320,192,255596,1,0,0:0:0:0:
64,192,255766,1,0,0:0:0:0:
192,192,255935,1,0,0:0:0:0:
320,192,255935,1,0,0:0:0:0:
64,192,256105,1,0,0:0:0:0:
448,192,256105,1,0,0:0:0:0:
192,192,256274,1,0,0:0:0:0:
448,192,256444,1,0,0:0:0:0:
320,192,256528,1,0,0:0:0:0:
192,192,256613,1,0,0:0:0:0:
64,192,256698,1,0,0:0:0:0:
320,192,256783,1,0,0:0:0:0:
448,192,256783,1,0,0:0:0:0:
192,192,256952,1,0,0:0:0:0:
64,192,257122,1,0,0:0:0:0:
448,192,257122,1,0,0:0:0:0:
192,192,257291,1,0,0:0:0:0:
320,192,257291,1,0,0:0:0:0:
64,192,257461,1,0,0:0:0:0:
320,192,257630,1,0,0:0:0:0:
448,192,257630,1,0,0:0:0:0:
192,192,257800,1,0,0:0:0:0:
64,192,257969,1,0,0:0:0:0:
448,192,257969,1,0,0:0:0:0:
448,192,258139,1,0,0:0:0:0:
320,192,258139,1,0,0:0:0:0:
192,192,258308,1,0,0:0:0:0:
64,192,258478,1,0,0:0:0:0:
192,192,258562,1,0,0:0:0:0:
320,192,258647,1,0,0:0:0:0:
448,192,258732,1,0,0:0:0:0:
64,192,258816,1,0,0:0:0:0:
192,192,258816,1,0,0:0:0:0:
448,192,258986,1,0,0:0:0:0:
192,192,259155,1,0,0:0:0:0:
320,192,259155,1,0,0:0:0:0:
64,192,259325,1,0,0:0:0:0:
192,192,259325,1,0,0:0:0:0:
320,192,259494,1,0,0:0:0:0:
448,192,259494,128,0,260172:0:0:0:0:
64,192,259664,1,0,0:0:0:0:
192,192,259664,1,0,0:0:0:0:
320,192,259833,1,0,0:0:0:0:
64,192,260003,1,0,0:0:0:0:
192,192,260003,1,0,0:0:0:0:
320,192,260172,1,0,0:0:0:0:
64,192,260172,128,0,260850:0:0:0:0:
192,192,260342,1,0,0:0:0:0:
320,192,260511,1,0,0:0:0:0:
448,192,260596,1,0,0:0:0:0:
320,192,260681,1,0,0:0:0:0:
192,192,260766,1,0,0:0:0:0:
320,192,260850,1,0,0:0:0:0:
448,192,260850,1,0,0:0:0:0:
192,192,261020,1,0,0:0:0:0:
448,192,261189,128,0,261528:0:0:0:0:
64,192,261189,128,0,261528:0:0:0:0:
192,192,261528,128,0,261867:0:0:0:0:
320,192,261528,128,0,261867:0:0:0:0:
448,192,261867,128,0,262206:0:0:0:0:
64,192,261867,128,0,262206:0:0:0:0:
192,192,262206,128,0,262376:0:0:0:0:
320,192,262376,128,0,262545:0:0:0:0:
448,192,262545,128,0,262884:0:0:0:0:
320,192,262884,128,0,263223:0:0:0:0:
64,192,263223,1,0,0:0:0:0:
192,192,263223,1,0,0:0:0:0:
320,192,263308,1,0,0:0:0:0:
448,192,263308,1,0,0:0:0:0:
192,192,263393,1,0,0:0:0:0:
64,192,263393,1,0,0:0:0:0:
320,192,263562,1,0,0:0:0:0:
192,192,263732,1,0,0:0:0:0:
448,192,263732,1,0,0:0:0:0:
320,192,263901,1,0,0:0:0:0:
64,192,264071,1,0,0:0:0:0:
448,192,264071,1,0,0:0:0:0:
192,192,264240,1,0,0:0:0:0:
320,192,264240,1,0,0:0:0:0:
448,192,264240,1,0,0:0:0:0:
64,192,264410,1,0,0:0:0:0:
448,192,264579,1,0,0:0:0:0:
320,192,264664,1,0,0:0:0:0:
192,192,264749,1,0,0:0:0:0:
64,192,264833,1,0,0:0:0:0:
320,192,264918,1,0,0:0:0:0:
448,192,264918,1,0,0:0:0:0:
64,192,265088,1,0,0:0:0:0:
320,192,265257,1,0,0:0:0:0:
448,192,265257,1,0,0:0:0:0:
64,192,265342,1,0,0:0:0:0:
192,192,265342,1,0,0:0:0:0:
320,192,265427,1,0,0:0:0:0:
448,192,265427,1,0,0:0:0:0:
64,192,265596,1,0,0:0:0:0:
192,192,265766,1,0,0:0:0:0:
320,192,265766,1,0,0:0:0:0:
448,192,265935,1,0,0:0:0:0:
64,192,266105,1,0,0:0:0:0:
192,192,266105,1,0,0:0:0:0:
192,192,266274,1,0,0:0:0:0:
320,192,266274,1,0,0:0:0:0:
448,192,266274,1,0,0:0:0:0:
64,192,266444,1,0,0:0:0:0:
64,192,266613,1,0,0:0:0:0:
192,192,266698,1,0,0:0:0:0:
320,192,266783,1,0,0:0:0:0:
64,192,266867,1,0,0:0:0:0:
192,192,266952,1,0,0:0:0:0:
448,192,266952,1,0,0:0:0:0:
320,192,267122,1,0,0:0:0:0:
64,192,267291,1,0,0:0:0:0:
448,192,267291,1,0,0:0:0:0:
192,192,267376,1,0,0:0:0:0:
320,192,267376,1,0,0:0:0:0:
64,192,267461,1,0,0:0:0:0:
448,192,267461,1,0,0:0:0:0:
192,192,267630,1,0,0:0:0:0:
64,192,267800,1,0,0:0:0:0:
320,192,267800,1,0,0:0:0:0:
448,192,267969,1,0,0:0:0:0:
64,192,268139,1,0,0:0:0:0:
192,192,268139,1,0,0:0:0:0:
192,192,268308,1,0,0:0:0:0:
320,192,268308,1,0,0:0:0:0:
448,192,268308,1,0,0:0:0:0:
64,192,268478,1,0,0:0:0:0:
448,192,268647,1,0,0:0:0:0:
320,192,268732,1,0,0:0:0:0:
192,192,268816,1,0,0:0:0:0:
64,192,268901,1,0,0:0:0:0:
192,192,268986,1,0,0:0:0:0:
320,192,268986,1,0,0:0:0:0:
448,192,269155,1,0,0:0:0:0:
64,192,269325,1,0,0:0:0:0:
192,192,269325,1,0,0:0:0:0:
448,192,269410,1,0,0:0:0:0:
320,192,269410,1,0,0:0:0:0:
192,192,269494,1,0,0:0:0:0:
64,192,269494,1,0,0:0:0:0:
448,192,269664,1,0,0:0:0:0:
64,192,269833,1,0,0:0:0:0:
192,192,269833,1,0,0:0:0:0:
320,192,270003,1,0,0:0:0:0:
192,192,270172,1,0,0:0:0:0:
448,192,270172,1,0,0:0:0:0:
64,192,270342,1,0,0:0:0:0:
192,192,270342,1,0,0:0:0:0:
320,192,270342,1,0,0:0:0:0:
448,192,270511,1,0,0:0:0:0:
64,192,270681,1,0,0:0:0:0:
192,192,270766,1,0,0:0:0:0:
320,192,270850,1,0,0:0:0:0:
448,192,270935,1,0,0:0:0:0:
64,192,271020,1,0,0:0:0:0:
192,192,271020,1,0,0:0:0:0:
320,192,271189,1,0,0:0:0:0:
64,192,271359,1,0,0:0:0:0:
448,192,271359,1,0,0:0:0:0:
192,192,271444,1,0,0:0:0:0:
320,192,271444,1,0,0:0:0:0:
64,192,271528,1,0,0:0:0:0:
448,192,271528,1,0,0:0:0:0:
192,192,271698,1,0,0:0:0:0:
320,192,271867,1,0,0:0:0:0:
448,192,271867,1,0,0:0:0:0:
64,192,272037,1,0,0:0:0:0:
192,192,272206,1,0,0:0:0:0:
320,192,272206,1,0,0:0:0:0:
320,192,272376,1,0,0:0:0:0:
448,192,272376,1,0,0:0:0:0:
64,192,272376,1,0,0:0:0:0:
192,192,272545,1,0,0:0:0:0:
64,192,272715,1,0,0:0:0:0:
192,192,272800,1,0,0:0:0:0:
448,192,272884,1,0,0:0:0:0:
320,192,272969,1,0,0:0:0:0:
64,192,273054,1,0,0:0:0:0:
192,192,273054,1,0,0:0:0:0:
320,192,273223,1,0,0:0:0:0:
64,192,273393,1,0,0:0:0:0:
192,192,273393,1,0,0:0:0:0:
320,192,273478,1,0,0:0:0:0:
448,192,273478,1,0,0:0:0:0:
192,192,273562,1,0,0:0:0:0:
64,192,273562,1,0,0:0:0:0:
448,192,273732,1,0,0:0:0:0:
192,192,273901,1,0,0:0:0:0:
320,192,273901,1,0,0:0:0:0:
64,192,274071,1,0,0:0:0:0:
192,192,274240,1,0,0:0:0:0:
320,192,274240,1,0,0:0:0:0:
64,192,274410,1,0,0:0:0:0:
192,192,274410,1,0,0:0:0:0:
448,192,274410,1,0,0:0:0:0:
320,192,274579,1,0,0:0:0:0:
64,192,274749,1,0,0:0:0:0:
192,192,274833,1,0,0:0:0:0:
320,192,274918,1,0,0:0:0:0:
448,192,275003,1,0,0:0:0:0:
64,192,275088,1,0,0:0:0:0:
192,192,275088,1,0,0:0:0:0:
320,192,275257,1,0,0:0:0:0:
64,192,275427,1,0,0:0:0:0:
448,192,275427,1,0,0:0:0:0:
192,192,275511,1,0,0:0:0:0:
320,192,275511,1,0,0:0:0:0:
448,192,275596,1,0,0:0:0:0:
64,192,275596,1,0,0:0:0:0:
192,192,275766,1,0,0:0:0:0:
320,192,275935,1,0,0:0:0:0:
448,192,275935,1,0,0:0:0:0:
64,192,276105,1,0,0:0:0:0:
192,192,276274,1,0,0:0:0:0:
320,192,276274,1,0,0:0:0:0:
64,192,276444,1,0,0:0:0:0:
320,192,276444,1,0,0:0:0:0:
448,192,276444,1,0,0:0:0:0:
192,192,276613,1,0,0:0:0:0:
448,192,276783,1,0,0:0:0:0:
320,192,276867,1,0,0:0:0:0:
192,192,276952,1,0,0:0:0:0:
64,192,277037,1,0,0:0:0:0:
192,192,277122,1,0,0:0:0:0:
320,192,277122,1,0,0:0:0:0:
448,192,277291,1,0,0:0:0:0:
64,192,277461,1,0,0:0:0:0:
192,192,277461,1,0,0:0:0:0:
448,192,277545,1,0,0:0:0:0:
320,192,277545,1,0,0:0:0:0:
192,192,277630,1,0,0:0:0:0:
64,192,277630,1,0,0:0:0:0:
448,192,277800,1,0,0:0:0:0:
64,192,277969,1,0,0:0:0:0:
192,192,277969,1,0,0:0:0:0:
320,192,278139,1,0,0:0:0:0:
192,192,278308,1,0,0:0:0:0:
448,192,278308,1,0,0:0:0:0:
64,192,278478,1,0,0:0:0:0:
192,192,278478,1,0,0:0:0:0:
320,192,278478,1,0,0:0:0:0:
448,192,278647,1,0,0:0:0:0:
64,192,278816,1,0,0:0:0:0:
192,192,278901,1,0,0:0:0:0:
320,192,278986,1,0,0:0:0:0:
448,192,279071,1,0,0:0:0:0:
64,192,279155,1,0,0:0:0:0:
192,192,279155,1,0,0:0:0:0:
320,192,279325,1,0,0:0:0:0:
64,192,279494,1,0,0:0:0:0:
448,192,279494,1,0,0:0:0:0:
192,192,279579,1,0,0:0:0:0:
320,192,279579,1,0,0:0:0:0:
64,192,279664,1,0,0:0:0:0:
448,192,279664,1,0,0:0:0:0:
192,192,279833,1,0,0:0:0:0:
320,192,280003,1,0,0:0:0:0:
448,192,280003,1,0,0:0:0:0:
64,192,280172,1,0,0:0:0:0:
192,192,280342,1,0,0:0:0:0:
320,192,280342,1,0,0:0:0:0:
320,192,280511,1,0,0:0:0:0:
448,192,280511,1,0,0:0:0:0:
64,192,280511,1,0,0:0:0:0:
192,192,280681,1,0,0:0:0:0:
64,192,280850,1,0,0:0:0:0:
192,192,280935,1,0,0:0:0:0:
448,192,281020,1,0,0:0:0:0:
320,192,281105,1,0,0:0:0:0:
64,192,281189,1,0,0:0:0:0:
192,192,281189,1,0,0:0:0:0:
320,192,281359,1,0,0:0:0:0:
64,192,281528,1,0,0:0:0:0:
192,192,281528,1,0,0:0:0:0:
320,192,281613,1,0,0:0:0:0:
448,192,281613,1,0,0:0:0:0:
192,192,281698,1,0,0:0:0:0:
64,192,281698,1,0,0:0:0:0:
448,192,281867,1,0,0:0:0:0:
192,192,282037,1,0,0:0:0:0:
320,192,282037,1,0,0:0:0:0:
64,192,282206,1,0,0:0:0:0:
192,192,282376,1,0,0:0:0:0:
320,192,282376,1,0,0:0:0:0:
64,192,282545,1,0,0:0:0:0:
192,192,282545,1,0,0:0:0:0:
448,192,282545,1,0,0:0:0:0:
320,192,282715,1,0,0:0:0:0:
64,192,282884,1,0,0:0:0:0:
192,192,282969,1,0,0:0:0:0:
320,192,283054,1,0,0:0:0:0:
448,192,283139,1,0,0:0:0:0:
64,192,283223,1,0,0:0:0:0:
192,192,283223,1,0,0:0:0:0:
320,192,283393,1,0,0:0:0:0:
64,192,283562,1,0,0:0:0:0:
448,192,283562,1,0,0:0:0:0:
192,192,283647,1,0,0:0:0:0:
320,192,283647,1,0,0:0:0:0:
448,192,283732,1,0,0:0:0:0:
64,192,283732,1,0,0:0:0:0:
192,192,283901,1,0,0:0:0:0:
320,192,284071,1,0,0:0:0:0:
448,192,284071,1,0,0:0:0:0:
64,192,284240,1,0,0:0:0:0:
192,192,284410,1,0,0:0:0:0:
320,192,284410,1,0,0:0:0:0:
64,192,284579,1,0,0:0:0:0:
320,192,284579,1,0,0:0:0:0:
448,192,284579,1,0,0:0:0:0:
192,192,284749,1,0,0:0:0:0:
448,192,284918,1,0,0:0:0:0:
320,192,285003,1,0,0:0:0:0:
64,192,285088,1,0,0:0:0:0:
192,192,285172,1,0,0:0:0:0:
320,192,285257,1,0,0:0:0:0:
448,192,285257,1,0,0:0:0:0:
64,192,285427,1,0,0:0:0:0:
320,192,285596,1,0,0:0:0:0:
448,192,285596,1,0,0:0:0:0:
64,192,285681,1,0,0:0:0:0:
192,192,285681,1,0,0:0:0:0:
320,192,285766,1,0,0:0:0:0:
448,192,285766,1,0,0:0:0:0:
64,192,285935,1,0,0:0:0:0:
320,192,286105,1,0,0:0:0:0:
448,192,286105,1,0,0:0:0:0:
192,192,286274,1,0,0:0:0:0:
448,192,286444,1,0,0:0:0:0:
64,192,286444,1,0,0:0:0:0:
320,192,286613,1,0,0:0:0:0:
192,192,286613,1,0,0:0:0:0:
64,192,286613,1,0,0:0:0:0:
448,192,286783,1,0,0:0:0:0:
64,192,286952,1,0,0:0:0:0:
192,192,287037,1,0,0:0:0:0:
320,192,287122,1,0,0:0:0:0:
448,192,287206,1,0,0:0:0:0:
192,192,287291,1,0,0:0:0:0:
64,192,287291,1,0,0:0:0:0:
320,192,287461,1,0,0:0:0:0:
448,192,287630,1,0,0:0:0:0:
64,192,287630,1,0,0:0:0:0:
320,192,287715,1,0,0:0:0:0:
192,192,287715,1,0,0:0:0:0:
448,192,287800,1,0,0:0:0:0:
64,192,287800,1,0,0:0:0:0:
192,192,287969,1,0,0:0:0:0:
448,192,288139,1,0,0:0:0:0:
320,192,288139,1,0,0:0:0:0:
64,192,288308,1,0,0:0:0:0:
320,192,288478,1,0,0:0:0:0:
192,192,288478,1,0,0:0:0:0:
64,192,288647,1,0,0:0:0:0:
448,192,288647,1,0,0:0:0:0:
320,192,288647,1,0,0:0:0:0:
192,192,288816,1,0,0:0:0:0:
64,192,288986,1,0,0:0:0:0:
192,192,289071,1,0,0:0:0:0:
448,192,289155,1,0,0:0:0:0:
320,192,289240,1,0,0:0:0:0:
192,192,289325,1,0,0:0:0:0:
64,192,289325,1,0,0:0:0:0:
320,192,289494,1,0,0:0:0:0:
192,192,289664,1,0,0:0:0:0:
64,192,289664,1,0,0:0:0:0:
448,192,289749,1,0,0:0:0:0:
320,192,289749,1,0,0:0:0:0:
64,192,289833,1,0,0:0:0:0:
192,192,289833,1,0,0:0:0:0:
448,192,290003,1,0,0:0:0:0:
320,192,290172,1,0,0:0:0:0:
192,192,290172,1,0,0:0:0:0:
64,192,290342,1,0,0:0:0:0:
320,192,290511,1,0,0:0:0:0:
192,192,290511,1,0,0:0:0:0:
448,192,290681,1,0,0:0:0:0:
192,192,290681,1,0,0:0:0:0:
64,192,290681,1,0,0:0:0:0:
320,192,290850,1,0,0:0:0:0:
64,192,291020,1,0,0:0:0:0:
192,192,291105,1,0,0:0:0:0:
320,192,291189,1,0,0:0:0:0:
448,192,291274,1,0,0:0:0:0:
192,192,291359,1,0,0:0:0:0:
64,192,291359,1,0,0:0:0:0:
320,192,291528,1,0,0:0:0:0:
64,192,291698,1,0,0:0:0:0:
192,192,291699,1,0,0:0:0:0:
448,192,291699,1,0,0:0:0:0:
64,192,292037,128,0,294410:0:0:0:0:
448,192,292037,128,0,294410:0:0:0:0:
320,192,294410,128,0,295766:0:0:0:0:
192,192,294410,128,0,295766:0:0:0:0:
64,192,295766,128,0,296105:0:0:0:0:
448,192,295766,128,0,296105:0:0:0:0:
64,192,296444,128,0,296783:0:0:0:0:
320,192,296444,128,0,296783:0:0:0:0:
320,192,297122,1,0,0:0:0:0:
448,192,297122,1,0,0:0:0:0:
192,192,297461,128,0,299834:0:0:0:0:
448,192,297461,128,0,299834:0:0:0:0:
64,192,299834,128,0,301190:0:0:0:0:
320,192,299834,128,0,301190:0:0:0:0:
192,192,301190,1,0,0:0:0:0:
448,192,301190,1,0,0:0:0:0:
64,192,301868,1,0,0:0:0:0:
192,192,301868,1,0,0:0:0:0:
448,192,301868,1,0,0:0:0:0:
64,192,302546,1,0,0:0:0:0:
320,192,302546,1,0,0:0:0:0:
448,192,302546,1,0,0:0:0:0:
320,192,302885,1,0,0:0:0:0:
64,192,302885,128,0,303054:0:0:0:0:
192,192,302885,1,0,0:0:0:0:
448,192,303139,1,0,0:0:0:0:
320,192,303224,1,0,0:0:0:0:
64,192,303309,1,0,0:0:0:0:
192,192,303393,1,0,0:0:0:0:
320,192,303393,1,0,0:0:0:0:
448,192,303563,1,0,0:0:0:0:
320,192,303648,1,0,0:0:0:0:
192,192,303732,1,0,0:0:0:0:
64,192,303817,1,0,0:0:0:0:
192,192,303902,1,0,0:0:0:0:
320,192,303902,1,0,0:0:0:0:
448,192,304071,1,0,0:0:0:0:
192,192,304241,1,0,0:0:0:0:
320,192,304241,1,0,0:0:0:0:
64,192,304241,1,0,0:0:0:0:
448,192,304410,1,0,0:0:0:0:
320,192,304495,1,0,0:0:0:0:
64,192,304580,1,0,0:0:0:0:
192,192,304665,1,0,0:0:0:0:
320,192,304749,1,0,0:0:0:0:
448,192,304749,1,0,0:0:0:0:
64,192,304919,1,0,0:0:0:0:
192,192,305004,1,0,0:0:0:0:
320,192,305088,1,0,0:0:0:0:
448,192,305088,1,0,0:0:0:0:
192,192,305258,1,0,0:0:0:0:
320,192,305258,1,0,0:0:0:0:
64,192,305427,1,0,0:0:0:0:
320,192,305597,1,0,0:0:0:0:
448,192,305597,1,0,0:0:0:0:
192,192,305597,1,0,0:0:0:0:
64,192,305766,1,0,0:0:0:0:
448,192,305766,1,0,0:0:0:0:
192,192,305851,1,0,0:0:0:0:
320,192,305936,1,0,0:0:0:0:
448,192,306021,1,0,0:0:0:0:
320,192,306105,1,0,0:0:0:0:
64,192,306105,1,0,0:0:0:0:
192,192,306105,1,0,0:0:0:0:
448,192,306275,1,0,0:0:0:0:
320,192,306360,1,0,0:0:0:0:
192,192,306444,1,0,0:0:0:0:
64,192,306529,1,0,0:0:0:0:
448,192,306614,1,0,0:0:0:0:
320,192,306614,1,0,0:0:0:0:
192,192,306614,1,0,0:0:0:0:
192,192,306783,1,0,0:0:0:0:
320,192,306953,1,0,0:0:0:0:
64,192,306953,1,0,0:0:0:0:
448,192,306953,1,0,0:0:0:0:
192,192,307122,1,0,0:0:0:0:
320,192,307207,1,0,0:0:0:0:
64,192,307292,1,0,0:0:0:0:
448,192,307292,1,0,0:0:0:0:
192,192,307292,1,0,0:0:0:0:
320,192,307461,1,0,0:0:0:0:
64,192,307631,1,0,0:0:0:0:
192,192,307631,1,0,0:0:0:0:
320,192,307631,1,0,0:0:0:0:
448,192,307800,1,0,0:0:0:0:
320,192,307885,1,0,0:0:0:0:
192,192,307970,1,0,0:0:0:0:
64,192,307970,1,0,0:0:0:0:
192,192,308309,1,0,0:0:0:0:
320,192,308309,1,0,0:0:0:0:
64,192,308309,1,0,0:0:0:0:
320,192,308563,1,0,0:0:0:0:
192,192,308648,1,0,0:0:0:0:
64,192,308732,1,0,0:0:0:0:
192,192,308817,1,0,0:0:0:0:
448,192,308817,1,0,0:0:0:0:
320,192,308817,1,0,0:0:0:0:
64,192,308987,1,0,0:0:0:0:
192,192,309071,1,0,0:0:0:0:
320,192,309156,1,0,0:0:0:0:
448,192,309241,1,0,0:0:0:0:
64,192,309326,1,0,0:0:0:0:
192,192,309326,1,0,0:0:0:0:
320,192,309495,1,0,0:0:0:0:
64,192,309665,1,0,0:0:0:0:
448,192,309665,1,0,0:0:0:0:
192,192,309665,1,0,0:0:0:0:
320,192,309834,1,0,0:0:0:0:
192,192,309919,1,0,0:0:0:0:
64,192,310004,1,0,0:0:0:0:
192,192,310088,1,0,0:0:0:0:
448,192,310173,1,0,0:0:0:0:
320,192,310173,1,0,0:0:0:0:
64,192,310343,1,0,0:0:0:0:
192,192,310427,1,0,0:0:0:0:
448,192,310512,1,0,0:0:0:0:
320,192,310512,1,0,0:0:0:0:
320,192,310682,1,0,0:0:0:0:
192,192,310682,1,0,0:0:0:0:
64,192,310851,1,0,0:0:0:0:
192,192,311021,1,0,0:0:0:0:
448,192,311021,1,0,0:0:0:0:
320,192,311021,1,0,0:0:0:0:
448,192,311190,1,0,0:0:0:0:
64,192,311190,1,0,0:0:0:0:
192,192,311275,1,0,0:0:0:0:
320,192,311360,1,0,0:0:0:0:
448,192,311444,1,0,0:0:0:0:
192,192,311529,1,0,0:0:0:0:
64,192,311529,1,0,0:0:0:0:
320,192,311529,1,0,0:0:0:0:
448,192,311699,1,0,0:0:0:0:
320,192,311783,1,0,0:0:0:0:
192,192,311868,1,0,0:0:0:0:
64,192,311953,1,0,0:0:0:0:
192,192,312037,1,0,0:0:0:0:
320,192,312037,1,0,0:0:0:0:
448,192,312037,128,0,312122:0:0:0:0:
192,192,312715,1,0,0:0:0:0:
64,192,312715,128,0,312800:0:0:0:0:
320,192,312715,1,0,0:0:0:0:
320,192,313393,1,0,0:0:0:0:
448,192,313393,1,0,0:0:0:0:
192,192,313393,1,0,0:0:0:0:
320,192,313732,1,0,0:0:0:0:
64,192,313732,128,0,313902:0:0:0:0:
192,192,313732,1,0,0:0:0:0:
448,192,313987,1,0,0:0:0:0:
320,192,314071,1,0,0:0:0:0:
64,192,314156,1,0,0:0:0:0:
192,192,314241,1,0,0:0:0:0:
320,192,314241,1,0,0:0:0:0:
448,192,314410,1,0,0:0:0:0:
320,192,314495,1,0,0:0:0:0:
192,192,314580,1,0,0:0:0:0:
64,192,314665,1,0,0:0:0:0:
192,192,314749,1,0,0:0:0:0:
320,192,314749,1,0,0:0:0:0:
448,192,314919,1,0,0:0:0:0:
192,192,315088,1,0,0:0:0:0:
320,192,315088,1,0,0:0:0:0:
64,192,315088,1,0,0:0:0:0:
448,192,315258,1,0,0:0:0:0:
320,192,315343,1,0,0:0:0:0:
64,192,315427,1,0,0:0:0:0:
192,192,315512,1,0,0:0:0:0:
320,192,315597,1,0,0:0:0:0:
448,192,315597,1,0,0:0:0:0:
64,192,315766,1,0,0:0:0:0:
192,192,315851,1,0,0:0:0:0:
320,192,315936,1,0,0:0:0:0:
448,192,315936,1,0,0:0:0:0:
192,192,316105,1,0,0:0:0:0:
320,192,316105,1,0,0:0:0:0:
64,192,316275,1,0,0:0:0:0:
320,192,316444,1,0,0:0:0:0:
448,192,316444,1,0,0:0:0:0:
192,192,316444,1,0,0:0:0:0:
64,192,316614,1,0,0:0:0:0:
448,192,316614,1,0,0:0:0:0:
192,192,316699,1,0,0:0:0:0:
320,192,316783,1,0,0:0:0:0:
448,192,316868,1,0,0:0:0:0:
320,192,316953,1,0,0:0:0:0:
64,192,316953,1,0,0:0:0:0:
192,192,316953,1,0,0:0:0:0:
448,192,317122,1,0,0:0:0:0:
320,192,317207,1,0,0:0:0:0:
192,192,317292,1,0,0:0:0:0:
64,192,317376,1,0,0:0:0:0:
448,192,317461,1,0,0:0:0:0:
320,192,317461,1,0,0:0:0:0:
192,192,317461,1,0,0:0:0:0:
192,192,317631,1,0,0:0:0:0:
320,192,317800,1,0,0:0:0:0:
64,192,317800,1,0,0:0:0:0:
448,192,317800,1,0,0:0:0:0:
192,192,317970,1,0,0:0:0:0:
320,192,318054,1,0,0:0:0:0:
64,192,318139,1,0,0:0:0:0:
448,192,318139,1,0,0:0:0:0:
192,192,318139,1,0,0:0:0:0:
320,192,318309,1,0,0:0:0:0:
64,192,318478,1,0,0:0:0:0:
192,192,318478,1,0,0:0:0:0:
320,192,318478,1,0,0:0:0:0:
448,192,318648,1,0,0:0:0:0:
320,192,318732,1,0,0:0:0:0:
192,192,318817,1,0,0:0:0:0:
64,192,318817,1,0,0:0:0:0:
192,192,319156,1,0,0:0:0:0:
320,192,319156,1,0,0:0:0:0:
64,192,319156,1,0,0:0:0:0:
320,192,319410,1,0,0:0:0:0:
192,192,319495,1,0,0:0:0:0:
64,192,319580,1,0,0:0:0:0:
192,192,319665,1,0,0:0:0:0:
448,192,319665,1,0,0:0:0:0:
320,192,319665,1,0,0:0:0:0:
64,192,319834,1,0,0:0:0:0:
192,192,319919,1,0,0:0:0:0:
320,192,320004,1,0,0:0:0:0:
448,192,320088,1,0,0:0:0:0:
64,192,320173,1,0,0:0:0:0:
192,192,320173,1,0,0:0:0:0:
320,192,320343,1,0,0:0:0:0:
64,192,320512,1,0,0:0:0:0:
448,192,320512,1,0,0:0:0:0:
192,192,320512,1,0,0:0:0:0:
320,192,320682,1,0,0:0:0:0:
192,192,320766,1,0,0:0:0:0:
64,192,320851,1,0,0:0:0:0:
192,192,320936,1,0,0:0:0:0:
448,192,321021,1,0,0:0:0:0:
320,192,321021,1,0,0:0:0:0:
64,192,321190,1,0,0:0:0:0:
192,192,321275,1,0,0:0:0:0:
448,192,321360,1,0,0:0:0:0:
320,192,321360,1,0,0:0:0:0:
320,192,321529,1,0,0:0:0:0:
192,192,321529,1,0,0:0:0:0:
64,192,321699,1,0,0:0:0:0:
192,192,321868,1,0,0:0:0:0:
448,192,321868,1,0,0:0:0:0:
320,192,321868,1,0,0:0:0:0:
448,192,322037,1,0,0:0:0:0:
64,192,322037,1,0,0:0:0:0:
192,192,322122,1,0,0:0:0:0:
320,192,322207,1,0,0:0:0:0:
448,192,322292,1,0,0:0:0:0:
192,192,322376,1,0,0:0:0:0:
64,192,322376,1,0,0:0:0:0:
320,192,322376,1,0,0:0:0:0:
448,192,322546,1,0,0:0:0:0:
320,192,322631,1,0,0:0:0:0:
192,192,322715,1,0,0:0:0:0:
64,192,322800,1,0,0:0:0:0:
192,192,322885,1,0,0:0:0:0:
320,192,322885,1,0,0:0:0:0:
448,192,322885,1,0,0:0:0:0:
448,192,323224,1,0,0:0:0:0:
64,192,323224,1,0,0:0:0:0:
320,192,323224,1,0,0:0:0:0:
192,192,323563,1,0,0:0:0:0:
448,192,323563,1,0,0:0:0:0:
64,192,323563,1,0,0:0:0:0:
320,192,323902,1,0,0:0:0:0:
192,192,323902,1,0,0:0:0:0:
64,192,323902,1,0,0:0:0:0:
64,192,324241,1,0,0:0:0:0:
192,192,324241,1,0,0:0:0:0:
448,192,324241,1,0,0:0:0:0:
320,192,324580,1,0,0:0:0:0:
192,192,324580,1,0,0:0:0:0:
448,192,324580,128,0,324749:0:0:0:0:
64,192,324834,1,0,0:0:0:0:
192,192,324919,1,0,0:0:0:0:
320,192,325004,1,0,0:0:0:0:
192,192,325088,1,0,0:0:0:0:
64,192,325088,1,0,0:0:0:0:
448,192,325088,1,0,0:0:0:0:
320,192,325258,1,0,0:0:0:0:
192,192,325343,1,0,0:0:0:0:
64,192,325427,1,0,0:0:0:0:
448,192,325512,1,0,0:0:0:0:
192,192,325597,1,0,0:0:0:0:
320,192,325597,1,0,0:0:0:0:
64,192,325766,1,0,0:0:0:0:
192,192,325936,1,0,0:0:0:0:
448,192,325936,1,0,0:0:0:0:
320,192,325936,1,0,0:0:0:0:
64,192,326105,1,0,0:0:0:0:
192,192,326190,1,0,0:0:0:0:
320,192,326275,1,0,0:0:0:0:
448,192,326360,1,0,0:0:0:0:
320,192,326444,1,0,0:0:0:0:
192,192,326444,1,0,0:0:0:0:
64,192,326614,1,0,0:0:0:0:
192,192,326699,1,0,0:0:0:0:
320,192,326783,1,0,0:0:0:0:
448,192,326868,1,0,0:0:0:0:
192,192,326953,1,0,0:0:0:0:
320,192,326953,1,0,0:0:0:0:
320,192,327292,1,0,0:0:0:0:
448,192,327292,1,0,0:0:0:0:
192,192,327292,1,0,0:0:0:0:
64,192,327461,1,0,0:0:0:0:
192,192,327546,1,0,0:0:0:0:
320,192,327631,1,0,0:0:0:0:
448,192,327715,1,0,0:0:0:0:
320,192,327800,1,0,0:0:0:0:
64,192,327800,1,0,0:0:0:0:
192,192,327800,1,0,0:0:0:0:
448,192,327970,1,0,0:0:0:0:
320,192,328054,1,0,0:0:0:0:
192,192,328139,1,0,0:0:0:0:
64,192,328224,1,0,0:0:0:0:
448,192,328309,1,0,0:0:0:0:
320,192,328309,1,0,0:0:0:0:
192,192,328309,1,0,0:0:0:0:
192,192,328478,1,0,0:0:0:0:
320,192,328648,1,0,0:0:0:0:
64,192,328648,1,0,0:0:0:0:
448,192,328648,1,0,0:0:0:0:
192,192,328817,1,0,0:0:0:0:
320,192,328902,1,0,0:0:0:0:
64,192,328987,1,0,0:0:0:0:
448,192,328987,1,0,0:0:0:0:
192,192,328987,1,0,0:0:0:0:
320,192,329156,1,0,0:0:0:0:
64,192,329326,1,0,0:0:0:0:
192,192,329326,1,0,0:0:0:0:
320,192,329326,1,0,0:0:0:0:
448,192,329495,1,0,0:0:0:0:
320,192,329580,1,0,0:0:0:0:
192,192,329665,1,0,0:0:0:0:
64,192,329665,1,0,0:0:0:0:
64,192,330004,1,0,0:0:0:0:
448,192,330004,1,0,0:0:0:0:
320,192,330004,1,0,0:0:0:0:
192,192,330088,1,0,0:0:0:0:
320,192,330173,1,0,0:0:0:0:
448,192,330258,1,0,0:0:0:0:
64,192,330343,1,0,0:0:0:0:
192,192,330427,1,0,0:0:0:0:
320,192,330512,1,0,0:0:0:0:
448,192,330512,1,0,0:0:0:0:
64,192,330682,1,0,0:0:0:0:
192,192,330766,1,0,0:0:0:0:
320,192,330851,1,0,0:0:0:0:
448,192,330936,1,0,0:0:0:0:
64,192,331021,1,0,0:0:0:0:
192,192,331021,1,0,0:0:0:0:
320,192,331190,1,0,0:0:0:0:
64,192,331360,1,0,0:0:0:0:
448,192,331360,1,0,0:0:0:0:
320,192,331529,1,0,0:0:0:0:
192,192,331614,1,0,0:0:0:0:
64,192,331699,1,0,0:0:0:0:
448,192,331783,1,0,0:0:0:0:
192,192,331868,1,0,0:0:0:0:
320,192,331868,1,0,0:0:0:0:
64,192,332037,1,0,0:0:0:0:
192,192,332207,1,0,0:0:0:0:
320,192,332207,1,0,0:0:0:0:
448,192,332376,1,0,0:0:0:0:
320,192,332376,1,0,0:0:0:0:
192,192,332546,1,0,0:0:0:0:
320,192,332546,1,0,0:0:0:0:
64,192,332715,1,0,0:0:0:0:
192,192,332715,1,0,0:0:0:0:
448,192,332715,1,0,0:0:0:0:
320,192,332885,1,0,0:0:0:0:
192,192,332970,1,0,0:0:0:0:
64,192,333054,1,0,0:0:0:0:
448,192,333139,1,0,0:0:0:0:
192,192,333224,1,0,0:0:0:0:
320,192,333224,1,0,0:0:0:0:
64,192,333393,1,0,0:0:0:0:
192,192,333478,1,0,0:0:0:0:
320,192,333563,1,0,0:0:0:0:
448,192,333648,1,0,0:0:0:0:
64,192,333732,1,0,0:0:0:0:
192,192,333732,1,0,0:0:0:0:
320,192,333732,1,0,0:0:0:0:
192,192,334410,1,0,0:0:0:0:
320,192,334410,1,0,0:0:0:0:
448,192,334410,1,0,0:0:0:0:
64,192,335088,1,0,0:0:0:0:
192,192,335088,1,0,0:0:0:0:
320,192,335088,1,0,0:0:0:0:
64,192,335427,1,0,0:0:0:0:
320,192,335427,128,0,335597:0:0:0:0:
448,192,335427,1,0,0:0:0:0:
64,192,335682,1,0,0:0:0:0:
192,192,335766,1,0,0:0:0:0:
320,192,335851,1,0,0:0:0:0:
64,192,335936,1,0,0:0:0:0:
192,192,335936,1,0,0:0:0:0:
320,192,336105,1,0,0:0:0:0:
448,192,336190,1,0,0:0:0:0:
64,192,336275,1,0,0:0:0:0:
192,192,336360,1,0,0:0:0:0:
320,192,336444,1,0,0:0:0:0:
448,192,336444,1,0,0:0:0:0:
192,192,336614,1,0,0:0:0:0:
64,192,336783,1,0,0:0:0:0:
320,192,336783,1,0,0:0:0:0:
448,192,336783,1,0,0:0:0:0:
192,192,336953,1,0,0:0:0:0:
320,192,337037,1,0,0:0:0:0:
64,192,337122,1,0,0:0:0:0:
192,192,337207,1,0,0:0:0:0:
448,192,337292,1,0,0:0:0:0:
320,192,337292,1,0,0:0:0:0:
64,192,337461,1,0,0:0:0:0:
192,192,337546,1,0,0:0:0:0:
448,192,337631,1,0,0:0:0:0:
320,192,337631,1,0,0:0:0:0:
320,192,337800,1,0,0:0:0:0:
192,192,337800,1,0,0:0:0:0:
64,192,337970,1,0,0:0:0:0:
192,192,338139,1,0,0:0:0:0:
448,192,338139,1,0,0:0:0:0:
320,192,338139,1,0,0:0:0:0:
448,192,338309,1,0,0:0:0:0:
64,192,338309,1,0,0:0:0:0:
192,192,338393,1,0,0:0:0:0:
320,192,338478,1,0,0:0:0:0:
448,192,338563,1,0,0:0:0:0:
192,192,338648,1,0,0:0:0:0:
64,192,338648,1,0,0:0:0:0:
320,192,338648,1,0,0:0:0:0:
448,192,338817,1,0,0:0:0:0:
320,192,338902,1,0,0:0:0:0:
192,192,338987,1,0,0:0:0:0:
64,192,339071,1,0,0:0:0:0:
192,192,339156,1,0,0:0:0:0:
320,192,339156,1,0,0:0:0:0:
448,192,339156,1,0,0:0:0:0:
192,192,339326,1,0,0:0:0:0:
448,192,339495,1,0,0:0:0:0:
64,192,339495,1,0,0:0:0:0:
320,192,339495,1,0,0:0:0:0:
192,192,339665,1,0,0:0:0:0:
320,192,339749,1,0,0:0:0:0:
192,192,339834,1,0,0:0:0:0:
448,192,339834,1,0,0:0:0:0:
64,192,339834,1,0,0:0:0:0:
320,192,340004,1,0,0:0:0:0:
320,192,340173,1,0,0:0:0:0:
192,192,340173,1,0,0:0:0:0:
64,192,340173,1,0,0:0:0:0:
448,192,340343,1,0,0:0:0:0:
320,192,340427,1,0,0:0:0:0:
64,192,340512,1,0,0:0:0:0:
192,192,340512,1,0,0:0:0:0:
448,192,340851,1,0,0:0:0:0:
320,192,340851,1,0,0:0:0:0:
192,192,340851,1,0,0:0:0:0:
64,192,341105,1,0,0:0:0:0:
192,192,341190,1,0,0:0:0:0:
320,192,341275,1,0,0:0:0:0:
64,192,341360,1,0,0:0:0:0:
448,192,341360,1,0,0:0:0:0:
192,192,341360,1,0,0:0:0:0:
64,192,341529,1,0,0:0:0:0:
192,192,341614,1,0,0:0:0:0:
320,192,341699,1,0,0:0:0:0:
448,192,341783,1,0,0:0:0:0:
192,192,341868,1,0,0:0:0:0:
64,192,341868,1,0,0:0:0:0:
320,192,342037,1,0,0:0:0:0:
192,192,342207,1,0,0:0:0:0:
448,192,342207,1,0,0:0:0:0:
64,192,342207,1,0,0:0:0:0:
320,192,342376,1,0,0:0:0:0:
192,192,342461,1,0,0:0:0:0:
64,192,342546,1,0,0:0:0:0:
192,192,342631,1,0,0:0:0:0:
320,192,342715,1,0,0:0:0:0:
448,192,342715,1,0,0:0:0:0:
64,192,342885,1,0,0:0:0:0:
192,192,342970,1,0,0:0:0:0:
320,192,343054,1,0,0:0:0:0:
448,192,343054,1,0,0:0:0:0:
192,192,343224,1,0,0:0:0:0:
320,192,343224,1,0,0:0:0:0:
64,192,343393,1,0,0:0:0:0:
320,192,343563,1,0,0:0:0:0:
448,192,343563,1,0,0:0:0:0:
192,192,343563,1,0,0:0:0:0:
64,192,343732,1,0,0:0:0:0:
448,192,343732,1,0,0:0:0:0:
192,192,343817,1,0,0:0:0:0:
320,192,343902,1,0,0:0:0:0:
448,192,343987,1,0,0:0:0:0:
320,192,344071,1,0,0:0:0:0:
64,192,344071,1,0,0:0:0:0:
192,192,344071,1,0,0:0:0:0:
448,192,344241,1,0,0:0:0:0:
320,192,344326,1,0,0:0:0:0:
192,192,344410,1,0,0:0:0:0:
64,192,344495,1,0,0:0:0:0:
448,192,344580,1,0,0:0:0:0:
320,192,344580,1,0,0:0:0:0:
192,192,344580,1,0,0:0:0:0:
320,192,344919,1,0,0:0:0:0:
64,192,344919,1,0,0:0:0:0:
448,192,344919,1,0,0:0:0:0:
64,192,345258,1,0,0:0:0:0:
448,192,345258,1,0,0:0:0:0:
192,192,345258,1,0,0:0:0:0:
64,192,345597,1,0,0:0:0:0:
192,192,345597,1,0,0:0:0:0:
320,192,345597,1,0,0:0:0:0:
448,192,345936,1,0,0:0:0:0:
192,192,345936,1,0,0:0:0:0:
64,192,345936,1,0,0:0:0:0:
448,192,346275,128,0,346444:0:0:0:0:
192,192,346275,1,0,0:0:0:0:
320,192,346275,1,0,0:0:0:0:
64,192,346529,1,0,0:0:0:0:
192,192,346614,1,0,0:0:0:0:
320,192,346699,1,0,0:0:0:0:
448,192,346783,1,0,0:0:0:0:
64,192,346783,1,0,0:0:0:0:
192,192,346783,1,0,0:0:0:0:
320,192,346953,1,0,0:0:0:0:
192,192,347037,1,0,0:0:0:0:
64,192,347122,1,0,0:0:0:0:
448,192,347207,1,0,0:0:0:0:
320,192,347292,1,0,0:0:0:0:
192,192,347292,1,0,0:0:0:0:
64,192,347461,1,0,0:0:0:0:
320,192,347631,1,0,0:0:0:0:
448,192,347631,1,0,0:0:0:0:
192,192,347631,1,0,0:0:0:0:
64,192,347800,1,0,0:0:0:0:
192,192,347885,1,0,0:0:0:0:
320,192,347970,1,0,0:0:0:0:
448,192,348054,1,0,0:0:0:0:
192,192,348139,1,0,0:0:0:0:
320,192,348139,1,0,0:0:0:0:
64,192,348309,1,0,0:0:0:0:
192,192,348393,1,0,0:0:0:0:
320,192,348478,1,0,0:0:0:0:
448,192,348563,1,0,0:0:0:0:
320,192,348648,1,0,0:0:0:0:
192,192,348648,1,0,0:0:0:0:
192,192,348987,1,0,0:0:0:0:
448,192,348987,1,0,0:0:0:0:
320,192,348987,1,0,0:0:0:0:
64,192,349156,1,0,0:0:0:0:
192,192,349241,1,0,0:0:0:0:
320,192,349326,1,0,0:0:0:0:
448,192,349410,1,0,0:0:0:0:
192,192,349495,1,0,0:0:0:0:
64,192,349495,1,0,0:0:0:0:
320,192,349495,1,0,0:0:0:0:
448,192,349665,1,0,0:0:0:0:
320,192,349749,1,0,0:0:0:0:
192,192,349834,1,0,0:0:0:0:
64,192,349919,1,0,0:0:0:0:
192,192,350004,1,0,0:0:0:0:
320,192,350004,1,0,0:0:0:0:
448,192,350004,1,0,0:0:0:0:
192,192,350173,1,0,0:0:0:0:
448,192,350343,1,0,0:0:0:0:
64,192,350343,1,0,0:0:0:0:
320,192,350343,1,0,0:0:0:0:
192,192,350512,1,0,0:0:0:0:
320,192,350597,1,0,0:0:0:0:
192,192,350682,1,0,0:0:0:0:
448,192,350682,1,0,0:0:0:0:
64,192,350682,1,0,0:0:0:0:
320,192,350851,1,0,0:0:0:0:
320,192,351021,1,0,0:0:0:0:
192,192,351021,1,0,0:0:0:0:
64,192,351021,1,0,0:0:0:0:
448,192,351190,1,0,0:0:0:0:
320,192,351275,1,0,0:0:0:0:
64,192,351360,1,0,0:0:0:0:
192,192,351360,1,0,0:0:0:0:
320,192,351699,1,0,0:0:0:0:
448,192,351699,1,0,0:0:0:0:
64,192,351699,1,0,0:0:0:0:
192,192,351783,1,0,0:0:0:0:
320,192,351868,1,0,0:0:0:0:
448,192,351953,1,0,0:0:0:0:
64,192,352037,1,0,0:0:0:0:
192,192,352122,1,0,0:0:0:0:
448,192,352207,1,0,0:0:0:0:
320,192,352207,1,0,0:0:0:0:
64,192,352376,1,0,0:0:0:0:
192,192,352461,1,0,0:0:0:0:
320,192,352546,1,0,0:0:0:0:
448,192,352631,1,0,0:0:0:0:
192,192,352715,1,0,0:0:0:0:
64,192,352715,1,0,0:0:0:0:
320,192,352885,1,0,0:0:0:0:
448,192,353054,1,0,0:0:0:0:
64,192,353054,1,0,0:0:0:0:
320,192,353224,1,0,0:0:0:0:
192,192,353309,1,0,0:0:0:0:
64,192,353393,1,0,0:0:0:0:
448,192,353478,1,0,0:0:0:0:
320,192,353563,1,0,0:0:0:0:
192,192,353563,1,0,0:0:0:0:
64,192,353732,1,0,0:0:0:0:
320,192,353902,1,0,0:0:0:0:
192,192,353902,1,0,0:0:0:0:
320,192,354071,1,0,0:0:0:0:
448,192,354071,1,0,0:0:0:0:
192,192,354241,1,0,0:0:0:0:
448,192,354410,1,0,0:0:0:0:
64,192,354410,1,0,0:0:0:0:
320,192,354580,1,0,0:0:0:0:
192,192,354665,1,0,0:0:0:0:
64,192,354749,1,0,0:0:0:0:
448,192,354834,1,0,0:0:0:0:
320,192,354919,1,0,0:0:0:0:
192,192,354919,1,0,0:0:0:0:
64,192,355088,1,0,0:0:0:0:
192,192,355173,1,0,0:0:0:0:
320,192,355258,1,0,0:0:0:0:
448,192,355343,1,0,0:0:0:0:
320,192,355427,128,0,356783:0:0:0:0:
64,192,355427,128,0,356783:0:0:0:0:
192,192,355427,128,0,356783:0:0:0:0:
448,192,356783,1,0,0:0:0:0:
320,192,356953,1,0,0:0:0:0:
192,192,357122,1,0,0:0:0:0:
448,192,357122,1,0,0:0:0:0:
64,192,357292,1,0,0:0:0:0:
320,192,357461,128,0,357800:0:0:0:0:
192,192,357461,1,0,0:0:0:0:
64,192,357631,1,0,0:0:0:0:
448,192,357800,128,0,358139:0:0:0:0:
192,192,357800,1,0,0:0:0:0:
320,192,357970,1,0,0:0:0:0:
192,192,358139,1,0,0:0:0:0:
64,192,358139,128,0,358648:0:0:0:0:
320,192,358309,1,0,0:0:0:0:
448,192,358478,1,0,0:0:0:0:
192,192,358648,1,0,0:0:0:0:
448,192,358648,128,0,359156:0:0:0:0:
320,192,358817,1,0,0:0:0:0:
192,192,358987,1,0,0:0:0:0:
320,192,359156,1,0,0:0:0:0:
64,192,359156,1,0,0:0:0:0:
192,192,359326,1,0,0:0:0:0:
64,192,359495,1,0,0:0:0:0:
448,192,359495,1,0,0:0:0:0:
192,192,359665,1,0,0:0:0:0:
320,192,359834,1,0,0:0:0:0:
64,192,360004,1,0,0:0:0:0:
448,192,360004,1,0,0:0:0:0:
192,192,360173,1,0,0:0:0:0:
320,192,360343,1,0,0:0:0:0:
192,192,360512,1,0,0:0:0:0:
448,192,360512,1,0,0:0:0:0:
64,192,360682,1,0,0:0:0:0:
448,192,360851,128,0,362207:0:0:0:0:
320,192,360851,1,0,0:0:0:0:
192,192,361021,1,0,0:0:0:0:
64,192,361190,1,0,0:0:0:0:
192,192,361360,1,0,0:0:0:0:
320,192,361529,1,0,0:0:0:0:
64,192,361699,1,0,0:0:0:0:
192,192,361868,1,0,0:0:0:0:
320,192,362037,1,0,0:0:0:0:
64,192,362207,1,0,0:0:0:0:
192,192,362376,1,0,0:0:0:0:
320,192,362546,1,0,0:0:0:0:
64,192,362546,1,0,0:0:0:0:
448,192,362715,1,0,0:0:0:0:
192,192,362885,128,0,363224:0:0:0:0:
320,192,362885,1,0,0:0:0:0:
448,192,363054,1,0,0:0:0:0:
320,192,363224,1,0,0:0:0:0:
64,192,363224,128,0,363563:0:0:0:0:
448,192,363393,1,0,0:0:0:0:
320,192,363563,1,0,0:0:0:0:
448,192,363563,128,0,364071:0:0:0:0:
192,192,363732,1,0,0:0:0:0:
64,192,363902,1,0,0:0:0:0:
320,192,364071,1,0,0:0:0:0:
64,192,364071,128,0,364580:0:0:0:0:
192,192,364241,1,0,0:0:0:0:
320,192,364410,1,0,0:0:0:0:
192,192,364580,1,0,0:0:0:0:
320,192,364749,1,0,0:0:0:0:
448,192,364919,1,0,0:0:0:0:
64,192,364919,1,0,0:0:0:0:
320,192,365088,1,0,0:0:0:0:
192,192,365258,1,0,0:0:0:0:
448,192,365427,1,0,0:0:0:0:
64,192,365427,1,0,0:0:0:0:
320,192,365597,1,0,0:0:0:0:
192,192,365766,1,0,0:0:0:0:
320,192,365936,1,0,0:0:0:0:
64,192,365936,1,0,0:0:0:0:
448,192,366105,1,0,0:0:0:0:
192,192,366275,1,0,0:0:0:0:
64,192,366275,128,0,367631:0:0:0:0:
320,192,366444,1,0,0:0:0:0:
448,192,366614,1,0,0:0:0:0:
320,192,366783,1,0,0:0:0:0:
192,192,366953,1,0,0:0:0:0:
448,192,367122,1,0,0:0:0:0:
320,192,367292,1,0,0:0:0:0:
192,192,367461,1,0,0:0:0:0:
320,192,367631,128,0,367800:0:0:0:0:
448,192,367631,128,0,367800:0:0:0:0:
64,192,367800,128,0,367970:0:0:0:0:
192,192,367800,128,0,367970:0:0:0:0:
320,192,367970,128,0,368139:0:0:0:0:
448,192,367970,128,0,368139:0:0:0:0:
192,192,368139,128,0,368309:0:0:0:0:
64,192,368139,128,0,368309:0:0:0:0:
320,192,368309,128,0,368648:0:0:0:0:
448,192,368309,128,0,368648:0:0:0:0:
64,192,368648,128,0,368987:0:0:0:0:
192,192,368648,128,0,368987:0:0:0:0:
320,192,368987,128,0,369495:0:0:0:0:
448,192,368987,128,0,369495:0:0:0:0:
64,192,369495,128,0,370004:0:0:0:0:
192,192,369495,128,0,370004:0:0:0:0:
320,192,370004,128,0,370173:0:0:0:0:
448,192,370004,128,0,370173:0:0:0:0:
64,192,370173,128,0,370343:0:0:0:0:
192,192,370173,128,0,370343:0:0:0:0:
320,192,370343,128,0,370851:0:0:0:0:
448,192,370343,128,0,370851:0:0:0:0:
64,192,370851,128,0,371190:0:0:0:0:
192,192,370851,128,0,371190:0:0:0:0:
320,192,371190,128,0,371360:0:0:0:0:
448,192,371190,128,0,371360:0:0:0:0:
64,192,371360,128,0,371699:0:0:0:0:
192,192,371360,128,0,371699:0:0:0:0:
320,192,371699,128,0,372885:0:0:0:0:
448,192,371699,128,0,372885:0:0:0:0:
64,192,373054,128,0,373224:0:0:0:0:
192,192,373054,128,0,373224:0:0:0:0:
320,192,373224,128,0,373393:0:0:0:0:
448,192,373224,128,0,373393:0:0:0:0:
64,192,373393,128,0,373563:0:0:0:0:
192,192,373393,128,0,373563:0:0:0:0:
320,192,373563,128,0,373732:0:0:0:0:
448,192,373563,128,0,373732:0:0:0:0:
192,192,373732,128,0,374071:0:0:0:0:
64,192,373732,128,0,374071:0:0:0:0:
320,192,374071,128,0,374410:0:0:0:0:
448,192,374071,128,0,374410:0:0:0:0:
64,192,374410,128,0,374919:0:0:0:0:
192,192,374410,128,0,374919:0:0:0:0:
320,192,374919,128,0,375427:0:0:0:0:
448,192,374919,128,0,375427:0:0:0:0:
64,192,375427,128,0,375597:0:0:0:0:
192,192,375427,128,0,375597:0:0:0:0:
448,192,375597,128,0,375766:0:0:0:0:
320,192,375597,128,0,375766:0:0:0:0:
192,192,375766,128,0,376275:0:0:0:0:
64,192,375766,128,0,376275:0:0:0:0:
320,192,376275,128,0,376614:0:0:0:0:
448,192,376275,128,0,376614:0:0:0:0:
192,192,376614,128,0,376783:0:0:0:0:
64,192,376614,128,0,376783:0:0:0:0:
320,192,376783,128,0,377122:0:0:0:0:
448,192,376783,128,0,377122:0:0:0:0:
64,192,377122,128,0,378139:0:0:0:0:
192,192,377122,128,0,378139:0:0:0:0:
448,192,378139,1,0,0:0:0:0:
320,192,378139,1,0,0:0:0:0:
192,192,378309,1,0,0:0:0:0:
320,192,378309,1,0,0:0:0:0:
64,192,378478,1,0,0:0:0:0:
192,192,378478,1,0,0:0:0:0:
448,192,378648,1,0,0:0:0:0:
192,192,378817,1,0,0:0:0:0:
320,192,378817,1,0,0:0:0:0:
64,192,378817,1,0,0:0:0:0:
448,192,378987,1,0,0:0:0:0:
320,192,379071,1,0,0:0:0:0:
192,192,379156,1,0,0:0:0:0:
64,192,379241,1,0,0:0:0:0:
320,192,379326,1,0,0:0:0:0:
448,192,379326,1,0,0:0:0:0:
64,192,379495,1,0,0:0:0:0:
192,192,379495,1,0,0:0:0:0:
320,192,379495,1,0,0:0:0:0:
448,192,379665,1,0,0:0:0:0:
192,192,379834,1,0,0:0:0:0:
320,192,379834,1,0,0:0:0:0:
64,192,380004,1,0,0:0:0:0:
192,192,380173,1,0,0:0:0:0:
320,192,380173,1,0,0:0:0:0:
448,192,380173,1,0,0:0:0:0:
64,192,380343,1,0,0:0:0:0:
192,192,380427,1,0,0:0:0:0:
448,192,380512,1,0,0:0:0:0:
320,192,380597,1,0,0:0:0:0:
64,192,380682,1,0,0:0:0:0:
192,192,380682,1,0,0:0:0:0:
192,192,380851,1,0,0:0:0:0:
320,192,380851,1,0,0:0:0:0:
448,192,380851,1,0,0:0:0:0:
64,192,381021,1,0,0:0:0:0:
320,192,381190,1,0,0:0:0:0:
192,192,381190,1,0,0:0:0:0:
448,192,381360,1,0,0:0:0:0:
192,192,381529,1,0,0:0:0:0:
320,192,381529,1,0,0:0:0:0:
64,192,381529,1,0,0:0:0:0:
448,192,381699,1,0,0:0:0:0:
320,192,381783,1,0,0:0:0:0:
192,192,381868,1,0,0:0:0:0:
64,192,381953,1,0,0:0:0:0:
320,192,382037,1,0,0:0:0:0:
448,192,382037,1,0,0:0:0:0:
64,192,382207,1,0,0:0:0:0:
192,192,382207,1,0,0:0:0:0:
320,192,382207,1,0,0:0:0:0:
448,192,382376,1,0,0:0:0:0:
192,192,382546,1,0,0:0:0:0:
320,192,382546,1,0,0:0:0:0:
64,192,382715,1,0,0:0:0:0:
192,192,382885,1,0,0:0:0:0:
320,192,382885,1,0,0:0:0:0:
448,192,382885,1,0,0:0:0:0:
64,192,383054,1,0,0:0:0:0:
192,192,383139,1,0,0:0:0:0:
448,192,383224,1,0,0:0:0:0:
320,192,383309,1,0,0:0:0:0:
64,192,383393,1,0,0:0:0:0:
192,192,383393,1,0,0:0:0:0:
192,192,383563,1,0,0:0:0:0:
320,192,383563,1,0,0:0:0:0:
448,192,383563,1,0,0:0:0:0:
64,192,383732,1,0,0:0:0:0:
192,192,383902,1,0,0:0:0:0:
448,192,383902,1,0,0:0:0:0:
64,192,384071,1,0,0:0:0:0:
192,192,384241,1,0,0:0:0:0:
320,192,384241,1,0,0:0:0:0:
448,192,384241,1,0,0:0:0:0:
64,192,384410,1,0,0:0:0:0:
192,192,384495,1,0,0:0:0:0:
320,192,384580,1,0,0:0:0:0:
64,192,384665,1,0,0:0:0:0:
192,192,384749,1,0,0:0:0:0:
320,192,384749,1,0,0:0:0:0:
64,192,384919,1,0,0:0:0:0:
448,192,384919,1,0,0:0:0:0:
192,192,384919,1,0,0:0:0:0:
320,192,385088,1,0,0:0:0:0:
64,192,385258,1,0,0:0:0:0:
448,192,385258,1,0,0:0:0:0:
192,192,385427,1,0,0:0:0:0:
64,192,385597,1,0,0:0:0:0:
320,192,385597,1,0,0:0:0:0:
448,192,385766,1,0,0:0:0:0:
320,192,385851,1,0,0:0:0:0:
192,192,385936,1,0,0:0:0:0:
64,192,386021,1,0,0:0:0:0:
320,192,386105,1,0,0:0:0:0:
448,192,386105,1,0,0:0:0:0:
64,192,386275,1,0,0:0:0:0:
192,192,386275,1,0,0:0:0:0:
448,192,386275,1,0,0:0:0:0:
320,192,386444,1,0,0:0:0:0:
448,192,386614,1,0,0:0:0:0:
192,192,386614,1,0,0:0:0:0:
64,192,386783,1,0,0:0:0:0:
448,192,386953,1,0,0:0:0:0:
320,192,386953,1,0,0:0:0:0:
192,192,386953,1,0,0:0:0:0:
64,192,387122,1,0,0:0:0:0:
192,192,387207,1,0,0:0:0:0:
320,192,387292,1,0,0:0:0:0:
64,192,387376,1,0,0:0:0:0:
320,192,387461,1,0,0:0:0:0:
192,192,387461,1,0,0:0:0:0:
192,192,387631,1,0,0:0:0:0:
448,192,387631,1,0,0:0:0:0:
64,192,387631,1,0,0:0:0:0:
320,192,387800,1,0,0:0:0:0:
448,192,387970,1,0,0:0:0:0:
64,192,387970,1,0,0:0:0:0:
192,192,388139,1,0,0:0:0:0:
320,192,388309,1,0,0:0:0:0:
64,192,388309,1,0,0:0:0:0:
192,192,388478,1,0,0:0:0:0:
320,192,388563,1,0,0:0:0:0:
64,192,388648,1,0,0:0:0:0:
448,192,388648,1,0,0:0:0:0:
192,192,388817,1,0,0:0:0:0:
320,192,388987,1,0,0:0:0:0:
64,192,388987,1,0,0:0:0:0:
448,192,388987,1,0,0:0:0:0:
192,192,389156,1,0,0:0:0:0:
64,192,389326,1,0,0:0:0:0:
320,192,389326,1,0,0:0:0:0:
448,192,389495,1,0,0:0:0:0:
192,192,389665,1,0,0:0:0:0:
320,192,389665,1,0,0:0:0:0:
64,192,389665,1,0,0:0:0:0:
448,192,389834,1,0,0:0:0:0:
320,192,389919,1,0,0:0:0:0:
192,192,390004,1,0,0:0:0:0:
64,192,390088,1,0,0:0:0:0:
320,192,390173,1,0,0:0:0:0:
448,192,390173,1,0,0:0:0:0:
64,192,390343,1,0,0:0:0:0:
192,192,390343,1,0,0:0:0:0:
320,192,390343,1,0,0:0:0:0:
448,192,390512,1,0,0:0:0:0:
192,192,390682,1,0,0:0:0:0:
320,192,390682,1,0,0:0:0:0:
64,192,390851,1,0,0:0:0:0:
192,192,391021,1,0,0:0:0:0:
320,192,391021,1,0,0:0:0:0:
448,192,391021,1,0,0:0:0:0:
64,192,391190,1,0,0:0:0:0:
192,192,391275,1,0,0:0:0:0:
448,192,391360,1,0,0:0:0:0:
320,192,391444,1,0,0:0:0:0:
64,192,391529,1,0,0:0:0:0:
192,192,391529,1,0,0:0:0:0:
192,192,391699,1,0,0:0:0:0:
320,192,391699,1,0,0:0:0:0:
448,192,391699,1,0,0:0:0:0:
64,192,391868,1,0,0:0:0:0:
320,192,392037,1,0,0:0:0:0:
192,192,392037,1,0,0:0:0:0:
448,192,392207,1,0,0:0:0:0:
192,192,392376,1,0,0:0:0:0:
320,192,392376,1,0,0:0:0:0:
64,192,392376,1,0,0:0:0:0:
448,192,392546,1,0,0:0:0:0:
320,192,392631,1,0,0:0:0:0:
192,192,392715,1,0,0:0:0:0:
64,192,392800,1,0,0:0:0:0:
320,192,392885,1,0,0:0:0:0:
448,192,392885,1,0,0:0:0:0:
64,192,393054,1,0,0:0:0:0:
192,192,393054,1,0,0:0:0:0:
320,192,393054,1,0,0:0:0:0:
448,192,393224,1,0,0:0:0:0:
192,192,393393,1,0,0:0:0:0:
320,192,393393,1,0,0:0:0:0:
64,192,393563,1,0,0:0:0:0:
192,192,393732,1,0,0:0:0:0:
320,192,393732,1,0,0:0:0:0:
448,192,393732,1,0,0:0:0:0:
64,192,393902,1,0,0:0:0:0:
192,192,393987,1,0,0:0:0:0:
448,192,394071,1,0,0:0:0:0:
320,192,394156,1,0,0:0:0:0:
64,192,394241,1,0,0:0:0:0:
192,192,394241,1,0,0:0:0:0:
192,192,394410,1,0,0:0:0:0:
320,192,394410,1,0,0:0:0:0:
448,192,394410,1,0,0:0:0:0:
64,192,394580,1,0,0:0:0:0:
192,192,394749,1,0,0:0:0:0:
448,192,394749,1,0,0:0:0:0:
64,192,394919,1,0,0:0:0:0:
192,192,395088,1,0,0:0:0:0:
320,192,395088,1,0,0:0:0:0:
448,192,395088,1,0,0:0:0:0:
64,192,395258,1,0,0:0:0:0:
192,192,395343,1,0,0:0:0:0:
320,192,395427,1,0,0:0:0:0:
64,192,395512,1,0,0:0:0:0:
192,192,395597,1,0,0:0:0:0:
320,192,395597,1,0,0:0:0:0:
64,192,395766,1,0,0:0:0:0:
448,192,395766,1,0,0:0:0:0:
192,192,395766,1,0,0:0:0:0:
320,192,395936,1,0,0:0:0:0:
64,192,396105,1,0,0:0:0:0:
448,192,396105,1,0,0:0:0:0:
192,192,396275,1,0,0:0:0:0:
64,192,396444,1,0,0:0:0:0:
320,192,396444,1,0,0:0:0:0:
448,192,396614,1,0,0:0:0:0:
320,192,396699,1,0,0:0:0:0:
192,192,396783,1,0,0:0:0:0:
64,192,396868,1,0,0:0:0:0:
320,192,396953,1,0,0:0:0:0:
448,192,396953,1,0,0:0:0:0:
64,192,397122,1,0,0:0:0:0:
192,192,397122,1,0,0:0:0:0:
448,192,397122,1,0,0:0:0:0:
320,192,397292,1,0,0:0:0:0:
448,192,397461,1,0,0:0:0:0:
192,192,397461,1,0,0:0:0:0:
320,192,397631,1,0,0:0:0:0:
448,192,397800,1,0,0:0:0:0:
64,192,397970,1,0,0:0:0:0:
192,192,398054,1,0,0:0:0:0:
448,192,398139,1,0,0:0:0:0:
320,192,398139,1,0,0:0:0:0:
192,192,398309,1,0,0:0:0:0:
448,192,398478,1,0,0:0:0:0:
320,192,398648,1,0,0:0:0:0:
448,192,398817,1,0,0:0:0:0:
64,192,398817,1,0,0:0:0:0:
320,192,398987,1,0,0:0:0:0:
448,192,399156,1,0,0:0:0:0:
192,192,399326,1,0,0:0:0:0:
320,192,399410,1,0,0:0:0:0:
448,192,399495,1,0,0:0:0:0:
64,192,399495,1,0,0:0:0:0:
192,192,399665,1,0,0:0:0:0:
320,192,399834,1,0,0:0:0:0:
448,192,400004,1,0,0:0:0:0:
192,192,400173,1,0,0:0:0:0:
320,192,400173,1,0,0:0:0:0:
448,192,400343,1,0,0:0:0:0:
64,192,400512,1,0,0:0:0:0:
448,192,400682,1,0,0:0:0:0:
320,192,400766,1,0,0:0:0:0:
192,192,400851,1,0,0:0:0:0:
64,192,400851,1,0,0:0:0:0:
320,192,401021,1,0,0:0:0:0:
448,192,401190,1,0,0:0:0:0:
64,192,401360,1,0,0:0:0:0:
192,192,401529,1,0,0:0:0:0:
320,192,401529,1,0,0:0:0:0:
448,192,401699,1,0,0:0:0:0:
320,192,401868,1,0,0:0:0:0:
64,192,402037,1,0,0:0:0:0:
192,192,402122,1,0,0:0:0:0:
320,192,402207,1,0,0:0:0:0:
448,192,402207,1,0,0:0:0:0:
192,192,402376,1,0,0:0:0:0:
448,192,402546,1,0,0:0:0:0:
320,192,402715,1,0,0:0:0:0:
64,192,402885,1,0,0:0:0:0:
448,192,402885,1,0,0:0:0:0:
320,192,403054,1,0,0:0:0:0:
448,192,403224,1,0,0:0:0:0:
192,192,403393,1,0,0:0:0:0:
320,192,403478,1,0,0:0:0:0:
64,192,403563,1,0,0:0:0:0:
448,192,403563,1,0,0:0:0:0:
192,192,403732,1,0,0:0:0:0:
320,192,403902,1,0,0:0:0:0:
448,192,404071,1,0,0:0:0:0:
320,192,404241,1,0,0:0:0:0:
192,192,404241,1,0,0:0:0:0:
448,192,404410,1,0,0:0:0:0:
64,192,404580,1,0,0:0:0:0:
448,192,404749,1,0,0:0:0:0:
320,192,404834,1,0,0:0:0:0:
64,192,404919,1,0,0:0:0:0:
192,192,404919,1,0,0:0:0:0:
320,192,405088,1,0,0:0:0:0:
448,192,405258,1,0,0:0:0:0:
64,192,405427,1,0,0:0:0:0:
320,192,405597,1,0,0:0:0:0:
192,192,405597,1,0,0:0:0:0:
448,192,405766,1,0,0:0:0:0:
320,192,405936,1,0,0:0:0:0:
192,192,406105,1,0,0:0:0:0:
320,192,406190,1,0,0:0:0:0:
448,192,406275,1,0,0:0:0:0:
64,192,406275,1,0,0:0:0:0:
192,192,406444,1,0,0:0:0:0:
320,192,406614,1,0,0:0:0:0:
64,192,406783,1,0,0:0:0:0:
320,192,406953,1,0,0:0:0:0:
448,192,406953,1,0,0:0:0:0:
192,192,407122,1,0,0:0:0:0:
448,192,407292,1,0,0:0:0:0:
64,192,407461,1,0,0:0:0:0:
192,192,407546,1,0,0:0:0:0:
320,192,407631,1,0,0:0:0:0:
448,192,407631,1,0,0:0:0:0:
192,192,407800,1,0,0:0:0:0:
64,192,407970,1,0,0:0:0:0:
192,192,408139,1,0,0:0:0:0:
64,192,408309,1,0,0:0:0:0:
320,192,408309,1,0,0:0:0:0:
448,192,408309,128,0,408478:0:0:0:0:
192,192,408478,1,0,0:0:0:0:
64,192,408648,1,0,0:0:0:0:
320,192,408648,1,0,0:0:0:0:
448,192,408648,1,0,0:0:0:0:
192,192,408817,1,0,0:0:0:0:
320,192,408987,1,0,0:0:0:0:
64,192,409156,1,0,0:0:0:0:
448,192,409156,1,0,0:0:0:0:
192,192,409326,1,0,0:0:0:0:
320,192,409326,1,0,0:0:0:0:
64,192,409326,1,0,0:0:0:0:
320,192,409495,1,0,0:0:0:0:
448,192,409495,1,0,0:0:0:0:
64,192,409665,1,0,0:0:0:0:
192,192,409834,1,0,0:0:0:0:
320,192,409834,1,0,0:0:0:0:
64,192,410004,1,0,0:0:0:0:
192,192,410004,1,0,0:0:0:0:
448,192,410004,1,0,0:0:0:0:
320,192,410173,1,0,0:0:0:0:
192,192,410343,1,0,0:0:0:0:
320,192,410512,1,0,0:0:0:0:
448,192,410512,1,0,0:0:0:0:
64,192,410682,1,0,0:0:0:0:
192,192,410682,1,0,0:0:0:0:
320,192,410682,1,0,0:0:0:0:
448,192,410851,1,0,0:0:0:0:
64,192,411021,1,0,0:0:0:0:
192,192,411021,1,0,0:0:0:0:
320,192,411190,1,0,0:0:0:0:
64,192,411360,1,0,0:0:0:0:
192,192,411360,1,0,0:0:0:0:
448,192,411360,1,0,0:0:0:0:
320,192,411529,1,0,0:0:0:0:
192,192,411699,1,0,0:0:0:0:
64,192,411868,1,0,0:0:0:0:
448,192,411868,1,0,0:0:0:0:
64,192,412037,1,0,0:0:0:0:
192,192,412037,1,0,0:0:0:0:
320,192,412037,1,0,0:0:0:0:
320,192,412207,1,0,0:0:0:0:
448,192,412207,1,0,0:0:0:0:
64,192,412376,1,0,0:0:0:0:
192,192,412546,1,0,0:0:0:0:
320,192,412546,1,0,0:0:0:0:
64,192,412715,1,0,0:0:0:0:
192,192,412715,1,0,0:0:0:0:
448,192,412715,1,0,0:0:0:0:
320,192,412885,1,0,0:0:0:0:
192,192,413054,1,0,0:0:0:0:
64,192,413224,1,0,0:0:0:0:
320,192,413224,1,0,0:0:0:0:
320,192,413393,1,0,0:0:0:0:
192,192,413393,128,0,413732:0:0:0:0:
448,192,413393,128,0,413732:0:0:0:0:
64,192,413732,128,0,413902:0:0:0:0:
320,192,413902,1,0,0:0:0:0:
448,192,414071,1,0,0:0:0:0:
192,192,414071,1,0,0:0:0:0:
64,192,414071,1,0,0:0:0:0:
320,192,414241,1,0,0:0:0:0:
192,192,414410,1,0,0:0:0:0:
448,192,414580,1,0,0:0:0:0:
64,192,414580,1,0,0:0:0:0:
64,192,414749,1,0,0:0:0:0:
320,192,414749,1,0,0:0:0:0:
192,192,414749,1,0,0:0:0:0:
448,192,414919,1,0,0:0:0:0:
320,192,414919,1,0,0:0:0:0:
64,192,415088,1,0,0:0:0:0:
320,192,415258,1,0,0:0:0:0:
192,192,415258,1,0,0:0:0:0:
448,192,415427,1,0,0:0:0:0:
192,192,415427,1,0,0:0:0:0:
64,192,415427,1,0,0:0:0:0:
320,192,415597,1,0,0:0:0:0:
192,192,415766,1,0,0:0:0:0:
448,192,415936,1,0,0:0:0:0:
320,192,415936,1,0,0:0:0:0:
320,192,416105,1,0,0:0:0:0:
192,192,416105,1,0,0:0:0:0:
64,192,416105,1,0,0:0:0:0:
448,192,416275,1,0,0:0:0:0:
192,192,416444,1,0,0:0:0:0:
64,192,416444,1,0,0:0:0:0:
320,192,416614,1,0,0:0:0:0:
448,192,416783,1,0,0:0:0:0:
192,192,416783,1,0,0:0:0:0:
64,192,416783,1,0,0:0:0:0:
320,192,416953,1,0,0:0:0:0:
192,192,417122,1,0,0:0:0:0:
448,192,417292,1,0,0:0:0:0:
64,192,417292,1,0,0:0:0:0:
320,192,417461,1,0,0:0:0:0:
192,192,417461,1,0,0:0:0:0:
64,192,417461,1,0,0:0:0:0:
448,192,417631,1,0,0:0:0:0:
320,192,417631,1,0,0:0:0:0:
64,192,417800,1,0,0:0:0:0:
320,192,417970,1,0,0:0:0:0:
192,192,417970,1,0,0:0:0:0:
448,192,418139,1,0,0:0:0:0:
192,192,418139,1,0,0:0:0:0:
64,192,418139,1,0,0:0:0:0:
320,192,418309,1,0,0:0:0:0:
192,192,418478,1,0,0:0:0:0:
320,192,418648,1,0,0:0:0:0:
64,192,418648,1,0,0:0:0:0:
448,192,418817,128,0,419156:0:0:0:0:
192,192,418817,128,0,419156:0:0:0:0:
320,192,418817,1,0,0:0:0:0:
64,192,419156,128,0,419326:0:0:0:0:
320,192,419326,1,0,0:0:0:0:
64,192,419495,1,0,0:0:0:0:
192,192,419495,1,0,0:0:0:0:
448,192,419495,1,0,0:0:0:0:
320,192,419665,1,0,0:0:0:0:
192,192,419834,1,0,0:0:0:0:
64,192,420004,1,0,0:0:0:0:
448,192,420004,1,0,0:0:0:0:
192,192,420173,1,0,0:0:0:0:
320,192,420173,1,0,0:0:0:0:
64,192,420173,1,0,0:0:0:0:
320,192,420343,1,0,0:0:0:0:
448,192,420343,1,0,0:0:0:0:
64,192,420512,1,0,0:0:0:0:
192,192,420682,1,0,0:0:0:0:
320,192,420682,1,0,0:0:0:0:
64,192,420851,1,0,0:0:0:0:
192,192,420851,1,0,0:0:0:0:
448,192,420851,1,0,0:0:0:0:
320,192,421021,1,0,0:0:0:0:
192,192,421190,1,0,0:0:0:0:
320,192,421360,1,0,0:0:0:0:
448,192,421360,1,0,0:0:0:0:
64,192,421529,1,0,0:0:0:0:
192,192,421529,1,0,0:0:0:0:
320,192,421529,1,0,0:0:0:0:
448,192,421699,1,0,0:0:0:0:
64,192,421868,1,0,0:0:0:0:
192,192,421868,1,0,0:0:0:0:
320,192,422037,1,0,0:0:0:0:
64,192,422207,1,0,0:0:0:0:
192,192,422207,1,0,0:0:0:0:
448,192,422207,1,0,0:0:0:0:
320,192,422376,1,0,0:0:0:0:
192,192,422546,1,0,0:0:0:0:
64,192,422715,1,0,0:0:0:0:
448,192,422715,1,0,0:0:0:0:
64,192,422885,1,0,0:0:0:0:
192,192,422885,1,0,0:0:0:0:
320,192,422885,1,0,0:0:0:0:
320,192,423054,1,0,0:0:0:0:
448,192,423054,1,0,0:0:0:0:
64,192,423224,1,0,0:0:0:0:
192,192,423393,1,0,0:0:0:0:
320,192,423393,1,0,0:0:0:0:
64,192,423563,1,0,0:0:0:0:
192,192,423563,1,0,0:0:0:0:
448,192,423563,1,0,0:0:0:0:
320,192,423732,1,0,0:0:0:0:
192,192,423902,1,0,0:0:0:0:
64,192,424071,1,0,0:0:0:0:
320,192,424071,1,0,0:0:0:0:
320,192,424241,1,0,0:0:0:0:
192,192,424241,128,0,424580:0:0:0:0:
448,192,424241,128,0,424580:0:0:0:0:
64,192,424580,128,0,424749:0:0:0:0:
320,192,424749,1,0,0:0:0:0:
448,192,424919,1,0,0:0:0:0:
192,192,424919,1,0,0:0:0:0:
64,192,424919,1,0,0:0:0:0:
320,192,425088,1,0,0:0:0:0:
192,192,425258,1,0,0:0:0:0:
448,192,425427,1,0,0:0:0:0:
64,192,425427,1,0,0:0:0:0:
64,192,425597,1,0,0:0:0:0:
320,192,425597,1,0,0:0:0:0:
192,192,425597,1,0,0:0:0:0:
448,192,425766,1,0,0:0:0:0:
320,192,425766,1,0,0:0:0:0:
64,192,425936,1,0,0:0:0:0:
320,192,426105,1,0,0:0:0:0:
192,192,426105,1,0,0:0:0:0:
448,192,426275,1,0,0:0:0:0:
192,192,426275,1,0,0:0:0:0:
64,192,426275,1,0,0:0:0:0:
320,192,426444,1,0,0:0:0:0:
192,192,426614,1,0,0:0:0:0:
448,192,426783,1,0,0:0:0:0:
320,192,426783,1,0,0:0:0:0:
320,192,426953,1,0,0:0:0:0:
192,192,426953,1,0,0:0:0:0:
64,192,426953,1,0,0:0:0:0:
448,192,427122,1,0,0:0:0:0:
192,192,427292,1,0,0:0:0:0:
64,192,427292,1,0,0:0:0:0:
320,192,427461,1,0,0:0:0:0:
448,192,427631,1,0,0:0:0:0:
192,192,427631,1,0,0:0:0:0:
64,192,427631,1,0,0:0:0:0:
320,192,427800,1,0,0:0:0:0:
192,192,427970,1,0,0:0:0:0:
448,192,428139,1,0,0:0:0:0:
64,192,428139,1,0,0:0:0:0:
320,192,428309,1,0,0:0:0:0:
192,192,428309,1,0,0:0:0:0:
64,192,428309,1,0,0:0:0:0:
448,192,428478,1,0,0:0:0:0:
320,192,428478,1,0,0:0:0:0:
64,192,428648,1,0,0:0:0:0:
320,192,428817,1,0,0:0:0:0:
192,192,428817,1,0,0:0:0:0:
448,192,428987,1,0,0:0:0:0:
192,192,428987,1,0,0:0:0:0:
64,192,428987,1,0,0:0:0:0:
320,192,429156,1,0,0:0:0:0:
448,192,429156,1,0,0:0:0:0:
64,192,429326,1,0,0:0:0:0:
192,192,429326,1,0,0:0:0:0:
320,192,429326,1,0,0:0:0:0:
448,192,429495,1,0,0:0:0:0:
320,192,429495,1,0,0:0:0:0:
64,192,429665,1,0,0:0:0:0:
192,192,429665,1,0,0:0:0:0:
448,192,429665,1,0,0:0:0:0:
448,192,429834,1,0,0:0:0:0:
192,192,429834,1,0,0:0:0:0:
320,192,429919,1,0,0:0:0:0:
448,192,430004,1,0,0:0:0:0:
64,192,430004,1,0,0:0:0:0:
192,192,430004,1,0,0:0:0:0:
64,192,430682,128,0,433393:0:0:0:0:
448,192,430682,128,0,433393:0:0:0:0:
192,192,430682,128,0,433393:0:0:0:0:
320,192,430682,128,0,433393:0:0:0:0:
