osu file format v14

[General]
AudioFilename: audio.mp3
AudioLeadIn: 0
PreviewTime: 15
Countdown: 0
SampleSet: Normal
StackLeniency: 0.7
Mode: 3
LetterboxInBreaks: 0
SpecialStyle: 0
WidescreenStoryboard: 0

[Editor]
Bookmarks: 15,36211,54324,72437,108664,144890,181147
DistanceSpacing: 0.8
BeatDivisor: 4
GridSize: 32
TimelineZoom: 1.1

[Metadata]
Title:sanctuary
TitleUnicode:sanctuary
Artist:DM DOKURO
ArtistUnicode:DM DOKURO
Creator:SurfChu85
Version:submerged
Source:Terraria Calamity Mod
Tags:sunken sea biome The Tale of a Cruel World Original Game Soundtrack OST Video Omar Carlo ln instrumental
BeatmapID:3296826
BeatmapSetID:1614805

[Difficulty]
HPDrainRate:8
CircleSize:7
OverallDifficulty:7.5
ApproachRate:5
SliderMultiplier:1.4
SliderTickRate:1

[Events]
//Background and Video events
0,0,"bg.jpg",0,0
//Break Periods
//Storyboard Layer 0 (Background)
//Storyboard Layer 1 (Fail)
//Storyboard Layer 2 (Pass)
//Storyboard Layer 3 (Foreground)
//Storyboard Layer 4 (Overlay)
//Storyboard Sound Samples

[TimingPoints]
0,566.037735849057,4,1,1,30,1,0

[HitObjects]
402,192,0,1,0,0:0:0:0:
182,192,0,128,0,283:0:0:0:0:
109,192,0,1,0,0:0:0:0:
36,192,283,128,0,566:0:0:0:0:
329,192,283,1,0,0:0:0:0:
182,192,566,128,0,849:0:0:0:0:
475,192,566,128,0,1415:0:0:0:0:
329,192,849,128,0,2264:0:0:0:0:
109,192,849,128,0,2264:0:0:0:0:
256,192,1415,1,0,0:0:0:0:
402,192,1698,1,0,0:0:0:0:
256,192,1981,1,0,0:0:0:0:
475,192,2264,128,0,3113:0:0:0:0:
402,192,3113,1,0,0:0:0:0:
329,192,3396,1,0,0:0:0:0:
402,192,3679,1,0,0:0:0:0:
329,192,3962,1,0,0:0:0:0:
256,192,4245,1,0,0:0:0:0:
109,192,4528,128,0,4811:0:0:0:0:
402,192,4528,1,0,0:0:0:0:
182,192,4528,128,0,5377:0:0:0:0:
36,192,4811,128,0,5094:0:0:0:0:
256,192,5094,128,0,5377:0:0:0:0:
475,192,5377,128,0,6792:0:0:0:0:
329,192,5377,128,0,6792:0:0:0:0:
109,192,5377,1,0,0:0:0:0:
36,192,5660,128,0,6792:0:0:0:0:
329,192,8490,128,0,9056:0:0:0:0:
182,192,9056,128,0,9339:0:0:0:0:
36,192,9056,1,0,0:0:0:0:
402,192,9056,1,0,0:0:0:0:
109,192,9339,128,0,9622:0:0:0:0:
256,192,9339,1,0,0:0:0:0:
329,192,9622,128,0,9905:0:0:0:0:
475,192,9622,128,0,10471:0:0:0:0:
256,192,9905,128,0,11320:0:0:0:0:
36,192,9905,128,0,11320:0:0:0:0:
182,192,10471,1,0,0:0:0:0:
329,192,10754,1,0,0:0:0:0:
182,192,11037,1,0,0:0:0:0:
402,192,11320,128,0,12169:0:0:0:0:
329,192,12169,1,0,0:0:0:0:
475,192,12452,1,0,0:0:0:0:
329,192,12735,1,0,0:0:0:0:
182,192,13018,1,0,0:0:0:0:
256,192,13301,1,0,0:0:0:0:
329,192,13584,128,0,14433:0:0:0:0:
36,192,13584,128,0,13867:0:0:0:0:
182,192,13584,1,0,0:0:0:0:
109,192,13867,128,0,14150:0:0:0:0:
182,192,14150,128,0,14433:0:0:0:0:
256,192,14433,128,0,15849:0:0:0:0:
109,192,14433,128,0,15849:0:0:0:0:
475,192,14433,1,0,0:0:0:0:
475,192,14716,128,0,15849:0:0:0:0:
329,192,15849,128,0,18113:0:0:0:0:
36,192,15849,128,0,18113:0:0:0:0:
182,192,15849,1,0,0:0:0:0:
109,192,18113,1,0,0:0:0:0:
182,192,18113,128,0,18396:0:0:0:0:
402,192,18113,128,0,18396:0:0:0:0:
36,192,18396,128,0,18679:0:0:0:0:
329,192,18396,128,0,18679:0:0:0:0:
475,192,18679,128,0,19528:0:0:0:0:
182,192,18679,128,0,18962:0:0:0:0:
109,192,18962,128,0,20377:0:0:0:0:
329,192,18962,128,0,20377:0:0:0:0:
256,192,19528,128,0,19811:0:0:0:0:
402,192,19811,128,0,20094:0:0:0:0:
256,192,20094,128,0,20377:0:0:0:0:
475,192,20377,128,0,21226:0:0:0:0:
402,192,21226,128,0,21509:0:0:0:0:
329,192,21509,128,0,21792:0:0:0:0:
402,192,21792,128,0,22075:0:0:0:0:
329,192,22075,128,0,22358:0:0:0:0:
256,192,22358,128,0,22641:0:0:0:0:
182,192,22641,128,0,23490:0:0:0:0:
402,192,22641,1,0,0:0:0:0:
109,192,22641,128,0,22924:0:0:0:0:
36,192,22924,128,0,23207:0:0:0:0:
256,192,23207,128,0,23490:0:0:0:0:
329,192,23490,128,0,24905:0:0:0:0:
475,192,23490,128,0,24905:0:0:0:0:
109,192,23490,128,0,23773:0:0:0:0:
36,192,23773,128,0,24905:0:0:0:0:
329,192,26603,128,0,27169:0:0:0:0:
36,192,27169,1,0,0:0:0:0:
182,192,27169,128,0,27452:0:0:0:0:
402,192,27169,128,0,27452:0:0:0:0:
109,192,27452,128,0,27735:0:0:0:0:
256,192,27452,128,0,27735:0:0:0:0:
475,192,27735,128,0,28584:0:0:0:0:
329,192,27735,128,0,28018:0:0:0:0:
36,192,28018,128,0,29433:0:0:0:0:
256,192,28018,128,0,29433:0:0:0:0:
182,192,28584,128,0,28867:0:0:0:0:
329,192,28867,128,0,29150:0:0:0:0:
182,192,29150,128,0,29433:0:0:0:0:
402,192,29433,128,0,30283:0:0:0:0:
329,192,30283,128,0,30566:0:0:0:0:
475,192,30566,128,0,30849:0:0:0:0:
329,192,30849,128,0,31132:0:0:0:0:
182,192,31132,128,0,31415:0:0:0:0:
256,192,31415,128,0,31698:0:0:0:0:
182,192,31698,1,0,0:0:0:0:
36,192,31698,128,0,31981:0:0:0:0:
329,192,31698,128,0,32547:0:0:0:0:
109,192,31981,128,0,32264:0:0:0:0:
182,192,32264,128,0,32547:0:0:0:0:
109,192,32547,128,0,33962:0:0:0:0:
256,192,32547,128,0,33962:0:0:0:0:
475,192,32547,128,0,32688:0:0:0:0:
475,192,32830,128,0,33962:0:0:0:0:
36,192,33962,128,0,35943:0:0:0:0:
329,192,33962,128,0,36226:0:0:0:0:
182,192,33962,1,0,0:0:0:0:
475,192,34528,128,0,36226:0:0:0:0:
109,192,36226,128,0,36509:0:0:0:0:
36,192,36226,128,0,38490:0:0:0:0:
402,192,36226,1,0,0:0:0:0:
182,192,36509,128,0,36792:0:0:0:0:
256,192,36792,128,0,37075:0:0:0:0:
475,192,36792,1,0,0:0:0:0:
329,192,37075,128,0,37358:0:0:0:0:
402,192,37358,128,0,38490:0:0:0:0:
109,192,37358,1,0,0:0:0:0:
182,192,37358,1,0,0:0:0:0:
329,192,37924,1,0,0:0:0:0:
256,192,38207,128,0,38490:0:0:0:0:
475,192,38490,128,0,40754:0:0:0:0:
329,192,38490,128,0,39339:0:0:0:0:
109,192,38490,1,0,0:0:0:0:
182,192,38490,1,0,0:0:0:0:
182,192,39056,1,0,0:0:0:0:
329,192,39622,1,0,0:0:0:0:
109,192,39622,1,0,0:0:0:0:
402,192,39658,128,0,40754:0:0:0:0:
182,192,40188,1,0,0:0:0:0:
256,192,40471,128,0,40754:0:0:0:0:
329,192,40754,128,0,41603:0:0:0:0:
109,192,40754,128,0,41037:0:0:0:0:
36,192,40754,128,0,42877:0:0:0:0:
182,192,40754,1,0,0:0:0:0:
182,192,41037,128,0,41320:0:0:0:0:
402,192,41320,128,0,41603:0:0:0:0:
109,192,41320,1,0,0:0:0:0:
256,192,41603,128,0,41745:0:0:0:0:
475,192,41603,128,0,43018:0:0:0:0:
256,192,41886,128,0,43018:0:0:0:0:
109,192,41886,1,0,0:0:0:0:
182,192,41886,1,0,0:0:0:0:
402,192,42452,1,0,0:0:0:0:
329,192,42735,128,0,43018:0:0:0:0:
402,192,43018,128,0,45283:0:0:0:0:
109,192,43018,1,0,0:0:0:0:
36,192,43018,1,0,0:0:0:0:
182,192,43018,128,0,43867:0:0:0:0:
109,192,43584,1,0,0:0:0:0:
329,192,44150,128,0,44433:0:0:0:0:
36,192,44150,1,0,0:0:0:0:
256,192,44433,128,0,44716:0:0:0:0:
109,192,44716,1,0,0:0:0:0:
182,192,44716,128,0,45000:0:0:0:0:
329,192,45000,128,0,45283:0:0:0:0:
475,192,45000,128,0,45283:0:0:0:0:
36,192,45283,128,0,47405:0:0:0:0:
256,192,45283,128,0,45849:0:0:0:0:
109,192,45283,128,0,45566:0:0:0:0:
182,192,45283,1,0,0:0:0:0:
182,192,45566,128,0,45849:0:0:0:0:
329,192,45849,128,0,46132:0:0:0:0:
475,192,45849,1,0,0:0:0:0:
402,192,46132,128,0,47547:0:0:0:0:
109,192,46415,1,0,0:0:0:0:
256,192,46415,1,0,0:0:0:0:
182,192,46698,128,0,46981:0:0:0:0:
256,192,46981,128,0,47264:0:0:0:0:
109,192,46981,1,0,0:0:0:0:
329,192,47264,128,0,47547:0:0:0:0:
109,192,47264,128,0,47547:0:0:0:0:
475,192,47547,128,0,48113:0:0:0:0:
256,192,47547,1,0,0:0:0:0:
36,192,47547,1,0,0:0:0:0:
182,192,47547,128,0,48396:0:0:0:0:
402,192,48113,128,0,48679:0:0:0:0:
109,192,48113,1,0,0:0:0:0:
329,192,48679,128,0,49245:0:0:0:0:
36,192,48679,1,0,0:0:0:0:
182,192,49245,128,0,49811:0:0:0:0:
256,192,49245,1,0,0:0:0:0:
329,192,49528,128,0,49811:0:0:0:0:
402,192,49811,128,0,50377:0:0:0:0:
36,192,49811,128,0,51933:0:0:0:0:
109,192,49811,128,0,50094:0:0:0:0:
475,192,49811,1,0,0:0:0:0:
182,192,50094,128,0,50377:0:0:0:0:
256,192,50377,128,0,50660:0:0:0:0:
475,192,50377,1,0,0:0:0:0:
329,192,50660,128,0,52075:0:0:0:0:
109,192,50943,1,0,0:0:0:0:
182,192,50943,1,0,0:0:0:0:
402,192,51509,1,0,0:0:0:0:
256,192,51792,128,0,52075:0:0:0:0:
182,192,52075,128,0,52924:0:0:0:0:
109,192,52075,1,0,0:0:0:0:
475,192,52075,128,0,53207:0:0:0:0:
402,192,52075,1,0,0:0:0:0:
36,192,52075,1,0,0:0:0:0:
109,192,52641,1,0,0:0:0:0:
256,192,52924,1,0,0:0:0:0:
402,192,53066,1,0,0:0:0:0:
36,192,53207,1,0,0:0:0:0:
329,192,53207,1,0,0:0:0:0:
256,192,53349,1,0,0:0:0:0:
182,192,53490,1,0,0:0:0:0:
109,192,53632,1,0,0:0:0:0:
402,192,53773,1,0,0:0:0:0:
475,192,53773,1,0,0:0:0:0:
36,192,53773,128,0,53915:0:0:0:0:
109,192,53915,128,0,54056:0:0:0:0:
329,192,54056,128,0,54339:0:0:0:0:
182,192,54056,128,0,54198:0:0:0:0:
256,192,54198,128,0,54339:0:0:0:0:
36,192,54339,128,0,56603:0:0:0:0:
109,192,54339,128,0,54622:0:0:0:0:
475,192,54339,128,0,55188:0:0:0:0:
402,192,54339,1,0,0:0:0:0:
182,192,54622,128,0,54905:0:0:0:0:
256,192,54905,128,0,55188:0:0:0:0:
402,192,54905,1,0,0:0:0:0:
329,192,55188,128,0,56462:0:0:0:0:
109,192,55471,1,0,0:0:0:0:
402,192,55471,1,0,0:0:0:0:
256,192,55754,128,0,56037:0:0:0:0:
182,192,56037,128,0,56320:0:0:0:0:
402,192,56037,1,0,0:0:0:0:
109,192,56320,128,0,56603:0:0:0:0:
475,192,56320,128,0,56603:0:0:0:0:
402,192,56603,128,0,56886:0:0:0:0:
256,192,56603,1,0,0:0:0:0:
182,192,56603,128,0,57452:0:0:0:0:
329,192,56603,1,0,0:0:0:0:
256,192,56886,128,0,57169:0:0:0:0:
329,192,57169,128,0,57452:0:0:0:0:
109,192,57169,1,0,0:0:0:0:
402,192,57452,128,0,57735:0:0:0:0:
475,192,57735,128,0,58018:0:0:0:0:
36,192,57735,1,0,0:0:0:0:
402,192,58018,128,0,58301:0:0:0:0:
329,192,58301,128,0,58584:0:0:0:0:
109,192,58301,1,0,0:0:0:0:
256,192,58584,128,0,58867:0:0:0:0:
475,192,58584,128,0,58867:0:0:0:0:
182,192,58867,128,0,59716:0:0:0:0:
36,192,58867,128,0,60990:0:0:0:0:
109,192,58867,128,0,59150:0:0:0:0:
402,192,58867,1,0,0:0:0:0:
329,192,59150,128,0,59433:0:0:0:0:
402,192,59433,128,0,59716:0:0:0:0:
109,192,59433,1,0,0:0:0:0:
256,192,59716,128,0,60566:0:0:0:0:
475,192,59716,128,0,61132:0:0:0:0:
329,192,60000,1,0,0:0:0:0:
109,192,60000,1,0,0:0:0:0:
329,192,60566,128,0,61132:0:0:0:0:
182,192,60566,1,0,0:0:0:0:
109,192,60849,128,0,61132:0:0:0:0:
402,192,61132,128,0,62264:0:0:0:0:
182,192,61132,1,0,0:0:0:0:
256,192,61132,1,0,0:0:0:0:
36,192,61132,1,0,0:0:0:0:
329,192,61698,1,0,0:0:0:0:
36,192,62264,128,0,62830:0:0:0:0:
182,192,62264,1,0,0:0:0:0:
109,192,62830,128,0,63396:0:0:0:0:
329,192,62830,1,0,0:0:0:0:
475,192,63113,128,0,63396:0:0:0:0:
182,192,63396,128,0,63820:0:0:0:0:
36,192,63396,128,0,65518:0:0:0:0:
402,192,63396,128,0,63679:0:0:0:0:
329,192,63396,1,0,0:0:0:0:
475,192,63679,128,0,63962:0:0:0:0:
256,192,63820,1,0,0:0:0:0:
329,192,63891,1,0,0:0:0:0:
402,192,63962,128,0,64245:0:0:0:0:
182,192,63962,128,0,64245:0:0:0:0:
109,192,63962,1,0,0:0:0:0:
475,192,64245,128,0,64528:0:0:0:0:
109,192,64245,128,0,65660:0:0:0:0:
402,192,64528,128,0,64811:0:0:0:0:
256,192,64528,1,0,0:0:0:0:
182,192,64528,1,0,0:0:0:0:
329,192,64811,128,0,65094:0:0:0:0:
256,192,65094,128,0,65377:0:0:0:0:
475,192,65094,1,0,0:0:0:0:
182,192,65377,128,0,65660:0:0:0:0:
402,192,65377,128,0,65660:0:0:0:0:
329,192,65660,128,0,65943:0:0:0:0:
475,192,65660,128,0,66792:0:0:0:0:
256,192,65660,1,0,0:0:0:0:
36,192,65660,1,0,0:0:0:0:
256,192,65943,128,0,66226:0:0:0:0:
182,192,66226,128,0,66509:0:0:0:0:
36,192,66226,1,0,0:0:0:0:
109,192,66509,128,0,66792:0:0:0:0:
36,192,66792,128,0,67075:0:0:0:0:
329,192,66792,1,0,0:0:0:0:
256,192,67075,128,0,67358:0:0:0:0:
182,192,67358,128,0,67641:0:0:0:0:
475,192,67358,1,0,0:0:0:0:
109,192,67641,128,0,67924:0:0:0:0:
402,192,67641,128,0,67924:0:0:0:0:
36,192,67924,1,0,0:0:0:0:
475,192,67924,128,0,70047:0:0:0:0:
256,192,67924,128,0,68207:0:0:0:0:
329,192,67924,1,0,0:0:0:0:
182,192,67995,128,0,68490:0:0:0:0:
329,192,68207,128,0,68490:0:0:0:0:
402,192,68490,128,0,68773:0:0:0:0:
109,192,68490,1,0,0:0:0:0:
36,192,68773,128,0,70188:0:0:0:0:
256,192,69056,128,0,69622:0:0:0:0:
329,192,69056,1,0,0:0:0:0:
182,192,69056,1,0,0:0:0:0:
329,192,69622,128,0,70188:0:0:0:0:
109,192,69622,1,0,0:0:0:0:
182,192,69905,128,0,70188:0:0:0:0:
402,192,70188,128,0,70754:0:0:0:0:
109,192,70188,1,0,0:0:0:0:
256,192,70188,128,0,70754:0:0:0:0:
475,192,70188,1,0,0:0:0:0:
329,192,70754,128,0,71320:0:0:0:0:
109,192,70754,128,0,72452:0:0:0:0:
182,192,70754,1,0,0:0:0:0:
256,192,71320,128,0,71886:0:0:0:0:
36,192,71320,1,0,0:0:0:0:
329,192,71886,128,0,72452:0:0:0:0:
402,192,71886,1,0,0:0:0:0:
256,192,72169,128,0,72452:0:0:0:0:
36,192,72452,128,0,74716:0:0:0:0:
182,192,72452,128,0,73584:0:0:0:0:
475,192,72452,128,0,73018:0:0:0:0:
402,192,72452,128,0,72735:0:0:0:0:
256,192,72735,128,0,73018:0:0:0:0:
329,192,73018,128,0,73301:0:0:0:0:
109,192,73018,1,0,0:0:0:0:
402,192,73301,128,0,73584:0:0:0:0:
475,192,73301,1,0,0:0:0:0:
109,192,73584,1,0,0:0:0:0:
256,192,73584,1,0,0:0:0:0:
256,192,73867,128,0,74150:0:0:0:0:
329,192,74150,128,0,74292:0:0:0:0:
182,192,74150,128,0,74433:0:0:0:0:
475,192,74150,1,0,0:0:0:0:
109,192,74433,128,0,74716:0:0:0:0:
329,192,74433,128,0,74716:0:0:0:0:
402,192,74716,128,0,74858:0:0:0:0:
475,192,74716,128,0,75849:0:0:0:0:
256,192,74716,1,0,0:0:0:0:
182,192,75000,128,0,75283:0:0:0:0:
256,192,75283,128,0,75566:0:0:0:0:
36,192,75283,1,0,0:0:0:0:
329,192,75566,128,0,75849:0:0:0:0:
109,192,75566,1,0,0:0:0:0:
256,192,75849,128,0,75990:0:0:0:0:
402,192,75849,1,0,0:0:0:0:
36,192,75849,1,0,0:0:0:0:
182,192,76132,128,0,76415:0:0:0:0:
109,192,76415,128,0,76698:0:0:0:0:
475,192,76415,128,0,76556:0:0:0:0:
329,192,76415,1,0,0:0:0:0:
36,192,76698,128,0,76981:0:0:0:0:
475,192,76698,128,0,76981:0:0:0:0:
182,192,76981,128,0,77122:0:0:0:0:
329,192,76981,1,0,0:0:0:0:
109,192,76981,128,0,78113:0:0:0:0:
329,192,77264,128,0,77547:0:0:0:0:
402,192,77547,128,0,77830:0:0:0:0:
182,192,77547,1,0,0:0:0:0:
475,192,77830,128,0,78113:0:0:0:0:
256,192,77830,1,0,0:0:0:0:
36,192,78113,128,0,78254:0:0:0:0:
329,192,78113,1,0,0:0:0:0:
402,192,78113,1,0,0:0:0:0:
256,192,78396,128,0,78679:0:0:0:0:
402,192,78679,128,0,78820:0:0:0:0:
182,192,78679,128,0,78962:0:0:0:0:
475,192,78679,1,0,0:0:0:0:
109,192,78962,128,0,79245:0:0:0:0:
475,192,78962,128,0,79245:0:0:0:0:
329,192,79245,128,0,79386:0:0:0:0:
182,192,79245,1,0,0:0:0:0:
36,192,79245,128,0,80377:0:0:0:0:
329,192,79528,128,0,79811:0:0:0:0:
256,192,79811,128,0,79952:0:0:0:0:
402,192,79811,128,0,80094:0:0:0:0:
109,192,79811,1,0,0:0:0:0:
475,192,80094,128,0,80377:0:0:0:0:
182,192,80094,1,0,0:0:0:0:
182,192,80377,128,0,80518:0:0:0:0:
256,192,80377,1,0,0:0:0:0:
329,192,80377,1,0,0:0:0:0:
182,192,80660,128,0,80943:0:0:0:0:
256,192,80943,128,0,81084:0:0:0:0:
109,192,80943,128,0,81226:0:0:0:0:
402,192,80943,1,0,0:0:0:0:
36,192,81226,128,0,81509:0:0:0:0:
475,192,81226,128,0,81509:0:0:0:0:
256,192,81509,128,0,81650:0:0:0:0:
402,192,81509,1,0,0:0:0:0:
182,192,81509,128,0,82641:0:0:0:0:
256,192,81792,128,0,82075:0:0:0:0:
329,192,82075,128,0,82358:0:0:0:0:
36,192,82075,1,0,0:0:0:0:
402,192,82358,128,0,82641:0:0:0:0:
475,192,82358,1,0,0:0:0:0:
329,192,82641,128,0,82783:0:0:0:0:
36,192,82641,1,0,0:0:0:0:
109,192,82641,1,0,0:0:0:0:
256,192,82924,128,0,83207:0:0:0:0:
182,192,83207,128,0,83490:0:0:0:0:
402,192,83207,1,0,0:0:0:0:
109,192,83490,128,0,83773:0:0:0:0:
475,192,83490,128,0,83773:0:0:0:0:
256,192,83773,128,0,83915:0:0:0:0:
329,192,83773,1,0,0:0:0:0:
402,192,83773,128,0,84905:0:0:0:0:
182,192,84056,128,0,84339:0:0:0:0:
256,192,84339,128,0,84622:0:0:0:0:
36,192,84339,1,0,0:0:0:0:
329,192,84622,128,0,84905:0:0:0:0:
109,192,84622,1,0,0:0:0:0:
475,192,84905,128,0,85047:0:0:0:0:
182,192,84905,1,0,0:0:0:0:
256,192,84905,1,0,0:0:0:0:
329,192,85188,128,0,85471:0:0:0:0:
256,192,85471,128,0,85754:0:0:0:0:
36,192,85471,1,0,0:0:0:0:
182,192,85754,128,0,86037:0:0:0:0:
475,192,85754,128,0,86037:0:0:0:0:
329,192,86037,128,0,86179:0:0:0:0:
109,192,86037,1,0,0:0:0:0:
402,192,86037,128,0,87169:0:0:0:0:
109,192,86320,128,0,86603:0:0:0:0:
182,192,86603,128,0,86886:0:0:0:0:
329,192,86603,1,0,0:0:0:0:
256,192,86886,128,0,87169:0:0:0:0:
475,192,86886,1,0,0:0:0:0:
109,192,87169,1,0,0:0:0:0:
329,192,87169,1,0,0:0:0:0:
36,192,87169,1,0,0:0:0:0:
256,192,87452,128,0,87735:0:0:0:0:
182,192,87735,128,0,88018:0:0:0:0:
475,192,87735,1,0,0:0:0:0:
109,192,88018,128,0,88301:0:0:0:0:
402,192,88018,128,0,88301:0:0:0:0:
256,192,88301,1,0,0:0:0:0:
475,192,88301,128,0,89433:0:0:0:0:
256,192,88584,128,0,88867:0:0:0:0:
329,192,88867,128,0,89150:0:0:0:0:
109,192,88867,1,0,0:0:0:0:
402,192,89150,128,0,89433:0:0:0:0:
36,192,89150,1,0,0:0:0:0:
182,192,89433,128,0,89575:0:0:0:0:
256,192,89433,1,0,0:0:0:0:
329,192,89433,1,0,0:0:0:0:
182,192,89716,128,0,90000:0:0:0:0:
256,192,90000,128,0,90141:0:0:0:0:
109,192,90000,128,0,90283:0:0:0:0:
475,192,90000,1,0,0:0:0:0:
36,192,90283,128,0,90566:0:0:0:0:
329,192,90283,128,0,90566:0:0:0:0:
402,192,90566,128,0,90707:0:0:0:0:
182,192,90566,1,0,0:0:0:0:
475,192,90566,128,0,91698:0:0:0:0:
182,192,90849,128,0,91132:0:0:0:0:
256,192,91132,128,0,91415:0:0:0:0:
109,192,91132,1,0,0:0:0:0:
329,192,91415,128,0,91698:0:0:0:0:
36,192,91415,1,0,0:0:0:0:
402,192,91698,128,0,91839:0:0:0:0:
109,192,91698,1,0,0:0:0:0:
182,192,91698,1,0,0:0:0:0:
182,192,91981,128,0,92264:0:0:0:0:
475,192,92264,128,0,92405:0:0:0:0:
109,192,92264,128,0,92547:0:0:0:0:
402,192,92264,1,0,0:0:0:0:
36,192,92547,128,0,92830:0:0:0:0:
256,192,92547,128,0,92830:0:0:0:0:
329,192,92830,128,0,92971:0:0:0:0:
182,192,92830,1,0,0:0:0:0:
109,192,92830,128,0,93962:0:0:0:0:
182,192,93113,128,0,93396:0:0:0:0:
256,192,93396,128,0,93679:0:0:0:0:
475,192,93396,1,0,0:0:0:0:
329,192,93679,128,0,93962:0:0:0:0:
402,192,93679,1,0,0:0:0:0:
36,192,93962,128,0,94103:0:0:0:0:
182,192,93962,1,0,0:0:0:0:
256,192,93962,1,0,0:0:0:0:
402,192,94245,128,0,94528:0:0:0:0:
329,192,94528,128,0,94811:0:0:0:0:
182,192,94528,1,0,0:0:0:0:
256,192,94811,128,0,95094:0:0:0:0:
475,192,94811,128,0,95094:0:0:0:0:
402,192,95094,1,0,0:0:0:0:
36,192,95094,128,0,95235:0:0:0:0:
109,192,95094,128,0,96226:0:0:0:0:
329,192,95377,128,0,95660:0:0:0:0:
402,192,95660,128,0,95943:0:0:0:0:
36,192,95660,1,0,0:0:0:0:
475,192,95943,128,0,96226:0:0:0:0:
256,192,95943,1,0,0:0:0:0:
182,192,96226,128,0,96367:0:0:0:0:
329,192,96226,1,0,0:0:0:0:
402,192,96226,1,0,0:0:0:0:
182,192,96509,128,0,96792:0:0:0:0:
256,192,96792,128,0,96933:0:0:0:0:
109,192,96792,128,0,97075:0:0:0:0:
402,192,96792,1,0,0:0:0:0:
36,192,97075,128,0,97358:0:0:0:0:
475,192,97075,128,0,97358:0:0:0:0:
329,192,97358,128,0,97500:0:0:0:0:
256,192,97358,1,0,0:0:0:0:
402,192,97358,128,0,98490:0:0:0:0:
182,192,97641,128,0,97924:0:0:0:0:
256,192,97924,128,0,98207:0:0:0:0:
36,192,97924,1,0,0:0:0:0:
329,192,98207,128,0,98490:0:0:0:0:
109,192,98207,1,0,0:0:0:0:
256,192,98490,128,0,98632:0:0:0:0:
475,192,98490,1,0,0:0:0:0:
182,192,98490,1,0,0:0:0:0:
182,192,98773,128,0,99056:0:0:0:0:
329,192,99056,128,0,99198:0:0:0:0:
109,192,99056,128,0,99339:0:0:0:0:
402,192,99056,1,0,0:0:0:0:
36,192,99339,128,0,99622:0:0:0:0:
256,192,99339,128,0,99622:0:0:0:0:
402,192,99622,128,0,99764:0:0:0:0:
182,192,99622,1,0,0:0:0:0:
475,192,99622,128,0,100754:0:0:0:0:
256,192,99905,128,0,100188:0:0:0:0:
329,192,100188,128,0,100471:0:0:0:0:
36,192,100188,1,0,0:0:0:0:
402,192,100471,128,0,100754:0:0:0:0:
182,192,100471,1,0,0:0:0:0:
256,192,100754,1,0,0:0:0:0:
329,192,100754,1,0,0:0:0:0:
109,192,100754,1,0,0:0:0:0:
402,192,101037,128,0,101320:0:0:0:0:
329,192,101320,128,0,101603:0:0:0:0:
36,192,101320,1,0,0:0:0:0:
256,192,101603,128,0,101886:0:0:0:0:
402,192,101603,128,0,101886:0:0:0:0:
475,192,101886,128,0,102028:0:0:0:0:
182,192,101886,1,0,0:0:0:0:
109,192,102169,128,0,102452:0:0:0:0:
182,192,102452,128,0,102735:0:0:0:0:
402,192,102452,1,0,0:0:0:0:
256,192,102735,128,0,103018:0:0:0:0:
329,192,102735,1,0,0:0:0:0:
402,192,103018,128,0,103160:0:0:0:0:
109,192,103018,1,0,0:0:0:0:
36,192,103018,1,0,0:0:0:0:
256,192,103301,128,0,103584:0:0:0:0:
329,192,103584,128,0,103726:0:0:0:0:
182,192,103584,128,0,103867:0:0:0:0:
402,192,103584,1,0,0:0:0:0:
109,192,103867,128,0,104150:0:0:0:0:
475,192,103867,128,0,104150:0:0:0:0:
182,192,104150,128,0,104292:0:0:0:0:
402,192,104150,1,0,0:0:0:0:
36,192,104150,128,0,105283:0:0:0:0:
329,192,104433,128,0,104716:0:0:0:0:
402,192,104716,128,0,105000:0:0:0:0:
109,192,104716,1,0,0:0:0:0:
475,192,105000,128,0,105283:0:0:0:0:
182,192,105000,1,0,0:0:0:0:
256,192,105283,1,0,0:0:0:0:
329,192,105283,1,0,0:0:0:0:
109,192,105283,1,0,0:0:0:0:
182,192,105566,128,0,105849:0:0:0:0:
256,192,105849,128,0,105990:0:0:0:0:
109,192,105849,128,0,106132:0:0:0:0:
402,192,105849,1,0,0:0:0:0:
329,192,106132,128,0,106273:0:0:0:0:
36,192,106132,128,0,106415:0:0:0:0:
475,192,106132,128,0,106415:0:0:0:0:
402,192,106415,128,0,106556:0:0:0:0:
182,192,106415,1,0,0:0:0:0:
329,192,106698,128,0,106981:0:0:0:0:
256,192,106981,128,0,107264:0:0:0:0:
109,192,106981,1,0,0:0:0:0:
36,192,107264,128,0,108537:0:0:0:0:
182,192,107264,128,0,107547:0:0:0:0:
402,192,107264,1,0,0:0:0:0:
475,192,107547,128,0,107688:0:0:0:0:
329,192,107547,1,0,0:0:0:0:
256,192,107547,1,0,0:0:0:0:
402,192,107830,128,0,108113:0:0:0:0:
329,192,108113,128,0,108396:0:0:0:0:
182,192,108113,1,0,0:0:0:0:
256,192,108396,128,0,108679:0:0:0:0:
475,192,108396,128,0,108679:0:0:0:0:
402,192,108679,128,0,108962:0:0:0:0:
329,192,108679,1,0,0:0:0:0:
182,192,108679,128,0,109245:0:0:0:0:
109,192,108679,128,0,109811:0:0:0:0:
36,192,108679,128,0,110801:0:0:0:0:
329,192,108962,128,0,109245:0:0:0:0:
475,192,109245,128,0,110094:0:0:0:0:
402,192,109245,1,0,0:0:0:0:
329,192,109528,128,0,110943:0:0:0:0:
182,192,109811,1,0,0:0:0:0:
256,192,109811,1,0,0:0:0:0:
256,192,110094,128,0,110377:0:0:0:0:
402,192,110377,128,0,110660:0:0:0:0:
475,192,110377,1,0,0:0:0:0:
256,192,110660,128,0,110943:0:0:0:0:
182,192,110660,128,0,110943:0:0:0:0:
475,192,110943,128,0,111792:0:0:0:0:
109,192,110943,1,0,0:0:0:0:
402,192,110943,1,0,0:0:0:0:
36,192,110943,1,0,0:0:0:0:
182,192,111509,1,0,0:0:0:0:
402,192,111792,128,0,112075:0:0:0:0:
329,192,112075,128,0,112358:0:0:0:0:
36,192,112075,1,0,0:0:0:0:
402,192,112358,128,0,112641:0:0:0:0:
329,192,112641,128,0,112924:0:0:0:0:
109,192,112641,1,0,0:0:0:0:
256,192,112924,128,0,113207:0:0:0:0:
475,192,112924,128,0,113207:0:0:0:0:
182,192,113207,128,0,114056:0:0:0:0:
402,192,113207,1,0,0:0:0:0:
109,192,113207,128,0,113490:0:0:0:0:
329,192,113207,1,0,0:0:0:0:
36,192,113490,128,0,113773:0:0:0:0:
256,192,113773,128,0,114056:0:0:0:0:
402,192,113773,1,0,0:0:0:0:
329,192,114056,128,0,115471:0:0:0:0:
475,192,114056,128,0,115471:0:0:0:0:
109,192,114056,128,0,114339:0:0:0:0:
36,192,114339,128,0,115330:0:0:0:0:
182,192,114339,1,0,0:0:0:0:
256,192,114339,1,0,0:0:0:0:
109,192,114905,1,0,0:0:0:0:
402,192,115188,128,0,115471:0:0:0:0:
256,192,115471,1,0,0:0:0:0:
182,192,115471,1,0,0:0:0:0:
109,192,115471,1,0,0:0:0:0:
36,192,115471,1,0,0:0:0:0:
256,192,116037,1,0,0:0:0:0:
256,192,116603,1,0,0:0:0:0:
329,192,117169,128,0,117735:0:0:0:0:
256,192,117169,1,0,0:0:0:0:
475,192,117452,128,0,117735:0:0:0:0:
109,192,117735,1,0,0:0:0:0:
182,192,117735,128,0,118018:0:0:0:0:
402,192,117735,128,0,118018:0:0:0:0:
36,192,117735,1,0,0:0:0:0:
109,192,118018,128,0,118301:0:0:0:0:
256,192,118018,128,0,118301:0:0:0:0:
475,192,118301,128,0,119150:0:0:0:0:
329,192,118301,128,0,118584:0:0:0:0:
36,192,118301,1,0,0:0:0:0:
36,192,118584,128,0,119858:0:0:0:0:
256,192,118584,128,0,120000:0:0:0:0:
402,192,118867,1,0,0:0:0:0:
109,192,118867,1,0,0:0:0:0:
182,192,119150,128,0,119433:0:0:0:0:
329,192,119433,128,0,119716:0:0:0:0:
475,192,119433,1,0,0:0:0:0:
182,192,119716,128,0,120000:0:0:0:0:
109,192,119716,128,0,120000:0:0:0:0:
475,192,120000,1,0,0:0:0:0:
329,192,120000,1,0,0:0:0:0:
36,192,120000,1,0,0:0:0:0:
402,192,120000,128,0,120849:0:0:0:0:
182,192,120566,1,0,0:0:0:0:
329,192,120849,128,0,121132:0:0:0:0:
475,192,121132,128,0,121415:0:0:0:0:
36,192,121132,1,0,0:0:0:0:
329,192,121415,128,0,121698:0:0:0:0:
182,192,121698,128,0,121981:0:0:0:0:
109,192,121698,1,0,0:0:0:0:
256,192,121981,128,0,122264:0:0:0:0:
475,192,121981,128,0,122264:0:0:0:0:
182,192,122264,1,0,0:0:0:0:
36,192,122264,128,0,122547:0:0:0:0:
329,192,122264,128,0,123113:0:0:0:0:
402,192,122264,1,0,0:0:0:0:
109,192,122547,128,0,122830:0:0:0:0:
182,192,122830,128,0,123113:0:0:0:0:
402,192,122830,1,0,0:0:0:0:
109,192,123113,128,0,124386:0:0:0:0:
256,192,123113,128,0,124528:0:0:0:0:
475,192,123113,128,0,123254:0:0:0:0:
475,192,123396,128,0,124528:0:0:0:0:
329,192,123396,1,0,0:0:0:0:
402,192,123396,1,0,0:0:0:0:
36,192,123962,1,0,0:0:0:0:
402,192,124245,128,0,124528:0:0:0:0:
36,192,124528,128,0,126792:0:0:0:0:
329,192,124528,128,0,126792:0:0:0:0:
182,192,124528,1,0,0:0:0:0:
109,192,124528,1,0,0:0:0:0:
475,192,125094,128,0,126792:0:0:0:0:
256,192,125094,1,0,0:0:0:0:
182,192,125660,1,0,0:0:0:0:
256,192,126226,1,0,0:0:0:0:
182,192,126509,128,0,126792:0:0:0:0:
402,192,126792,128,0,127075:0:0:0:0:
109,192,126792,1,0,0:0:0:0:
36,192,127075,128,0,127358:0:0:0:0:
329,192,127075,128,0,127358:0:0:0:0:
475,192,127358,128,0,128207:0:0:0:0:
182,192,127358,128,0,127641:0:0:0:0:
256,192,127358,1,0,0:0:0:0:
109,192,127641,128,0,129056:0:0:0:0:
329,192,127641,128,0,129056:0:0:0:0:
36,192,127924,1,0,0:0:0:0:
256,192,128207,128,0,128490:0:0:0:0:
402,192,128490,128,0,128773:0:0:0:0:
182,192,128490,1,0,0:0:0:0:
256,192,128773,128,0,129056:0:0:0:0:
475,192,129056,128,0,129905:0:0:0:0:
36,192,129056,1,0,0:0:0:0:
182,192,129622,1,0,0:0:0:0:
402,192,129905,128,0,130188:0:0:0:0:
329,192,130188,128,0,130471:0:0:0:0:
36,192,130188,1,0,0:0:0:0:
402,192,130471,128,0,130754:0:0:0:0:
329,192,130754,128,0,131037:0:0:0:0:
182,192,130754,1,0,0:0:0:0:
256,192,131037,128,0,131320:0:0:0:0:
182,192,131320,128,0,132169:0:0:0:0:
402,192,131320,1,0,0:0:0:0:
109,192,131320,128,0,131603:0:0:0:0:
36,192,131603,128,0,131886:0:0:0:0:
256,192,131886,128,0,132169:0:0:0:0:
329,192,131886,1,0,0:0:0:0:
329,192,132169,128,0,133584:0:0:0:0:
475,192,132169,128,0,133584:0:0:0:0:
109,192,132169,128,0,132452:0:0:0:0:
36,192,132452,128,0,133584:0:0:0:0:
256,192,132452,1,0,0:0:0:0:
182,192,133018,1,0,0:0:0:0:
109,192,133584,1,0,0:0:0:0:
109,192,134150,1,0,0:0:0:0:
109,192,134716,1,0,0:0:0:0:
329,192,135283,128,0,135849:0:0:0:0:
109,192,135283,1,0,0:0:0:0:
402,192,135849,128,0,136132:0:0:0:0:
182,192,135849,128,0,136132:0:0:0:0:
36,192,135849,1,0,0:0:0:0:
256,192,136132,128,0,136415:0:0:0:0:
109,192,136132,128,0,136415:0:0:0:0:
329,192,136415,128,0,136698:0:0:0:0:
475,192,136415,128,0,137264:0:0:0:0:
256,192,136698,128,0,138113:0:0:0:0:
36,192,136698,128,0,138113:0:0:0:0:
182,192,137264,128,0,137547:0:0:0:0:
329,192,137547,128,0,137830:0:0:0:0:
182,192,137830,128,0,138113:0:0:0:0:
402,192,138113,128,0,138962:0:0:0:0:
329,192,138962,128,0,139245:0:0:0:0:
475,192,139245,128,0,139528:0:0:0:0:
329,192,139528,128,0,139811:0:0:0:0:
182,192,139811,128,0,140094:0:0:0:0:
256,192,140094,128,0,140377:0:0:0:0:
329,192,140377,128,0,141226:0:0:0:0:
36,192,140377,128,0,140660:0:0:0:0:
182,192,140377,1,0,0:0:0:0:
109,192,140660,128,0,140943:0:0:0:0:
182,192,140943,128,0,141226:0:0:0:0:
475,192,141226,128,0,141367:0:0:0:0:
256,192,141226,128,0,142641:0:0:0:0:
109,192,141226,128,0,142641:0:0:0:0:
475,192,141509,128,0,142641:0:0:0:0:
182,192,142641,1,0,0:0:0:0:
329,192,142641,128,0,144905:0:0:0:0:
36,192,142641,128,0,144905:0:0:0:0:
402,192,144905,5,0,0:0:0:0:
109,192,144905,1,0,0:0:0:0:
182,192,144905,128,0,145188:0:0:0:0:
329,192,145188,1,0,0:0:0:0:
36,192,145188,128,0,145471:0:0:0:0:
475,192,145471,128,0,146320:0:0:0:0:
182,192,145471,128,0,145754:0:0:0:0:
109,192,145754,128,0,147169:0:0:0:0:
329,192,145754,128,0,147169:0:0:0:0:
256,192,146320,1,0,0:0:0:0:
402,192,146603,1,0,0:0:0:0:
256,192,146886,1,0,0:0:0:0:
475,192,147169,128,0,148018:0:0:0:0:
402,192,148018,1,0,0:0:0:0:
329,192,148301,1,0,0:0:0:0:
402,192,148584,1,0,0:0:0:0:
329,192,148867,1,0,0:0:0:0:
256,192,149150,1,0,0:0:0:0:
182,192,149433,128,0,150283:0:0:0:0:
402,192,149433,1,0,0:0:0:0:
109,192,149433,128,0,149716:0:0:0:0:
36,192,149716,128,0,150000:0:0:0:0:
256,192,150000,128,0,150283:0:0:0:0:
329,192,150283,128,0,151698:0:0:0:0:
109,192,150283,1,0,0:0:0:0:
475,192,150283,128,0,151698:0:0:0:0:
36,192,150566,128,0,151698:0:0:0:0:
329,192,153396,128,0,153962:0:0:0:0:
402,192,153962,1,0,0:0:0:0:
36,192,153962,1,0,0:0:0:0:
182,192,153962,128,0,154245:0:0:0:0:
256,192,154245,1,0,0:0:0:0:
109,192,154245,128,0,154528:0:0:0:0:
475,192,154528,128,0,155377:0:0:0:0:
329,192,154528,128,0,154811:0:0:0:0:
36,192,154811,128,0,156226:0:0:0:0:
256,192,154811,128,0,156226:0:0:0:0:
182,192,155377,1,0,0:0:0:0:
329,192,155660,1,0,0:0:0:0:
182,192,155943,1,0,0:0:0:0:
402,192,156226,128,0,157075:0:0:0:0:
329,192,157075,1,0,0:0:0:0:
475,192,157358,1,0,0:0:0:0:
329,192,157641,1,0,0:0:0:0:
182,192,157924,1,0,0:0:0:0:
256,192,158207,1,0,0:0:0:0:
182,192,158490,1,0,0:0:0:0:
36,192,158490,128,0,158773:0:0:0:0:
329,192,158490,128,0,159339:0:0:0:0:
109,192,158773,128,0,159056:0:0:0:0:
182,192,159056,128,0,159339:0:0:0:0:
475,192,159339,1,0,0:0:0:0:
109,192,159339,128,0,160754:0:0:0:0:
256,192,159339,128,0,160754:0:0:0:0:
475,192,159622,128,0,160754:0:0:0:0:
182,192,160754,1,0,0:0:0:0:
36,192,160754,128,0,163018:0:0:0:0:
329,192,160754,128,0,163018:0:0:0:0:
