osu file format v14

[General]
AudioFilename: audio.mp3
AudioLeadIn: 0
PreviewTime: 384515
Countdown: 0
SampleSet: Soft
StackLeniency: 0.7
Mode: 0
LetterboxInBreaks: 0
WidescreenStoryboard: 0
SamplesMatchPlaybackRate: 1

[Editor]
Bookmarks: 71251,73778,78827,80090,95288,96512,105672,105830,124380,125564,140722,141985,167406,168512,183669,184933,215248,216512,231669,232933,253146,258196,259459,274617,275880,303669,304933,320090,321354,331462,341564,342827,364936,384512,394620,414830,434962,455251
DistanceSpacing: 1.1
BeatDivisor: 4
GridSize: 4
TimelineZoom: 2.4

[Metadata]
Title:g a r d e n
TitleUnicode:g a r d e n
Artist:DM DOKURO
ArtistUnicode:DM DOKURO
Creator:milenna
Version:f l o w e r
Source:UNDERTALE
Tags:toby fox remix 3 dm dokuro
BeatmapID:920194
BeatmapSetID:426134

[Difficulty]
HPDrainRate:6
CircleSize:4
OverallDifficulty:8.5
ApproachRate:9.3
SliderMultiplier:2
SliderTickRate:1

[Events]
//Background and Video events
0,0,"it_s_kill_or_be_killed__by_pheoniic-d9kamet (2).png",0,0
//Break Periods
2,38618,47961
2,140293,141434
2,331030,342276
//Storyboard Layer 0 (Background)
//Storyboard Layer 1 (Fail)
//Storyboard Layer 2 (Pass)
//Storyboard Layer 3 (Foreground)
//Storyboard Layer 4 (Overlay)
//Storyboard Sound Samples

[TimingPoints]
18418,800,4,2,0,50,1,0
18418,-100,4,2,0,50,0,0
19218,-100,4,2,0,50,0,0
20818,-100,4,2,0,50,0,0
24018,-100,4,2,0,50,0,0
25618,-100,4,2,0,50,0,0
28818,-100,4,2,0,50,0,0
30419,-100,4,2,0,50,0,0
33618,-100,4,2,0,50,0,0
35218,-100,4,2,0,50,0,0
48515,315.789473684211,4,2,0,50,1,0
75038,-66.6666666666667,4,2,0,50,0,0
75988,-66.6666666666667,4,2,0,50,0,0
76620,-66.6666666666667,4,2,0,50,0,0
78830,-100,4,2,0,50,0,1
79462,-100,4,2,0,50,0,1
80093,-100,4,2,0,50,0,0
93988,-100,4,2,0,50,0,0
105988,-66.6666666666667,4,2,0,50,0,0
106304,-58.8235294117647,4,2,0,50,0,0
106541,-100,4,2,0,50,0,0
116093,-66.6666666666667,4,2,0,50,0,0
116409,-58.8235294117647,4,2,0,50,0,0
116646,-100,4,2,0,50,0,0
121304,-50,4,2,0,50,0,0
121778,-50,4,2,0,50,0,0
121878,-100,4,2,0,50,0,0
125251,-100,4,2,0,50,0,0
141985,-100,4,2,0,50,0,0
146617,-80,4,2,0,50,0,0
151775,-88.8888888888889,4,2,0,50,0,0
151985,-100,4,2,0,50,0,0
156726,-80,4,2,0,50,0,0
161775,-88.4955752212389,4,2,0,50,0,0
161985,-100,4,2,0,50,0,0
162196,-200,4,2,0,50,0,0
162199,-200,4,2,0,50,0,0
167251,-100,4,2,0,50,0,0
168196,-100,4,2,0,50,0,0
177278,-133.333333333333,4,2,0,50,0,0
178699,-100,4,2,0,50,0,0
186196,-100,4,2,0,50,0,0
210199,-133.333333333333,4,2,0,50,0,0
215251,-133.333333333333,4,2,0,50,0,1
216357,-100,4,2,0,50,0,0
222751,-100,4,2,0,50,0,0
253064,-100,4,2,0,50,0,0
275880,-100,4,3,0,70,0,0
303672,-100,4,3,0,70,0,0
304617,-100,4,2,0,50,0,0
314409,-100,4,2,0,50,0,0
321357,-200,4,2,0,50,0,0
331547,-100,4,2,0,50,0,0
346936,-66.6666666666667,4,2,0,50,0,0
347409,-100,4,2,0,50,0,0
351988,-66.6666666666667,4,2,0,50,0,0
352620,-100,4,2,0,50,0,0
357041,-66.6666666666667,4,2,0,50,0,0
357515,-100,4,2,0,50,0,0
362093,-66.6666666666667,4,2,0,50,0,0
362567,-100,4,2,0,50,0,0
367146,-66.6666666666667,4,2,0,50,0,0
368093,-100,4,2,0,50,0,0
372199,-66.6666666666667,4,2,0,50,0,0
372672,-100,4,2,0,50,0,0
377251,-66.6666666666667,4,2,0,50,0,0
377725,-100,4,2,0,50,0,0
382620,-133.333333333333,4,2,0,50,0,0
384515,-100,4,2,0,50,0,1
418620,-66.6666666666667,4,2,0,50,0,1
420515,-100,4,2,0,50,0,1
422093,-100,4,2,0,50,0,0
435041,-100,4,2,0,30,0,0
445143,-100,4,2,0,30,0,0

[Colours]
Combo1 : 222,177,1
Combo2 : 222,117,67
Combo3 : 147,0,0
Combo4 : 0,128,0

[HitObjects]
92,108,18418,5,0,0:0:0:0:
92,108,18518,1,0,0:0:0:0:
92,108,18618,1,0,0:0:0:0:
92,108,18718,1,0,0:0:0:0:
92,108,18818,1,0,0:0:0:0:
92,108,18918,1,0,0:0:0:0:
92,108,19018,1,0,0:0:0:0:
92,108,19118,1,0,0:0:0:0:
92,108,19218,2,0,P|60:200|124:292,1,200
96,108,20818,5,4,0:0:0:0:
256,192,21018,12,0,24018,0:0:0:0:
408,116,24818,5,4,0:0:0:0:
256,192,25618,5,2,0:0:0:0:
256,192,25818,12,0,28818,0:0:0:0:
120,120,29618,5,0,0:0:0:0:
392,300,30418,1,4,0:0:0:0:
256,192,30618,12,0,33618,0:0:0:0:
252,300,34418,5,0,0:0:0:0:
252,48,35218,1,4,0:0:0:0:
256,192,35418,12,0,38418,0:0:0:0:
64,92,48515,5,2,0:0:0:0:
244,144,48672,1,0,0:0:0:0:
56,204,48830,1,2,0:0:0:0:
84,228,48909,1,0,0:0:0:0:
112,248,48988,1,8,0:0:0:0:
140,268,49067,1,0,0:0:0:0:
168,288,49146,1,2,0:0:0:0:
160,88,49304,1,8,0:0:0:0:
168,288,49462,1,2,0:0:0:0:
328,184,49620,1,8,0:0:0:0:
312,40,49778,5,8,0:0:0:0:
312,40,49857,1,8,0:0:0:0:
312,40,49936,1,8,0:0:0:0:
420,216,50093,1,8,0:0:0:0:
400,244,50172,1,8,0:0:0:0:
376,272,50251,1,8,0:0:0:0:
196,184,50409,5,2,0:0:0:0:
372,100,50567,1,8,0:0:0:0:
296,296,50725,5,2,0:0:0:0:
232,96,50883,1,8,0:0:0:0:
164,288,51041,5,8,0:0:0:0:
164,288,51120,1,8,0:0:0:0:
164,288,51199,1,8,0:0:0:0:
84,96,51357,1,8,0:0:0:0:
84,136,51436,1,8,0:0:0:0:
84,176,51515,1,8,0:0:0:0:
276,204,51672,5,2,0:0:0:0:
88,276,51830,1,8,0:0:0:0:
192,124,51988,5,2,0:0:0:0:
240,308,52146,1,8,0:0:0:0:
328,128,52304,5,2,0:0:0:0:
240,308,52462,1,8,0:0:0:0:
404,176,52620,1,2,0:0:0:0:
404,212,52699,1,0,0:0:0:0:
400,248,52778,1,8,0:0:0:0:
392,280,52857,1,0,0:0:0:0:
384,308,52936,1,2,0:0:0:0:
240,180,53093,5,0,0:0:0:0:
388,312,53251,1,2,0:0:0:0:
328,128,53409,1,0,0:0:0:0:
252,288,53567,2,0,L|176:288,1,50,2|0,0:0|0:0,0:0:0:0:
84,208,53725,1,8,0:0:0:0:
276,196,53883,2,0,L|352:196,1,50,2|0,0:0|0:0,0:0:0:0:
432,100,54041,1,8,0:0:0:0:
256,64,54199,5,2,0:0:0:0:
376,220,54357,1,8,0:0:0:0:
368,32,54515,5,2,0:0:0:0:
276,196,54672,1,8,0:0:0:0:
100,208,54830,5,2,0:0:0:0:
120,236,54909,1,0,0:0:0:0:
140,264,54988,1,8,0:0:0:0:
156,296,55067,1,0,0:0:0:0:
168,328,55146,1,2,0:0:0:0:
184,152,55304,5,0,0:0:0:0:
168,328,55462,1,2,0:0:0:0:
320,240,55620,5,0,0:0:0:0:
100,208,55778,1,2,0:0:0:0:
320,240,55936,1,0,0:0:0:0:
352,104,56093,6,0,P|408:128|436:200,1,100,2|0,0:0|0:0,0:0:0:0:
240,216,56409,1,2,0:0:0:0:
104,112,56567,1,0,0:0:0:0:
104,284,56725,1,2,0:0:0:0:
172,72,56883,1,0,0:0:0:0:
16,196,57041,1,2,0:0:0:0:
172,72,57199,1,0,0:0:0:0:
192,284,57357,5,8,0:0:0:0:
240,260,57436,1,8,0:0:0:0:
288,236,57515,1,8,0:0:0:0:
416,328,57673,1,8,0:0:0:0:
416,328,57752,1,8,0:0:0:0:
416,328,57831,1,8,0:0:0:0:
368,176,57988,5,2,0:0:0:0:
184,144,58146,1,8,0:0:0:0:
328,48,58304,5,2,0:0:0:0:
288,236,58462,1,8,0:0:0:0:
204,48,58620,5,8,0:0:0:0:
204,48,58699,1,8,0:0:0:0:
204,48,58778,1,8,0:0:0:0:
92,160,58936,1,8,0:0:0:0:
92,212,59014,1,8,0:0:0:0:
92,264,59093,1,8,0:0:0:0:
284,176,59251,5,2,0:0:0:0:
92,264,59409,1,8,0:0:0:0:
292,328,59567,5,2,0:0:0:0:
152,172,59725,1,8,0:0:0:0:
340,104,59883,5,2,0:0:0:0:
216,284,60041,1,8,0:0:0:0:
212,68,60199,1,2,0:0:0:0:
232,96,60278,1,0,0:0:0:0:
252,124,60357,1,8,0:0:0:0:
272,152,60436,1,0,0:0:0:0:
292,180,60515,1,2,0:0:0:0:
92,168,60672,1,0,0:0:0:0:
292,180,60830,1,2,0:0:0:0:
172,8,60988,1,0,0:0:0:0:
172,224,61146,6,0,L|172:296,1,50,2|0,0:0|0:0,0:0:0:0:
172,344,61304,1,8,0:0:0:0:
364,256,61462,2,0,L|364:168,1,50,2|0,0:0|0:0,0:0:0:0:
364,136,61620,1,8,0:0:0:0:
260,296,61778,5,2,0:0:0:0:
448,264,61936,1,8,0:0:0:0:
264,128,62093,5,2,0:0:0:0:
352,352,62251,1,8,0:0:0:0:
136,300,62409,5,8,0:0:0:0:
136,300,62488,1,8,0:0:0:0:
136,300,62567,1,8,0:0:0:0:
28,88,62725,1,8,0:0:0:0:
28,124,62804,1,8,0:0:0:0:
28,160,62883,1,8,0:0:0:0:
132,296,63041,5,2,0:0:0:0:
212,112,63199,1,8,0:0:0:0:
32,232,63357,5,2,0:0:0:0:
240,248,63515,1,8,0:0:0:0:
32,336,63672,6,0,P|136:344|168:324,1,100,2|0,0:0|0:0,0:0:0:0:
120,144,63988,1,2,0:0:0:0:
120,144,64067,1,0,0:0:0:0:
120,144,64146,1,8,0:0:0:0:
120,144,64225,1,0,0:0:0:0:
120,144,64304,1,2,0:0:0:0:
316,96,64462,5,2,0:0:0:0:
224,272,64620,1,8,0:0:0:0:
168,84,64778,5,2,0:0:0:0:
392,216,64936,1,8,0:0:0:0:
320,24,65093,5,2,0:0:0:0:
256,204,65251,1,8,0:0:0:0:
432,80,65409,1,0,0:0:0:0:
168,84,65567,5,8,0:0:0:0:
168,136,65646,1,8,0:0:0:0:
168,188,65725,1,8,0:0:0:0:
16,68,65883,1,8,0:0:0:0:
16,68,65962,1,8,0:0:0:0:
16,68,66041,1,8,0:0:0:0:
88,264,66199,5,2,0:0:0:0:
284,128,66357,1,0,0:0:0:0:
252,296,66515,1,2,0:0:0:0:
172,84,66672,1,0,0:0:0:0:
360,208,66830,1,2,0:0:0:0:
156,200,66988,6,0,L|156:250,1,50,8|0,0:0|0:0,0:0:0:0:
160,324,67146,1,2,0:0:0:0:
280,168,67304,2,0,L|280:84,1,50,8|0,0:0|0:0,0:0:0:0:
280,40,67462,1,2,0:0:0:0:
460,180,67620,5,0,0:0:0:0:
304,304,67778,1,2,0:0:0:0:
276,264,67857,1,0,0:0:0:0:
236,232,67936,1,8,0:0:0:0:
188,224,68015,1,0,0:0:0:0:
140,236,68093,1,2,0:0:0:0:
272,48,68251,5,2,0:0:0:0:
380,260,68409,1,8,0:0:0:0:
164,128,68567,5,2,0:0:0:0:
396,92,68725,1,8,0:0:0:0:
164,128,68883,1,2,0:0:0:0:
272,332,69041,2,0,L|272:196,1,100,2|8,0:0|0:0,0:0:0:0:
272,232,69278,1,0,0:0:0:0:
272,232,69357,1,2,0:0:0:0:
432,160,69515,5,8,0:0:0:0:
204,64,69672,1,2,0:0:0:0:
432,16,69830,5,8,0:0:0:0:
240,164,69988,1,2,0:0:0:0:
408,320,70146,1,0,0:0:0:0:
120,192,70304,1,2,0:0:0:0:
140,236,70383,1,0,0:0:0:0:
160,280,70462,1,8,0:0:0:0:
188,324,70541,1,0,0:0:0:0:
208,368,70620,1,2,0:0:0:0:
240,164,70778,6,0,L|240:72,1,50,8|0,0:0|0:0,0:0:0:0:
240,44,70936,1,2,0:0:0:0:
392,188,71093,2,0,L|392:280,1,50,8|0,0:0|0:0,0:0:0:0:
392,304,71251,1,2,0:0:0:0:
392,64,71409,5,0,0:0:0:0:
184,208,71567,1,2,0:0:0:0:
476,228,71725,1,0,0:0:0:0:
192,116,71883,1,2,0:0:0:0:
192,116,72041,1,0,0:0:0:0:
268,360,72199,5,2,0:0:0:0:
48,152,72357,1,0,0:0:0:0:
48,152,72515,1,2,0:0:0:0:
272,248,72672,1,8,0:0:0:0:
304,208,72751,1,8,0:0:0:0:
336,168,72830,1,8,0:0:0:0:
76,320,72988,5,0,0:0:0:0:
164,56,73146,1,2,0:0:0:0:
164,56,73304,1,0,0:0:0:0:
164,56,73462,1,2,0:0:0:0:
164,56,73620,1,0,0:0:0:0:
164,56,73778,2,2,P|236:104|176:212,1,200
0,48,74251,5,8,0:0:0:0:
84,296,74409,1,2,0:0:0:0:
304,240,74567,5,8,0:0:0:0:
16,160,74725,1,2,0:0:0:0:
304,240,74883,1,8,0:0:0:0:
184,20,75041,1,8,0:0:0:0:
164,60,75120,1,8,0:0:0:0:
140,96,75199,1,8,0:0:0:0:
388,120,75357,5,2,0:0:0:0:
152,312,75515,1,8,0:0:0:0:
256,56,75672,1,8,0:0:0:0:
256,56,75751,1,8,0:0:0:0:
256,56,75830,1,8,0:0:0:0:
320,332,75988,2,8,L|368:300,6,50
144,156,76462,5,8,0:0:0:0:
432,48,76620,1,2,0:0:0:0:
156,280,76778,1,8,0:0:0:0:
276,8,76936,1,2,0:0:0:0:
36,112,77093,1,8,0:0:0:0:
304,236,77251,5,2,0:0:0:0:
136,24,77409,1,8,0:0:0:0:
156,280,77567,1,2,0:0:0:0:
336,56,77725,1,8,0:0:0:0:
72,328,77883,6,2,L|72:116,1,150.000005722046
236,264,78199,2,2,L|236:72,1,150.000005722046
420,284,78515,5,8,0:0:0:0:
420,284,78593,1,8,0:0:0:0:
420,284,78672,1,8,0:0:0:0:
124,144,78830,1,4,0:0:0:0:
256,192,78909,12,0,80015,0:0:0:0:
96,120,80093,6,0,L|200:68,1,100
300,140,80409,2,0,L|204:200,2,100,2|0|2,0:0|0:0|0:0,0:0:0:0:
424,224,80883,5,0,0:0:0:0:
324,268,81041,2,0,L|324:128,1,100,0|2,0:0|0:0,0:0:0:0:
316,56,81357,1,0,0:0:0:0:
228,104,81515,1,0,0:0:0:0:
188,196,81672,2,0,P|200:272|236:320,1,100
312,292,81988,1,0,0:0:0:0:
388,228,82146,1,0,0:0:0:0:
323,149,82304,1,2,0:0:0:0:
404,92,82462,1,0,0:0:0:0:
308,60,82620,6,0,P|260:36|192:24,2,100,2|0|2,0:0|0:0|0:0,0:0:0:0:
232,124,83093,1,0,0:0:0:0:
232,224,83251,1,2,0:0:0:0:
308,288,83409,1,0,0:0:0:0:
356,200,83567,1,2,0:0:0:0:
356,100,83725,1,0,0:0:0:0:
264,60,83883,6,0,L|164:96,1,100,2|0,0:0|0:0,0:0:0:0:
304,200,84199,2,0,L|408:168,1,100,2|0,0:0|0:0,0:0:0:0:
196,32,84515,2,0,L|76:72,1,100,2|0,0:0|0:0,0:0:0:0:
56,152,84830,1,2,0:0:0:0:
180,132,85146,5,2,0:0:0:0:
16,244,85462,1,2,0:0:0:0:
100,300,85620,1,8,0:0:0:0:
196,272,85778,1,2,0:0:0:0:
360,132,86093,1,2,0:0:0:0:
360,132,86409,1,2,0:0:0:0:
468,44,86725,5,2,0:0:0:0:
372,16,86883,1,8,0:0:0:0:
276,40,87041,1,2,0:0:0:0:
468,44,87357,1,2,0:0:0:0:
236,136,87672,1,2,0:0:0:0:
212,336,87988,5,2,0:0:0:0:
304,296,88146,1,8,0:0:0:0:
404,296,88304,1,2,0:0:0:0:
340,160,88620,2,0,P|288:112|156:80,1,200,4|4,0:0|0:0,0:0:0:0:
340,160,89567,1,2,0:0:0:0:
248,240,89883,1,0,0:0:0:0:
200,128,90199,5,2,0:0:0:0:
200,128,90515,1,2,0:0:0:0:
116,180,90672,1,8,0:0:0:0:
180,256,90830,1,2,0:0:0:0:
332,256,91146,2,0,P|388:248|452:128,1,200,4|4,0:0|0:0,0:0:0:0:
260,72,91778,5,2,0:0:0:0:
160,72,91936,1,8,0:0:0:0:
60,72,92093,1,2,0:0:0:0:
260,72,92409,1,2,0:0:0:0:
408,208,92725,1,4,0:0:0:0:
268,260,93041,5,2,0:0:0:0:
308,168,93199,1,8,0:0:0:0:
408,208,93357,1,2,0:0:0:0:
268,260,93672,1,4,0:0:0:0:
408,208,93988,1,4,0:0:0:0:
116,140,94620,5,2,0:0:0:0:
256,192,95251,12,0,96436,0:0:0:0:
52,120,96515,6,0,P|152:56|224:124,1,200,2|0,0:0|0:0,0:0:0:0:
120,244,96988,5,0,0:0:0:0:
300,156,97146,1,2,0:0:0:0:
116,68,97304,1,8,0:0:0:0:
116,68,97383,1,8,0:0:0:0:
116,68,97462,1,8,0:0:0:0:
256,76,97620,5,0,0:0:0:0:
240,276,97778,1,2,0:0:0:0:
256,76,97936,1,0,0:0:0:0:
84,248,98093,6,0,L|200:312,1,100,2|0,0:0|0:0,0:0:0:0:
372,168,98409,2,0,L|284:120,1,100,2|0,0:0|0:0,0:0:0:0:
84,248,98725,2,0,L|176:300,1,100,2|0,0:0|0:0,0:0:0:0:
392,264,99041,6,0,P|448:176|408:88,1,200,2|0,0:0|0:0,0:0:0:0:
160,240,99515,5,0,0:0:0:0:
352,140,99672,1,2,0:0:0:0:
160,68,99830,1,8,0:0:0:0:
160,68,99909,1,8,0:0:0:0:
160,68,99988,1,8,0:0:0:0:
392,56,100146,1,0,0:0:0:0:
284,232,100304,1,2,0:0:0:0:
248,24,100462,1,0,0:0:0:0:
176,220,100620,6,0,L|176:348,1,100,2|0,0:0|0:0,0:0:0:0:
332,192,100936,2,0,L|332:88,1,100,2|0,0:0|0:0,0:0:0:0:
180,40,101251,2,0,L|180:160,1,100,2|0,0:0|0:0,0:0:0:0:
440,176,101567,6,0,P|448:112|344:24,1,200,2|0,0:0|0:0,0:0:0:0:
192,140,102041,1,0,0:0:0:0:
364,116,102199,1,2,0:0:0:0:
236,276,102357,5,8,0:0:0:0:
236,276,102436,1,8,0:0:0:0:
236,276,102515,1,8,0:0:0:0:
108,120,102672,1,0,0:0:0:0:
300,180,102830,1,2,0:0:0:0:
108,120,102988,1,0,0:0:0:0:
188,344,103146,6,0,P|248:356|312:316,1,100,2|0,0:0|0:0,0:0:0:0:
412,164,103462,2,2,P|360:192|296:196,1,100
152,88,103778,2,2,P|204:104|264:96,1,100
420,204,104093,6,0,B|392:264|360:320|240:292|216:272,1,200,2|0,0:0|0:0,0:0:0:0:
304,92,104567,5,0,0:0:0:0:
144,284,104725,1,2,0:0:0:0:
396,292,104883,1,8,0:0:0:0:
396,292,104961,1,8,0:0:0:0:
396,292,105040,1,8,0:0:0:0:
212,216,105199,5,0,0:0:0:0:
381,85,105357,1,2,0:0:0:0:
212,216,105515,1,0,0:0:0:0:
452,156,105672,6,0,L|356:60,1,100,2|0,0:0|0:0,0:0:0:0:
336,240,105988,2,0,L|232:132,1,150.000005722046,2|0,0:0|0:0,0:0:0:0:
200,304,106304,2,0,L|68:172,1,170.000003242493,2|0,0:0|0:0,0:0:0:0:
428,184,106620,6,0,P|400:132|244:112,1,200,2|0,0:0|0:0,0:0:0:0:
176,272,107093,1,8,0:0:0:0:
420,220,107251,1,2,0:0:0:0:
172,180,107409,5,8,0:0:0:0:
172,180,107488,1,8,0:0:0:0:
172,180,107567,1,8,0:0:0:0:
384,52,107725,1,8,0:0:0:0:
380,304,107883,1,2,0:0:0:0:
212,116,108041,1,8,0:0:0:0:
56,320,108199,6,0,L|56:204,1,100,2|0,0:0|0:0,0:0:0:0:
272,208,108515,2,0,L|272:332,1,100
156,176,108830,2,2,L|156:52,1,100,6|2,0:0|0:0,0:0:0:0:
368,60,109146,6,0,L|368:272,1,200,2|0,0:0|0:0,0:0:0:0:
496,184,109620,1,8,0:0:0:0:
252,212,109778,1,2,0:0:0:0:
412,32,109936,5,8,0:0:0:0:
412,32,110015,1,8,0:0:0:0:
412,32,110094,1,8,0:0:0:0:
388,280,110251,1,0,0:0:0:0:
208,88,110409,1,2,0:0:0:0:
388,280,110567,1,0,0:0:0:0:
64,144,110725,6,2,L|160:240,1,100
368,268,111041,2,4,L|276:176,1,100
280,64,111357,2,0,P|364:52|416:76,1,100
280,312,111672,6,4,P|332:288|344:124,1,200
112,140,112146,1,0,0:0:0:0:
392,244,112304,1,2,0:0:0:0:
156,320,112462,5,8,0:0:0:0:
156,320,112541,1,8,0:0:0:0:
156,320,112620,1,8,0:0:0:0:
288,68,112778,1,0,0:0:0:0:
156,320,112936,1,2,0:0:0:0:
68,152,113093,1,0,0:0:0:0:
368,260,113251,6,0,L|456:172,1,100,2|0,0:0|0:0,0:0:0:0:
142,85,113567,2,0,L|62:157,1,100,2|0,0:0|0:0,0:0:0:0:
368,260,113883,2,0,L|440:188,1,100,2|0,0:0|0:0,0:0:0:0:
144,84,114199,6,0,P|88:120|128:248,1,200,2|0,0:0|0:0,0:0:0:0:
392,140,114672,1,0,0:0:0:0:
140,304,114830,1,2,0:0:0:0:
392,140,114988,5,8,0:0:0:0:
392,140,115067,1,8,0:0:0:0:
392,140,115146,1,8,0:0:0:0:
116,124,115304,1,0,0:0:0:0:
240,336,115462,1,2,0:0:0:0:
288,80,115620,1,0,0:0:0:0:
52,316,115778,6,2,L|52:188,1,100
252,248,116093,2,2,L|252:96,1,150.000005722046
452,176,116409,2,2,L|452:-4,1,170.000003242493
152,72,116725,5,2,0:0:0:0:
408,228,116883,1,0,0:0:0:0:
168,292,117041,1,8,0:0:0:0:
168,292,117120,1,8,0:0:0:0:
168,292,117199,1,8,0:0:0:0:
480,220,117357,6,4,L|424:284,1,50
412,288,117515,1,0,0:0:0:0:
168,208,117672,1,2,0:0:0:0:
460,136,117830,1,4,0:0:0:0:
460,136,117988,1,2,0:0:0:0:
160,104,118146,5,4,0:0:0:0:
424,244,118304,1,8,0:0:0:0:
384,276,118383,1,8,0:0:0:0:
344,308,118461,1,8,0:0:0:0:
208,40,118620,1,2,0:0:0:0:
108,252,118778,5,0,0:0:0:0:
464,208,118936,1,2,0:0:0:0:
92,160,119093,1,0,0:0:0:0:
376,80,119251,1,8,0:0:0:0:
376,80,119330,1,8,0:0:0:0:
376,80,119409,1,8,0:0:0:0:
204,328,119567,1,2,0:0:0:0:
208,40,119725,5,8,0:0:0:0:
208,40,119804,1,8,0:0:0:0:
208,40,119883,1,8,0:0:0:0:
388,296,120041,1,0,0:0:0:0:
96,232,120199,1,2,0:0:0:0:
472,212,120357,5,8,0:0:0:0:
472,212,120436,1,8,0:0:0:0:
472,212,120515,1,8,0:0:0:0:
156,28,120672,1,0,0:0:0:0:
192,320,120830,5,8,0:0:0:0:
192,320,120909,1,8,0:0:0:0:
192,320,120988,1,8,0:0:0:0:
292,40,121146,1,2,0:0:0:0:
32,184,121304,1,0,0:0:0:0:
372,288,121462,6,0,L|416:340,8,50,2|0|0|0|0|0|0|0|2,0:0|0:0|0:0|0:0|0:0|0:0|0:0|0:0|0:0,0:0:0:0:
392,100,121935,1,0,0:0:0:0:
80,184,122092,1,2,0:0:0:0:
368,320,122251,1,0,0:0:0:0:
228,40,122409,1,2,0:0:0:0:
120,336,122567,5,0,0:0:0:0:
448,184,122725,1,2,0:0:0:0:
88,84,122883,1,0,0:0:0:0:
224,300,123040,1,2,0:0:0:0:
356,36,123199,5,8,0:0:0:0:
356,36,123278,1,8,0:0:0:0:
356,36,123357,1,8,0:0:0:0:
252,376,123515,5,8,0:0:0:0:
252,376,123594,1,8,0:0:0:0:
252,376,123673,1,8,0:0:0:0:
54,86,123830,5,8,0:0:0:0:
54,86,123909,1,8,0:0:0:0:
54,86,123988,1,8,0:0:0:0:
408,192,124146,5,4,0:0:0:0:
108,192,124304,1,0,0:0:0:0:
72,120,125567,5,0,0:0:0:0:
72,120,125725,2,0,L|72:224,2,100
224,176,126199,5,0,0:0:0:0:
224,176,126357,2,0,L|224:288,2,100
344,280,126830,6,0,P|372:224|344:160,1,100
308,132,127146,2,0,P|248:136|216:72,1,100
324,44,127462,5,0,0:0:0:0:
412,128,127620,1,0,0:0:0:0:
324,208,127778,1,0,0:0:0:0:
356,92,127936,1,0,0:0:0:0:
432,184,128093,5,0,0:0:0:0:
432,184,128251,2,0,L|432:288,2,100
308,284,128725,5,0,0:0:0:0:
308,284,128883,2,0,L|308:176,2,100
172,196,129357,6,0,L|268:248,1,100
244,124,129672,2,0,L|152:76,1,100
360,200,129988,6,0,L|360:96,1,100
256,224,130304,2,0,L|256:328,1,100
48,200,130620,5,0,0:0:0:0:
208,80,130935,1,0,0:0:0:0:
256,144,131093,1,0,0:0:0:0:
296,212,131251,2,0,P|344:200|284:88,1,200
156,92,131883,6,0,P|80:64|56:56,1,100
76,136,132199,2,0,P|96:204|140:200,1,100
216,144,132515,2,0,P|256:232|176:268,1,200
448,188,133146,5,0,0:0:0:0:
180,268,133462,5,0,0:0:0:0:
216,196,133620,1,0,0:0:0:0:
256,128,133778,2,0,P|320:152|300:56,1,200
312,57,134409,5,0,0:0:0:0:
312,57,135041,1,0,0:0:0:0:
128,188,135672,6,0,L|204:124,1,100,2|0,0:0|0:0,0:0:0:0:
264,216,135988,2,0,L|264:340,2,100,2|0|2,0:0|0:0|0:0,0:0:0:0:
404,176,136620,1,2,0:0:0:0:
404,176,136936,2,0,P|376:112|280:160,1,200,2|2,0:0|0:0,0:0:0:0:
196,220,137567,2,0,L|196:332,1,100,2|0,0:0|0:0,0:0:0:0:
120,136,137883,2,0,P|160:100|240:104,2,100,2|0|2,0:0|0:0|0:0,0:0:0:0:
384,172,138515,5,2,0:0:0:0:
344,240,138673,1,8,0:0:0:0:
304,308,138831,1,2,0:0:0:0:
180,152,139146,5,0,0:0:0:0:
180,152,139462,5,0,0:0:0:0:
464,304,140093,5,0,0:0:0:0:
112,184,141988,6,0,P|160:248|212:256,1,133.333333333333,2|0,0:0|0:0,0:0:0:0:
276,272,142304,1,2,0:0:0:0:
344,272,142409,2,0,P|376:260|388:216,2,66.6666666666667,0|0|2,0:0|0:0|0:0,0:0:0:0:
80,252,142830,6,0,P|56:188|60:160,1,66.6666666666667,0|2,0:0|0:0,0:0:0:0:
64,124,143041,1,0,0:0:0:0:
104,72,143146,1,0,0:0:0:0:
164,44,143251,2,0,P|244:44|332:108,1,133.333333333333,2|0,0:0|0:0,0:0:0:0:
232,208,143567,5,2,0:0:0:0:
290,175,143672,1,0,0:0:0:0:
357,174,143778,1,0,0:0:0:0:
415,206,143883,2,0,P|375:278|324:256,1,133.333333333333,2|0,0:0|0:0,0:0:0:0:
175,308,144199,6,0,L|239:256,1,83.3333333333333,2|0,0:0|0:0,0:0:0:0:
30,321,144409,2,0,L|92:268,1,66.6666666666667,0|2,0:0|0:0,0:0:0:0:
88,56,144725,6,0,P|127:47|173:54,1,66.6666666666667,0|2,0:0|0:0,0:0:0:0:
218,69,144936,1,0,0:0:0:0:
275,103,145041,1,0,0:0:0:0:
317,154,145146,2,0,B|397:178|397:178|411:92,1,133.333333333333,2|0,0:0|0:0,0:0:0:0:
465,263,145462,5,2,0:0:0:0:
407,295,145567,1,0,0:0:0:0:
346,321,145672,1,0,0:0:0:0:
282,342,145778,2,0,P|225:354|142:329,1,133.333333333333,2|0,0:0|0:0,0:0:0:0:
272,160,146093,6,0,L|216:209,1,66.6666666666667,2|0,0:0|0:0,0:0:0:0:
16,209,146304,2,0,L|71:152,1,66.6666666666667,0|2,0:0|0:0,0:0:0:0:
232,48,146620,5,8,0:0:0:0:
192,121,146725,1,2,0:0:0:0:
151,193,146830,1,0,0:0:0:0:
105,263,146936,1,8,0:0:0:0:
66,336,147041,6,0,B|94:372|198:360|262:293,1,166.666666666667,2|0,0:0|0:0,0:0:0:0:
360,200,147357,2,0,L|289:144,1,83.3333333333333,2|0,0:0|0:0,0:0:0:0:
136,208,147567,2,0,L|59:142,1,83.3333333333333,0|2,0:0|0:0,0:0:0:0:
248,48,147883,5,0,0:0:0:0:
323,82,147988,1,2,0:0:0:0:
386,135,148093,2,0,P|410:159|433:211,1,83.3333333333333
380,352,148304,2,0,P|276:340|266:269,1,166.666666666667,2|0,0:0|0:0,0:0:0:0:
260,209,148620,5,2,0:0:0:0:
246,126,148725,1,0,0:0:0:0:
208,51,148830,1,0,0:0:0:0:
129,20,148936,2,0,B|57:24|13:76|31:200,1,166.666666666667,2|0,0:0|0:0,0:0:0:0:
246,126,149251,5,0,0:0:0:0:
215,204,149357,1,0,0:0:0:0:
187,282,149462,1,0,0:0:0:0:
144,342,149567,2,0,P|92:230|132:160,1,208.333333333333,2|0,0:0|0:0,0:0:0:0:
168,156,149883,6,0,P|224:147|249:93,2,83.3333333333333,2|0|8,0:0|0:0|0:0,0:0:0:0:
16,237,150199,2,0,P|116:264|207:234,1,166.666666666667,2|0,0:0|0:0,0:0:0:0:
289,89,150515,6,0,L|236:176,1,83.3333333333333,2|0,0:0|0:0,0:0:0:0:
444,200,150725,2,0,L|400:272,1,83.3333333333333,0|2,0:0|0:0,0:0:0:0:
162,302,151041,5,0,0:0:0:0:
243,317,151146,1,0,0:0:0:0:
325,304,151251,1,0,0:0:0:0:
400,268,151357,2,0,P|420:247|432:148,1,83.3333333333333
368,128,151567,5,0,0:0:0:0:
368,128,151672,1,0,0:0:0:0:
368,128,151778,1,0,0:0:0:0:
368,128,151883,1,0,0:0:0:0:
368,128,151988,1,0,0:0:0:0:
160,172,152093,6,0,P|184:100|192:88,1,66.6666666666667
305,71,152304,6,0,L|262:19,2,66.6666666666667,0|2|0,0:0|0:0|0:0,0:0:0:0:
353,117,152620,1,0,0:0:0:0:
395,168,152725,2,0,P|428:253|424:311,1,133.333333333333,2|0,0:0|0:0,0:0:0:0:
375,337,153041,5,2,0:0:0:0:
309,348,153146,1,0,0:0:0:0:
242,342,153251,1,0,0:0:0:0:
182,310,153357,2,0,P|133:272|125:194,1,133.333333333333,2|0,0:0|0:0,0:0:0:0:
29,122,153672,6,0,L|59:61,1,66.6666666666667,2|0,0:0|0:0,0:0:0:0:
214,202,153883,2,0,L|178:133,1,66.6666666666667,0|2,0:0|0:0,0:0:0:0:
88,60,154199,6,0,L|153:121,1,66.6666666666667,0|2,0:0|0:0,0:0:0:0:
256,112,154409,2,0,L|320:160,1,66.6666666666667
288,272,154620,2,0,P|340:320|413:285,1,133.333333333333,2|0,0:0|0:0,0:0:0:0:
435,252,154936,5,2,0:0:0:0:
460,190,155041,1,0,0:0:0:0:
457,123,155146,1,0,0:0:0:0:
432,61,155251,2,0,B|420:41|380:1|310:47,1,133.333333333333,2|0,0:0|0:0,0:0:0:0:
200,112,155567,6,0,L|149:169,1,66.6666666666667,2|0,0:0|0:0,0:0:0:0:
65,255,155778,2,0,L|159:318,1,66.6666666666667,0|2,0:0|0:0,0:0:0:0:
240,184,156093,5,0,0:0:0:0:
303,205,156199,1,2,0:0:0:0:
351,250,156304,1,0,0:0:0:0:
390,303,156409,2,0,P|428:284|454:244,1,66.6666666666667,0|2,0:0|0:0,0:0:0:0:
425,75,156725,5,8,0:0:0:0:
350,112,156830,1,2,0:0:0:0:
276,149,156936,1,8,0:0:0:0:
200,184,157041,1,2,0:0:0:0:
121,212,157146,6,0,P|57:144|70:62,1,166.666666666667,2|0,0:0|0:0,0:0:0:0:
208,96,157462,2,0,L|299:45,1,83.3333333333333,2|0,0:0|0:0,0:0:0:0:
374,197,157672,2,0,L|282:247,1,83.3333333333333,0|2,0:0|0:0,0:0:0:0:
44,200,157988,6,0,P|52:256|127:281,1,83.3333333333333,0|2,0:0|0:0,0:0:0:0:
141,316,158199,1,0,0:0:0:0:
221,334,158304,1,0,0:0:0:0:
303,327,158409,2,0,B|323:283|323:283|427:339|433:201,1,166.666666666667,8|0,0:0|0:0,0:0:0:0:
307,154,158725,6,0,L|351:84,1,83.3333333333333,8|0,0:0|0:0,0:0:0:0:
400,208,158936,1,0,0:0:0:0:
484,154,159041,2,0,L|440:68,1,83.3333333333333,0|2,0:0|0:0,0:0:0:0:
332,292,159251,6,0,P|384:328|440:328,2,83.3333333333333,0|2|0,0:0|0:0|0:0,0:0:0:0:
374,219,159567,1,0,0:0:0:0:
297,187,159672,2,0,P|253:299|163:291,1,166.666666666667,2|0,0:0|0:0,0:0:0:0:
136,296,159988,5,2,0:0:0:0:
76,237,160093,1,8,0:0:0:0:
60,154,160199,1,0,0:0:0:0:
81,73,160304,2,0,P|149:29|232:20,1,166.666666666667,2|0,0:0|0:0,0:0:0:0:
230,147,160620,5,2,0:0:0:0:
217,229,160726,1,8,0:0:0:0:
242,308,160831,1,8,0:0:0:0:
320,336,160936,2,2,P|376:240|331:157,1,166.666666666667,0|2,0:0|0:0,0:0:0:0:
308,128,161252,6,2,L|233:66,2,83.3333333333333
428,216,161567,6,0,L|373:292,1,83.3333333333333,2|0,0:0|0:0,0:0:0:0:
248,272,161778,2,0,L|204:176,1,75.3333335632324,0|2,0:0|0:0,0:0:0:0:
87,220,161988,2,0,L|44:288,1,66.6666666666667
256,192,162199,5,0,0:0:0:0:
256,192,162357,12,0,165988,0:0:0:0:
56,124,168515,6,0,L|136:204,1,100,2|0,0:0|0:0,0:0:0:0:
248,108,168830,6,0,L|248:172,1,50,2|0,0:0|0:0,0:0:0:0:
344,228,168988,1,8,0:0:0:0:
228,304,169146,1,2,0:0:0:0:
144,136,169304,5,0,0:0:0:0:
136,304,169462,1,2,0:0:0:0:
240,188,169620,5,0,0:0:0:0:
64,204,169778,1,2,0:0:0:0:
224,272,169936,5,0,0:0:0:0:
144,128,170093,1,2,0:0:0:0:
80,280,170251,5,0,0:0:0:0:
232,168,170409,1,2,0:0:0:0:
60,108,170567,5,0,0:0:0:0:
224,60,170725,1,2,0:0:0:0:
200,280,170883,5,0,0:0:0:0:
320,172,171041,2,0,L|320:296,1,100,2|0,0:0|0:0,0:0:0:0:
180,136,171357,6,0,L|180:64,1,50,2|0,0:0|0:0,0:0:0:0:
84,164,171515,2,0,L|84:244,1,50,8|0,0:0|0:0,0:0:0:0:
256,136,171672,1,2,0:0:0:0:
160,308,171830,5,0,0:0:0:0:
352,224,171988,1,2,0:0:0:0:
188,176,172146,5,0,0:0:0:0:
296,336,172304,1,2,0:0:0:0:
312,128,172462,5,0,0:0:0:0:
244,256,172620,1,2,0:0:0:0:
224,136,172778,5,0,0:0:0:0:
332,224,172936,1,2,0:0:0:0:
144,164,173093,5,0,0:0:0:0:
164,280,173251,1,2,0:0:0:0:
256,196,173409,5,0,0:0:0:0:
312,72,173567,2,0,P|384:92|408:148,1,100,2|0,0:0|0:0,0:0:0:0:
292,304,173883,5,2,0:0:0:0:
176,216,174041,1,0,0:0:0:0:
312,156,174199,1,2,0:0:0:0:
76,144,174515,6,0,L|72:40,1,100
152,72,174830,2,0,P|180:148|232:148,1,100,2|0,0:0|0:0,0:0:0:0:
120,288,175146,5,2,0:0:0:0:
240,200,175304,1,0,0:0:0:0:
352,116,175462,1,2,0:0:0:0:
120,288,175778,5,2,0:0:0:0:
120,288,176093,6,0,L|260:328,1,100,2|0,0:0|0:0,0:0:0:0:
296,136,176409,6,0,L|296:68,1,50,2|0,0:0|0:0,0:0:0:0:
184,152,176567,2,0,L|184:204,1,50,8|0,0:0|0:0,0:0:0:0:
374,248,176725,1,0,0:0:0:0:
152,288,177041,6,0,P|84:232|80:180,1,100,2|0,0:0|0:0,0:0:0:0:
168,176,177357,2,0,P|276:108|292:244,2,300.000011444092,2|2|2,0:0|0:0|0:0,0:0:0:0:
352,72,178936,5,2,0:0:0:0:
244,184,179094,1,0,0:0:0:0:
144,276,179252,1,2,0:0:0:0:
392,284,179567,6,0,P|412:220|384:168,1,100,2|0,0:0|0:0,0:0:0:0:
188,124,179883,2,0,P|176:196|216:248,1,100,2|0,0:0|0:0,0:0:0:0:
56,176,180199,5,2,0:0:0:0:
256,176,180357,1,0,0:0:0:0:
116,48,180515,1,2,0:0:0:0:
200,324,180830,5,2,0:0:0:0:
200,324,181146,1,2,0:0:0:0:
280,220,181462,5,2,0:0:0:0:
128,176,181620,1,0,0:0:0:0:
264,80,181778,1,2,0:0:0:0:
284,312,182093,2,0,P|332:340|404:304,1,100,2|0,0:0|0:0,0:0:0:0:
428,272,182409,2,0,P|360:236|440:168,1,200,2|2,0:0|0:0,0:0:0:0:
336,96,183041,6,8,P|284:160|320:44,1,400,2|4,0:0|0:0,0:0:0:0:
116,120,184936,5,2,0:0:0:0:
432,308,185567,5,2,0:0:0:0:
400,36,186199,6,0,P|304:88|292:104,1,100,2|0,0:0|0:0,0:0:0:0:
156,56,186515,1,2,0:0:0:0:
32,268,186672,6,4,L|116:240,1,50
224,212,186830,1,2,0:0:0:0:
24,100,186988,5,0,0:0:0:0:
176,288,187146,1,8,0:0:0:0:
176,288,187225,1,8,0:0:0:0:
176,288,187304,1,8,0:0:0:0:
356,132,187462,6,0,P|408:200|408:236,1,100,2|0,0:0|0:0,0:0:0:0:
424,368,187778,1,2,0:0:0:0:
312,216,187936,1,8,0:0:0:0:
312,216,188015,1,8,0:0:0:0:
312,216,188093,1,8,0:0:0:0:
352,44,188251,5,12,0:0:0:0:
304,48,188330,1,12,0:0:0:0:
260,68,188409,1,12,0:0:0:0:
224,104,188488,1,12,0:0:0:0:
208,152,188567,1,12,0:0:0:0:
72,52,188725,6,0,P|40:120|56:184,1,100,2|0,0:0|0:0,0:0:0:0:
164,256,189041,1,2,0:0:0:0:
300,128,189199,6,4,L|331:167,1,50
424,292,189357,1,2,0:0:0:0:
416,80,189515,1,0,0:0:0:0:
424,292,189672,6,0,L|372:224,1,50,2|0,0:0|0:0,0:0:0:0:
300,128,189830,1,4,0:0:0:0:
164,300,189988,6,0,P|120:268|84:220,1,100,2|0,0:0|0:0,0:0:0:0:
208,80,190304,1,2,0:0:0:0:
248,304,190462,1,8,0:0:0:0:
296,312,190541,1,8,0:0:0:0:
344,296,190620,1,8,0:0:0:0:
384,88,190778,5,0,0:0:0:0:
160,84,190936,1,8,0:0:0:0:
148,132,191015,1,8,0:0:0:0:
156,180,191093,1,8,0:0:0:0:
364,192,191251,6,0,P|320:236|264:256,1,100,2|0,0:0|0:0,0:0:0:0:
96,140,191567,1,2,0:0:0:0:
200,308,191725,1,0,0:0:0:0:
28,220,191883,5,2,0:0:0:0:
208,152,192041,1,0,0:0:0:0:
84,312,192199,2,0,L|48:360,2,50,2|0|0,0:0|0:0|0:0,0:0:0:0:
252,288,192515,5,2,0:0:0:0:
400,184,192672,1,0,0:0:0:0:
232,84,192830,1,2,0:0:0:0:
56,176,192988,6,4,L|112:228,1,50
192,296,193146,1,2,0:0:0:0:
232,84,193304,5,0,0:0:0:0:
56,176,193462,1,8,0:0:0:0:
92,212,193541,1,8,0:0:0:0:
136,236,193620,1,8,0:0:0:0:
356,264,193778,5,2,0:0:0:0:
192,296,193936,1,0,0:0:0:0:
368,356,194093,1,2,0:0:0:0:
248,216,194251,5,8,0:0:0:0:
248,216,194330,1,8,0:0:0:0:
248,216,194409,1,8,0:0:0:0:
416,184,194567,1,0,0:0:0:0:
260,328,194725,2,0,L|216:360,2,50,2|0|0,0:0|0:0|0:0,0:0:0:0:
136,144,195041,6,0,P|104:208|100:252,1,100,2|0,0:0|0:0,0:0:0:0:
276,112,195357,1,2,0:0:0:0:
204,280,195515,5,8,0:0:0:0:
204,280,195593,1,8,0:0:0:0:
204,280,195672,1,8,0:0:0:0:
352,264,195830,2,0,L|400:216,1,50,4|0,0:0|0:0,0:0:0:0:
280,168,195988,1,8,0:0:0:0:
240,136,196067,1,8,0:0:0:0:
196,116,196146,1,8,0:0:0:0:
72,288,196304,6,2,P|120:328|172:356,1,100
252,196,196620,1,2,0:0:0:0:
48,140,196778,6,4,L|96:104,1,50
196,40,196936,1,2,0:0:0:0:
108,216,197093,1,0,0:0:0:0:
296,124,197251,1,8,0:0:0:0:
344,108,197330,1,8,0:0:0:0:
392,104,197409,1,8,0:0:0:0:
236,216,197567,6,0,L|312:312,1,100,2|0,0:0|0:0,0:0:0:0:
464,352,197883,1,2,0:0:0:0:
440,164,198041,6,4,L|392:212,1,50,4|0,0:0|0:0,0:0:0:0:
280,280,198199,1,2,0:0:0:0:
180,160,198357,2,4,L|222:132,1,50,4|0,0:0|0:0,0:0:0:0:
300,76,198515,1,8,0:0:0:0:
348,76,198594,1,8,0:0:0:0:
396,76,198673,1,8,0:0:0:0:
230,209,198830,5,2,0:0:0:0:
365,143,198988,1,0,0:0:0:0:
430,278,199146,1,2,0:0:0:0:
296,344,199304,1,8,0:0:0:0:
296,344,199383,1,8,0:0:0:0:
296,344,199462,1,8,0:0:0:0:
365,143,199620,5,0,0:0:0:0:
430,278,199778,1,8,0:0:0:0:
430,278,199857,1,8,0:0:0:0:
430,278,199936,1,8,0:0:0:0:
476,132,200093,6,0,P|432:100|372:100,1,100,2|0,0:0|0:0,0:0:0:0:
232,216,200409,1,2,0:0:0:0:
124,76,200567,2,0,L|60:48,2,50,2|0|0,0:0|0:0|0:0,0:0:0:0:
24,220,200883,5,0,0:0:0:0:
212,132,201041,1,8,0:0:0:0:
260,116,201120,1,8,0:0:0:0:
308,108,201199,1,8,0:0:0:0:
200,272,201357,6,0,P|244:328|272:344,1,100,2|0,0:0|0:0,0:0:0:0:
400,188,201672,1,2,0:0:0:0:
200,124,201830,6,0,L|244:192,1,50,4|0,0:0|0:0,0:0:0:0:
300,268,201988,1,2,0:0:0:0:
72,184,202146,1,0,0:0:0:0:
188,40,202304,1,8,0:0:0:0:
188,40,202383,1,8,0:0:0:0:
188,40,202462,1,8,0:0:0:0:
348,96,202620,6,0,P|320:176|308:208,1,100,2|0,0:0|0:0,0:0:0:0:
200,188,202936,1,2,0:0:0:0:
424,120,203093,1,8,0:0:0:0:
424,120,203172,1,8,0:0:0:0:
424,120,203251,1,8,0:0:0:0:
232,64,203409,5,0,0:0:0:0:
400,220,203567,1,8,0:0:0:0:
400,220,203646,1,8,0:0:0:0:
400,220,203725,1,8,0:0:0:0:
264,304,203883,5,2,0:0:0:0:
176,160,204041,1,0,0:0:0:0:
340,280,204199,1,2,0:0:0:0:
292,60,204357,1,8,0:0:0:0:
292,60,204436,1,8,0:0:0:0:
292,60,204515,1,8,0:0:0:0:
264,304,204672,5,0,0:0:0:0:
352,160,204830,1,8,0:0:0:0:
384,120,204909,1,8,0:0:0:0:
416,84,204988,1,8,0:0:0:0:
216,56,205146,6,0,P|168:112|160:152,1,100,2|0,0:0|0:0,0:0:0:0:
160,300,205462,1,2,0:0:0:0:
292,176,205620,2,0,L|336:220,1,50,4|0,0:0|0:0,0:0:0:0:
404,296,205778,1,2,0:0:0:0:
404,120,205936,1,0,0:0:0:0:
236,220,206093,2,0,L|188:240,2,50,2|0|0,0:0|0:0|0:0,0:0:0:0:
92,64,206409,6,0,L|112:176,1,100,2|0,0:0|0:0,0:0:0:0:
224,56,206725,1,2,0:0:0:0:
88,256,206883,1,8,0:0:0:0:
88,256,206962,1,8,0:0:0:0:
88,256,207041,1,8,0:0:0:0:
172,44,207199,5,0,0:0:0:0:
228,256,207357,1,8,0:0:0:0:
268,288,207436,1,8,0:0:0:0:
308,320,207515,1,8,0:0:0:0:
420,176,207672,6,0,P|388:120|348:96,1,100,2|0,0:0|0:0,0:0:0:0:
140,56,207988,2,0,P|104:100|104:176,1,100,2|0,0:0|0:0,0:0:0:0:
136,328,208304,1,2,0:0:0:0:
288,212,208462,6,0,L|348:184,1,50,4|0,0:0|0:0,0:0:0:0:
388,320,208620,1,8,0:0:0:0:
388,320,208699,1,8,0:0:0:0:
388,320,208778,1,8,0:0:0:0:
236,292,208936,6,0,P|192:248|172:200,1,100,2|0,0:0|0:0,0:0:0:0:
400,188,209251,2,0,P|428:136|432:80,1,100,2|0,0:0|0:0,0:0:0:0:
252,96,209567,1,2,0:0:0:0:
280,256,209725,6,0,L|344:308,1,50,4|0,0:0|0:0,0:0:0:0:
192,104,209883,1,2,0:0:0:0:
192,104,209962,1,2,0:0:0:0:
192,104,210041,1,2,0:0:0:0:
104,268,210199,5,2,0:0:0:0:
348,176,210357,1,0,0:0:0:0:
209,338,210515,1,2,0:0:0:0:
247,323,210593,1,4,0:0:0:0:
287,317,210672,1,2,0:0:0:0:
328,319,210751,1,4,0:0:0:0:
367,307,210830,1,2,0:0:0:0:
360,88,210988,5,0,0:0:0:0:
148,160,211146,1,2,0:0:0:0:
360,232,211304,5,0,0:0:0:0:
228,48,211462,1,2,0:0:0:0:
220,272,211620,5,0,0:0:0:0:
4,128,211778,2,2,L|44:92,1,37.5000014305115
120,128,211936,2,2,L|152:96,1,37.5000014305115
280,116,212093,1,12,0:0:0:0:
280,116,212172,1,12,0:0:0:0:
280,116,212251,1,12,0:0:0:0:
104,284,212409,5,2,0:0:0:0:
300,216,212567,1,0,0:0:0:0:
40,116,212725,5,2,0:0:0:0:
244,44,212883,1,0,0:0:0:0:
401,157,213041,1,2,0:0:0:0:
411,196,213120,1,4,0:0:0:0:
396,234,213199,1,2,0:0:0:0:
403,274,213278,1,4,0:0:0:0:
391,313,213357,1,2,0:0:0:0:
68,144,213515,5,0,0:0:0:0:
268,232,213672,1,2,0:0:0:0:
420,52,213830,1,0,0:0:0:0:
196,72,213988,5,2,0:0:0:0:
416,228,214146,1,0,0:0:0:0:
238,169,214304,1,2,0:0:0:0:
200,152,214383,1,4,0:0:0:0:
158,150,214462,1,2,0:0:0:0:
119,163,214541,1,4,0:0:0:0:
82,143,214620,1,2,0:0:0:0:
302,60,214778,1,2,0:0:0:0:
228,294,214936,1,4,0:0:0:0:
136,84,216515,5,2,0:0:0:0:
320,120,216672,1,0,0:0:0:0:
200,28,216830,5,2,0:0:0:0:
240,192,216988,1,0,0:0:0:0:
400,180,217146,5,2,0:0:0:0:
256,108,217304,1,0,0:0:0:0:
276,272,217462,5,2,0:0:0:0:
336,124,217620,1,0,0:0:0:0:
192,196,217778,2,0,P|124:164|104:112,1,100,2|8,0:0|0:0,0:0:0:0:
112,145,218015,1,0,0:0:0:0:
112,145,218093,1,2,0:0:0:0:
232,36,218251,1,0,0:0:0:0:
308,176,218409,6,0,L|308:280,1,100,2|0,0:0|0:0,0:0:0:0:
448,200,218725,2,0,L|448:96,1,100,2|0,0:0|0:0,0:0:0:0:
212,144,219041,2,0,L|212:248,1,100,2|8,0:0|0:0,0:0:0:0:
212,244,219278,1,0,0:0:0:0:
212,244,219357,1,2,0:0:0:0:
372,224,219515,5,0,0:0:0:0:
280,96,219672,1,2,0:0:0:0:
280,304,219830,5,0,0:0:0:0:
172,184,219988,1,2,0:0:0:0:
336,156,220146,1,0,0:0:0:0:
184,108,220304,6,0,P|240:152|248:200,1,100,2|8,0:0|0:0,0:0:0:0:
247,177,220541,1,0,0:0:0:0:
247,177,220620,1,2,0:0:0:0:
160,312,220778,5,0,0:0:0:0:
312,264,220936,1,2,0:0:0:0:
164,200,221093,5,0,0:0:0:0:
248,336,221251,1,2,0:0:0:0:
256,176,221409,5,0,0:0:0:0:
116,96,221567,6,0,P|168:64|236:60,1,100,2|0,0:0|0:0,0:0:0:0:
424,160,221883,5,2,0:0:0:0:
380,228,222041,1,0,0:0:0:0:
464,92,222199,1,2,0:0:0:0:
144,124,222515,6,0,L|144:224,1,100,2|0,0:0|0:0,0:0:0:0:
296,272,222830,2,0,P|304:192|296:136,1,100,2|0,0:0|0:0,0:0:0:0:
148,128,223146,5,2,0:0:0:0:
292,56,223304,1,0,0:0:0:0:
140,4,223462,1,2,0:0:0:0:
100,320,223778,5,2,0:0:0:0:
100,320,224093,6,2,P|156:272|244:336,1,200
216,180,224567,1,0,0:0:0:0:
368,228,224725,1,2,0:0:0:0:
340,64,225041,5,2,0:0:0:0:
340,64,225357,2,2,L|244:248,1,200
88,280,225988,2,2,L|184:104,1,200
424,216,226620,5,2,0:0:0:0:
232,304,226936,5,2,0:0:0:0:
149,231,227094,1,0,0:0:0:0:
80,160,227251,1,2,0:0:0:0:
224,104,227567,6,0,P|264:152|304:148,1,100,2|0,0:0|0:0,0:0:0:0:
352,80,227883,2,2,P|416:124|388:232,1,200
188,192,228357,5,0,0:0:0:0:
296,320,228515,1,2,0:0:0:0:
304,160,228672,5,0,0:0:0:0:
192,316,228830,1,2,0:0:0:0:
84,76,229146,5,2,0:0:0:0:
320,284,229462,5,2,0:0:0:0:
384,212,229620,1,0,0:0:0:0:
444,132,229778,1,2,0:0:0:0:
84,200,230093,5,2,0:0:0:0:
84,200,230409,2,2,P|108:256|248:268,1,200
256,192,230883,12,0,231672,0:0:0:0:
448,176,232936,6,0,L|396:228,1,50,2|0,0:0|0:0,0:0:0:0:
252,260,233093,2,0,L|300:212,1,50,8|0,0:0|0:0,0:0:0:0:
380,64,233251,2,0,L|324:120,1,50,2|0,0:0|0:0,0:0:0:0:
112,248,233409,2,0,L|152:208,1,50,8|0,0:0|0:0,0:0:0:0:
256,24,233567,5,8,0:0:0:0:
256,24,233646,1,8,0:0:0:0:
256,24,233725,1,8,0:0:0:0:
388,236,233883,5,2,0:0:0:0:
144,180,234041,1,0,0:0:0:0:
380,96,234199,5,12,0:0:0:0:
332,112,234278,1,12,0:0:0:0:
300,144,234357,1,12,0:0:0:0:
288,192,234436,1,12,0:0:0:0:
296,240,234515,1,12,0:0:0:0:
460,124,234672,6,0,L|485:167,1,50,8|0,0:0|0:0,0:0:0:0:
264,284,234830,2,0,L|295:245,1,50,2|0,0:0|0:0,0:0:0:0:
260,68,234988,2,0,L|223:33,1,50,8|0,0:0|0:0,0:0:0:0:
164,304,235146,2,0,P|188:220|236:204,1,100,2|8,0:0|0:0,0:0:0:0:
236,192,235383,1,8,0:0:0:0:
284,208,235462,1,8,0:0:0:0:
444,328,235620,5,0,0:0:0:0:
336,80,235778,1,8,0:0:0:0:
336,80,235857,1,8,0:0:0:0:
336,80,235936,1,8,0:0:0:0:
180,308,236094,5,2,0:0:0:0:
180,40,236251,1,0,0:0:0:0:
348,264,236409,1,8,0:0:0:0:
348,264,236488,1,8,0:0:0:0:
348,264,236567,1,8,0:0:0:0:
152,96,236725,5,12,0:0:0:0:
200,108,236804,1,12,0:0:0:0:
244,132,236883,1,12,0:0:0:0:
276,168,236962,1,12,0:0:0:0:
296,216,237041,1,12,0:0:0:0:
52,260,237199,6,0,L|112:236,1,50,8|0,0:0|0:0,0:0:0:0:
312,112,237357,2,0,L|240:136,1,50,2|0,0:0|0:0,0:0:0:0:
20,68,237515,2,0,L|76:56,1,50,8|0,0:0|0:0,0:0:0:0:
312,232,237673,2,0,P|280:184|276:140,1,100,2|8,0:0|0:0,0:0:0:0:
272,108,237909,1,8,0:0:0:0:
244,68,237988,1,8,0:0:0:0:
116,284,238146,5,0,0:0:0:0:
244,68,238304,1,8,0:0:0:0:
244,68,238383,1,8,0:0:0:0:
244,68,238462,1,8,0:0:0:0:
244,320,238620,5,2,0:0:0:0:
124,100,238778,1,0,0:0:0:0:
316,84,238935,1,8,0:0:0:0:
316,84,239015,1,8,0:0:0:0:
316,84,239093,1,8,0:0:0:0:
300,312,239251,5,12,0:0:0:0:
336,280,239330,1,12,0:0:0:0:
364,240,239409,1,12,0:0:0:0:
380,192,239488,1,12,0:0:0:0:
388,144,239567,1,12,0:0:0:0:
104,244,239725,6,0,L|56:216,1,50,8|0,0:0|0:0,0:0:0:0:
312,216,239883,2,0,L|284:276,1,50,2|0,0:0|0:0,0:0:0:0:
152,44,240041,2,0,L|216:88,1,50,8|0,0:0|0:0,0:0:0:0:
400,192,240199,2,0,P|408:248|348:296,1,100,2|8,0:0|0:0,0:0:0:0:
340,308,240436,1,8,0:0:0:0:
292,292,240515,1,8,0:0:0:0:
364,52,240672,5,0,0:0:0:0:
192,232,240830,1,8,0:0:0:0:
192,232,240909,1,8,0:0:0:0:
192,232,240988,1,8,0:0:0:0:
436,276,241146,5,2,0:0:0:0:
272,88,241304,1,0,0:0:0:0:
268,340,241462,1,8,0:0:0:0:
268,340,241541,1,8,0:0:0:0:
268,340,241620,1,8,0:0:0:0:
404,132,241778,5,12,0:0:0:0:
368,164,241857,1,12,0:0:0:0:
328,196,241936,1,12,0:0:0:0:
288,224,242015,1,12,0:0:0:0:
252,256,242093,1,12,0:0:0:0:
320,68,242251,6,0,L|392:68,1,50,8|0,0:0|0:0,0:0:0:0:
196,248,242409,2,0,L|120:248,1,50,2|0,0:0|0:0,0:0:0:0:
380,164,242567,2,0,L|464:164,1,50,8|0,0:0|0:0,0:0:0:0:
140,84,242725,2,0,P|84:108|80:184,1,100,2|8,0:0|0:0,0:0:0:0:
88,180,242962,1,8,0:0:0:0:
116,220,243041,1,8,0:0:0:0:
324,80,243199,5,0,0:0:0:0:
340,328,243357,1,8,0:0:0:0:
340,328,243436,1,8,0:0:0:0:
340,328,243515,1,8,0:0:0:0:
120,212,243672,5,2,0:0:0:0:
416,156,243830,1,0,0:0:0:0:
176,84,243988,1,8,0:0:0:0:
176,84,244067,1,8,0:0:0:0:
176,84,244146,1,8,0:0:0:0:
280,312,244304,5,12,0:0:0:0:
248,296,244383,1,0,0:0:0:0:
224,272,244462,1,0,0:0:0:0:
208,240,244541,1,0,0:0:0:0:
200,208,244620,1,0,0:0:0:0:
452,264,244778,6,0,L|440:196,1,50,8|0,0:0|0:0,0:0:0:0:
148,216,244936,2,0,L|168:272,1,50,2|0,0:0|0:0,0:0:0:0:
388,92,245093,2,0,L|408:28,1,50,8|0,0:0|0:0,0:0:0:0:
172,60,245251,2,0,P|120:92|116:128,1,100,2|8,0:0|0:0,0:0:0:0:
144,168,245488,1,8,0:0:0:0:
184,200,245567,1,8,0:0:0:0:
420,276,245725,5,0,0:0:0:0:
124,336,245883,1,8,0:0:0:0:
124,336,245962,1,8,0:0:0:0:
124,336,246040,1,8,0:0:0:0:
232,108,246199,5,2,0:0:0:0:
308,344,246357,1,0,0:0:0:0:
104,196,246515,1,8,0:0:0:0:
104,196,246593,1,8,0:0:0:0:
104,196,246672,1,8,0:0:0:0:
336,104,246830,5,12,0:0:0:0:
372,140,246909,1,12,0:0:0:0:
392,188,246988,1,12,0:0:0:0:
388,236,247067,1,12,0:0:0:0:
368,284,247146,1,12,0:0:0:0:
88,112,247304,6,0,L|156:112,1,50,8|0,0:0|0:0,0:0:0:0:
408,304,247462,2,0,L|348:304,1,50,2|0,0:0|0:0,0:0:0:0:
112,256,247620,2,0,L|152:216,1,50,8|0,0:0|0:0,0:0:0:0:
412,72,247778,2,0,P|428:120|408:168,1,100,2|8,0:0|0:0,0:0:0:0:
392,188,248015,1,8,0:0:0:0:
352,220,248093,1,8,0:0:0:0:
136,96,248251,5,0,0:0:0:0:
252,316,248409,1,8,0:0:0:0:
252,316,248488,1,8,0:0:0:0:
252,316,248567,1,8,0:0:0:0:
352,88,248725,5,2,0:0:0:0:
424,328,248883,1,0,0:0:0:0:
472,84,249041,1,8,0:0:0:0:
472,84,249120,1,8,0:0:0:0:
472,84,249199,1,8,0:0:0:0:
180,156,249357,5,12,0:0:0:0:
208,196,249436,1,12,0:0:0:0:
240,236,249515,1,12,0:0:0:0:
272,272,249594,1,12,0:0:0:0:
308,308,249673,1,12,0:0:0:0:
392,116,249830,6,0,L|344:84,1,50,8|0,0:0|0:0,0:0:0:0:
376,312,249988,2,0,L|432:340,1,50,2|0,0:0|0:0,0:0:0:0:
160,216,250146,2,0,L|120:252,1,50,8|0,0:0|0:0,0:0:0:0:
240,88,250304,2,0,P|188:32|156:44,1,100,2|8,0:0|0:0,0:0:0:0:
152,76,250541,1,8,0:0:0:0:
152,128,250620,1,8,0:0:0:0:
392,204,250778,5,0,0:0:0:0:
180,336,250936,1,8,0:0:0:0:
180,336,251015,1,8,0:0:0:0:
180,336,251094,1,8,0:0:0:0:
248,96,251251,5,2,0:0:0:0:
452,244,251409,1,0,0:0:0:0:
204,224,251567,1,8,0:0:0:0:
204,224,251646,1,8,0:0:0:0:
204,224,251725,1,8,0:0:0:0:
276,36,251883,5,12,0:0:0:0:
324,52,251962,1,12,0:0:0:0:
360,92,252041,1,12,0:0:0:0:
376,140,252120,1,12,0:0:0:0:
368,188,252199,1,12,0:0:0:0:
172,56,252357,6,0,L|220:108,1,50,8|0,0:0|0:0,0:0:0:0:
360,324,252515,6,0,L|312:292,1,50,2|0,0:0|0:0,0:0:0:0:
48,240,252672,6,0,L|104:288,1,50,8|0,0:0|0:0,0:0:0:0:
420,148,252830,6,0,P|352:152|300:136,1,100,2|8,0:0|0:0,0:0:0:0:
136,308,253146,5,2,0:0:0:0:
256,192,253304,12,0,258199,0:0:0:0:
76,80,259462,6,0,L|76:200,1,100,2|0,0:0|0:0,0:0:0:0:
232,80,259778,5,2,0:0:0:0:
136,256,259936,1,8,0:0:0:0:
136,256,260015,1,0,0:0:0:0:
136,256,260093,1,2,0:0:0:0:
292,168,260251,5,0,0:0:0:0:
280,340,260409,1,2,0:0:0:0:
196,192,260567,1,0,0:0:0:0:
352,256,260725,5,2,0:0:0:0:
164,320,260883,1,0,0:0:0:0:
288,176,261041,1,2,0:0:0:0:
96,132,261199,5,8,0:0:0:0:
96,132,261278,1,0,0:0:0:0:
96,132,261357,2,0,L|96:236,1,100,2|0,0:0|0:0,0:0:0:0:
288,176,261672,2,0,L|288:64,1,100,2|0,0:0|0:0,0:0:0:0:
424,252,261988,5,2,0:0:0:0:
240,296,262146,1,0,0:0:0:0:
352,120,262304,1,2,0:0:0:0:
336,324,262462,5,8,0:0:0:0:
336,324,262541,1,0,0:0:0:0:
336,324,262620,2,0,P|404:348|456:312,1,100,2|0,0:0|0:0,0:0:0:0:
352,208,262936,1,2,0:0:0:0:
208,244,263093,1,0,0:0:0:0:
260,104,263251,5,2,0:0:0:0:
116,148,263409,1,8,0:0:0:0:
116,200,263488,1,0,0:0:0:0:
116,252,263567,1,2,0:0:0:0:
12,144,263725,5,0,0:0:0:0:
12,296,263883,1,2,0:0:0:0:
116,200,264041,1,0,0:0:0:0:
256,256,264199,6,0,L|256:148,1,100,2|0,0:0|0:0,0:0:0:0:
400,116,264515,2,0,L|400:332,1,200,2|2,0:0|0:0,0:0:0:0:
252,180,264988,1,0,0:0:0:0:
120,247,265146,2,0,P|185:284|239:293,1,100
136,76,265462,5,2,0:0:0:0:
284,40,265620,1,8,0:0:0:0:
284,40,265699,1,0,0:0:0:0:
284,40,265778,2,0,P|296:128|232:224,1,200,2|2,0:0|0:0,0:0:0:0:
440,244,266251,5,0,0:0:0:0:
247,140,266409,2,0,L|247:242,1,100
393,114,266725,1,2,0:0:0:0:
332,300,266883,1,8,0:0:0:0:
332,300,266962,1,0,0:0:0:0:
332,300,267041,6,0,L|332:200,1,100,2|0,0:0|0:0,0:0:0:0:
216,160,267357,2,0,L|120:92,2,100
408,152,267830,1,8,0:0:0:0:
408,152,267909,1,0,0:0:0:0:
408,152,267988,2,2,L|328:236,1,100,2|0,0:0|0:0,0:0:0:0:
196,272,268304,6,2,L|96:92,1,200
288,168,268778,1,8,0:0:0:0:
288,168,268857,1,0,0:0:0:0:
288,168,268935,2,2,P|296:260|376:228,1,200
272,60,269567,6,0,P|216:56|176:96,1,100,2|0,0:0|0:0,0:0:0:0:
124,164,269883,1,2,0:0:0:0:
68,248,270041,1,0,0:0:0:0:
176,248,270199,2,0,P|232:256|256:300,1,100
224,140,270515,1,0,0:0:0:0:
364,120,270672,5,8,0:0:0:0:
364,120,270751,1,0,0:0:0:0:
364,120,270830,2,0,L|364:260,1,100,2|0,0:0|0:0,0:0:0:0:
168,184,271146,1,2,0:0:0:0:
224,268,271304,1,0,0:0:0:0:
280,352,271462,1,2,0:0:0:0:
140,296,271620,5,0,0:0:0:0:
140,296,271778,2,0,L|40:296,1,100,2|0,0:0|0:0,0:0:0:0:
216,196,272093,2,0,L|328:196,1,100,2|0,0:0|0:0,0:0:0:0:
476,196,272409,5,2,0:0:0:0:
411,263,272567,1,0,0:0:0:0:
344,328,272725,1,2,0:0:0:0:
192,280,272883,5,8,0:0:0:0:
192,280,272962,1,0,0:0:0:0:
192,280,273041,2,0,P|143:255|96:243,1,100
185,173,273357,2,0,B|286:155|286:155|337:186|395:163,1,200
340,75,273988,1,4,0:0:0:0:
154,225,275883,6,0,L|195:180,3,50,2|0|0|0,0:0|0:0|0:0|0:0,0:0:0:0:
303,240,276199,2,0,L|262:285,3,50,2|0|0|0,0:0|0:0|0:0|0:0,0:0:0:0:
394,305,276515,2,0,P|431:267|440:176,1,100,2|0,0:0|0:0,0:0:0:0:
445,173,276751,1,0,0:0:0:0:
429,125,276830,1,2,0:0:0:0:
244,68,276988,6,4,L|176:112,1,50,4|4,0:0|2:0,0:0:0:0:
80,168,277146,1,2,0:0:0:0:
258,269,277304,5,8,0:0:0:0:
258,269,277383,1,0,0:0:0:0:
258,269,277462,2,0,P|307:332|340:339,1,100,2|0,0:0|0:0,0:0:0:0:
434,224,277778,2,2,P|412:174|347:159,1,100
119,129,278093,5,2,0:0:0:0:
212,288,278251,1,0,0:0:0:0:
60,203,278409,6,0,L|93:253,3,50,2|0|0|0,0:0|0:0|0:0|0:0,0:0:0:0:
164,205,278725,2,0,L|188:139,3,50,2|0|0|0,0:0|0:0|0:0|0:0,0:0:0:0:
180,297,279041,2,0,P|249:317|310:306,1,100,2|0,0:0|0:0,0:0:0:0:
325,303,279278,1,0,0:0:0:0:
368,278,279357,1,2,0:0:0:0:
208,104,279515,6,4,L|244:168,1,50,4|4,0:0|2:0,0:0:0:0:
292,244,279672,1,2,0:0:0:0:
85,268,279830,5,8,0:0:0:0:
66,221,279909,1,0,0:0:0:0:
72,171,279988,2,0,P|108:90|153:59,1,100,2|0,0:0|0:0,0:0:0:0:
182,262,280304,2,2,P|184:339|211:373,1,100
327,169,280620,2,2,L|370:203,1,50,2|2,0:0|2:0,0:0:0:0:
228,218,280778,2,8,L|167:176,1,50,8|8,0:0|2:0,0:0:0:0:
313,339,280936,6,2,L|360:314,3,50
387,196,281251,2,2,L|339:229,3,50
279,281,281567,2,2,P|229:283|182:242,1,100
155,217,281804,1,8,0:0:0:0:
133,171,281883,1,2,0:0:0:0:
379,105,282041,6,2,L|332:85,1,50,8|2,0:0|2:0,0:0:0:0:
188,52,282199,1,2,0:0:0:0:
336,224,282357,6,8,L|283:244,1,50
224,344,282515,2,2,P|175:325|145:269,1,100
52,185,282830,2,2,P|87:116|135:101,1,100
158,282,283146,5,2,0:0:0:0:
338,158,283304,1,8,0:0:0:0:
172,100,283462,6,2,L|122:66,3,50
20,87,283778,2,2,L|72:132,3,50
26,205,284093,2,2,P|93:194|155:208,1,100
171,217,284330,1,8,0:0:0:0:
211,245,284409,1,2,0:0:0:0:
392,220,284567,6,0,L|447:196,2,50,0|0|2,0:0|0:0|0:0,0:0:0:0:
286,85,284883,2,0,L|234:112,1,50,8|0,0:0|0:0,0:0:0:0:
144,132,285041,6,0,P|132:200|163:269,1,100,2|0,0:0|0:0,0:0:0:0:
227,354,285357,2,2,P|299:311|320:274,1,100
197,101,285672,2,2,L|151:151,1,66.6666666666667
245,228,285830,2,0,L|301:164,1,50
88,68,285988,5,2,0:0:0:0:
84,96,286067,1,0,0:0:0:0:
92,124,286146,1,8,0:0:0:0:
108,148,286225,1,0,0:0:0:0:
128,168,286304,1,2,0:0:0:0:
152,184,286383,1,0,0:0:0:0:
180,196,286462,1,8,0:0:0:0:
208,204,286541,1,0,0:0:0:0:
236,208,286620,5,2,0:0:0:0:
264,208,286699,1,0,0:0:0:0:
292,204,286778,1,8,0:0:0:0:
320,196,286857,1,0,0:0:0:0:
348,184,286936,2,0,L|432:144,1,50,2|0,0:0|0:0,0:0:0:0:
232,72,287093,2,0,L|184:144,1,50,8|0,0:0|0:0,0:0:0:0:
96,324,287251,5,2,0:0:0:0:
80,288,287330,1,0,0:0:0:0:
72,248,287409,1,8,0:0:0:0:
76,208,287488,1,0,0:0:0:0:
92,172,287567,2,0,L|120:120,3,50,2|0|8|0,0:0|0:0|0:0|0:0,0:0:0:0:
184,192,287883,2,0,L|192:252,3,50,2|0|8|0,0:0|0:0|0:0|0:0,0:0:0:0:
268,320,288199,2,2,L|312:292,1,50,2|0,0:0|0:0,0:0:0:0:
248,108,288357,2,0,L|196:148,1,50,8|0,0:0|0:0,0:0:0:0:
445,83,288515,5,2,0:0:0:0:
412,105,288593,1,0,0:0:0:0:
373,117,288672,1,8,0:0:0:0:
335,131,288751,1,0,0:0:0:0:
295,135,288830,1,2,0:0:0:0:
256,125,288909,1,0,0:0:0:0:
223,101,288988,1,8,0:0:0:0:
185,86,289067,1,0,0:0:0:0:
145,88,289146,5,2,0:0:0:0:
113,112,289225,1,0,0:0:0:0:
96,148,289304,1,8,0:0:0:0:
97,187,289383,1,0,0:0:0:0:
115,222,289462,1,2,0:0:0:0:
144,248,289541,1,0,0:0:0:0:
180,265,289620,1,8,0:0:0:0:
218,276,289699,1,0,0:0:0:0:
237,241,289778,5,10,0:0:0:0:
244,201,289857,1,0,0:0:0:0:
245,161,289936,1,8,0:0:0:0:
233,122,290015,1,0,0:0:0:0:
216,85,290093,2,0,L|184:23,3,50,2|0|8|0,0:0|0:0|0:0|0:0,0:0:0:0:
109,54,290409,6,0,L|113:113,3,50,2|0|8|0,0:0|0:0|0:0|0:0,0:0:0:0:
150,214,290725,2,0,L|221:174,1,50,2|0,0:0|0:0,0:0:0:0:
298,130,290883,2,0,L|356:92,1,50,8|0,0:0|0:0,0:0:0:0:
440,224,291041,5,2,0:0:0:0:
440,184,291120,1,0,0:0:0:0:
432,144,291199,1,8,0:0:0:0:
420,108,291278,1,0,0:0:0:0:
396,76,291357,1,2,0:0:0:0:
372,44,291436,1,0,0:0:0:0:
344,72,291515,1,8,0:0:0:0:
328,108,291593,1,0,0:0:0:0:
324,148,291672,5,2,0:0:0:0:
324,188,291751,1,0,0:0:0:0:
312,228,291830,1,8,0:0:0:0:
288,260,291909,1,0,0:0:0:0:
252,280,291988,1,2,0:0:0:0:
212,280,292067,1,0,0:0:0:0:
176,268,292146,1,8,0:0:0:0:
144,244,292225,1,0,0:0:0:0:
128,208,292304,5,2,0:0:0:0:
140,168,292383,1,0,0:0:0:0:
164,136,292462,1,8,0:0:0:0:
196,160,292541,1,0,0:0:0:0:
228,184,292620,2,0,L|296:224,3,50,2|0|8|0,0:0|0:0|0:0|0:0,0:0:0:0:
280,312,292936,2,0,L|336:340,3,50,2|0|8|0,0:0|0:0|0:0|0:0,0:0:0:0:
416,256,293251,2,0,L|476:220,1,50,2|0,0:0|0:0,0:0:0:0:
316,148,293409,2,0,L|256:120,1,50,8|0,0:0|0:0,0:0:0:0:
260,76,293567,1,0,0:0:0:0:
268,28,293646,1,0,0:0:0:0:
308,0,293725,1,8,0:0:0:0:
360,0,293804,1,0,0:0:0:0:
400,32,293883,1,2,0:0:0:0:
408,76,293962,1,0,0:0:0:0:
384,104,294041,1,8,0:0:0:0:
352,109,294120,1,0,0:0:0:0:
317,107,294199,5,2,0:0:0:0:
284,94,294278,1,0,0:0:0:0:
249,90,294357,1,8,0:0:0:0:
214,94,294436,1,0,0:0:0:0:
183,111,294515,1,2,0:0:0:0:
163,139,294594,1,0,0:0:0:0:
154,172,294672,1,8,0:0:0:0:
164,205,294751,1,0,0:0:0:0:
116,192,294830,5,2,0:0:0:0:
64,192,294909,1,0,0:0:0:0:
28,228,294988,1,8,0:0:0:0:
16,276,295067,1,0,0:0:0:0:
36,324,295146,1,2,0:0:0:0:
76,352,295225,1,0,0:0:0:0:
124,356,295304,1,8,0:0:0:0:
172,352,295383,1,0,0:0:0:0:
204,300,295462,5,2,0:0:0:0:
228,244,295541,1,0,0:0:0:0:
268,200,295620,1,8,0:0:0:0:
324,180,295699,1,0,0:0:0:0:
384,184,295778,1,2,0:0:0:0:
424,228,295857,1,0,0:0:0:0:
408,284,295936,1,8,0:0:0:0:
352,308,296015,1,0,0:0:0:0:
296,288,296093,5,2,0:0:0:0:
296,116,296251,2,0,P|236:152|208:204,1,100,0|2,0:0|0:0,0:0:0:0:
68,116,296567,1,0,0:0:0:0:
152,260,296725,1,2,0:0:0:0:
256,72,296883,1,0,0:0:0:0:
260,296,297041,6,0,P|312:320|372:304,1,100
392,144,297357,1,2,0:0:0:0:
112,204,297515,2,0,P|80:144|96:84,1,100,4|2,0:0|0:0,0:0:0:0:
216,280,297830,1,0,0:0:0:0:
144,116,297988,1,2,0:0:0:0:
84,296,298146,1,0,0:0:0:0:
244,120,298304,1,2,0:0:0:0:
308,328,298462,1,0,0:0:0:0:
112,192,298620,5,2,0:0:0:0:
224,312,298778,2,0,P|284:288|324:236,1,100,4|2,0:0|0:0,0:0:0:0:
380,104,299093,1,0,0:0:0:0:
184,184,299251,1,2,0:0:0:0:
400,228,299409,1,0,0:0:0:0:
252,88,299567,6,0,P|192:64|124:68,1,100,2|8,0:0|0:0,0:0:0:0:
52,212,299883,1,2,0:0:0:0:
240,324,300041,2,0,P|272:280|288:232,1,100,4|2,0:0|0:0,0:0:0:0:
280,24,300357,1,0,0:0:0:0:
144,188,300515,1,8,0:0:0:0:
355,209,300672,1,0,0:0:0:0:
280,24,300830,1,8,0:0:0:0:
104,96,300988,1,0,0:0:0:0:
180,282,301146,5,8,0:0:0:0:
355,209,301304,2,0,P|312:128|292:116,1,100,4|2,0:0|0:0,0:0:0:0:
112,152,301620,2,4,P|128:88|164:56,2,100,4|6|4,0:0|0:0|0:0,0:0:0:0:
352,68,302093,5,2,0:0:0:0:
424,268,302251,2,0,P|456:208|464:156,1,100,4|2,0:0|0:0,0:0:0:0:
232,160,302567,2,0,P|172:208|160:244,1,100,4|8,0:0|0:0,0:0:0:0:
304,156,302883,5,2,0:0:0:0:
232,304,303041,1,8,0:0:0:0:
392,156,303199,5,2,0:0:0:0:
148,304,303357,1,8,0:0:0:0:
472,156,303515,5,2,0:0:0:0:
68,236,303672,1,2,0:0:0:0:
46,102,304936,5,0,0:0:0:0:
117,160,305093,1,0,0:0:0:0:
190,209,305251,2,0,L|279:271,1,100
243,134,305567,6,0,P|266:87|315:69,1,100
376,244,305883,1,0,0:0:0:0:
240,131,306041,1,0,0:0:0:0:
462,117,306199,5,0,0:0:0:0:
465,228,306357,1,0,0:0:0:0:
467,346,306515,1,0,0:0:0:0:
465,228,306672,1,0,0:0:0:0:
330,284,306830,6,0,P|285:309|237:320,1,100
292,197,307146,2,0,L|292:95,1,100
153,82,307462,5,0,0:0:0:0:
93,168,307620,1,0,0:0:0:0:
24,255,307778,1,0,0:0:0:0:
93,168,307936,1,0,0:0:0:0:
233,292,308093,5,0,0:0:0:0:
234,177,308251,1,0,0:0:0:0:
229,56,308409,1,0,0:0:0:0:
234,177,308567,1,0,0:0:0:0:
371,123,308725,2,0,L|373:232,1,100
375,322,309041,1,0,0:0:0:0:
76,194,309199,5,0,0:0:0:0:
76,194,309278,1,0,0:0:0:0:
76,194,309357,1,0,0:0:0:0:
377,196,309672,5,4,0:0:0:0:
76,194,309988,5,2,0:0:0:0:
216,51,310304,5,2,0:0:0:0:
265,128,310462,1,8,0:0:0:0:
315,206,310620,1,2,0:0:0:0:
216,51,310936,5,4,0:0:0:0:
216,51,311251,1,4,0:0:0:0:
185,299,311567,5,10,0:0:0:0:
273,295,311725,1,0,0:0:0:0:
364,289,311883,1,2,0:0:0:0:
185,299,312199,5,4,0:0:0:0:
423,117,312515,5,4,0:0:0:0:
464,312,312830,5,2,0:0:0:0:
382,253,312988,1,8,0:0:0:0:
303,191,313146,1,2,0:0:0:0:
116,262,313462,6,0,P|86:195|161:86,1,200,2|2,0:0|0:0,0:0:0:0:
144,92,314409,1,4,0:0:0:0:
72,323,315041,5,2,0:0:0:0:
376,151,315357,5,2,0:0:0:0:
300,182,315515,1,8,0:0:0:0:
226,213,315673,1,2,0:0:0:0:
448,326,315988,5,4,0:0:0:0:
448,326,316304,1,4,0:0:0:0:
324,236,316620,5,2,0:0:0:0:
358,139,316778,1,8,0:0:0:0:
390,47,316936,1,2,0:0:0:0:
324,236,317251,5,4,0:0:0:0:
211,12,317567,1,2,0:0:0:0:
113,186,317883,5,2,0:0:0:0:
206,198,318041,1,8,0:0:0:0:
301,210,318199,1,2,0:0:0:0:
113,186,318515,5,4,0:0:0:0:
301,210,318830,1,4,0:0:0:0:
141,106,319462,5,8,0:0:0:0:
388,274,319778,5,2,0:0:0:0:
368,328,321357,5,2,0:0:0:0:
344,232,321672,2,0,L|400:184,2,50,2|0|2,0:0|0:0|0:0,0:0:0:0:
260,180,322304,5,8,0:0:0:0:
264,280,322620,1,8,0:0:0:0:
164,288,322936,6,0,L|112:332,2,50,2|0|2,0:0|0:0|0:0,0:0:0:0:
168,188,323567,1,8,0:0:0:0:
244,120,323883,5,8,0:0:0:0:
324,280,324199,1,2,0:0:0:0:
368,236,324357,1,8,0:0:0:0:
396,184,324515,1,2,0:0:0:0:
256,92,324830,2,0,L|180:168,1,100,4|4,0:0|0:0,0:0:0:0:
236,328,325462,6,0,L|336:344,1,100,4|4,0:0|0:0,0:0:0:0:
334,343,326093,1,2,0:0:0:0:
144,200,326409,5,8,0:0:0:0:
80,124,326725,1,2,0:0:0:0:
88,68,326883,1,8,0:0:0:0:
128,36,327041,1,2,0:0:0:0:
252,232,327357,5,4,0:0:0:0:
368,200,327672,5,4,0:0:0:0:
472,104,327988,1,2,0:0:0:0:
424,68,328146,1,8,0:0:0:0:
372,36,328304,2,4,L|288:96,1,100,0|4,0:0|0:0,0:0:0:0:
176,244,328936,5,8,0:0:0:0:
276,248,329251,2,0,L|328:200,2,50,2|0|0,0:0|0:0|0:0,0:0:0:0:
212,140,329883,6,0,P|152:120|100:140,1,100,2|2,0:0|0:0,0:0:0:0:
168,216,330515,2,0,P|228:232|272:220,1,100,4|4,0:0|0:0,0:0:0:0:
112,312,342830,5,8,0:0:0:0:
112,312,342909,1,8,0:0:0:0:
112,312,342988,1,8,0:0:0:0:
316,188,343146,1,2,0:0:0:0:
104,116,343304,5,8,0:0:0:0:
144,88,343383,1,8,0:0:0:0:
184,60,343462,1,8,0:0:0:0:
228,308,343620,1,0,0:0:0:0:
408,152,343778,1,2,0:0:0:0:
172,156,343936,1,0,0:0:0:0:
376,72,344093,6,0,P|324:120|376:244,1,200,2|2,0:0|0:0,0:0:0:0:
124,312,344567,2,0,L|124:252,1,50,8|0,0:0|0:0,0:0:0:0:
280,192,344725,2,0,L|324:236,1,50,2|0,0:0|0:0,0:0:0:0:
320,20,344883,2,0,L|224:68,1,100,8|2,0:0|0:0,0:0:0:0:
412,236,345199,5,0,0:0:0:0:
168,184,345357,1,8,0:0:0:0:
168,184,345436,1,8,0:0:0:0:
168,184,345515,1,8,0:0:0:0:
328,64,345672,5,2,0:0:0:0:
324,316,345830,1,0,0:0:0:0:
208,92,345988,6,0,P|140:88|92:128,1,100,2|0,0:0|0:0,0:0:0:0:
328,236,346304,2,0,P|388:252|432:228,1,100,2|8,0:0|0:0,0:0:0:0:
452,196,346541,1,8,0:0:0:0:
464,148,346620,1,8,0:0:0:0:
164,168,346778,5,0,0:0:0:0:
332,20,346936,1,2,0:0:0:0:
352,244,347093,2,0,L|304:272,3,50,8|2|8|2,0:0|0:0|0:0|0:0,0:0:0:0:
184,96,347409,5,0,0:0:0:0:
112,284,347567,2,0,P|184:272|248:300,1,100,2|8,0:0|0:0,0:0:0:0:
256,256,347804,1,0,0:0:0:0:
288,212,347883,2,0,P|336:196|376:144,1,100,2|8,0:0|0:0,0:0:0:0:
376,112,348120,1,0,0:0:0:0:
356,72,348199,2,0,P|296:48|252:56,1,100,0|8,0:0|0:0,0:0:0:0:
262,52,348436,1,0,0:0:0:0:
262,52,348515,1,2,0:0:0:0:
128,200,348672,5,8,0:0:0:0:
128,200,348751,1,8,0:0:0:0:
128,200,348830,1,8,0:0:0:0:
368,268,348988,1,0,0:0:0:0:
180,104,349146,1,2,0:0:0:0:
224,352,349304,1,0,0:0:0:0:
260,52,349462,6,0,L|252:112,1,50,2|0,0:0|0:0,0:0:0:0:
400,236,349620,2,0,L|432:184,1,50,8|0,0:0|0:0,0:0:0:0:
200,308,349778,6,0,P|140:256|140:180,1,150,8|0,0:0|0:0,0:0:0:0:
160,144,350093,1,8,0:0:0:0:
200,116,350172,1,8,0:0:0:0:
252,116,350251,1,8,0:0:0:0:
404,316,350409,5,2,0:0:0:0:
164,244,350567,1,8,0:0:0:0:
164,244,350646,1,8,0:0:0:0:
164,244,350725,1,8,0:0:0:0:
404,168,350883,5,0,0:0:0:0:
248,364,351041,1,2,0:0:0:0:
232,112,351199,5,0,0:0:0:0:
396,268,351357,1,2,0:0:0:0:
100,224,351515,1,0,0:0:0:0:
344,144,351672,5,2,0:0:0:0:
112,52,351830,1,0,0:0:0:0:
240,276,351988,5,2,0:0:0:0:
292,56,352146,2,0,L|244:92,3,50,8|0|0|2,0:0|0:0|0:0|0:0,0:0:0:0:
124,168,352462,1,0,0:0:0:0:
348,276,352620,6,0,P|388:240|400:168,1,100,2|8,0:0|0:0,0:0:0:0:
396,148,352857,1,0,0:0:0:0:
376,100,352936,2,0,P|320:64|268:80,1,100,2|8,0:0|0:0,0:0:0:0:
284,116,353172,1,0,0:0:0:0:
292,164,353251,2,0,P|264:208|200:224,1,100,2|8,0:0|0:0,0:0:0:0:
180,196,353488,1,0,0:0:0:0:
152,156,353567,2,0,P|152:104|204:44,1,100,2|8,0:0|0:0,0:0:0:0:
220,40,353804,1,0,0:0:0:0:
268,40,353883,1,2,0:0:0:0:
240,288,354041,5,0,0:0:0:0:
456,160,354199,1,2,0:0:0:0:
156,176,354357,5,0,0:0:0:0:
388,84,354515,6,0,L|428:136,1,50,2|0,0:0|0:0,0:0:0:0:
324,300,354672,2,0,L|292:232,1,50,8|0,0:0|0:0,0:0:0:0:
212,76,354830,2,0,P|152:96|124:224,1,200,2|2,0:0|0:0,0:0:0:0:
360,144,355304,5,8,0:0:0:0:
360,144,355383,1,8,0:0:0:0:
360,144,355462,1,8,0:0:0:0:
164,300,355620,1,0,0:0:0:0:
288,80,355778,6,0,P|384:68|416:80,1,100,2|0,0:0|0:0,0:0:0:0:
292,244,356093,2,0,P|232:240|176:280,1,100,2|8,0:0|0:0,0:0:0:0:
156,284,356330,1,8,0:0:0:0:
120,320,356409,1,8,0:0:0:0:
160,72,356567,5,0,0:0:0:0:
312,240,356725,1,2,0:0:0:0:
92,200,356883,5,0,0:0:0:0:
280,76,357041,1,2,0:0:0:0:
380,300,357199,6,0,L|432:284,3,50,8|0|0|2,0:0|0:0|0:0|0:0,0:0:0:0:
176,120,357515,1,0,0:0:0:0:
184,320,357672,6,0,P|220:280|296:276,1,100,2|8,0:0|0:0,0:0:0:0:
312,260,357909,1,0,0:0:0:0:
352,232,357988,2,0,P|368:172|336:136,1,100,2|8,0:0|0:0,0:0:0:0:
308,112,358225,1,0,0:0:0:0:
260,124,358304,2,0,P|224:168|172:160,1,100,2|8,0:0|0:0,0:0:0:0:
136,152,358541,1,0,0:0:0:0:
96,180,358620,2,0,P|76:244|104:304,1,100,2|8,0:0|0:0,0:0:0:0:
116,316,358857,1,0,0:0:0:0:
164,336,358936,1,2,0:0:0:0:
220,92,359093,5,0,0:0:0:0:
424,240,359251,2,0,P|376:200|232:204,1,200,2|2,0:0|0:0,0:0:0:0:
368,40,359725,1,8,0:0:0:0:
368,40,359804,1,8,0:0:0:0:
368,40,359883,1,8,0:0:0:0:
196,144,360041,5,0,0:0:0:0:
368,248,360199,1,2,0:0:0:0:
188,328,360357,5,0,0:0:0:0:
316,116,360515,1,2,0:0:0:0:
136,200,360672,5,8,0:0:0:0:
180,224,360751,1,8,0:0:0:0:
224,248,360830,1,8,0:0:0:0:
224,48,360988,1,0,0:0:0:0:
380,244,361146,6,0,P|324:264|304:320,1,100,2|0,0:0|0:0,0:0:0:0:
116,132,361462,2,0,P|188:160|208:200,1,100,2|8,0:0|0:0,0:0:0:0:
200,224,361699,1,8,0:0:0:0:
176,268,361778,1,8,0:0:0:0:
416,168,361936,5,0,0:0:0:0:
232,40,362093,1,2,0:0:0:0:
80,208,362251,6,0,L|124:252,3,50,8|0|0|2,0:0|0:0|0:0|0:0,0:0:0:0:
108,44,362567,1,0,0:0:0:0:
248,252,362725,6,0,P|272:200|328:192,1,100,2|8,0:0|0:0,0:0:0:0:
360,196,362962,1,0,0:0:0:0:
396,160,363041,2,0,P|404:112|368:72,1,100,2|8,0:0|0:0,0:0:0:0:
328,52,363278,1,0,0:0:0:0:
300,92,363357,2,0,P|236:160|208:164,1,100,2|8,0:0|0:0,0:0:0:0:
184,152,363593,1,0,0:0:0:0:
144,120,363672,1,2,0:0:0:0:
140,320,363830,5,8,0:0:0:0:
140,320,363909,1,8,0:0:0:0:
140,320,363988,1,8,0:0:0:0:
320,144,364146,5,0,0:0:0:0:
312,344,364304,1,2,0:0:0:0:
144,160,364462,5,0,0:0:0:0:
384,232,364620,1,2,0:0:0:0:
140,320,364778,5,8,0:0:0:0:
140,320,364857,1,8,0:0:0:0:
140,320,364936,2,0,P|208:272|236:152,1,200,2|0,0:0|0:0,0:0:0:0:
388,176,365409,5,8,0:0:0:0:
388,176,365488,1,8,0:0:0:0:
388,176,365567,2,0,P|344:100|224:92,1,200,2|0,0:0|0:0,0:0:0:0:
80,204,366041,5,8,0:0:0:0:
80,204,366120,1,8,0:0:0:0:
80,204,366199,2,0,P|104:272|236:312,1,200,2|0,0:0|0:0,0:0:0:0:
308,84,366672,1,0,0:0:0:0:
88,288,366830,1,2,0:0:0:0:
384,332,366988,5,0,0:0:0:0:
200,92,367146,1,2,0:0:0:0:
464,232,367304,2,0,L|424:272,3,50,8|0|0|2,0:0|0:0|0:0|0:0,0:0:0:0:
180,168,367620,5,0,0:0:0:0:
420,48,367778,5,10,0:0:0:0:
360,44,367857,1,10,0:0:0:0:
308,72,367936,1,10,0:0:0:0:
280,124,368015,1,10,0:0:0:0:
284,164,368093,2,0,P|276:240|168:292,1,200,2|0,0:0|0:0,0:0:0:0:
148,52,368567,5,8,0:0:0:0:
148,52,368646,1,8,0:0:0:0:
148,52,368725,2,0,P|200:48|284:176,1,200,2|0,0:0|0:0,0:0:0:0:
176,268,369199,5,8,0:0:0:0:
176,268,369278,1,8,0:0:0:0:
176,268,369357,2,0,P|264:300|360:240,1,200,2|2,0:0|0:0,0:0:0:0:
192,72,369830,5,0,0:0:0:0:
180,312,369988,1,2,0:0:0:0:
348,204,370146,5,0,0:0:0:0:
68,188,370304,1,2,0:0:0:0:
276,64,370462,5,0,0:0:0:0:
348,292,370620,1,8,0:0:0:0:
380,268,370699,1,8,0:0:0:0:
408,240,370777,1,8,0:0:0:0:
136,176,370936,5,2,0:0:0:0:
388,84,371093,1,8,0:0:0:0:
348,128,371172,1,8,0:0:0:0:
308,172,371251,1,8,0:0:0:0:
88,56,371409,5,0,0:0:0:0:
160,300,371567,1,2,0:0:0:0:
304,84,371725,1,0,0:0:0:0:
396,320,371883,5,8,0:0:0:0:
396,320,371962,1,8,0:0:0:0:
396,320,372041,1,8,0:0:0:0:
180,216,372199,1,2,0:0:0:0:
388,96,372357,6,0,L|344:72,3,50,2|0|0|8,0:0|0:0|0:0|0:0,0:0:0:0:
368,276,372672,1,0,0:0:0:0:
148,108,372830,5,8,0:0:0:0:
148,108,372909,1,8,0:0:0:0:
148,108,372988,1,8,0:0:0:0:
176,348,373146,1,2,0:0:0:0:
336,156,373304,5,8,0:0:0:0:
364,184,373383,1,8,0:0:0:0:
396,208,373462,1,8,0:0:0:0:
124,280,373620,1,0,0:0:0:0:
212,100,373778,5,2,0:0:0:0:
324,268,373936,1,0,0:0:0:0:
92,204,374093,1,8,0:0:0:0:
92,204,374172,1,8,0:0:0:0:
92,204,374251,1,8,0:0:0:0:
364,136,374409,6,0,P|316:196|328:332,1,200,2|2,0:0|0:0,0:0:0:0:
144,148,374883,5,8,0:0:0:0:
144,148,374962,1,8,0:0:0:0:
144,148,375041,2,0,P|164:224|272:288,1,200,2|2,0:0|0:0,0:0:0:0:
348,64,375515,5,8,0:0:0:0:
348,64,375594,1,8,0:0:0:0:
348,64,375673,2,0,P|368:132|320:248,1,200,2|2,0:0|0:0,0:0:0:0:
164,284,376146,5,8,0:0:0:0:
164,284,376225,1,8,0:0:0:0:
164,284,376304,2,0,P|196:208|328:196,1,200,2|2,0:0|0:0,0:0:0:0:
168,96,376778,5,0,0:0:0:0:
416,264,376936,1,8,0:0:0:0:
416,264,377015,1,8,0:0:0:0:
416,264,377093,1,8,0:0:0:0:
164,284,377251,5,2,0:0:0:0:
224,36,377409,2,0,L|280:16,3,50,8|0|0|2,0:0|0:0|0:0|0:0,0:0:0:0:
312,292,377725,5,0,0:0:0:0:
108,164,377883,1,8,0:0:0:0:
140,140,377962,1,8,0:0:0:0:
172,116,378041,1,8,0:0:0:0:
436,212,378199,5,2,0:0:0:0:
228,328,378357,1,0,0:0:0:0:
292,56,378515,1,8,0:0:0:0:
292,56,378594,1,8,0:0:0:0:
292,56,378672,1,8,0:0:0:0:
112,216,378830,5,2,0:0:0:0:
380,296,378988,1,0,0:0:0:0:
232,56,379146,1,10,0:0:0:0:
232,56,379225,1,10,0:0:0:0:
232,56,379304,1,10,0:0:0:0:
232,56,379383,1,10,0:0:0:0:
232,56,379462,2,0,B|196:148|316:148|224:236,1,200
56,160,379936,1,0,0:0:0:0:
284,240,380093,5,2,0:0:0:0:
108,332,380251,1,0,0:0:0:0:
176,100,380409,5,8,0:0:0:0:
176,100,380488,1,8,0:0:0:0:
176,100,380567,1,8,0:0:0:0:
364,252,380725,1,2,0:0:0:0:
76,244,380883,5,0,0:0:0:0:
296,84,381041,5,8,0:0:0:0:
296,84,381120,1,8,0:0:0:0:
296,84,381199,1,8,0:0:0:0:
236,332,381357,5,2,0:0:0:0:
100,76,381515,1,0,0:0:0:0:
396,220,381672,5,2,0:0:0:0:
76,244,381830,1,0,0:0:0:0:
256,16,381988,1,2,0:0:0:0:
468,236,382304,5,2,0:0:0:0:
380,284,382462,5,8,0:0:0:0:
292,332,382620,5,2,0:0:0:0:
172,244,382936,6,0,P|196:184|272:132,1,150.000005722046,4|4,0:0|0:0,0:0:0:0:
266,140,383883,5,0,0:0:0:0:
266,140,384041,5,0,0:0:0:0:
266,140,384199,5,0,0:0:0:0:
266,140,384357,5,0,0:0:0:0:
266,140,384515,6,0,L|312:232,1,100,2|0,0:0|0:0,0:0:0:0:
112,128,384830,1,2,0:0:0:0:
212,304,384988,5,8,0:0:0:0:
212,304,385067,1,8,0:0:0:0:
212,304,385146,2,0,P|300:348|344:336,1,100,8|0,0:0|0:0,0:0:0:0:
320,120,385462,2,2,P|252:152|220:184,1,100
52,264,385778,2,2,P|128:292|164:296,1,100
240,104,386093,5,2,0:0:0:0:
396,248,386251,6,0,L|328:240,1,50,8|8,0:0|0:0,0:0:0:0:
192,208,386409,6,0,L|272:220,1,50,8|0,0:0|0:0,0:0:0:0:
456,120,386567,6,0,L|392:172,1,50
256,312,386725,6,0,P|208:336|160:340,1,100,2|0,0:0|0:0,0:0:0:0:
284,68,387041,6,2,P|244:124|228:168,1,100
132,284,387357,1,2,0:0:0:0:
324,336,387515,6,0,L|352:260,1,50,8|8,0:0|0:0,0:0:0:0:
384,144,387672,1,8,0:0:0:0:
188,84,387830,5,0,0:0:0:0:
248,272,387988,1,2,0:0:0:0:
384,144,388146,1,0,0:0:0:0:
248,272,388304,1,2,0:0:0:0:
248,272,388462,5,0,0:0:0:0:
416,320,388620,1,8,0:0:0:0:
416,320,388699,1,8,0:0:0:0:
416,320,388778,1,8,0:0:0:0:
356,120,388936,1,2,0:0:0:0:
356,120,389093,1,0,0:0:0:0:
180,88,389251,1,2,0:0:0:0:
180,88,389330,1,2,0:0:0:0:
180,88,389409,1,2,0:0:0:0:
300,224,389567,5,2,0:0:0:0:
188,272,389725,1,0,0:0:0:0:
80,320,389883,1,2,0:0:0:0:
260,92,390041,6,0,L|208:116,1,50,8|8,0:0|0:0,0:0:0:0:
32,184,390199,2,0,P|48:108|76:68,1,100,8|0,0:0|0:0,0:0:0:0:
164,208,390436,1,0,0:0:0:0:
164,208,390515,2,0,P|240:212|268:232,1,100,2|0,0:0|0:0,0:0:0:0:
420,292,390830,6,0,P|472:232|464:184,1,100,2|8,0:0|0:0,0:0:0:0:
456,168,391067,1,8,0:0:0:0:
428,128,391146,1,8,0:0:0:0:
288,256,391304,1,0,0:0:0:0:
80,144,391462,2,0,P|136:156|184:152,1,100,2|0,0:0|0:0,0:0:0:0:
248,32,391699,1,0,0:0:0:0:
248,32,391778,2,0,P|320:32|360:48,1,100,2|0,0:0|0:0,0:0:0:0:
400,192,392093,6,0,P|312:232|288:232,1,100,2|8,0:0|0:0,0:0:0:0:
260,224,392330,1,8,0:0:0:0:
216,204,392409,1,8,0:0:0:0:
112,64,392567,1,0,0:0:0:0:
48,268,392725,2,0,P|112:328|160:344,1,100,2|0,0:0|0:0,0:0:0:0:
172,336,392962,1,2,0:0:0:0:
220,328,393041,2,0,P|300:300|328:280,1,100,2|2,0:0|0:0,0:0:0:0:
249,80,393357,5,2,0:0:0:0:
127,221,393515,1,0,0:0:0:0:
328,248,393672,2,0,L|403:254,2,50,2|0|2,0:0|0:0|0:0,0:0:0:0:
169,83,393988,5,2,0:0:0:0:
162,301,394146,1,0,0:0:0:0:
404,192,394304,2,0,L|473:136,2,50,2|0|2,0:0|0:0|0:0,0:0:0:0:
144,224,394620,5,2,0:0:0:0:
228,60,394778,1,0,0:0:0:0:
36,120,394936,5,2,0:0:0:0:
184,256,395093,1,0,0:0:0:0:
156,56,395251,5,8,0:0:0:0:
140,104,395330,1,8,0:0:0:0:
148,152,395409,1,8,0:0:0:0:
384,228,395567,5,2,0:0:0:0:
220,112,395725,1,0,0:0:0:0:
384,228,395883,1,2,0:0:0:0:
196,292,396041,1,0,0:0:0:0:
320,136,396199,5,8,0:0:0:0:
320,136,396278,1,8,0:0:0:0:
320,136,396357,1,8,0:0:0:0:
120,132,396515,6,0,P|96:176|96:248,1,100,2|0,0:0|0:0,0:0:0:0:
292,216,396830,2,2,P|284:280|248:328,1,100
140,152,397146,5,2,0:0:0:0:
316,244,397304,1,0,0:0:0:0:
300,44,397462,1,8,0:0:0:0:
300,44,397541,1,8,0:0:0:0:
300,44,397620,1,8,0:0:0:0:
140,152,397778,1,2,0:0:0:0:
316,244,397936,1,0,0:0:0:0:
140,152,398094,1,2,0:0:0:0:
336,112,398251,1,0,0:0:0:0:
324,292,398409,6,0,P|380:264|384:216,1,100,2|0,0:0|0:0,0:0:0:0:
192,288,398725,1,0,0:0:0:0:
192,288,398804,1,0,0:0:0:0:
192,288,398883,1,0,0:0:0:0:
68,120,399041,2,0,L|68:224,1,100
212,48,399357,1,0,0:0:0:0:
212,48,399436,1,0,0:0:0:0:
212,48,399515,1,0,0:0:0:0:
100,208,399672,5,2,0:0:0:0:
344,104,399830,1,0,0:0:0:0:
272,292,399988,1,8,0:0:0:0:
272,292,400067,1,8,0:0:0:0:
272,292,400146,1,8,0:0:0:0:
148,136,400304,1,2,0:0:0:0:
344,168,400462,1,0,0:0:0:0:
152,228,400620,6,0,L|68:168,1,100,2|0,0:0|0:0,0:0:0:0:
320,204,400936,2,0,L|400:268,1,100,2|0,0:0|0:0,0:0:0:0:
324,320,401251,5,2,0:0:0:0:
148,268,401409,1,0,0:0:0:0:
332,192,401567,1,2,0:0:0:0:
136,152,401725,1,0,0:0:0:0:
324,88,401883,1,2,0:0:0:0:
224,272,402041,1,0,0:0:0:0:
180,64,402199,5,8,0:0:0:0:
180,64,402278,1,8,0:0:0:0:
180,64,402357,1,8,0:0:0:0:
356,160,402515,1,2,0:0:0:0:
160,196,402672,1,8,0:0:0:0:
188,236,402751,1,8,0:0:0:0:
224,272,402830,1,8,0:0:0:0:
320,92,402988,1,0,0:0:0:0:
304,316,403146,6,0,L|404:272,1,100
408,188,403462,1,2,0:0:0:0:
252,64,403620,1,0,0:0:0:0:
296,208,403778,5,8,0:0:0:0:
312,256,403857,1,8,0:0:0:0:
332,300,403936,1,8,0:0:0:0:
148,228,404093,1,2,0:0:0:0:
332,184,404251,1,0,0:0:0:0:
328,80,404409,2,0,P|276:68|216:76,1,100,2|0,0:0|0:0,0:0:0:0:
136,108,404725,5,2,0:0:0:0:
320,232,404883,1,8,0:0:0:0:
332,184,404962,1,8,0:0:0:0:
328,136,405041,1,8,0:0:0:0:
136,268,405199,1,0,0:0:0:0:
268,116,405357,2,2,P|260:192|232:232,1,100
29,207,405672,2,2,P|18:159|32:112,1,100
88,300,405988,5,8,0:0:0:0:
136,312,406067,1,8,0:0:0:0:
188,312,406146,1,8,0:0:0:0:
236,304,406225,1,8,0:0:0:0:
284,284,406304,1,8,0:0:0:0:
296,60,406462,1,0,0:0:0:0:
120,176,406620,1,2,0:0:0:0:
120,176,406778,1,0,0:0:0:0:
332,208,406936,1,2,0:0:0:0:
332,208,407093,2,0,L|396:244,1,50,8|8,0:0|0:0,0:0:0:0:
248,328,407251,6,0,P|196:316|144:276,1,100,8|0,0:0|0:0,0:0:0:0:
148,104,407567,1,2,0:0:0:0:
250,197,407725,1,0,0:0:0:0:
352,104,407883,1,2,0:0:0:0:
250,285,408041,2,0,L|212:232,1,50,8|8,0:0|0:0,0:0:0:0:
148,104,408199,1,8,0:0:0:0:
380,208,408357,1,0,0:0:0:0:
140,60,408515,6,0,B|208:92|140:136|236:144,1,100,2|4,0:0|0:0,0:0:0:0:
228,176,408751,1,8,0:0:0:0:
260,216,408830,2,0,B|328:248|260:292|356:300,1,100,2|4,0:0|0:0,0:0:0:0:
138,291,409067,1,8,0:0:0:0:
138,291,409146,2,0,B|196:292|128:248|196:216,1,100,2|0,0:0|0:0,0:0:0:0:
228,176,409383,1,8,0:0:0:0:
258,135,409462,2,0,B|316:136|248:92|316:60,1,100,2|0,0:0|0:0,0:0:0:0:
464,172,409699,1,8,0:0:0:0:
464,172,409778,6,0,P|392:196|376:212,1,100,2|0,0:0|0:0,0:0:0:0:
232,100,410093,1,2,0:0:0:0:
124,268,410251,1,0,0:0:0:0:
40,80,410409,2,0,P|104:128|128:168,1,100,2|8,0:0|0:0,0:0:0:0:
40,256,410646,1,8,0:0:0:0:
40,256,410725,6,0,P|120:304|144:304,1,100,2|0,0:0|0:0,0:0:0:0:
232,160,411041,2,2,P|296:144|344:88,1,100,2|10,0:0|0:0,0:0:0:0:
348,80,411278,1,8,0:0:0:0:
376,36,411357,1,8,0:0:0:0:
472,184,411515,1,0,0:0:0:0:
292,256,411672,1,2,0:0:0:0:
400,56,411830,1,0,0:0:0:0:
392,284,411988,2,0,P|348:328|296:328,1,100,2|0,0:0|0:0,0:0:0:0:
288,119,412304,5,2,0:0:0:0:
174,101,412462,1,0,0:0:0:0:
156,214,412620,1,2,0:0:0:0:
269,233,412778,1,0,0:0:0:0:
242,38,412936,5,2,0:0:0:0:
351,188,413093,1,0,0:0:0:0:
201,296,413251,1,2,0:0:0:0:
93,146,413409,1,0,0:0:0:0:
252,124,413567,5,12,0:0:0:0:
252,124,413646,1,12,0:0:0:0:
252,124,413725,2,0,L|324:108,1,50,12|0,0:0|0:0,0:0:0:0:
448,212,413883,1,12,0:0:0:0:
448,212,413962,1,12,0:0:0:0:
448,212,414041,2,0,L|372:232,1,50,12|0,0:0|0:0,0:0:0:0:
219,109,414199,5,12,0:0:0:0:
219,109,414278,1,12,0:0:0:0:
219,109,414357,2,0,L|308:116,1,50,12|12,0:0|0:0,0:0:0:0:
480,226,414515,1,12,0:0:0:0:
480,226,414594,1,12,0:0:0:0:
480,226,414673,2,0,L|396:216,1,50,12|12,0:0|0:0,0:0:0:0:
305,126,414830,5,2,0:0:0:0:
208,300,414988,5,8,0:0:0:0:
176,264,415067,1,8,0:0:0:0:
148,224,415146,1,8,0:0:0:0:
140,176,415225,1,8,0:0:0:0:
152,128,415304,1,8,0:0:0:0:
348,80,415462,5,2,0:0:0:0:
188,200,415620,1,0,0:0:0:0:
384,172,415778,1,2,0:0:0:0:
244,316,415936,1,0,0:0:0:0:
376,244,416093,5,8,0:0:0:0:
332,216,416172,1,8,0:0:0:0:
284,204,416251,1,8,0:0:0:0:
236,196,416330,1,8,0:0:0:0:
188,200,416409,1,8,0:0:0:0:
164,244,416488,1,8,0:0:0:0:
204,276,416567,1,8,0:0:0:0:
240,240,416646,1,8,0:0:0:0:
236,196,416725,1,8,0:0:0:0:
76,72,416883,5,0,0:0:0:0:
268,128,417041,1,2,0:0:0:0:
96,232,417199,1,0,0:0:0:0:
200,60,417357,2,0,P|288:64|336:88,1,100,2|0,0:0|0:0,0:0:0:0:
140,188,417672,1,8,0:0:0:0:
184,216,417751,1,8,0:0:0:0:
228,236,417830,1,8,0:0:0:0:
376,116,417988,2,0,P|416:164|420:240,1,100,2|0,0:0|0:0,0:0:0:0:
180,140,418304,5,8,0:0:0:0:
180,140,418383,1,8,0:0:0:0:
180,140,418462,1,8,0:0:0:0:
384,240,418620,6,0,P|288:240|168:304,1,225.000008583069,2|0,0:0|0:0,0:0:0:0:
108,264,418936,2,0,B|100:168|100:168|156:164|156:164|196:76,1,225.000008583069,2|0,0:0|0:0,0:0:0:0:
268,92,419251,2,0,B|224:176|224:176|284:204|284:204|248:200|248:200|240:284,1,225.000008583069,2|0,0:0|0:0,0:0:0:0:
244,284,419567,2,0,B|324:284|324:284|316:360|364:280|364:280|400:320|400:320,1,225.000008583069,2|0,0:0|0:0,0:0:0:0:
444,336,419883,1,2,0:0:0:0:
504,144,420041,5,0,0:0:0:0:
316,212,420199,1,8,0:0:0:0:
316,212,420277,1,8,0:0:0:0:
316,212,420356,1,8,0:0:0:0:
444,56,420515,1,2,0:0:0:0:
232,120,420672,1,0,0:0:0:0:
408,272,420830,6,0,L|312:368,1,100,2|0,0:0|0:0,0:0:0:0:
161,190,421146,2,0,L|241:110,1,100,2|0,0:0|0:0,0:0:0:0:
380,140,421462,5,8,0:0:0:0:
408,180,421541,1,8,0:0:0:0:
416,228,421620,1,8,0:0:0:0:
176,156,421778,1,2,0:0:0:0:
360,232,421936,1,0,0:0:0:0:
228,80,422093,6,0,P|156:96|140:140,1,100,2|0,0:0|0:0,0:0:0:0:
220,300,422409,5,2,0:0:0:0:
304,248,422567,1,0,0:0:0:0:
384,184,422725,1,2,0:0:0:0:
188,152,422883,1,0,0:0:0:0:
108,212,423041,5,2,0:0:0:0:
24,264,423199,1,0,0:0:0:0:
112,84,423357,1,2,0:0:0:0:
92,284,423515,1,0,0:0:0:0:
232,140,423672,5,12,0:0:0:0:
264,100,423751,1,12,0:0:0:0:
312,84,423830,1,12,0:0:0:0:
360,96,423909,1,12,0:0:0:0:
392,136,423988,5,12,0:0:0:0:
392,188,424067,1,12,0:0:0:0:
372,232,424146,1,12,0:0:0:0:
324,252,424225,1,12,0:0:0:0:
276,236,424304,5,14,0:0:0:0:
244,196,424383,1,12,0:0:0:0:
208,160,424462,1,12,0:0:0:0:
164,136,424541,1,12,0:0:0:0:
116,140,424620,5,14,0:0:0:0:
80,164,424699,1,12,0:0:0:0:
68,212,424778,1,12,0:0:0:0:
84,260,424857,1,12,0:0:0:0:
128,284,424936,1,14,0:0:0:0:
288,284,425093,5,0,0:0:0:0:
252,96,425251,1,2,0:0:0:0:
152,256,425409,1,8,0:0:0:0:
152,256,425488,1,8,0:0:0:0:
152,256,425567,2,0,P|112:212|100:160,1,100,8|0,0:0|0:0,0:0:0:0:
268,320,425883,2,0,P|332:320|380:288,1,100,2|0,0:0|0:0,0:0:0:0:
376,152,426199,5,8,0:0:0:0:
376,152,426278,1,8,0:0:0:0:
376,152,426357,1,8,0:0:0:0:
192,224,426515,1,2,0:0:0:0:
260,36,426672,1,0,0:0:0:0:
368,208,426830,2,0,P|352:268|316:280,1,100,2|0,0:0|0:0,0:0:0:0:
148,120,427146,5,2,0:0:0:0:
360,120,427304,1,0,0:0:0:0:
200,260,427462,6,0,B|184:216|304:216|232:160,1,100,2|0,0:0|0:0,0:0:0:0:
228,52,427778,1,2,0:0:0:0:
80,188,427936,2,0,L|136:224,1,50,8|8,0:0|0:0,0:0:0:0:
340,204,428093,1,8,0:0:0:0:
112,96,428251,1,0,0:0:0:0:
320,288,428409,1,2,0:0:0:0:
360,80,428567,5,0,0:0:0:0:
188,208,428725,1,2,0:0:0:0:
188,208,428883,1,0,0:0:0:0:
372,260,429041,1,8,0:0:0:0:
372,260,429120,1,8,0:0:0:0:
372,260,429199,1,8,0:0:0:0:
268,84,429357,5,2,0:0:0:0:
268,84,429515,1,0,0:0:0:0:
372,260,429672,1,8,0:0:0:0:
372,260,429751,1,8,0:0:0:0:
372,260,429830,1,8,0:0:0:0:
188,180,429988,5,2,0:0:0:0:
384,132,430146,1,0,0:0:0:0:
244,276,430304,1,2,0:0:0:0:
256,76,430462,1,8,0:0:0:0:
208,68,430541,1,8,0:0:0:0:
160,80,430620,1,8,0:0:0:0:
316,204,430778,1,0,0:0:0:0:
68,128,430936,1,2,0:0:0:0:
256,76,431093,1,0,0:0:0:0:
184,232,431251,6,0,P|240:288|280:296,1,100,2|8,0:0|0:0,0:0:0:0:
368,192,431488,1,8,0:0:0:0:
368,192,431567,2,0,P|328:144|288:120,1,100,8|0,0:0|0:0,0:0:0:0:
152,136,431883,2,0,P|96:104|60:60,1,100,2|8,0:0|0:0,0:0:0:0:
20,244,432120,1,8,0:0:0:0:
20,244,432199,2,8,P|80:272|128:268,1,100
104,72,432515,5,2,0:0:0:0:
252,96,432672,1,8,0:0:0:0:
284,136,432751,1,8,0:0:0:0:
292,184,432830,1,8,0:0:0:0:
92,212,432988,1,0,0:0:0:0:
204,316,433146,6,0,P|268:312|332:280,1,100,2|0,0:0|0:0,0:0:0:0:
408,196,433462,1,2,0:0:0:0:
288,32,433620,1,0,0:0:0:0:
208,176,433778,6,0,P|256:228|320:240,1,100,2|0,0:0|0:0,0:0:0:0:
432,148,434093,1,8,0:0:0:0:
432,148,434172,1,8,0:0:0:0:
432,148,434251,1,8,0:0:0:0:
280,48,434409,2,0,P|220:84|184:128,1,100,2|0,0:0|0:0,0:0:0:0:
92,224,434725,1,12,0:0:0:0:
128,260,434804,1,12,0:0:0:0:
172,284,434883,1,12,0:0:0:0:
220,300,434962,1,12,0:0:0:0:
268,304,435041,6,0,P|352:300|388:288,1,100,2|0,0:0|0:0,0:0:0:0:
200,188,435357,5,2,0:0:0:0:
332,40,435515,1,8,0:0:0:0:
332,40,435593,1,8,0:0:0:0:
332,40,435672,1,8,0:0:0:0:
136,84,435830,1,0,0:0:0:0:
408,212,435988,6,0,P|332:204|280:180,1,100,2|0,0:0|0:0,0:0:0:0:
176,240,436304,2,2,P|248:268|312:268,1,100
216,152,436620,1,2,0:0:0:0:
316,312,436778,2,0,L|368:248,1,50,8|0,0:0|0:0,0:0:0:0:
268,136,436936,2,0,L|216:204,1,50,2|0,0:0|0:0,0:0:0:0:
300,228,437093,2,0,L|362:158,1,50,8|0,0:0|0:0,0:0:0:0:
412,148,437251,2,0,P|352:112|304:96,1,100,2|0,0:0|0:0,0:0:0:0:
384,248,437567,5,2,0:0:0:0:
224,192,437725,1,8,0:0:0:0:
224,192,437804,1,8,0:0:0:0:
224,192,437883,1,8,0:0:0:0:
336,136,438041,1,0,0:0:0:0:
188,100,438199,6,2,P|148:148|152:204,1,100,0|2,0:0|0:0,0:0:0:0:
268,276,438515,1,2,0:0:0:0:
272,128,438672,1,0,0:0:0:0:
212,292,438830,6,0,L|140:220,1,100,2|0,0:0|0:0,0:0:0:0:
256,144,439146,2,0,L|332:220,1,100,2|0,0:0|0:0,0:0:0:0:
264,272,439462,2,0,L|188:196,1,100,2|0,0:0|0:0,0:0:0:0:
316,124,439778,2,0,L|400:208,1,100,2|0,0:0|0:0,0:0:0:0:
184,104,440093,5,2,0:0:0:0:
240,184,440251,1,8,0:0:0:0:
300,264,440409,1,2,0:0:0:0:
360,184,440567,2,8,L|340:128,1,50,10|8,0:0|0:0,0:0:0:0:
248,108,440725,2,0,P|204:180|152:188,1,100,2|0,0:0|0:0,0:0:0:0:
156,88,440962,1,0,0:0:0:0:
156,88,441041,2,0,P|220:32|248:28,1,100,2|0,0:0|0:0,0:0:0:0:
364,84,441357,5,2,0:0:0:0:
220,148,441515,1,8,0:0:0:0:
220,148,441593,1,8,0:0:0:0:
220,148,441672,1,8,0:0:0:0:
80,76,441830,1,0,0:0:0:0:
144,184,441988,6,0,P|188:232|252:244,1,100,2|0,0:0|0:0,0:0:0:0:
220,148,442304,2,0,P|188:92|128:88,1,100,2|0,0:0|0:0,0:0:0:0:
288,72,442620,2,0,P|328:116|344:160,1,100,2|8,0:0|0:0,0:0:0:0:
352,204,442857,1,0,0:0:0:0:
352,256,442936,1,0,0:0:0:0:
468,204,443093,5,0,0:0:0:0:
420,312,443251,2,0,P|360:348|300:344,1,100,2|0,0:0|0:0,0:0:0:0:
252,264,443567,2,0,P|156:252|128:276,1,100,2|0,0:0|0:0,0:0:0:0:
296,344,443883,5,2,0:0:0:0:
92,108,444515,1,4,0:0:0:0:
256,192,445146,12,0,455251,0:0:0:0:
