osu file format v14

[General]
AudioFilename: audio.mp3
AudioLeadIn: 0
PreviewTime: 136
Countdown: 0
SampleSet: Normal
StackLeniency: 0.7
Mode: 0
LetterboxInBreaks: 0
WidescreenStoryboard: 0

[Editor]
Bookmarks: 126451,133557,135451,157983,393041
DistanceSpacing: 1.1
BeatDivisor: 4
GridSize: 32
TimelineZoom: 2.299999

[Metadata]
Title:Your Best Nightmare (16-Bit Cover) & Final Garden
TitleUnicode:Your Best Nightmare (16-Bit Cover) & Final Garden
Artist:DM DOKURO
ArtistUnicode:DM DOKURO
Creator:mindmaster107
Version:The Final Battle
Source:Undertale
Tags:Flowey Marathon Boss Fight two songs
BeatmapID:1185658
BeatmapSetID:560691

[Difficulty]
HPDrainRate:5.5
CircleSize:4
OverallDifficulty:8
ApproachRate:9.3
SliderMultiplier:1
SliderTickRate:1

[Events]
//Background and Video events
0,0,"maxresdefault.jpg",0,0
Video,240000,"SoulSceneLong.wmv"
//Break Periods
2,15493,22273
2,47704,52589
2,109599,114484
2,169598,173852
2,233388,238273
2,240020,259809
//Storyboard Layer 0 (Background)
//Storyboard Layer 1 (Fail)
//Storyboard Layer 2 (Pass)
//Storyboard Layer 3 (Foreground)
//Storyboard Sound Samples

[TimingPoints]
0,315.789473684211,4,1,0,100,1,0
136,631.578947368421,4,1,0,100,1,0
136,-100,4,1,0,100,0,0
22557,-100,4,1,0,100,0,0
22873,315.789473684211,4,1,0,100,1,0
53142,-200,4,2,0,60,0,0
85984,-100,4,1,0,100,0,0
116300,-200,4,1,0,60,0,0
132720,-100,4,1,0,60,0,0
147879,-100,4,1,0,100,0,0
154197,-100,4,1,0,100,0,0
155504,-90.9090909090909,4,1,0,100,0,0
156767,-83.3333333333333,4,1,0,100,0,0
158030,-76.9230769230769,4,1,0,100,0,0
159247,-71.4285714285714,4,1,0,100,0,0
160557,-66.6666666666667,4,1,0,100,0,0
161820,-62.5,4,1,0,100,0,0
163083,-58.8235294117647,4,1,0,100,0,0
164346,-55.5555555555556,4,1,0,100,0,0
165609,-52.6315789473684,4,1,0,100,0,0
166873,-50,4,1,0,100,0,0
168136,-50,4,1,0,100,0,0
175668,-100,4,1,0,60,0,0
192089,-100,4,1,0,60,0,0
208510,-100,4,1,0,100,0,0
240199,315.789473684211,4,1,0,100,1,0
262935,-66.6666666666667,4,1,0,100,0,0
283146,-133.333333333333,4,1,0,100,0,0
303356,-66.6666666666667,4,1,0,100,0,1
307777,-66.6666666666667,4,1,0,100,0,1
308093,-50,4,1,0,100,0,1
308409,-66.6666666666667,4,1,0,100,0,1
338409,-50,4,1,0,100,0,1
338883,-66.6666666666667,4,1,0,100,0,1
368725,-66.6666666666667,4,1,0,100,0,1
369041,-66.6666666666667,4,1,0,100,0,1
378830,-66.6666666666667,4,1,0,100,0,1
379146,-66.6666666666667,4,1,0,100,0,1
384199,-100,4,1,0,100,0,0
424620,-66.6666666666667,4,1,0,100,0,1
434725,-66.6666666666667,4,1,0,100,0,1
444830,-66.6666666666667,4,1,0,100,0,1
454935,-66.6666666666667,4,1,0,100,0,1
465041,-66.6666666666667,4,1,0,100,0,1
475146,-66.6666666666667,4,1,0,100,0,1
485251,-66.6666666666667,4,1,0,100,0,1
495356,-66.6666666666667,4,1,0,100,0,1
505462,-66.6666666666667,4,1,0,100,0,1
515567,-100,4,2,0,60,0,0
525672,-133.333333333333,4,2,0,15,0,0
539567,-200,4,2,0,5,0,0

[Colours]
Combo1 : 128,0,255
Combo2 : 255,0,0
Combo3 : 255,255,0
Combo4 : 0,255,64
Combo5 : 0,255,255
Combo6 : 0,128,255
Combo7 : 255,128,0

[HitObjects]
188,64,157,5,4,0:0:0:0:
188,64,767,1,4,0:0:0:0:
188,64,1399,2,4,B|132:108|180:200|180:200|228:280|164:344,1,300.000003576278,4|0,0:0|0:0,0:0:0:0:
120,280,3925,5,4,0:0:0:0:
120,280,4557,1,4,0:0:0:0:
120,280,5188,2,4,B|116:183|217:171|217:171|310:169|314:84,1,300,4|0,0:0|0:0,0:0:0:0:
164,92,7714,5,4,0:0:0:0:
164,92,8346,1,4,0:0:0:0:
164,92,8978,2,4,B|257:43|307:108|307:108|356:181|435:142,1,300.000003576278,4|0,0:0|0:0,0:0:0:0:
384,80,11504,5,4,0:0:0:0:
384,80,12136,1,4,0:0:0:0:
456,152,12767,2,0,P|372:228|296:40,1,400.000004768371,0|0,0:0|3:0,0:0:0:0:
108,296,22872,5,4,0:0:0:0:
108,96,23030,1,0,0:0:0:0:
200,328,23188,1,0,0:0:0:0:
204,48,23346,1,0,0:0:0:0:
312,328,23504,1,0,0:0:0:0:
304,48,23662,1,0,0:0:0:0:
404,296,23820,1,4,0:0:0:0:
404,96,23978,1,0,0:0:0:0:
219,173,24136,5,0,0:0:0:0:
245,173,24215,1,0,0:0:0:0:
268,181,24294,1,0,0:0:0:0:
290,196,24373,1,0,0:0:0:0:
304,216,24451,2,0,B|322:242|314:283,1,50
225,263,24767,5,0,0:0:0:0:
445,279,24925,1,0,0:0:0:0:
351,90,25083,1,0,0:0:0:0:
351,90,25162,1,0,0:0:0:0:
351,90,25241,1,0,0:0:0:0:
216,64,25399,5,0,0:0:0:0:
192,72,25478,1,0,0:0:0:0:
168,88,25557,1,0,0:0:0:0:
152,108,25636,1,0,0:0:0:0:
139,129,25715,2,0,P|124:156|115:194,1,50
220,180,26030,2,0,P|235:207|244:245,1,50
156,264,26346,2,0,P|141:291|132:329,1,50
246,336,26662,5,4,0:0:0:0:
485,266,26820,1,0,0:0:0:0:
485,266,26899,1,0,0:0:0:0:
485,266,26978,1,0,0:0:0:0:
317,98,27136,1,0,0:0:0:0:
317,98,27215,1,0,0:0:0:0:
317,98,27294,1,0,0:0:0:0:
99,114,27451,5,0,0:0:0:0:
20,254,27609,1,0,0:0:0:0:
161,325,27767,1,0,0:0:0:0:
237,182,27925,2,4,P|265:162|297:164,1,50,4|0,0:0|0:0,0:0:0:0:
456,172,28241,1,0,0:0:0:0:
324,276,28399,5,0,0:0:0:0:
297,276,28478,1,0,0:0:0:0:
274,269,28557,1,0,0:0:0:0:
252,256,28636,1,0,0:0:0:0:
236,237,28715,1,0,0:0:0:0:
224,37,28873,1,0,0:0:0:0:
38,120,29030,1,0,0:0:0:0:
187,211,29188,5,0,0:0:0:0:
207,223,29267,1,0,0:0:0:0:
230,231,29346,1,0,0:0:0:0:
254,239,29425,1,0,0:0:0:0:
277,244,29504,2,0,P|300:245|337:244,1,50
456,266,29820,5,0,0:0:0:0:
295,319,29978,1,0,0:0:0:0:
329,133,30136,1,0,0:0:0:0:
385,305,30294,1,0,0:0:0:0:
357,158,30451,5,0,0:0:0:0:
188,117,30609,1,0,0:0:0:0:
188,117,30688,1,0,0:0:0:0:
188,117,30767,1,0,0:0:0:0:
225,282,30925,1,0,0:0:0:0:
368,57,31083,5,4,0:0:0:0:
113,57,31241,1,0,0:0:0:0:
113,311,31399,1,0,0:0:0:0:
368,311,31557,1,0,0:0:0:0:
410,184,31715,5,0,0:0:0:0:
418,160,31794,1,0,0:0:0:0:
414,136,31873,1,0,0:0:0:0:
399,117,31951,1,0,0:0:0:0:
375,108,32030,2,0,P|349:107|325:121,1,50
242,217,32346,1,0,0:0:0:0:
57,324,32504,1,0,0:0:0:0:
72,130,32662,1,0,0:0:0:0:
163,283,32820,1,0,0:0:0:0:
315,314,32978,5,0,0:0:0:0:
338,305,33057,1,0,0:0:0:0:
358,289,33136,1,0,0:0:0:0:
372,268,33215,1,0,0:0:0:0:
381,245,33294,2,0,P|385:207|380:186,1,50
293,110,33609,5,0,0:0:0:0:
376,27,33767,1,0,0:0:0:0:
464,100,33925,1,0,0:0:0:0:
382,195,34083,1,0,0:0:0:0:
301,118,34241,5,12,0:0:0:0:
301,118,34320,1,0,0:0:0:0:
301,118,34399,1,0,0:0:0:0:
111,143,34557,1,0,0:0:0:0:
227,287,34715,1,0,0:0:0:0:
380,108,34873,5,12,0:0:0:0:
380,108,34951,1,0,0:0:0:0:
380,108,35030,1,0,0:0:0:0:
82,57,35188,1,0,0:0:0:0:
176,328,35346,1,0,0:0:0:0:
132,152,35504,5,0,0:0:0:0:
216,204,35662,1,0,0:0:0:0:
224,108,35820,1,0,0:0:0:0:
316,160,35978,5,0,0:0:0:0:
316,160,36057,1,0,0:0:0:0:
316,160,36136,1,8,0:0:0:0:
396,208,36294,1,0,0:0:0:0:
312,260,36451,1,0,0:0:0:0:
400,308,36609,1,0,0:0:0:0:
230,312,36767,5,0,0:0:0:0:
207,317,36846,1,0,0:0:0:0:
183,313,36925,1,0,0:0:0:0:
162,298,37004,1,0,0:0:0:0:
150,273,37083,2,0,L|149:242,2,25
171,152,37399,5,0,0:0:0:0:
194,149,37478,1,0,0:0:0:0:
217,152,37557,1,0,0:0:0:0:
238,166,37636,1,0,0:0:0:0:
253,185,37715,2,0,L|258:220,2,25
224,312,38030,5,4,0:0:0:0:
388,168,38188,1,0,0:0:0:0:
388,168,38267,1,0,0:0:0:0:
388,168,38346,1,0,0:0:0:0:
177,99,38504,1,0,0:0:0:0:
177,99,38583,1,0,0:0:0:0:
177,99,38662,1,0,0:0:0:0:
156,329,38820,5,0,0:0:0:0:
475,263,38978,1,0,0:0:0:0:
267,40,39136,1,0,2:0:0:0:
140,232,39294,5,0,0:0:0:0:
164,224,39373,1,0,0:0:0:0:
188,212,39451,1,0,0:0:0:0:
208,196,39530,1,0,0:0:0:0:
228,180,39609,2,0,L|256:156,3,25.0000002980232
268,152,39925,5,0,0:0:0:0:
292,144,40004,1,0,0:0:0:0:
316,144,40083,1,0,0:0:0:0:
340,152,40162,1,0,0:0:0:0:
360,168,40241,2,0,P|376:212|372:256,1,75.0000008940696,0|0,2:0|3:0,2:0:0:0:
348,328,40557,5,0,0:0:0:0:
188,328,40715,1,0,0:0:0:0:
188,328,40794,1,0,0:0:0:0:
188,328,40873,1,0,0:0:0:0:
268,204,41030,1,0,0:0:0:0:
206,79,41188,5,0,0:0:0:0:
38,147,41346,1,0,0:0:0:0:
170,247,41504,1,0,0:0:0:0:
109,77,41662,1,0,0:0:0:0:
121,337,41820,5,0,0:0:0:0:
383,222,41978,1,0,0:0:0:0:
143,235,42136,1,0,0:0:0:0:
319,344,42294,1,0,0:0:0:0:
93,54,42451,1,0,0:0:0:0:
362,153,42609,1,0,0:0:0:0:
75,171,42767,1,0,0:0:0:0:
257,35,42925,1,0,0:0:0:0:
320,179,43083,5,0,0:0:0:0:
226,258,43241,1,0,0:0:0:0:
146,165,43399,1,0,0:0:0:0:
244,96,43557,1,0,0:0:0:0:
244,96,43636,1,0,0:0:0:0:
244,96,43715,5,0,0:0:0:0:
373,207,43873,1,0,0:0:0:0:
264,331,44030,1,0,0:0:0:0:
136,223,44188,1,0,0:0:0:0:
145,79,44346,5,0,0:0:0:0:
164,63,44425,1,0,0:0:0:0:
187,54,44504,1,0,0:0:0:0:
212,53,44583,1,0,0:0:0:0:
236,60,44662,5,0,0:0:0:0:
256,74,44741,1,0,0:0:0:0:
271,95,44820,1,0,0:0:0:0:
278,119,44899,1,0,0:0:0:0:
276,144,44978,5,0,0:0:0:0:
273,169,45057,1,0,0:0:0:0:
273,193,45136,1,0,0:0:0:0:
287,213,45215,1,0,0:0:0:0:
310,225,45294,6,0,L|356:228,3,25
359,224,45609,5,12,0:0:0:0:
140,152,46241,5,12,0:0:0:0:
140,152,46873,1,12,0:0:0:0:
140,152,47504,1,12,0:0:0:0:
256,192,53188,12,0,54136,3:0:0:0:
256,120,54451,5,8,2:0:0:0:
390,182,54767,1,0,0:0:0:0:
128,240,55083,5,8,2:0:0:0:
206,77,55399,1,0,0:0:0:0:
304,214,55715,5,8,2:0:0:0:
215,284,56030,1,0,0:0:0:0:
348,148,56346,5,8,2:0:0:0:
285,320,56662,1,0,0:0:0:0:
186,152,56978,5,8,2:0:0:0:
352,145,57294,1,0,0:0:0:0:
203,293,57609,5,8,2:0:0:0:
113,132,57925,1,0,0:0:0:0:
253,67,58241,5,8,2:0:0:0:
385,141,58557,1,0,0:0:0:0:
226,185,58873,5,8,2:0:0:0:
54,269,59188,1,0,0:0:0:0:
67,80,59504,5,8,2:0:0:0:
67,80,59820,1,0,2:0:0:0:
156,205,59978,1,0,2:0:0:0:
224,79,60136,1,8,2:0:0:0:
224,79,60451,1,0,2:0:0:0:
290,230,60767,5,8,2:0:0:0:
290,230,61083,1,0,2:0:0:0:
443,162,61241,1,0,2:0:0:0:
429,322,61399,1,8,2:0:0:0:
429,322,61715,1,0,2:0:0:0:
223,237,62030,5,8,2:0:0:0:
223,237,62346,1,0,2:0:0:0:
71,173,62504,1,0,2:0:0:0:
199,85,62662,1,8,2:0:0:0:
199,85,62978,1,0,2:0:0:0:
199,85,63294,2,8,B|273:111|273:111|273:133,1,100,8|8,2:0|2:0,2:0:0:0:
312,264,64557,5,8,2:0:0:0:
312,264,64873,1,0,2:0:0:0:
424,176,65030,1,0,2:0:0:0:
296,132,65188,1,8,2:0:0:0:
296,132,65504,1,0,2:0:0:0:
104,96,65820,5,8,2:0:0:0:
104,96,66136,1,0,2:0:0:0:
236,40,66294,1,0,2:0:0:0:
235,196,66451,1,8,2:0:0:0:
235,196,66767,1,0,2:0:0:0:
258,330,67083,5,8,2:0:0:0:
258,330,67399,1,0,2:0:0:0:
422,350,67557,1,0,2:0:0:0:
366,206,67715,1,8,2:0:0:0:
366,206,68030,1,0,2:0:0:0:
366,206,68346,2,8,B|444:207|444:207|453:184,1,100,8|8,2:0|2:0,2:0:0:0:
256,192,69609,12,0,70557,3:0:0:0:
331,107,70873,37,8,3:0:0:0:
331,107,71030,1,0,3:0:0:0:
331,107,71188,2,0,L|356:131,1,25,8|8,3:0|3:0,3:0:0:0:
175,151,71504,5,8,3:0:0:0:
175,151,71662,1,0,3:0:0:0:
175,151,71820,2,0,L|152:179,1,25,8|8,3:0|3:0,3:0:0:0:
331,189,72136,5,8,3:0:0:0:
331,189,72294,1,0,3:0:0:0:
331,189,72451,2,0,L|345:211,1,25,8|8,3:0|3:0,3:0:0:0:
201,210,72767,5,8,3:0:0:0:
201,210,72925,1,0,3:0:0:0:
201,210,73083,2,0,L|186:232,1,25,8|8,3:0|3:0,3:0:0:0:
329,222,73399,6,0,L|351:241,3,25,8|0|0|0,3:0|3:0|3:0|3:0,3:0:0:0:
321,128,74030,6,0,L|339:106,3,25,8|0|0|0,3:0|3:0|3:0|3:0,3:0:0:0:
191,128,74662,6,0,L|173:106,3,25,8|0|0|0,3:0|3:0|3:0|3:0,3:0:0:0:
183,222,75294,6,0,L|161:241,3,25,8|0|0|0,3:0|3:0|3:0|3:0,3:0:0:0:
272,132,75925,5,0,3:0:0:0:
272,132,76241,1,0,3:0:0:0:
147,52,76399,1,0,3:0:0:0:
135,209,76557,1,0,3:0:0:0:
135,209,76873,1,0,3:0:0:0:
135,209,77188,2,0,L|110:270,1,50.0000005960464,0|0,3:0|3:0,3:0:0:0:
340,325,77820,2,0,L|358:278,1,50.0000005960464,0|0,3:0|3:0,3:0:0:0:
260,240,78451,5,0,3:0:0:0:
260,240,78767,1,0,3:0:0:0:
420,148,78925,1,0,3:0:0:0:
272,72,79083,1,0,3:0:0:0:
272,72,79399,1,0,3:0:0:0:
272,72,79715,2,0,P|294:105|260:155,1,100,0|0,3:0|3:0,3:0:0:0:
196,208,80978,5,0,3:0:0:0:
196,208,81294,1,0,3:0:0:0:
112,72,81451,1,0,3:0:0:0:
273,71,81609,1,0,3:0:0:0:
273,71,81925,1,0,3:0:0:0:
273,71,82241,2,0,L|334:46,1,50.0000005960464,0|0,3:0|3:0,3:0:0:0:
402,236,82873,2,0,L|355:254,1,50.0000005960464,0|0,3:0|3:0,3:0:0:0:
229,222,83504,5,0,3:0:0:0:
229,222,83820,1,0,3:0:0:0:
121,300,83978,1,0,3:0:0:0:
100,176,84136,1,0,3:0:0:0:
100,176,84451,1,0,3:0:0:0:
100,176,84767,2,0,P|69:142|105:105,1,100.000000596046,0|0,3:0|3:0,3:0:0:0:
256,192,86030,12,0,86978,3:0:0:0:
160,52,87294,5,0,0:0:0:0:
400,93,87451,1,0,0:0:0:0:
400,93,87530,1,0,0:0:0:0:
400,93,87609,1,0,0:0:0:0:
366,326,87767,1,0,0:0:0:0:
120,280,87925,1,0,0:0:0:0:
134,156,88083,5,0,0:0:0:0:
134,156,88162,1,0,0:0:0:0:
134,156,88241,2,0,L|112:106,2,50
250,289,88715,5,0,0:0:0:0:
414,272,88873,1,0,0:0:0:0:
414,272,88951,1,0,0:0:0:0:
414,272,89030,1,0,0:0:0:0:
437,143,89188,1,0,0:0:0:0:
302,61,89346,1,0,0:0:0:0:
302,61,89425,1,0,0:0:0:0:
302,61,89504,1,0,0:0:0:0:
181,152,89662,1,0,0:0:0:0:
181,152,89741,1,0,0:0:0:0:
181,152,89820,5,0,0:0:0:0:
67,331,89978,1,0,0:0:0:0:
276,240,90136,1,0,0:0:0:0:
46,195,90294,1,0,0:0:0:0:
206,347,90451,1,0,0:0:0:0:
287,134,90609,1,0,0:0:0:0:
287,134,90688,1,0,0:0:0:0:
287,134,90767,5,0,0:0:0:0:
479,133,90925,1,0,0:0:0:0:
478,341,91083,1,0,0:0:0:0:
297,346,91241,2,0,P|259:346|239:326,1,50
231,324,91478,1,0,0:0:0:0:
215,305,91557,1,0,0:0:0:0:
150,98,91715,1,0,0:0:0:0:
368,146,91873,1,0,0:0:0:0:
368,146,91951,1,0,0:0:0:0:
368,146,92030,1,0,0:0:0:0:
238,279,92188,1,0,0:0:0:0:
217,292,92267,1,0,0:0:0:0:
193,295,92346,6,0,P|150:278|136:227,1,100
171,28,92820,1,0,0:0:0:0:
409,63,92978,1,0,0:0:0:0:
387,249,93136,1,0,0:0:0:0:
387,249,93215,1,0,0:0:0:0:
387,249,93294,5,0,0:0:0:0:
278,334,93451,1,0,0:0:0:0:
250,200,93609,1,0,0:0:0:0:
351,120,93767,1,0,0:0:0:0:
224,73,93925,1,0,0:0:0:0:
224,73,94004,1,0,0:0:0:0:
224,73,94083,1,0,0:0:0:0:
108,161,94241,2,0,P|90:192|98:221,1,50
96,229,94478,1,0,0:0:0:0:
112,247,94557,1,0,0:0:0:0:
287,291,94715,1,0,0:0:0:0:
310,293,94794,1,0,0:0:0:0:
333,285,94873,6,0,P|366:260|379:233,1,50
378,229,95109,1,0,0:0:0:0:
383,204,95188,1,0,0:0:0:0:
356,44,95346,1,0,0:0:0:0:
213,136,95504,1,0,0:0:0:0:
226,315,95662,1,0,0:0:0:0:
226,315,95741,1,0,0:0:0:0:
226,315,95820,1,0,0:0:0:0:
470,263,95978,1,0,0:0:0:0:
426,51,96136,1,0,0:0:0:0:
268,204,96294,2,0,P|230:235|210:235,1,50
206,236,96530,5,0,0:0:0:0:
181,229,96609,1,0,0:0:0:0:
49,88,96767,1,0,0:0:0:0:
252,55,96925,1,0,0:0:0:0:
277,56,97004,1,0,0:0:0:0:
301,62,97083,2,0,P|330:75|345:97,1,50
348,113,97320,1,0,0:0:0:0:
351,138,97399,5,0,0:0:0:0:
326,334,97557,1,0,0:0:0:0:
326,334,97636,1,0,0:0:0:0:
326,334,97715,1,0,0:0:0:0:
113,298,97873,1,0,0:0:0:0:
158,107,98030,1,0,0:0:0:0:
211,246,98188,1,0,0:0:0:0:
224,267,98267,1,0,0:0:0:0:
245,280,98346,6,0,P|275:289|302:281,1,50
468,216,98662,1,0,0:0:0:0:
405,42,98820,1,0,0:0:0:0:
231,98,98978,1,0,0:0:0:0:
231,98,99057,1,0,0:0:0:0:
231,98,99136,1,0,0:0:0:0:
227,301,99294,1,0,0:0:0:0:
52,191,99451,1,0,0:0:0:0:
52,191,99530,1,0,0:0:0:0:
52,191,99609,1,0,0:0:0:0:
230,90,99767,1,0,0:0:0:0:
248,74,99846,1,0,0:0:0:0:
273,67,99925,6,0,P|303:64|327:75,1,50
342,84,100162,1,0,0:0:0:0:
357,104,100241,2,0,B|393:160|344:209,1,100
281,300,100715,1,0,0:0:0:0:
281,300,100794,1,0,0:0:0:0:
281,300,100873,1,0,0:0:0:0:
165,283,101030,1,0,0:0:0:0:
123,180,101188,1,0,0:0:0:0:
207,87,101346,2,0,P|242:67|268:67,1,50
276,67,101583,5,0,0:0:0:0:
300,69,101662,1,0,0:0:0:0:
456,112,101820,1,0,0:0:0:0:
334,236,101978,1,0,0:0:0:0:
318,255,102057,1,0,0:0:0:0:
297,270,102136,2,0,P|244:274|229:264,1,50
224,269,102373,1,0,0:0:0:0:
201,256,102451,6,0,P|166:216|138:167,1,100
71,31,102925,1,0,0:0:0:0:
237,40,103083,1,0,0:0:0:0:
347,155,103241,1,0,0:0:0:0:
347,155,103320,1,0,0:0:0:0:
347,155,103399,1,0,0:0:0:0:
288,298,103557,1,0,0:0:0:0:
123,321,103715,1,0,0:0:0:0:
187,180,103873,2,0,P|217:133|228:122,1,50
232,121,104109,5,0,0:0:0:0:
251,104,104188,1,0,0:0:0:0:
443,57,104346,1,0,0:0:0:0:
384,259,104504,1,0,0:0:0:0:
375,281,104583,1,0,0:0:0:0:
355,301,104662,2,0,P|319:313|301:308,1,50
283,304,104899,1,0,0:0:0:0:
260,293,104978,5,0,0:0:0:0:
58,163,105136,1,0,0:0:0:0:
58,163,105215,1,0,0:0:0:0:
58,163,105294,1,0,0:0:0:0:
279,60,105451,1,0,0:0:0:0:
259,291,105609,1,0,0:0:0:0:
206,190,105767,1,0,0:0:0:0:
206,190,105846,1,0,0:0:0:0:
206,190,105925,5,0,0:0:0:0:
370,210,106083,1,0,0:0:0:0:
385,58,106241,1,0,0:0:0:0:
219,40,106399,2,0,P|179:49|168:60,1,50
155,73,106636,5,0,0:0:0:0:
139,93,106715,1,0,0:0:0:0:
98,261,106873,1,0,0:0:0:0:
283,312,107030,1,0,0:0:0:0:
283,312,107109,1,0,0:0:0:0:
283,312,107188,1,0,0:0:0:0:
318,126,107346,1,0,0:0:0:0:
128,76,107504,5,12,0:0:0:0:
128,76,108136,1,12,0:0:0:0:
128,76,108767,1,12,0:0:0:0:
128,76,109399,1,12,0:0:0:0:
256,192,115083,12,0,116030,3:0:0:0:
313,228,116346,5,0,0:0:0:0:
313,228,116504,1,0,0:0:0:0:
353,322,116662,1,0,0:0:0:0:
353,322,116820,1,0,0:0:0:0:
415,239,116978,2,0,P|432:210|427:174,1,50
379,107,117451,5,0,0:0:0:0:
379,107,117609,1,0,0:0:0:0:
295,143,117767,1,0,0:0:0:0:
282,164,117925,2,0,P|273:202|296:220,1,50
283,233,118399,1,0,0:0:0:0:
380,289,118557,1,0,0:0:0:0:
380,289,118715,1,0,0:0:0:0:
389,182,118873,5,0,0:0:0:0:
389,182,119030,1,0,0:0:0:0:
298,115,119188,1,0,0:0:0:0:
298,115,119346,1,0,0:0:0:0:
309,214,119504,2,0,P|311:243|301:262,1,50
237,331,119978,5,0,0:0:0:0:
237,331,120136,1,0,0:0:0:0:
192,242,120294,1,0,0:0:0:0:
183,218,120451,2,0,P|183:192|199:171,1,50
214,155,120925,1,0,0:0:0:0:
286,236,121083,1,0,0:0:0:0:
286,236,121241,1,0,0:0:0:0:
125,197,121399,5,0,0:0:0:0:
125,197,121715,1,0,0:0:0:0:
75,341,121873,1,0,0:0:0:0:
212,273,122030,1,0,0:0:0:0:
212,273,122346,1,0,0:0:0:0:
300,273,122662,5,0,0:0:0:0:
300,273,122978,1,0,0:0:0:0:
437,341,123135,1,0,0:0:0:0:
387,197,123293,1,0,0:0:0:0:
387,197,123609,1,0,0:0:0:0:
320,158,123925,5,0,0:0:0:0:
320,158,124241,1,0,0:0:0:0:
256,40,124399,1,0,0:0:0:0:
194,158,124557,1,0,0:0:0:0:
194,158,124873,1,0,0:0:0:0:
209,287,125188,2,0,P|262:305|300:288,1,100
255,237,126136,1,0,0:0:0:0:
125,187,126451,5,0,0:0:0:0:
125,187,126767,1,0,0:0:0:0:
75,43,126925,1,0,0:0:0:0:
212,111,127082,1,0,0:0:0:0:
212,111,127398,1,0,0:0:0:0:
300,111,127714,5,0,0:0:0:0:
300,111,128030,1,0,0:0:0:0:
437,43,128187,1,0,0:0:0:0:
387,187,128345,1,0,0:0:0:0:
387,187,128661,1,0,0:0:0:0:
318,226,128977,5,0,0:0:0:0:
320,226,129293,1,0,0:0:0:0:
256,344,129451,1,0,0:0:0:0:
194,226,129609,1,0,0:0:0:0:
194,226,129925,1,0,0:0:0:0:
209,97,130241,2,0,P|262:79|300:96,1,100
256,192,131504,12,0,132451,0:0:0:0:
256,192,132767,5,0,3:0:0:0:
308,239,132925,2,0,L|329:259,2,25
308,145,133241,2,0,L|329:125,2,25
204,145,133557,2,0,L|185:127,2,25
204,239,133873,2,0,L|185:256,2,25
362,192,134188,6,0,L|405:190,2,25
255,90,134504,2,0,L|256:46,2,25
151,192,134820,2,0,L|113:192,2,25
255,292,135136,2,0,L|254:329,2,25
355,92,135451,6,0,L|390:58,2,25
159,96,135767,2,0,L|126:64,2,25
157,290,136083,2,0,L|128:319,2,25
349,287,136399,2,0,L|379:320,2,25
331,268,136636,5,0,0:0:0:0:
311,253,136714,1,0,0:0:0:0:
287,243,136793,1,0,0:0:0:0:
263,235,136872,5,0,0:0:0:0:
242,251,136951,1,0,0:0:0:0:
220,260,137030,1,0,3:0:0:0:
195,262,137109,1,0,0:0:0:0:
170,258,137188,6,0,P|145:245|129:222,1,50
122,206,137425,1,0,3:0:0:0:
119,181,137504,1,0,3:0:0:0:
160,76,137662,5,0,0:0:0:0:
160,76,137741,1,0,0:0:0:0:
160,76,137820,2,0,P|232:74|251:91,1,100
351,253,138294,1,0,0:0:0:0:
394,90,138451,1,0,0:0:0:0:
264,208,138609,2,0,L|249:231,2,25
264,208,139083,6,0,P|212:211|166:183,1,100
69,103,139557,1,0,0:0:0:0:
38,222,139715,1,0,0:0:0:0:
133,301,139873,2,0,L|141:327,2,25
284,333,140346,5,0,0:0:0:0:
284,333,140662,1,0,0:0:0:0:
410,321,140820,1,0,0:0:0:0:
343,211,140978,2,0,L|322:179,2,25
372,40,141294,1,0,0:0:0:0:
372,40,141609,2,0,B|324:96|384:124|432:156|364:228|364:228,1,200.000001192092
259,235,142399,1,0,0:0:0:0:
209,156,142557,1,0,0:0:0:0:
116,191,142715,1,0,0:0:0:0:
108,288,142873,6,0,L|220:296,1,100.000000596046,0|4,0:0|0:0,0:0:0:0:
376,280,143346,1,0,0:0:0:0:
320,164,143504,1,0,0:0:0:0:
287,321,143662,2,0,L|282:348,2,25
248,232,144136,6,0,L|140:212,1,100.000000596046
72,120,144609,1,0,0:0:0:0:
208,68,144767,1,0,0:0:0:0:
203,295,144925,2,0,L|203:330,2,25
292,56,145399,5,0,0:0:0:0:
292,56,145715,1,0,0:0:0:0:
392,84,145873,1,0,0:0:0:0:
309,158,146030,2,0,L|279:187,2,25
368,328,146346,1,0,0:0:0:0:
368,328,146662,2,0,B|432:292|386:245|353:198|442:155|442:155,1,200.000001192092
256,192,147925,12,0,148873,0:0:0:0:
104,92,149188,5,4,0:0:0:0:
104,92,149267,1,0,0:0:0:0:
104,92,149346,1,0,0:0:0:0:
368,152,149504,1,0,0:0:0:0:
200,328,149662,1,0,0:0:0:0:
224,168,149820,2,0,B|208:132|268:112|224:64,1,100.000000596046
376,120,150451,5,4,0:0:0:0:
376,120,150530,1,0,0:0:0:0:
376,120,150609,1,0,0:0:0:0:
106,154,150767,1,0,0:0:0:0:
288,352,150925,1,0,0:0:0:0:
260,176,151083,2,0,B|224:144|292:124|240:76,1,100.000000596046
122,66,151715,5,4,0:0:0:0:
122,66,151794,1,0,0:0:0:0:
122,66,151873,1,0,0:0:0:0:
409,239,152030,1,0,0:0:0:0:
163,326,152188,1,0,0:0:0:0:
282,149,152346,2,0,B|274:110|337:104|305:47,1,100.000000596046
389,88,152978,5,4,0:0:0:0:
389,88,153057,1,0,0:0:0:0:
389,88,153136,1,0,0:0:0:0:
49,184,153294,1,0,0:0:0:0:
300,321,153451,1,0,0:0:0:0:
229,148,153609,2,0,B|189:119|255:92|198:50,1,100.000000596046
371,85,154241,5,4,0:0:0:0:
246,114,154557,1,0,0:0:0:0:
223,125,154636,1,0,0:0:0:0:
203,141,154715,1,0,0:0:0:0:
186,159,154794,1,0,0:0:0:0:
173,180,154873,2,0,P|150:226|146:290,1,100
141,93,155504,5,0,0:0:0:0:
274,121,155820,1,0,0:0:0:0:
297,136,155899,1,0,0:0:0:0:
318,153,155978,1,0,0:0:0:0:
337,172,156057,1,0,0:0:0:0:
355,192,156136,2,0,P|375:224|406:308,1,110.000003356934
415,140,156767,5,0,0:0:0:0:
246,154,157083,1,0,0:0:0:0:
218,165,157162,1,0,0:0:0:0:
191,179,157241,1,0,0:0:0:0:
167,197,157320,1,0,0:0:0:0:
146,218,157399,2,0,P|107:282|88:346,1,119.999996337891
58,197,158030,5,0,0:0:0:0:
187,287,158346,1,0,0:0:0:0:
214,302,158425,1,0,0:0:0:0:
242,317,158504,1,0,0:0:0:0:
273,323,158583,1,0,0:0:0:0:
305,324,158662,2,0,P|374:310|446:262,1,129.999994049073
404,160,159294,5,0,0:0:0:0:
336,249,159609,1,0,0:0:0:0:
306,236,159688,1,0,0:0:0:0:
275,229,159767,1,0,0:0:0:0:
243,224,159846,1,0,0:0:0:0:
212,218,159925,2,0,B|158:213|106:220|106:220|112:166,1,139.999995727539
81,37,160557,5,0,0:0:0:0:
121,116,160873,1,0,0:0:0:0:
153,123,160951,1,0,0:0:0:0:
185,132,161030,1,0,0:0:0:0:
215,145,161109,1,0,0:0:0:0:
244,160,161188,2,0,B|294:184|330:217|330:217|375:160,1,150.000005722046
437,45,161820,5,0,0:0:0:0:
355,93,162136,1,0,0:0:0:0:
319,85,162215,1,0,0:0:0:0:
283,79,162294,1,0,0:0:0:0:
247,77,162373,1,0,0:0:0:0:
211,77,162451,2,0,B|147:85|88:106|88:106|118:149,1,160
97,239,163083,5,0,0:0:0:0:
180,172,163399,1,0,0:0:0:0:
217,176,163478,1,0,0:0:0:0:
254,185,163557,1,0,0:0:0:0:
291,193,163636,1,0,0:0:0:0:
326,206,163715,2,0,B|386:230|448:271|448:271|412:300,1,170.000003242493
309,332,164346,5,0,0:0:0:0:
173,265,164662,1,0,0:0:0:0:
138,244,164741,1,0,0:0:0:0:
108,215,164820,1,0,0:0:0:0:
80,184,164899,1,0,0:0:0:0:
56,150,164978,2,0,P|112:73|136:115,1,179.999994506836,0|2,0:0|0:0,0:0:0:0:
150,305,165609,5,0,0:0:0:0:
275,255,165925,1,0,0:0:0:0:
313,235,166004,1,0,0:0:0:0:
348,212,166083,1,0,0:0:0:0:
383,187,166162,1,0,0:0:0:0:
413,156,166241,2,0,P|433:88|346:129,1,189.999994926453
316,270,166873,5,0,0:0:0:0:
129,233,167188,1,0,0:0:0:0:
81,218,167267,1,0,0:0:0:0:
48,181,167346,1,0,0:0:0:0:
38,133,167425,1,0,0:0:0:0:
49,93,167504,2,0,P|123:40|222:100,1,200
217,207,168136,5,0,0:0:0:0:
128,154,168451,1,0,0:0:0:0:
115,202,168530,1,0,0:0:0:0:
122,251,168609,1,0,0:0:0:0:
146,294,168688,1,0,0:0:0:0:
186,324,168767,1,0,0:0:0:0:
234,337,168846,1,0,0:0:0:0:
283,330,168925,1,0,0:0:0:0:
326,306,169004,1,0,0:0:0:0:
358,273,169083,2,0,P|386:158|378:68,1,200,0|10,0:0|0:0,0:0:0:0:
256,192,174451,12,0,175399,0:0:0:0:
48,256,175715,5,0,3:0:0:0:
120,296,176030,1,0,3:0:0:0:
192,256,176346,1,0,3:0:0:0:
257,317,176662,1,0,3:0:0:0:
320,256,176978,1,0,3:0:0:0:
392,296,177294,1,0,3:0:0:0:
464,256,177609,2,0,P|468:184|451:140,1,100
399,80,178241,5,0,0:0:0:0:
332,137,178557,1,0,3:0:0:0:
260,100,178873,1,0,3:0:0:0:
196,144,179188,1,0,3:0:0:0:
128,104,179504,1,0,3:0:0:0:
62,169,179820,1,0,0:0:0:0:
88,264,180136,5,0,0:0:0:0:
88,264,180451,1,0,3:0:0:0:
88,264,180767,5,0,0:0:0:0:
88,264,181083,1,0,0:0:0:0:
245,342,181241,1,0,0:0:0:0:
252,176,181399,1,0,0:0:0:0:
252,176,181715,1,0,0:0:0:0:
252,176,182030,5,0,0:0:0:0:
252,176,182346,1,0,0:0:0:0:
418,143,182504,1,0,0:0:0:0:
376,308,182662,1,0,0:0:0:0:
376,308,182978,1,0,0:0:0:0:
376,308,183294,5,0,0:0:0:0:
376,308,183609,1,0,0:0:0:0:
128,288,183767,1,0,0:0:0:0:
276,104,183925,1,0,0:0:0:0:
276,104,184241,1,0,0:0:0:0:
276,104,184557,2,0,B|212:156|276:192|336:224|256:280,1,200.000001192092
136,264,185820,5,0,0:0:0:0:
136,264,186136,1,0,0:0:0:0:
352,196,186294,1,0,0:0:0:0:
200,72,186451,1,0,0:0:0:0:
200,72,186767,1,0,0:0:0:0:
200,72,187083,5,0,0:0:0:0:
200,72,187399,1,0,0:0:0:0:
392,48,187557,1,0,0:0:0:0:
332,228,187715,1,0,0:0:0:0:
332,228,188030,1,0,0:0:0:0:
332,228,188346,5,0,0:0:0:0:
332,228,188662,1,0,0:0:0:0:
235,134,188820,1,0,0:0:0:0:
200,272,188978,1,0,0:0:0:0:
200,272,189294,1,0,0:0:0:0:
200,272,189609,2,0,P|96:244|120:172,1,200.000001192092
256,192,190873,12,0,191820,0:0:0:0:
93,199,192136,5,0,0:0:0:0:
64,116,192294,1,0,0:0:0:0:
134,64,192451,1,0,0:0:0:0:
205,114,192609,1,0,0:0:0:0:
307,114,192767,5,0,0:0:0:0:
378,64,192925,1,0,0:0:0:0:
448,116,193083,1,0,0:0:0:0:
419,199,193241,1,0,0:0:0:0:
384,283,193399,5,0,0:0:0:0:
313,333,193557,1,0,0:0:0:0:
243,281,193715,1,0,0:0:0:0:
272,198,193873,1,0,0:0:0:0:
359,198,194030,5,0,0:0:0:0:
388,115,194188,1,0,0:0:0:0:
318,63,194346,1,0,0:0:0:0:
242,123,194504,1,0,0:0:0:0:
242,123,194662,5,0,0:0:0:0:
242,123,194820,1,0,0:0:0:0:
242,123,194978,2,0,P|177:169|168:167,1,50.000000298023
99,234,195294,5,0,0:0:0:0:
99,234,195451,1,0,0:0:0:0:
99,234,195609,2,0,P|127:270|159:282,1,50.000000298023
256,300,195925,5,0,0:0:0:0:
256,300,196083,1,0,0:0:0:0:
256,300,196241,2,0,P|296:306|308:326,1,50
424,273,196557,5,0,0:0:0:0:
424,273,196715,1,0,0:0:0:0:
424,273,196873,2,0,P|395:233|377:231,1,50.000000298023
328,228,197188,5,0,0:0:0:0:
328,228,197504,1,0,0:0:0:0:
196,276,197662,1,0,0:0:0:0:
224,152,197820,2,0,P|204:104|256:80,1,100.000000596046
235,77,198451,5,0,0:0:0:0:
235,77,198767,1,0,0:0:0:0:
396,152,198925,1,0,0:0:0:0:
266,248,199083,2,0,P|254:303|197:315,1,100.000000596046
220,320,199715,5,0,0:0:0:0:
220,320,200030,1,0,0:0:0:0:
64,240,200188,1,0,0:0:0:0:
208,148,200346,1,0,0:0:0:0:
208,148,200662,1,0,0:0:0:0:
208,148,200978,2,0,L|272:224,1,100.000000596046
176,248,201609,2,0,L|124:340,1,100.000000596046
126,335,202241,5,0,0:0:0:0:
126,335,202557,1,0,0:0:0:0:
59,200,202715,1,0,0:0:0:0:
220,204,202873,2,0,B|264:180|291:171|327:179,1,100.000000596046
312,176,203504,5,0,0:0:0:0:
312,176,203820,1,0,0:0:0:0:
304,36,203978,1,0,0:0:0:0:
192,112,204136,2,0,P|136:136|104:176,1,100.000000596046
110,164,204767,5,0,0:0:0:0:
110,164,205083,1,0,0:0:0:0:
288,200,205241,1,0,0:0:0:0:
180,328,205399,1,0,0:0:0:0:
180,328,205715,1,0,0:0:0:0:
180,328,206030,2,0,B|156:280|196:232|232:188|196:128,1,200.000001192092
256,192,207294,12,0,208241,0:0:0:0:
142,141,208557,5,4,0:0:0:0:
364,239,208715,1,0,0:0:0:0:
303,82,208873,1,0,0:0:0:0:
209,305,209030,1,0,0:0:0:0:
73,156,209188,5,4,0:0:0:0:
422,224,209346,1,0,0:0:0:0:
284,44,209504,1,0,0:0:0:0:
227,339,209662,1,0,0:0:0:0:
316,248,209820,5,0,0:0:0:0:
292,244,209899,1,0,0:0:0:0:
268,236,209978,1,0,0:0:0:0:
244,228,210057,1,0,0:0:0:0:
220,220,210136,2,0,P|194:208|163:192,1,50
153,184,210373,1,0,0:0:0:0:
134,168,210451,1,0,0:0:0:0:
134,53,210609,5,0,0:0:0:0:
14,227,210767,1,0,0:0:0:0:
220,246,210925,1,0,0:0:0:0:
296,320,211083,5,0,0:0:0:0:
320,312,211162,1,0,0:0:0:0:
344,296,211241,1,0,0:0:0:0:
362,279,211320,1,0,0:0:0:0:
375,255,211399,2,0,P|383:226|382:194,1,50
377,182,211636,1,0,0:0:0:0:
364,160,211715,6,0,L|332:104,1,50.0000005960464
425,103,212030,2,0,L|457:39,1,50.0000005960464
293,58,212346,5,4,0:0:0:0:
91,101,212504,1,0,0:0:0:0:
91,101,212583,1,0,0:0:0:0:
91,101,212662,1,0,0:0:0:0:
128,283,212820,1,0,0:0:0:0:
128,283,212899,1,0,0:0:0:0:
128,283,212978,1,4,0:0:0:0:
318,242,213136,5,0,0:0:0:0:
424,61,213294,1,0,0:0:0:0:
213,59,213451,1,0,0:0:0:0:
102,74,213609,5,8,0:0:0:0:
102,74,213688,1,0,0:0:0:0:
102,74,213767,1,0,0:0:0:0:
47,214,213925,1,0,0:0:0:0:
201,172,214083,1,0,0:0:0:0:
225,175,214162,1,0,0:0:0:0:
248,185,214241,5,8,0:0:0:0:
268,199,214320,1,0,0:0:0:0:
285,216,214399,1,0,0:0:0:0:
338,344,214557,1,0,0:0:0:0:
458,297,214715,1,0,0:0:0:0:
410,180,214873,1,0,0:0:0:0:
386,171,214951,5,0,0:0:0:0:
361,165,215030,1,0,0:0:0:0:
336,159,215109,1,0,0:0:0:0:
311,152,215188,2,0,P|274:147|245:129,1,50
241,128,215425,1,0,0:0:0:0:
220,113,215504,5,0,0:0:0:0:
131,27,215662,1,0,0:0:0:0:
32,117,215820,1,0,0:0:0:0:
126,206,215978,1,0,0:0:0:0:
240,285,216136,5,4,0:0:0:0:
432,319,216294,1,0,0:0:0:0:
465,123,216451,1,0,0:0:0:0:
275,95,216609,1,0,0:0:0:0:
136,336,216767,5,4,0:0:0:0:
408,336,216925,1,0,0:0:0:0:
408,64,217083,1,0,0:0:0:0:
136,64,217241,1,0,0:0:0:0:
65,191,217399,5,0,0:0:0:0:
58,214,217478,1,0,0:0:0:0:
62,239,217557,1,0,0:0:0:0:
76,259,217636,1,0,0:0:0:0:
98,270,217715,1,0,0:0:0:0:
123,271,217794,1,0,0:0:0:0:
146,261,217873,1,0,0:0:0:0:
280,188,218030,1,0,0:0:0:0:
397,246,218188,1,0,0:0:0:0:
453,129,218346,1,0,0:0:0:0:
337,71,218504,1,0,0:0:0:0:
208,104,218662,5,0,0:0:0:0:
185,114,218741,1,0,0:0:0:0:
166,131,218820,1,0,0:0:0:0:
154,154,218899,1,0,0:0:0:0:
143,176,218978,2,0,P|131:204|127:241,1,50
126,248,219215,1,0,0:0:0:0:
122,272,219294,5,0,0:0:0:0:
201,350,219451,1,0,0:0:0:0:
142,167,219609,1,0,0:0:0:0:
17,321,219767,1,0,0:0:0:0:
127,275,219925,5,8,0:0:0:0:
127,275,220004,1,0,0:0:0:0:
127,275,220083,1,0,0:0:0:0:
336,224,220241,1,0,0:0:0:0:
196,84,220399,1,0,0:0:0:0:
132,276,220557,5,8,0:0:0:0:
132,276,220636,1,0,0:0:0:0:
132,276,220715,1,0,0:0:0:0:
404,308,220873,1,0,0:0:0:0:
297,69,221030,1,0,0:0:0:0:
342,200,221188,5,0,0:0:0:0:
311,285,221346,1,0,0:0:0:0:
223,301,221504,1,0,0:0:0:0:
258,220,221662,5,0,0:0:0:0:
258,220,221741,1,0,0:0:0:0:
258,220,221820,1,8,0:0:0:0:
284,131,221978,1,0,0:0:0:0:
195,147,222136,1,0,0:0:0:0:
165,232,222294,1,0,0:0:0:0:
251,316,222451,5,0,0:0:0:0:
274,318,222530,1,0,0:0:0:0:
297,311,222609,1,0,0:0:0:0:
316,294,222688,1,0,0:0:0:0:
326,268,222767,2,0,L|332:234,2,25.0000002980232
228,260,223083,5,0,0:0:0:0:
208,248,223162,1,0,0:0:0:0:
192,232,223241,1,0,0:0:0:0:
184,208,223320,1,0,0:0:0:0:
184,184,223399,2,0,L|192:148,2,25.0000002980232
172,56,223715,5,0,0:0:0:0:
97,232,223873,1,0,0:0:0:0:
283,306,224030,1,0,0:0:0:0:
348,124,224188,1,0,0:0:0:0:
128,48,224346,5,0,0:0:0:0:
108,328,224504,1,0,0:0:0:0:
388,352,224662,1,0,0:0:0:0:
416,72,224820,1,0,0:0:0:0:
341,118,224978,5,0,0:0:0:0:
317,127,225057,1,0,0:0:0:0:
295,139,225136,1,0,0:0:0:0:
276,155,225215,1,0,0:0:0:0:
257,171,225294,2,0,L|229:195,3,25.0000002980232
217,202,225609,5,0,0:0:0:0:
194,214,225688,1,0,0:0:0:0:
169,215,225767,1,0,0:0:0:0:
144,206,225846,1,0,0:0:0:0:
127,187,225925,2,0,P|111:143|115:99,1,75.0000008940696
120,91,226241,5,0,0:0:0:0:
403,75,226399,1,0,0:0:0:0:
403,75,226478,1,0,0:0:0:0:
403,75,226557,1,0,0:0:0:0:
285,298,226715,2,0,L|279:322,2,25
275,183,227030,1,0,0:0:0:0:
176,159,227188,1,0,0:0:0:0:
123,248,227346,1,0,0:0:0:0:
188,324,227504,5,4,0:0:0:0:
372,304,227662,1,0,0:0:0:0:
108,244,227820,1,0,0:0:0:0:
412,220,227978,1,0,0:0:0:0:
104,156,228136,1,4,0:0:0:0:
412,140,228294,1,0,0:0:0:0:
188,80,228451,1,0,0:0:0:0:
340,72,228609,1,0,0:0:0:0:
296,212,228767,5,0,0:0:0:0:
216,224,228925,1,0,0:0:0:0:
204,148,229083,1,0,0:0:0:0:
280,136,229241,1,0,0:0:0:0:
268,288,229399,5,0,0:0:0:0:
160,204,229557,1,0,0:0:0:0:
244,96,229715,1,0,0:0:0:0:
352,180,229873,1,0,0:0:0:0:
251,282,230030,1,0,0:0:0:0:
232,298,230109,1,0,0:0:0:0:
209,308,230188,1,0,0:0:0:0:
184,309,230267,1,0,0:0:0:0:
161,301,230346,5,0,0:0:0:0:
141,285,230425,1,0,0:0:0:0:
129,264,230504,1,0,0:0:0:0:
124,239,230583,1,0,0:0:0:0:
128,215,230662,5,0,0:0:0:0:
141,193,230741,1,0,0:0:0:0:
160,178,230820,1,0,0:0:0:0:
184,169,230899,1,0,0:0:0:0:
209,171,230978,6,0,L|242:185,3,25
249,198,231294,5,12,0:0:0:0:
256,324,231925,5,12,1:0:0:0:
256,324,232557,1,12,1:0:0:0:
256,324,233188,1,12,1:0:0:0:
256,192,238873,12,0,239820,0:0:0:0:
256,192,260409,12,0,261356,3:0:0:0:
204,64,261672,5,0,0:0:0:0:
204,64,261751,1,0,0:0:0:0:
204,64,261830,1,0,0:0:0:0:
196,164,261988,1,0,0:0:0:0:
296,130,262146,1,0,0:0:0:0:
296,130,262225,1,0,0:0:0:0:
296,130,262304,1,0,0:0:0:0:
391,102,262462,1,0,0:0:0:0:
368,192,262620,1,0,0:0:0:0:
360,216,262699,1,0,0:0:0:0:
348,236,262777,1,0,0:0:0:0:
332,256,262856,1,0,0:0:0:0:
312,272,262935,5,12,0:0:0:0:
312,272,263251,1,0,0:0:0:0:
104,312,263409,1,0,0:0:0:0:
164,128,263567,1,0,0:0:0:0:
164,128,263883,1,0,0:0:0:0:
164,128,264199,6,0,P|244:88|304:108,1,150.000006616115
444,216,264672,1,0,0:0:0:0:
264,300,264830,1,0,0:0:0:0:
264,300,265146,1,0,0:0:0:0:
264,300,265462,6,0,P|184:264|220:212,1,150.000006616115
384,76,265935,1,0,0:0:0:0:
416,300,266093,1,0,0:0:0:0:
416,300,266409,1,0,0:0:0:0:
392,151,266725,5,0,0:0:0:0:
366,177,266804,1,0,0:0:0:0:
330,188,266883,1,0,0:0:0:0:
294,180,266962,1,0,0:0:0:0:
257,191,267041,5,0,0:0:0:0:
222,175,267120,1,0,0:0:0:0:
185,172,267199,1,0,0:0:0:0:
149,182,267277,1,0,0:0:0:0:
147,138,267356,5,0,0:0:0:0:
159,90,267435,1,0,0:0:0:0:
199,62,267514,1,0,0:0:0:0:
249,68,267593,1,0,0:0:0:0:
279,101,267672,5,0,0:0:0:0:
244,136,267751,1,0,0:0:0:0:
231,184,267830,1,0,0:0:0:0:
242,232,267909,1,0,0:0:0:0:
268,267,267988,5,0,0:0:0:0:
268,267,268304,1,0,0:0:0:0:
105,173,268462,1,0,0:0:0:0:
271,91,268620,1,0,0:0:0:0:
271,91,268935,1,0,0:0:0:0:
271,91,269251,6,0,P|203:51|184:55,1,75.0000028610231
72,88,269567,1,0,0:0:0:0:
132,264,269725,1,0,0:0:0:0:
296,216,269883,1,0,0:0:0:0:
296,216,270199,1,0,0:0:0:0:
411,275,270514,5,0,0:0:0:0:
78,239,270672,1,0,0:0:0:0:
318,62,270830,1,0,0:0:0:0:
221,334,270988,1,0,0:0:0:0:
160,51,271146,1,0,0:0:0:0:
160,51,271462,1,0,0:0:0:0:
252,233,271777,5,0,0:0:0:0:
376,52,272093,1,0,0:0:0:0:
172,76,272409,1,0,0:0:0:0:
140,95,272488,1,0,0:0:0:0:
114,122,272567,1,0,0:0:0:0:
95,154,272646,1,0,0:0:0:0:
84,190,272725,5,0,0:0:0:0:
83,228,272804,1,0,0:0:0:0:
91,264,272883,1,0,0:0:0:0:
107,298,272962,1,0,0:0:0:0:
131,327,273041,5,0,0:0:0:0:
130,327,273356,5,0,0:0:0:0:
300,310,273514,1,0,0:0:0:0:
204,192,273672,1,0,0:0:0:0:
204,192,273988,1,0,0:0:0:0:
204,192,274304,2,0,P|186:147|208:118,1,75.0000033080576
285,67,274620,1,0,0:0:0:0:
468,128,274777,1,0,0:0:0:0:
324,252,274935,1,0,0:0:0:0:
324,252,275251,1,0,0:0:0:0:
324,252,275567,6,0,P|288:296|252:296,1,75.0000033080576
184,264,275883,1,0,0:0:0:0:
9,91,276041,1,0,0:0:0:0:
256,36,276199,1,0,0:0:0:0:
256,36,276514,5,0,0:0:0:0:
256,36,276830,5,0,0:0:0:0:
288,53,276909,1,0,0:0:0:0:
311,83,276988,1,0,0:0:0:0:
317,120,277067,1,0,0:0:0:0:
305,155,277146,5,0,0:0:0:0:
279,181,277225,1,0,0:0:0:0:
244,194,277304,1,0,0:0:0:0:
211,212,277383,1,0,0:0:0:0:
189,241,277462,5,0,0:0:0:0:
182,278,277541,1,0,0:0:0:0:
194,313,277620,1,0,0:0:0:0:
221,339,277699,1,0,0:0:0:0:
256,352,277777,5,0,0:0:0:0:
256,352,278093,5,0,0:0:0:0:
256,352,278409,1,0,0:0:0:0:
444,235,278567,1,0,0:0:0:0:
244,144,278725,1,0,0:0:0:0:
244,144,279041,1,0,0:0:0:0:
244,144,279356,6,0,P|184:90|135:131,1,150.000005722046
40,280,279830,1,0,0:0:0:0:
308,312,279988,1,0,0:0:0:0:
308,312,280304,1,0,0:0:0:0:
308,312,280620,2,0,P|245:305|266:238,1,150.000005722046
420,198,281093,1,0,0:0:0:0:
306,108,281251,1,0,0:0:0:0:
496,59,281567,1,0,0:0:0:0:
256,36,281883,5,0,0:0:0:0:
218,38,281962,1,0,0:0:0:0:
184,52,282041,1,0,0:0:0:0:
155,76,282120,1,0,0:0:0:0:
135,107,282199,5,0,0:0:0:0:
125,144,282277,1,0,0:0:0:0:
128,181,282356,1,0,0:0:0:0:
138,217,282435,1,0,0:0:0:0:
160,247,282514,6,0,P|211:279|357:224,1,225.000008583069,0|0,0:0|2:0,0:0:0:0:
256,164,283146,5,0,0:0:0:0:
256,164,283225,1,0,0:0:0:0:
256,164,283304,1,0,0:0:0:0:
256,164,283777,1,0,0:0:0:0:
256,164,284409,1,0,0:0:0:0:
256,164,285041,1,0,0:0:0:0:
255,122,285672,2,0,P|224:149|295:167,1,150.000005722046
256,164,286935,1,0,0:0:0:0:
256,272,287567,1,0,0:0:0:0:
256,168,288041,5,0,2:0:0:0:
256,168,288120,1,0,2:0:0:0:
256,168,288199,1,0,0:0:0:0:
117,263,290725,2,0,L|405:171,1,300.00001323223,0|0,0:0|3:0,0:0:0:0:
256,148,293251,5,0,0:0:0:0:
256,148,293330,1,0,0:0:0:0:
256,148,293409,1,0,0:0:0:0:
256,148,293883,1,0,0:0:0:0:
256,148,294514,1,0,0:0:0:0:
256,148,295146,1,0,0:0:0:0:
256,148,295777,2,0,P|152:192|264:268,1,300.00001323223
258,271,297672,5,0,0:0:0:0:
258,271,298304,1,0,0:0:0:0:
263,294,300830,6,0,B|171:166|171:166|155:90|255:94|263:134|263:134|271:94|375:90|351:166|351:166|303:242|303:242,1,525.000023156403
263,294,303356,5,0,0:0:0:0:
263,294,303672,1,0,0:0:0:0:
37,187,303830,1,0,0:0:0:0:
252,56,303988,1,0,0:0:0:0:
252,56,304304,1,0,0:0:0:0:
252,56,304620,2,0,P|216:116|300:136,1,150.000006616115
432,144,305093,1,0,0:0:0:0:
432,144,305251,2,0,B|480:192|444:256|384:240,1,150.000006616115
312,72,305883,5,0,0:0:0:0:
83,209,306041,1,0,0:0:0:0:
349,232,306199,1,0,0:0:0:0:
147,57,306356,1,0,0:0:0:0:
207,317,306514,1,0,0:0:0:0:
381,199,306830,5,0,0:0:0:0:
256,52,306988,1,0,0:0:0:0:
254,55,307146,5,0,0:0:0:0:
218,47,307225,1,0,0:0:0:0:
183,59,307304,1,0,0:0:0:0:
162,90,307383,1,0,0:0:0:0:
152,126,307462,5,0,0:0:0:0:
183,145,307541,1,0,0:0:0:0:
203,176,307620,1,0,0:0:0:0:
201,213,307699,1,0,0:0:0:0:
187,247,307777,5,0,0:0:0:0:
189,283,307856,1,0,0:0:0:0:
219,304,307935,1,0,0:0:0:0:
254,294,308014,1,0,0:0:0:0:
261,249,308093,5,0,0:0:0:0:
271,199,308172,1,0,0:0:0:0:
316,176,308251,1,0,0:0:0:0:
361,197,308330,1,0,0:0:0:0:
374,245,308409,1,0,0:0:0:0:
374,245,308725,2,0,P|343:284|314:254,1,75.0000028610231
223,175,309041,1,0,0:0:0:0:
223,175,309356,1,0,0:0:0:0:
223,175,309672,6,0,P|189:143|213:115,1,75.0000028610231
364,35,309988,1,0,0:0:0:0:
464,176,310146,1,0,0:0:0:0:
321,275,310304,1,0,0:0:0:0:
321,275,310620,1,0,0:0:0:0:
321,275,310935,5,0,0:0:0:0:
321,275,311251,2,0,B|312:185|312:185|368:210,1,150.000005722046
374,215,311883,1,0,0:0:0:0:
374,215,312199,1,0,0:0:0:0:
397,166,312277,1,0,0:0:0:0:
392,112,312356,1,0,0:0:0:0:
361,69,312435,1,0,0:0:0:0:
312,47,312514,5,0,0:0:0:0:
260,53,312593,1,0,0:0:0:0:
217,85,312672,1,0,0:0:0:0:
196,134,312751,1,0,0:0:0:0:
204,187,312830,1,0,0:0:0:0:
213,197,313304,5,0,0:0:0:0:
213,197,313383,1,0,0:0:0:0:
213,197,313462,1,0,0:0:0:0:
213,197,313777,1,0,0:0:0:0:
54,173,313935,1,0,0:0:0:0:
151,56,314093,2,0,B|227:57|285:113,1,150.000005722046
288,116,314725,5,0,0:0:0:0:
288,116,315041,1,0,0:0:0:0:
432,200,315199,1,0,0:0:0:0:
280,296,315356,2,0,P|190:290|181:211,1,150.000005722046
224,68,315988,1,0,0:0:0:0:
224,68,316304,1,0,0:0:0:0:
402,141,316462,1,0,0:0:0:0:
260,253,316620,1,0,0:0:0:0:
260,253,316935,5,0,0:0:0:0:
241,74,317093,1,0,0:0:0:0:
400,144,317251,1,0,0:0:0:0:
412,178,317330,1,0,0:0:0:0:
415,215,317409,1,0,0:0:0:0:
406,252,317488,1,0,0:0:0:0:
391,285,317567,6,0,L|360:310,3,37.5000016540288
332,329,317883,5,0,0:0:0:0:
295,337,317962,1,0,0:0:0:0:
258,336,318041,1,0,0:0:0:0:
224,323,318120,1,0,0:0:0:0:
188,304,318199,5,0,0:0:0:0:
161,278,318277,1,0,0:0:0:0:
138,248,318356,1,0,0:0:0:0:
117,216,318435,1,0,0:0:0:0:
108,179,318514,1,0,0:0:0:0:
108,179,318830,5,0,0:0:0:0:
333,68,318988,1,0,0:0:0:0:
345,323,319146,1,0,0:0:0:0:
345,323,319462,1,0,0:0:0:0:
345,323,319777,5,0,0:0:0:0:
345,323,320093,1,0,0:0:0:0:
318,137,320251,1,0,0:0:0:0:
180,259,320409,1,0,0:0:0:0:
180,259,320725,1,0,0:0:0:0:
180,259,321041,5,0,0:0:0:0:
180,259,321356,1,0,0:0:0:0:
314,163,321514,1,0,0:0:0:0:
177,102,321672,1,0,0:0:0:0:
177,102,321988,1,0,0:0:0:0:
177,102,322304,1,0,0:0:0:0:
180,139,322383,1,0,0:0:0:0:
191,174,322462,1,0,0:0:0:0:
210,206,322541,1,0,0:0:0:0:
236,233,322620,5,0,0:0:0:0:
268,253,322699,1,0,0:0:0:0:
303,266,322777,1,0,0:0:0:0:
340,270,322856,1,0,0:0:0:0:
378,265,322935,1,0,0:0:0:0:
385,276,323409,5,0,0:0:0:0:
385,276,323488,1,0,0:0:0:0:
385,276,323567,1,0,0:0:0:0:
416,117,323883,2,0,P|390:53|308:95,1,150.000005722046
260,187,324514,1,0,0:0:0:0:
260,187,324830,5,0,0:0:0:0:
274,321,324988,1,0,0:0:0:0:
406,349,325146,1,0,0:0:0:0:
473,232,325304,1,0,0:0:0:0:
381,132,325462,2,0,P|286:161|201:116,1,150.000006616115
120,56,326093,5,0,0:0:0:0:
120,56,326409,1,0,0:0:0:0:
100,224,326567,1,0,0:0:0:0:
268,168,326725,1,0,0:0:0:0:
268,168,327041,1,0,0:0:0:0:
364,39,327199,1,0,0:0:0:0:
413,137,327356,5,0,0:0:0:0:
380,154,327435,1,0,0:0:0:0:
361,186,327514,1,0,0:0:0:0:
362,223,327593,1,0,0:0:0:0:
375,258,327672,5,0,0:0:0:0:
353,287,327751,1,0,0:0:0:0:
319,302,327830,1,0,0:0:0:0:
282,298,327909,1,0,0:0:0:0:
247,281,327988,5,0,0:3:0:0:
224,229,328067,1,0,0:3:0:0:
180,193,328146,1,0,0:3:0:0:
125,177,328225,1,0,0:3:0:0:
72,170,328304,5,0,0:0:0:0:
92,97,328383,1,0,0:0:0:0:
145,45,328462,1,0,0:0:0:0:
218,31,328541,1,0,0:0:0:0:
300,49,328620,5,0,0:0:0:0:
300,49,328935,5,0,0:0:0:0:
494,171,329093,1,0,0:0:0:0:
300,286,329251,1,0,0:0:0:0:
300,286,329567,1,0,0:0:0:0:
300,286,329883,2,0,P|240:292|176:232,1,150.000006616115
56,64,330356,1,0,0:0:0:0:
260,41,330514,1,0,0:0:0:0:
260,41,330830,2,0,B|304:45|367:68|365:160,1,150.000006616115
281,327,331462,5,0,0:0:0:0:
165,296,331620,1,0,0:0:0:0:
117,186,331777,1,0,0:0:0:0:
174,80,331935,1,0,0:0:0:0:
292,58,332093,1,0,0:0:0:0:
382,137,332251,1,0,0:0:0:0:
378,256,332409,1,0,0:0:0:0:
378,256,333041,5,0,0:0:0:0:
380,258,333672,5,0,0:0:0:0:
384,260,333988,1,0,0:0:0:0:
156,240,334146,1,0,0:0:0:0:
283,89,334304,1,0,0:0:0:0:
283,89,334620,1,0,0:0:0:0:
283,89,334935,5,0,0:0:0:0:
284,87,335251,1,0,0:0:0:0:
99,108,335409,1,0,0:0:0:0:
213,268,335567,2,0,P|307:296|303:104,1,300.00001323223
175,86,336514,5,0,0:0:0:0:
166,315,336672,1,0,0:0:0:0:
381,217,336830,1,0,0:0:0:0:
380,217,337146,5,0,0:0:0:0:
225,60,337304,1,0,0:0:0:0:
172,262,337462,1,0,0:0:0:0:
197,288,337541,1,0,0:0:0:0:
232,303,337620,1,0,0:0:0:0:
269,303,337699,1,0,0:0:0:0:
303,289,337777,5,0,0:0:0:0:
302,251,337856,1,0,0:0:0:0:
316,217,337935,1,0,0:0:0:0:
342,190,338014,1,0,0:0:0:0:
378,181,338093,6,0,L|441:185,3,37.5000014305115
339,173,338409,5,0,0:0:0:0:
287,124,338488,5,0,0:0:0:0:
313,59,338567,5,0,0:0:0:0:
384,59,338646,5,0,0:0:0:0:
409,125,338725,5,0,0:0:0:0:
409,125,339041,5,0,0:0:0:0:
283,170,339199,1,0,0:0:0:0:
308,52,339356,1,0,0:0:0:0:
308,52,339672,1,0,0:0:0:0:
309,55,339988,2,0,L|228:124,1,75.0000033080576
383,123,340304,2,0,L|435:186,1,75.0000033080576
316,189,340620,2,0,L|258:249,1,75.0000033080576
386,256,340935,2,0,L|451:316,1,75.0000033080576
336,326,341251,5,0,0:0:0:0:
336,326,341567,1,0,0:0:0:0:
86,269,341725,1,0,0:0:0:0:
252,98,341883,1,0,0:0:0:0:
113,263,342041,1,0,0:0:0:0:
327,299,342199,1,0,0:0:0:0:
428,151,342356,1,0,0:0:0:0:
281,230,342514,2,0,P|196:226|194:99,1,225.000008583069
184,107,343146,1,0,0:0:0:0:
201,126,343620,5,0,0:0:0:0:
201,126,343699,1,0,0:0:0:0:
201,126,343777,1,0,0:0:0:0:
201,126,344093,1,0,0:0:0:0:
81,318,344251,1,0,0:0:0:0:
323,325,344409,1,0,0:0:0:0:
326,329,344725,2,0,P|392:290|380:200,1,150.000006616115
395,222,345356,5,0,0:0:0:0:
279,51,345514,1,0,0:0:0:0:
169,241,345672,1,0,0:0:0:0:
263,89,345830,1,0,0:0:0:0:
370,234,345988,1,0,0:0:0:0:
338,146,346146,5,0,0:0:0:0:
338,146,346225,1,0,0:0:0:0:
338,146,346304,1,0,0:0:0:0:
256,280,346620,1,0,0:0:0:0:
180,148,346777,1,0,0:0:0:0:
180,148,346856,1,0,0:0:0:0:
180,148,346935,1,0,0:0:0:0:
256,280,347251,1,0,0:0:0:0:
254,38,347409,1,0,0:0:0:0:
132,103,347567,5,0,0:0:0:0:
101,124,347646,1,0,0:0:0:0:
81,155,347725,1,0,0:0:0:0:
76,192,347804,1,0,0:0:0:0:
86,228,347883,5,0,0:0:0:0:
109,257,347962,1,0,0:0:0:0:
142,274,348041,1,0,0:0:0:0:
179,276,348120,1,0,0:0:0:0:
214,264,348199,5,0,0:0:0:0:
224,224,348277,1,0,0:0:0:0:
251,198,348356,1,0,0:0:0:0:
288,203,348435,1,0,0:0:0:0:
320,221,348514,5,0,0:0:0:0:
369,193,348593,1,0,0:0:0:0:
382,138,348672,1,0,0:0:0:0:
363,84,348751,1,0,0:0:0:0:
317,51,348830,6,0,P|245:37|160:81,1,150.000005722046
306,283,349304,1,0,0:0:0:0:
409,75,349462,1,0,0:0:0:0:
409,75,349777,1,0,0:0:0:0:
409,74,350093,2,0,L|326:104,1,75.0000033080576
392,168,350409,2,0,L|409:248,1,75.0000033080576
312,180,350725,2,0,L|241:224,1,75.0000033080576
333,273,351041,2,0,L|357:353,1,75.0000033080576
259,335,351356,5,0,0:0:0:0:
259,335,351672,1,0,0:0:0:0:
303,102,351830,1,0,0:0:0:0:
99,175,351988,1,0,0:0:0:0:
99,175,352304,1,0,0:0:0:0:
99,175,352620,5,0,0:0:0:0:
83,215,352699,1,0,0:0:0:0:
84,259,352777,1,0,0:0:0:0:
101,299,352856,1,0,0:0:0:0:
133,329,352935,5,0,0:0:0:0:
175,344,353014,1,0,0:0:0:0:
218,345,353093,1,0,0:0:0:0:
260,327,353172,1,0,0:0:0:0:
293,291,353251,2,0,P|323:237|303:113,1,187.500007152558
268,73,353725,5,0,0:0:0:0:
268,73,353804,1,0,0:0:0:0:
268,73,353883,1,0,0:0:0:0:
113,142,354199,2,0,P|131:202|210:270,1,150.000006616115
200,268,354830,1,0,0:0:0:0:
200,268,355146,5,0,0:0:0:0:
200,268,355462,1,0,0:0:0:0:
248,80,355620,1,0,0:0:0:0:
68,136,355777,1,0,0:0:0:0:
65,173,355856,1,0,0:0:0:0:
74,209,355935,1,0,0:0:0:0:
95,240,356014,1,0,0:0:0:0:
124,263,356093,5,0,0:0:0:0:
159,276,356172,1,0,0:0:0:0:
196,278,356251,1,0,0:0:0:0:
232,267,356330,1,0,0:0:0:0:
263,245,356409,5,0,0:0:0:0:
172,64,356725,5,0,0:0:0:0:
161,295,356883,1,0,0:0:0:0:
369,192,357041,1,0,0:0:0:0:
369,192,357356,1,0,0:0:0:0:
280,44,357514,1,0,0:0:0:0:
104,116,357672,1,0,0:0:0:0:
105,152,357751,1,0,0:0:0:0:
125,183,357830,1,0,0:0:0:0:
157,200,357909,1,0,0:0:0:0:
194,205,357988,5,0,0:0:0:0:
231,210,358067,1,0,0:0:0:0:
262,230,358146,1,0,0:0:0:0:
280,263,358225,1,0,0:0:0:0:
287,299,358304,5,0,0:0:0:0:
303,265,358383,1,0,0:0:0:0:
327,236,358462,1,0,0:0:0:0:
363,221,358541,1,0,0:0:0:0:
400,219,358620,5,0,0:0:0:0:
387,158,358699,1,0,0:0:0:0:
353,107,358777,1,0,0:0:0:0:
300,79,358856,1,0,0:0:0:0:
237,71,358935,1,0,0:0:0:0:
237,71,359251,5,0,0:0:0:0:
294,285,359409,1,0,0:0:0:0:
86,239,359567,1,0,0:0:0:0:
86,239,359883,1,0,0:0:0:0:
86,239,360199,2,0,P|80:288|168:299,1,150.000005722046
262,248,360672,1,0,0:0:0:0:
289,137,360830,2,0,P|268:79|196:99,1,150.000005722046
196,98,361462,5,0,0:0:0:0:
196,98,361777,1,0,0:0:0:0:
203,286,361935,1,0,0:0:0:0:
376,208,362093,1,0,0:0:0:0:
376,208,362409,1,0,0:0:0:0:
376,208,362725,1,0,0:0:0:0:
370,171,362804,1,0,0:0:0:0:
356,136,362883,1,0,0:0:0:0:
335,105,362962,1,0,0:0:0:0:
307,80,363041,5,0,0:0:0:0:
275,61,363120,1,0,0:0:0:0:
239,50,363199,1,0,0:0:0:0:
202,48,363277,1,0,0:0:0:0:
165,54,363356,6,0,L|130:74,3,37.5000014305115
165,90,363672,5,0,0:0:0:0:
195,110,363751,1,0,0:0:0:0:
214,142,363830,1,0,0:0:0:0:
222,178,363909,1,0,0:0:0:0:
215,219,363988,5,0,0:0:0:0:
215,219,364304,5,0,0:0:0:0:
396,289,364462,1,0,0:0:0:0:
372,100,364620,1,0,0:0:0:0:
372,100,364935,1,0,0:0:0:0:
372,96,365251,5,0,0:0:0:0:
140,84,365409,1,0,0:0:0:0:
248,280,365567,1,0,0:0:0:0:
185,75,365725,1,0,0:0:0:0:
398,117,365883,2,0,P|442:157|414:237,1,150.000006616115
272,176,366514,5,0,0:0:0:0:
272,176,366830,1,0,0:0:0:0:
136,160,366988,1,0,0:0:0:0:
224,56,367146,1,0,0:0:0:0:
224,56,367462,1,0,0:0:0:0:
408,60,367620,1,0,0:0:0:0:
304,208,367777,1,0,0:0:0:0:
283,239,367856,1,0,0:0:0:0:
258,267,367935,1,0,0:0:0:0:
227,287,368014,1,0,0:0:0:0:
190,290,368093,5,0,0:0:0:0:
157,273,368172,1,0,0:0:0:0:
130,247,368251,1,0,0:0:0:0:
108,217,368330,1,0,0:0:0:0:
96,184,368409,6,0,L|88:144,3,37.5000016540288
129,181,368725,1,0,0:0:0:0:
191,190,368804,1,0,0:0:0:0:
237,146,368883,1,0,0:0:0:0:
230,83,368962,1,0,0:0:0:0:
176,50,369041,1,0,0:0:0:0:
176,50,369356,5,0,0:0:0:0:
88,147,369514,1,0,0:0:0:0:
224,178,369672,1,0,0:0:0:0:
224,178,369988,1,0,0:0:0:0:
224,178,370304,1,0,0:0:0:0:
386,320,370462,1,0,0:0:0:0:
429,118,370620,1,0,0:0:0:0:
326,301,370777,1,0,0:0:0:0:
210,131,370935,2,0,B|172:62|172:62|254:78,1,150.000005722046
241,75,371567,5,0,0:0:0:0:
241,75,371883,1,0,0:0:0:0:
322,261,372041,1,0,0:0:0:0:
452,109,372199,2,0,P|461:48|390:61,2,150.000006616115
452,109,373462,1,0,0:0:0:0:
256,104,374093,5,0,0:0:0:0:
256,104,374409,1,0,0:0:0:0:
120,280,374567,1,0,0:0:0:0:
368,300,374725,1,0,0:0:0:0:
368,300,375041,1,0,0:0:0:0:
368,300,375356,5,0,0:0:0:0:
368,120,375514,1,0,0:0:0:0:
208,200,375672,1,0,0:0:0:0:
360,92,375830,1,0,0:0:0:0:
388,280,375988,2,0,P|380:337|328:272,1,150.000006616115,0|0,0:0|3:0,0:0:0:0:
313,310,376620,5,0,0:0:0:0:
313,310,376935,1,0,0:0:0:0:
145,176,377093,1,0,0:0:0:0:
340,100,377251,1,0,0:0:0:0:
340,100,377567,1,0,0:0:0:0:
472,112,377725,1,0,0:0:0:0:
408,224,377883,1,0,0:0:0:0:
395,259,377962,1,0,0:0:0:0:
374,289,378041,1,0,0:0:0:0:
344,312,378120,1,0,0:0:0:0:
310,326,378199,5,0,0:0:0:0:
272,330,378277,1,0,0:0:0:0:
236,322,378356,1,0,0:0:0:0:
203,305,378435,1,0,0:0:0:0:
176,284,378514,6,0,L|152:248,3,37.5000016540288
105,234,378830,5,0,0:0:0:0:
68,181,378909,1,0,0:0:0:0:
76,117,378988,1,0,0:0:0:0:
126,77,379067,1,0,0:0:0:0:
193,75,379146,1,0,0:0:0:0:
193,75,379462,5,0,0:0:0:0:
291,231,379620,1,0,0:0:0:0:
379,87,379777,1,0,0:0:0:0:
379,87,380093,1,0,0:0:0:0:
379,87,380409,5,0,0:0:0:0:
308,258,380567,1,0,0:0:0:0:
197,104,380725,1,0,0:0:0:0:
339,269,380883,1,0,0:0:0:0:
397,69,381041,2,0,P|399:41|343:80,1,150.000005722046
168,64,381672,5,0,0:0:0:0:
168,64,381988,1,0,0:0:0:0:
128,264,382146,1,0,0:0:0:0:
324,192,382304,1,0,0:0:0:0:
116,284,382462,1,0,0:0:0:0:
128,68,382620,1,0,0:0:0:0:
128,72,382935,2,0,P|52:72|129:108,1,225.000008583069
124,80,383567,1,0,0:0:0:0:
256,192,384041,5,0,0:0:0:0:
256,192,384120,1,0,0:0:0:0:
256,192,384199,1,0,0:0:0:0:
256,192,384830,6,0,P|245:252|267:282,1,100
305,232,385304,1,0,0:0:0:0:
255,164,385935,5,0,0:0:0:0:
255,164,386014,1,0,0:0:0:0:
255,164,386093,1,0,0:0:0:0:
255,107,386725,1,0,0:0:0:0:
340,238,387356,2,0,P|383:219|419:174,1,100.000000596046
326,130,387830,1,0,0:0:0:0:
326,130,388304,5,0,0:0:0:0:
200,245,388462,1,0,0:0:0:0:
200,245,388777,1,0,0:0:0:0:
137,129,389251,5,0,0:0:0:0:
137,129,389567,1,0,0:0:0:0:
137,129,389883,1,0,0:0:0:0:
210,211,390041,1,0,0:0:0:0:
210,211,390356,1,0,0:0:0:0:
210,211,390672,1,0,0:0:0:0:
321,211,390830,1,0,0:0:0:0:
302,116,391146,6,0,P|218:91|251:155,1,200,0|0,0:0|0:0,3:0:0:0:
362,233,392409,1,0,0:0:0:0:
150,233,393041,1,0,0:0:0:0:
254,101,393672,1,0,0:0:0:0:
254,101,394146,5,0,0:0:0:0:
254,101,394225,1,0,0:0:0:0:
254,101,394304,1,0,0:0:0:0:
254,101,394620,1,0,0:0:0:0:
254,101,394935,2,0,P|317:133|266:247,1,200
260,254,395883,1,0,0:0:0:0:
260,254,396199,1,0,0:0:0:0:
260,254,396514,1,0,0:0:0:0:
260,254,396830,2,0,P|192:227|196:109,2,200
256,169,398725,5,0,0:0:0:0:
256,169,399199,5,0,0:0:0:0:
256,169,399277,1,0,0:0:0:0:
256,169,399356,1,0,0:0:0:0:
257,257,399988,1,0,0:0:0:0:
260,323,400620,6,0,B|159:200|159:200|95:106|238:64|260:137|260:137|291:62|426:103|364:199|364:199|277:308|277:308,1,700
260,323,403146,1,0,0:0:0:0:
260,322,403777,1,0,0:0:0:0:
168,129,404409,5,0,0:0:0:0:
168,129,404725,1,0,0:0:0:0:
340,237,404883,1,0,0:0:0:0:
339,238,405199,1,0,0:0:0:0:
326,128,406146,5,0,0:0:0:0:
316,104,406225,1,0,0:0:0:0:
296,88,406304,1,0,0:0:0:0:
166,75,406462,1,0,0:0:0:0:
228,192,406620,1,0,0:0:0:0:
231,190,406935,5,0,0:0:0:0:
231,190,407409,2,0,P|259:238|354:238,1,150
346,243,408199,1,0,0:0:0:0:
350,246,408830,5,0,0:0:0:0:
350,246,409462,6,0,P|368:196|339:155,1,100
181,51,410251,1,0,0:0:0:0:
135,170,410725,2,0,P|140:225|263:259,2,200
135,170,412304,5,0,0:0:0:0:
232,77,412777,1,0,0:0:0:0:
254,215,413251,2,0,B|292:291|408:244|393:172,1,200
357,51,414199,1,0,0:0:0:0:
272,140,414514,1,0,0:0:0:0:
255,160,416409,5,0,0:0:0:0:
255,160,417041,5,0,0:0:0:0:
255,128,417356,1,0,0:0:0:0:
255,98,417672,2,0,P|316:127|254:209,1,200
261,215,418620,1,0,0:0:0:0:
261,215,418935,2,0,P|200:244|262:326,1,200
256,108,422093,6,0,B|155:231|155:231|91:325|234:367|256:294|256:294|287:369|422:328|360:232|360:232|273:124|273:124,1,700
256,108,424620,5,0,0:0:0:0:
256,108,424935,1,0,0:0:0:0:
430,221,425093,1,0,0:0:0:0:
252,328,425251,1,0,0:0:0:0:
252,328,425567,1,0,0:0:0:0:
252,328,425883,2,0,P|216:268|300:248,1,150.000006616115
432,240,426356,1,0,0:0:0:0:
432,240,426514,2,0,B|480:192|444:128|384:144,1,150.000006616115
312,312,427146,5,0,0:0:0:0:
83,175,427304,1,0,0:0:0:0:
349,152,427462,1,0,0:0:0:0:
147,327,427620,1,0,0:0:0:0:
207,67,427777,1,0,0:0:0:0:
207,67,428093,5,0,0:0:0:0:
477,176,428251,1,0,0:0:0:0:
254,329,428409,1,0,0:0:0:0:
218,337,428488,1,0,0:0:0:0:
183,325,428567,1,0,0:0:0:0:
162,294,428646,1,0,0:0:0:0:
158,257,428725,5,0,0:0:0:0:
172,223,428804,1,0,0:0:0:0:
204,204,428883,1,0,0:0:0:0:
241,200,428962,1,0,0:0:0:0:
282,202,429041,6,0,L|328:208,3,37.5000014305115
361,214,429356,5,0,0:0:0:0:
403,209,429435,1,0,0:0:0:0:
437,195,429514,1,0,0:0:0:0:
449,160,429593,1,0,0:0:0:0:
451,124,429672,5,0,0:0:0:0:
296,80,429988,6,0,P|252:73|248:100,1,75.0000033080576
272,312,430304,1,0,0:0:0:0:
272,312,430620,1,0,0:0:0:0:
272,312,430935,6,0,P|224:328|180:316,1,75.0000033080576
44,308,431251,1,0,0:0:0:0:
56,139,431409,1,0,0:0:0:0:
240,160,431567,1,0,0:0:0:0:
240,160,431883,1,0,0:0:0:0:
240,160,432199,5,0,0:0:0:0:
240,160,432514,1,0,0:0:0:0:
392,284,432672,1,0,0:0:0:0:
424,96,432830,1,0,0:0:0:0:
424,96,433146,1,0,0:0:0:0:
424,96,433462,1,0,0:0:0:0:
440,129,433541,1,0,0:0:0:0:
437,166,433620,1,0,0:0:0:0:
415,196,433699,1,0,0:0:0:0:
381,211,433777,5,0,0:0:0:0:
345,207,433856,1,0,0:0:0:0:
315,185,433935,1,0,0:0:0:0:
301,151,434014,1,0,0:0:0:0:
306,114,434093,5,0,0:0:0:0:
109,166,434725,5,0,0:0:0:0:
109,166,435041,1,0,0:0:0:0:
312,329,435199,1,0,0:0:0:0:
384,71,435356,1,0,0:0:0:0:
384,71,435672,1,0,0:0:0:0:
404,220,435988,2,0,P|376:284|311:228,1,150.000006616115
254,139,436462,1,0,0:0:0:0:
199,262,436620,2,0,B|151:310|87:275|102:215,1,150.000006616115
101,219,437251,5,0,0:0:0:0:
211,81,437409,1,0,0:0:0:0:
305,238,437567,1,0,0:0:0:0:
181,86,437725,1,0,0:0:0:0:
109,259,437883,1,0,0:0:0:0:
109,259,438199,5,0,0:0:0:0:
128,47,438356,1,0,0:0:0:0:
65,148,438514,1,0,0:0:0:0:
64,185,438593,1,0,0:0:0:0:
77,220,438672,1,0,0:0:0:0:
102,247,438751,1,0,0:0:0:0:
136,263,438830,5,0,0:0:0:0:
173,265,438909,1,0,0:0:0:0:
208,253,438988,1,0,0:0:0:0:
236,229,439067,1,0,0:0:0:0:
257,198,439146,6,0,L|284:163,3,37.5000016540288
303,129,439462,5,0,0:0:0:0:
368,99,439541,5,0,0:0:0:0:
431,135,439620,5,0,0:0:0:0:
437,207,439699,5,0,0:0:0:0:
382,253,439777,5,0,0:0:0:0:
382,253,440093,6,0,P|335:275|326:234,1,75.0000033080576
272,72,440409,1,0,0:0:0:0:
272,72,440725,1,0,0:0:0:0:
272,72,441041,6,0,P|224:56|180:68,1,75.0000033080576
48,78,441356,1,0,0:0:0:0:
63,239,441514,1,0,0:0:0:0:
244,230,441672,1,0,0:0:0:0:
244,230,441988,1,0,0:0:0:0:
244,230,442304,5,0,0:0:0:0:
244,230,442620,1,0,0:0:0:0:
392,100,442777,1,0,0:0:0:0:
424,288,442935,1,0,0:0:0:0:
424,288,443251,1,0,0:0:0:0:
424,288,443567,5,0,0:0:0:0:
440,254,443646,1,0,0:0:0:0:
437,217,443725,1,0,0:0:0:0:
415,187,443804,1,0,0:0:0:0:
381,172,443883,5,0,0:0:0:0:
345,176,443962,1,0,0:0:0:0:
315,198,444041,1,0,0:0:0:0:
301,232,444120,1,0,0:0:0:0:
306,269,444199,5,0,0:0:0:0:
145,113,444672,5,0,0:0:0:0:
145,113,444751,1,0,0:0:0:0:
145,113,444830,1,0,0:0:0:0:
145,113,445146,1,0,0:0:0:0:
300,273,445304,1,0,0:0:0:0:
362,71,445462,1,0,0:0:0:0:
362,71,445777,1,0,0:0:0:0:
365,75,446093,2,0,L|301:126,1,75.0000028610231
400,141,446409,2,0,L|442:229,1,75.0000028610231
315,192,446725,2,0,L|245:250,1,75.0000028610231
257,239,447356,5,0,0:0:0:0:
257,239,447672,1,0,0:0:0:0:
86,135,447830,1,0,0:0:0:0:
239,51,447988,1,0,0:0:0:0:
239,51,448304,1,0,0:0:0:0:
437,72,448462,1,0,0:0:0:0:
312,230,448620,1,0,0:0:0:0:
287,257,448699,1,0,0:0:0:0:
254,276,448777,1,0,0:0:0:0:
217,282,448856,1,0,0:0:0:0:
181,276,448935,5,0,0:0:0:0:
148,258,449014,1,0,0:0:0:0:
123,231,449093,1,0,0:0:0:0:
108,196,449172,1,0,0:0:0:0:
104,161,449251,6,0,L|103:124,3,37.5000014305115
115,67,449567,5,0,0:0:0:0:
164,33,449646,1,0,0:0:0:0:
223,43,449725,1,0,0:0:0:0:
256,92,449804,1,0,0:0:0:0:
245,151,449883,5,0,0:0:0:0:
245,151,450199,1,0,0:0:0:0:
99,87,450356,1,0,0:0:0:0:
114,243,450514,1,0,0:0:0:0:
114,243,450830,1,0,0:0:0:0:
114,243,451146,2,0,P|229:271|248:233,3,150.000005722046
234,265,452409,5,0,0:0:0:0:
234,265,452725,1,0,0:0:0:0:
306,84,452883,1,0,0:0:0:0:
119,102,453041,1,0,0:0:0:0:
314,68,453199,1,0,0:0:0:0:
258,247,453356,1,0,0:0:0:0:
258,247,453672,5,0,0:0:0:0:
231,273,453751,1,0,0:0:0:0:
198,291,453830,1,0,0:0:0:0:
162,297,453909,1,0,0:0:0:0:
125,291,453988,5,0,0:0:0:0:
91,275,454067,1,0,0:0:0:0:
65,249,454146,1,0,0:0:0:0:
48,215,454225,1,0,0:0:0:0:
42,179,454304,5,0,0:0:0:0:
47,142,454383,1,0,0:0:0:0:
64,108,454462,1,0,0:0:0:0:
91,82,454541,1,0,0:0:0:0:
124,65,454620,5,0,0:0:0:0:
161,59,454699,1,0,0:0:0:0:
198,65,454777,1,0,0:0:0:0:
231,83,454856,1,0,0:0:0:0:
257,109,454935,5,0,0:0:0:0:
257,109,455251,5,0,0:0:0:0:
312,301,455409,1,0,0:0:0:0:
131,260,455567,1,0,0:0:0:0:
131,260,455883,1,0,0:0:0:0:
130,263,456199,2,0,L|86:195,1,75.0000028610231
179,180,456514,2,0,L|226:110,1,75.0000028610231
103,89,456830,1,0,0:0:0:0:
103,89,457462,5,0,0:0:0:0:
103,89,457777,1,0,0:0:0:0:
197,262,457935,1,0,0:0:0:0:
302,89,458093,1,0,0:0:0:0:
302,89,458409,1,0,0:0:0:0:
120,53,458567,1,0,0:0:0:0:
167,230,458725,1,0,0:0:0:0:
183,261,458804,1,0,0:0:0:0:
215,281,458883,1,0,0:0:0:0:
251,282,458962,1,0,0:0:0:0:
286,270,459041,5,0,0:0:0:0:
322,258,459120,1,0,0:0:0:0:
358,263,459199,1,0,0:0:0:0:
389,284,459277,1,0,0:0:0:0:
406,317,459356,5,0,0:0:0:0:
395,287,459435,1,0,0:0:0:0:
385,251,459514,1,0,0:0:0:0:
387,213,459593,1,0,0:0:0:0:
403,180,459672,5,0,0:0:0:0:
430,154,459751,1,0,0:0:0:0:
445,120,459830,1,0,0:0:0:0:
443,84,459909,1,0,0:0:0:0:
427,49,459988,5,0,0:0:0:0:
426,49,460304,1,0,0:0:0:0:
177,87,460462,1,0,0:0:0:0:
328,268,460620,1,0,0:0:0:0:
328,268,460935,1,0,0:0:0:0:
260,284,461251,2,0,L|167:250,1,75.0000028610231
261,199,461567,2,0,L|234:121,1,75.0000028610231
173,194,461883,2,0,L|81:167,1,75.0000028610231
155,111,462199,1,0,0:0:0:0:
155,111,462514,5,0,0:0:0:0:
155,111,462830,1,0,0:0:0:0:
338,91,462988,1,0,0:0:0:0:
270,254,463146,1,0,0:0:0:0:
363,54,463304,1,0,0:0:0:0:
132,76,463462,1,0,0:0:0:0:
136,80,463777,5,0,0:0:0:0:
136,127,463856,1,0,0:0:0:0:
137,173,463935,1,0,0:0:0:0:
137,220,464014,1,0,0:0:0:0:
138,267,464093,5,0,0:0:0:0:
153,311,464172,1,0,0:0:0:0:
192,336,464251,1,0,0:0:0:0:
237,329,464330,1,0,0:0:0:0:
271,297,464409,5,0,0:0:0:0:
277,252,464488,1,0,0:0:0:0:
312,253,464567,1,0,0:0:0:0:
354,236,464646,1,0,0:0:0:0:
381,198,464725,5,0,0:0:0:0:
376,152,464804,1,0,0:0:0:0:
342,121,464883,1,0,0:0:0:0:
298,108,464962,1,0,0:0:0:0:
252,99,465041,5,0,0:0:0:0:
252,99,465356,1,0,0:0:0:0:
72,174,465514,1,0,0:0:0:0:
239,300,465672,1,0,0:0:0:0:
239,300,465988,1,0,0:0:0:0:
239,300,466304,5,0,0:0:0:0:
362,152,466462,1,0,0:0:0:0:
168,122,466620,1,0,0:0:0:0:
377,133,466777,1,0,0:0:0:0:
270,299,466935,1,0,0:0:0:0:
255,137,467409,5,0,0:0:0:0:
255,137,467488,1,0,0:0:0:0:
255,137,467567,1,0,0:0:0:0:
255,133,467883,1,0,0:0:0:0:
410,228,468041,1,0,0:0:0:0:
421,62,468199,1,0,0:0:0:0:
418,64,468514,1,0,0:0:0:0:
219,51,468672,1,0,0:0:0:0:
305,223,468830,1,0,0:0:0:0:
311,258,468909,1,0,0:0:0:0:
286,285,468988,1,0,0:0:0:0:
250,295,469067,1,0,0:0:0:0:
214,288,469146,5,0,0:0:0:0:
185,265,469225,1,0,0:0:0:0:
167,232,469304,1,0,0:0:0:0:
162,196,469383,1,0,0:0:0:0:
171,160,469462,2,0,L|199:116,3,37.5000014305115
225,93,469777,5,0,0:0:0:0:
272,70,469856,1,0,0:0:0:0:
322,60,469935,1,0,0:0:0:0:
375,60,470014,1,0,0:0:0:0:
424,74,470093,5,0,0:0:0:0:
424,74,470409,1,0,0:0:0:0:
425,334,470567,1,0,0:0:0:0:
187,227,470725,1,0,0:0:0:0:
187,227,471041,1,0,0:0:0:0:
187,227,471356,2,0,L|142:163,1,75.0000028610231
240,149,471672,2,0,L|292:88,1,75.0000028610231
175,108,471988,2,0,L|131:45,1,75.0000028610231
232,43,472304,1,0,0:0:0:0:
232,43,472620,5,0,0:0:0:0:
232,43,472935,1,0,0:0:0:0:
467,103,473093,1,0,0:0:0:0:
305,260,473251,1,0,0:0:0:0:
305,260,473567,1,0,0:0:0:0:
305,260,473883,5,0,0:0:0:0:
282,289,473962,1,0,0:0:0:0:
249,306,474041,1,0,0:0:0:0:
212,307,474120,1,0,0:0:0:0:
179,291,474199,5,0,0:0:0:0:
156,262,474277,1,0,0:0:0:0:
149,225,474356,1,0,0:0:0:0:
158,189,474435,1,0,0:0:0:0:
183,161,474514,5,0,0:0:0:0:
219,197,474593,1,0,0:0:0:0:
269,206,474672,1,0,0:0:0:0:
315,185,474751,1,0,0:0:0:0:
341,141,474830,5,0,0:0:0:0:
338,91,474909,1,0,0:0:0:0:
307,51,474988,1,0,0:0:0:0:
259,35,475067,1,0,0:0:0:0:
210,50,475146,5,0,0:0:0:0:
73,196,475462,5,0,0:0:0:0:
279,230,475620,1,0,0:0:0:0:
210,50,475777,1,0,0:0:0:0:
210,50,476093,1,0,0:0:0:0:
211,50,476409,2,0,L|190:127,1,75.0000028610231
290,124,476725,2,0,L|364:188,1,75.0000028610231
254,242,477041,1,0,0:0:0:0:
254,242,477672,5,0,0:0:0:0:
254,242,477988,1,0,0:0:0:0:
413,157,478146,1,0,0:0:0:0:
268,71,478304,1,0,0:0:0:0:
270,71,478620,1,0,0:0:0:0:
88,62,478777,1,0,0:0:0:0:
167,230,478935,1,0,0:0:0:0:
183,261,479014,1,0,0:0:0:0:
215,281,479093,1,0,0:0:0:0:
251,282,479172,1,0,0:0:0:0:
286,270,479251,5,0,0:0:0:0:
322,258,479330,1,0,0:0:0:0:
358,263,479409,1,0,0:0:0:0:
389,284,479488,1,0,0:0:0:0:
406,317,479567,5,0,0:0:0:0:
395,287,479646,1,0,0:0:0:0:
385,251,479725,1,0,0:0:0:0:
387,213,479804,1,0,0:0:0:0:
403,180,479883,5,0,0:0:0:0:
430,154,479962,1,0,0:0:0:0:
445,120,480041,1,0,0:0:0:0:
443,84,480120,1,0,0:0:0:0:
427,49,480199,5,0,0:0:0:0:
427,49,480514,1,0,0:0:0:0:
178,89,480672,1,0,0:0:0:0:
347,272,480830,1,0,0:0:0:0:
347,271,481146,1,0,0:0:0:0:
347,271,481462,6,0,L|363:195,1,75.0000028610231
261,235,481777,2,0,L|206:171,1,75.0000028610231
309,157,482093,2,0,L|343:72,1,75.0000028610231
225,90,482409,1,0,0:0:0:0:
229,92,482725,5,0,0:0:0:0:
41,137,482883,1,0,0:0:0:0:
174,276,483041,1,0,0:0:0:0:
42,126,483199,1,0,0:0:0:0:
233,100,483356,1,0,0:0:0:0:
233,99,483672,1,0,0:0:0:0:
233,99,483988,5,0,0:0:0:0:
270,101,484067,1,0,0:0:0:0:
303,119,484146,1,0,0:0:0:0:
326,148,484225,1,0,0:0:0:0:
336,184,484304,5,0,0:0:0:0:
331,221,484383,1,0,0:0:0:0:
312,252,484462,1,0,0:0:0:0:
281,274,484541,1,0,0:0:0:0:
242,289,484620,5,0,0:0:0:0:
245,229,484698,1,0,0:0:0:0:
195,197,484777,1,0,0:0:0:0:
143,227,484856,1,0,0:0:0:0:
139,285,484935,5,0,0:0:0:0:
75,279,485013,5,0,0:0:0:0:
31,232,485092,5,0,0:0:0:0:
32,168,485171,5,0,0:0:0:0:
76,121,485250,5,0,0:0:0:0:
76,121,485567,1,0,0:0:0:0:
323,82,485725,1,0,0:0:0:0:
250,318,485883,1,0,0:0:0:0:
250,318,486199,1,0,0:0:0:0:
252,317,486514,1,0,0:0:0:0:
395,208,486672,1,0,0:0:0:0:
238,141,486830,1,0,0:0:0:0:
415,194,486988,1,0,0:0:0:0:
283,313,487146,2,0,P|214:287|250:225,1,150.000005722046
363,161,487620,5,0,0:0:0:0:
363,161,487699,1,0,0:0:0:0:
363,161,487777,1,0,0:0:0:0:
359,162,488093,1,0,0:0:0:0:
344,340,488251,1,0,0:0:0:0:
204,233,488409,1,0,0:0:0:0:
204,233,488725,1,0,0:0:0:0:
100,64,488883,1,0,0:0:0:0:
302,70,489041,1,0,0:0:0:0:
329,91,489120,1,0,0:0:0:0:
342,126,489199,1,0,0:0:0:0:
337,162,489277,1,0,0:0:0:0:
318,194,489356,5,0,0:0:0:0:
299,227,489435,1,0,0:0:0:0:
297,263,489514,1,0,0:0:0:0:
312,298,489593,1,0,0:0:0:0:
341,321,489672,5,0,0:0:0:0:
314,304,489751,1,0,0:0:0:0:
281,288,489830,1,0,0:0:0:0:
243,282,489909,1,0,0:0:0:0:
207,292,489988,5,0,0:0:0:0:
177,313,490067,1,0,0:0:0:0:
140,321,490146,1,0,0:0:0:0:
106,313,490225,1,0,0:0:0:0:
74,290,490304,5,0,0:0:0:0:
77,288,490620,1,0,0:0:0:0:
43,118,490777,1,0,0:0:0:0:
220,170,490935,1,0,0:0:0:0:
220,170,491251,1,0,0:0:0:0:
220,170,491567,5,0,0:0:0:0:
220,170,491883,1,0,0:0:0:0:
388,121,492041,1,0,0:0:0:0:
359,300,492199,1,0,0:0:0:0:
359,300,492514,1,0,0:0:0:0:
359,300,492830,5,0,0:0:0:0:
359,300,493146,1,0,0:0:0:0:
452,158,493304,1,0,0:0:0:0:
276,145,493462,1,0,0:0:0:0:
463,175,493620,1,0,0:0:0:0:
341,306,493777,1,0,0:0:0:0:
340,310,494093,5,0,0:0:0:0:
291,336,494172,1,0,0:0:0:0:
235,338,494251,1,0,0:0:0:0:
184,315,494330,1,0,0:0:0:0:
150,271,494409,5,0,0:0:0:0:
140,216,494488,1,0,0:0:0:0:
155,162,494567,1,0,0:0:0:0:
193,122,494646,1,0,0:0:0:0:
245,103,494725,5,0,0:0:0:0:
257,117,495199,5,0,0:0:0:0:
257,117,495277,1,0,0:0:0:0:
257,117,495356,1,0,0:0:0:0:
257,117,495672,5,0,0:0:0:0:
435,241,495830,1,0,0:0:0:0:
233,328,495988,1,0,0:0:0:0:
233,328,496304,1,0,0:0:0:0:
237,327,496620,5,0,0:0:0:0:
95,182,496777,1,0,0:0:0:0:
283,118,496935,1,0,0:0:0:0:
87,157,497093,1,0,0:0:0:0:
224,305,497251,1,0,0:0:0:0:
224,305,497567,1,0,0:0:0:0:
224,305,497883,5,0,0:0:0:0:
226,304,498199,1,0,0:0:0:0:
413,219,498356,1,0,0:0:0:0:
261,117,498514,1,0,0:0:0:0:
261,117,498830,1,0,0:0:0:0:
65,64,498988,1,0,0:0:0:0:
98,242,499146,1,0,0:0:0:0:
108,277,499225,1,0,0:0:0:0:
131,307,499304,1,0,0:0:0:0:
162,327,499383,1,0,0:0:0:0:
199,335,499462,5,0,0:0:0:0:
236,330,499541,1,0,0:0:0:0:
269,312,499620,1,0,0:0:0:0:
294,285,499699,1,0,0:0:0:0:
308,250,499777,6,0,L|319:205,3,37.5000014305115
246,247,500093,5,0,0:0:0:0:
182,237,500172,1,0,0:0:0:0:
146,184,500251,1,0,0:0:0:0:
159,122,500330,1,0,0:0:0:0:
214,89,500409,5,0,0:0:0:0:
214,89,500725,1,0,0:0:0:0:
38,172,500883,1,0,0:0:0:0:
208,281,501041,1,0,0:0:0:0:
208,281,501356,1,0,0:0:0:0:
208,281,501672,5,0,0:0:0:0:
417,291,501830,1,0,0:0:0:0:
325,122,501988,1,0,0:0:0:0:
418,338,502146,1,0,0:0:0:0:
177,322,502304,2,0,P|121:271|133:200,1,150.000005722046
219,80,502935,6,0,L|296:28,1,75.0000028610231
313,108,503251,2,0,L|391:100,1,75.0000028610231
366,180,503567,2,0,L|445:213,1,75.0000028610231
375,270,503883,1,0,0:0:0:0:
375,270,504199,5,0,0:0:0:0:
348,295,504277,1,0,0:0:0:0:
315,315,504356,1,0,0:0:0:0:
280,326,504435,1,0,0:0:0:0:
243,329,504514,5,0,0:0:0:0:
206,323,504593,1,0,0:0:0:0:
171,309,504672,1,0,0:0:0:0:
140,287,504751,1,0,0:0:0:0:
116,259,504830,5,0,0:0:0:0:
98,226,504909,1,0,0:0:0:0:
88,190,504988,1,0,0:0:0:0:
87,153,505067,1,0,0:0:0:0:
95,116,505146,5,0,0:0:0:0:
95,116,505462,5,0,0:0:0:0:
95,116,505777,1,0,0:0:0:0:
269,14,505935,1,0,0:0:0:0:
299,216,506093,1,0,0:0:0:0:
299,216,506409,1,0,0:0:0:0:
299,216,506725,1,0,0:0:0:0:
207,344,506883,1,0,0:0:0:0:
57,295,507041,1,0,0:0:0:0:
57,137,507199,1,0,0:0:0:0:
207,89,507356,2,0,P|262:76|294:176,1,150.000005722046
312,313,507988,5,0,0:0:0:0:
312,313,508304,1,0,0:0:0:0:
84,244,508462,1,0,0:0:0:0:
252,104,508620,1,0,0:0:0:0:
252,104,508935,1,0,0:0:0:0:
449,81,509093,1,0,0:0:0:0:
372,276,509251,1,0,0:0:0:0:
351,304,509330,1,0,0:0:0:0:
316,317,509409,1,0,0:0:0:0:
280,311,509488,1,0,0:0:0:0:
248,293,509567,5,0,0:0:0:0:
215,274,509646,1,0,0:0:0:0:
179,272,509725,1,0,0:0:0:0:
144,287,509804,1,0,0:0:0:0:
121,316,509883,5,0,0:0:0:0:
138,289,509962,1,0,0:0:0:0:
154,255,510041,1,0,0:0:0:0:
160,218,510120,1,0,0:0:0:0:
150,182,510199,5,0,0:0:0:0:
129,152,510277,1,0,0:0:0:0:
121,115,510356,1,0,0:0:0:0:
129,80,510435,1,0,0:0:0:0:
152,49,510514,5,0,0:0:0:0:
152,49,510830,1,0,0:0:0:0:
388,54,510988,1,0,0:0:0:0:
264,238,511146,1,0,0:0:0:0:
264,238,511462,1,0,0:0:0:0:
263,238,511777,2,0,L|157:251,1,75.0000028610231
214,166,512093,2,0,L|156:97,1,75.0000028610231
126,185,512409,2,0,L|35:196,1,75.0000028610231
75,109,512725,1,0,0:0:0:0:
75,109,513041,5,0,0:0:0:0:
75,109,513356,1,0,0:0:0:0:
317,82,513514,1,0,0:0:0:0:
235,294,513672,1,0,0:0:0:0:
235,294,513988,1,0,0:0:0:0:
235,294,514304,1,0,0:0:0:0:
197,296,514383,1,0,0:0:0:0:
161,288,514462,1,0,0:0:0:0:
128,270,514541,1,0,0:0:0:0:
102,243,514620,5,0,0:0:0:0:
85,210,514699,1,0,0:0:0:0:
78,173,514777,1,0,0:0:0:0:
81,136,514856,1,0,0:0:0:0:
96,102,514935,5,0,0:0:0:0:
119,73,515014,1,0,0:0:0:0:
150,52,515093,1,0,0:0:0:0:
186,40,515172,1,0,0:0:0:0:
223,40,515251,5,0,0:0:0:0:
259,50,515330,1,0,0:0:0:0:
290,70,515409,1,0,0:0:0:0:
315,98,515488,1,0,0:0:0:0:
331,132,515567,5,0,0:0:0:0:
330,133,515883,1,0,0:0:0:0:
381,302,516041,1,0,0:0:0:0:
207,271,516199,1,0,0:0:0:0:
207,271,516514,5,0,0:0:0:0:
207,271,516830,1,0,0:0:0:0:
103,210,516988,1,0,0:0:0:0:
128,93,517146,1,0,0:0:0:0:
247,81,517304,1,0,0:0:0:0:
296,190,517462,1,0,0:0:0:0:
296,190,518093,5,0,0:0:0:0:
294,190,518409,1,0,0:0:0:0:
294,326,518567,1,0,0:0:0:0:
171,264,518725,1,0,0:0:0:0:
171,264,519041,1,0,0:0:0:0:
163,125,519199,1,0,0:0:0:0:
292,185,519356,5,0,0:0:0:0:
310,202,519435,5,0,0:0:0:0:
332,213,519514,5,0,0:0:0:0:
357,216,519593,5,0,0:0:0:0:
381,212,519672,5,0,0:0:0:0:
403,200,519751,5,0,0:0:0:0:
421,183,519830,5,0,0:0:0:0:
432,161,519909,5,0,0:0:0:0:
436,136,519988,5,0,0:0:0:0:
432,111,520067,5,0,0:0:0:0:
421,89,520146,5,0,0:0:0:0:
404,71,520225,5,0,0:0:0:0:
382,59,520304,5,0,0:0:0:0:
358,55,520383,5,0,0:0:0:0:
333,58,520462,5,0,0:0:0:0:
311,69,520541,5,0,0:0:0:0:
292,86,520620,5,0,0:0:0:0:
292,86,520935,1,0,0:0:0:0:
119,151,521093,1,0,0:0:0:0:
272,265,521251,1,0,0:0:0:0:
272,265,521567,1,0,0:0:0:0:
272,265,521883,2,0,L|332:256,1,50
312,178,522199,2,0,L|366:133,1,50
402,229,522514,2,0,L|465:229,1,50
449,122,522830,1,0,0:0:0:0:
450,122,523146,5,0,0:0:0:0:
450,122,523462,1,0,0:0:0:0:
317,77,523620,1,0,0:0:0:0:
339,208,523777,1,0,0:0:0:0:
339,208,524093,1,0,0:0:0:0:
342,208,524409,5,0,0:0:0:0:
337,232,524488,5,0,0:0:0:0:
326,254,524567,5,0,0:0:0:0:
309,273,524646,5,0,0:0:0:0:
288,285,524725,5,0,0:0:0:0:
264,291,524804,5,0,0:0:0:0:
239,290,524883,5,0,0:0:0:0:
215,282,524962,5,0,0:0:0:0:
195,267,525041,5,0,0:0:0:0:
180,247,525120,5,0,0:0:0:0:
171,224,525199,5,0,0:0:0:0:
169,199,525277,5,0,0:0:0:0:
175,175,525356,5,0,0:0:0:0:
187,153,525435,5,0,0:0:0:0:
205,136,525514,5,0,0:0:0:0:
227,124,525593,5,0,0:0:0:0:
251,120,525672,5,0,0:0:0:0:
251,120,525988,5,0,0:0:0:0:
370,109,526146,1,0,0:0:0:0:
328,217,526304,1,0,0:0:0:0:
328,217,526620,1,0,0:0:0:0:
328,217,526935,1,0,0:0:0:0:
285,308,527093,1,0,0:0:0:0:
193,265,527251,1,0,0:0:0:0:
236,174,527409,1,0,0:0:0:0:
328,217,527567,1,0,0:0:0:0:
335,224,528199,5,0,0:0:0:0:
335,224,528514,2,0,L|306:252,2,37.5000014305115
341,230,529146,1,0,0:0:0:0:
341,230,529462,2,0,P|391:184|260:172,1,300.000011444092
272,174,531041,5,0,0:0:0:0:
272,174,531356,1,0,0:0:0:0:
272,174,531672,1,0,0:0:0:0:
272,174,531988,2,0,P|200:182|290:294,1,300.000011444092
350,273,533567,1,0,0:0:0:0:
393,212,533883,1,0,0:0:0:0:
400,137,534199,1,0,0:0:0:0:
368,69,534514,1,0,0:0:0:0:
368,71,535146,5,0,0:0:0:0:
256,192,535777,12,0,539567,3:0:0:0:
