osu file format v14

[General]
AudioFilename: audio.mp3
AudioLeadIn: 0
PreviewTime: 348614
Countdown: 0
SampleSet: Soft
StackLeniency: 0.7
Mode: 2
LetterboxInBreaks: 0
WidescreenStoryboard: 0

[Editor]
Bookmarks: 61562,77351,697756,781756
DistanceSpacing: 1.5
BeatDivisor: 4
GridSize: 16
TimelineZoom: 1.9

[Metadata]
Title:The Devourer of Gods (Nonstop Mix)
TitleUnicode:The Devourer of Gods (Nonstop Mix)
Artist:DM DOKURO
ArtistUnicode:DM DOKURO
Creator:Bunnrei
Version:Universal Scourge
Source:Terraria Calamity Mod
Tags:video game electronic instrumental theme sentinels scourge servants of the universe universal collapse storm weaver ceaseless void signus envoy of the dog mountaindrew re-logic cave story arranged last battle ballos mix boss -keitaro error- chara ster osu_gangster -plus- marathon medley compilation
BeatmapID:3908877
BeatmapSetID:1896680

[Difficulty]
HPDrainRate:4
CircleSize:4.6
OverallDifficulty:9.7
ApproachRate:9.7
SliderMultiplier:2
SliderTickRate:2

[Events]
//Background and Video events
0,0,"Dogger.png",0,0
//Break Periods
2,167472,171277
2,172525,175856
2,223052,226383
2,270499,286698
2,424604,439067
2,586288,587330
2,639340,656825
//Storyboard Layer 0 (Background)
//Storyboard Layer 1 (Fail)
//Storyboard Layer 2 (Pass)
//Storyboard Layer 3 (Foreground)
//Storyboard Layer 4 (Overlay)
//Storyboard Sound Samples

[TimingPoints]
45457,315.789473684211,4,2,1,60,1,0
65351,-31.25,4,2,1,60,0,0
65587,-31.25,4,2,1,5,0,0
65667,-78.125,4,2,1,75,0,0
68429,-78.125,4,2,1,5,0,0
68508,-78.125,4,2,1,75,0,0
73482,-78.125,4,2,1,5,0,0
73561,-78.125,4,2,1,75,0,0
75693,-78.125,4,2,1,5,0,0
75772,-78.125,4,2,1,75,0,0
76008,-78.125,4,2,1,5,0,0
76088,-78.125,4,2,1,75,0,0
78535,-78.125,4,2,1,5,0,0
78614,-78.125,4,2,1,75,0,0
83587,-78.125,4,2,1,5,0,0
83666,-78.125,4,2,1,75,0,0
85798,-78.125,4,2,1,5,0,0
85878,-86.2068965517241,4,2,1,75,0,0
106008,-86.2068965517241,4,2,1,5,0,0
106088,-86.2068965517241,4,2,1,75,0,0
126219,-86.2068965517241,4,2,1,5,0,0
126299,-86.2068965517241,4,2,1,60,0,0
146509,-86.2068965517241,4,2,1,65,0,0
166720,-86.2068965517241,4,2,1,60,0,0
176509,-28.735632183908,4,2,1,60,0,0
177141,-28.735632183908,4,2,1,65,0,0
177299,-86.2068965517241,4,2,1,65,0,0
181798,-86.2068965517241,4,2,1,5,0,0
181878,-86.2068965517241,4,2,1,65,0,0
186930,-86.2068965517241,4,2,1,70,0,0
195299,-34.4827586206897,4,2,1,70,0,0
195456,-34.4827586206897,4,2,1,5,0,0
196720,-34.4827586206897,4,2,1,75,0,0
196956,-34.4827586206897,4,2,1,5,0,0
197035,-78.125,4,2,1,75,0,1
215983,-78.125,4,2,1,75,0,1
217246,-86.2068965517241,4,2,1,60,0,0
226878,-86.2068965517241,4,2,1,75,0,0
227271,-86.2068965517241,4,2,1,5,0,0
227351,-86.2068965517241,4,2,1,75,0,0
236193,-86.2068965517241,4,2,1,70,0,0
237457,-78.125,4,2,1,85,0,0
268403,-78.125,4,2,1,70,0,0
269035,-78.125,4,2,1,60,0,0
269666,-78.125,4,2,1,50,0,0
270299,-78.125,4,2,1,45,0,0
287193,-100,4,2,1,10,0,0
287983,-100,4,2,1,50,0,0
297141,-100,4,2,1,53,0,0
297457,-100,4,2,1,56,0,0
297614,-100,4,2,1,58,0,0
297693,-100,4,2,1,61,0,0
297772,-100,4,2,1,64,0,0
297850,-100,4,2,1,67,0,0
297930,-100,4,2,1,69,0,0
298008,-100,4,2,1,72,0,0
298088,-100,4,2,1,75,0,0
303061,-100,4,2,1,5,0,0
303141,-100,4,2,1,75,0,0
308667,-86.2068965517241,4,2,1,75,0,0
328404,-86.2068965517241,4,2,1,70,0,0
348614,-86.2068965517241,4,2,1,85,0,1
348772,-78.125,4,2,1,85,0,1
358720,-100,4,2,1,65,0,0
368825,-133.333333333333,4,2,1,60,0,0
373482,-133.333333333333,4,2,1,5,0,0
373562,-43.1034482758621,4,2,1,75,0,0
373878,-86.2068965517241,4,2,1,75,0,0
378930,-86.2068965517241,4,2,1,65,0,0
397878,-86.2068965517241,4,2,1,85,0,0
399141,-78.125,4,2,1,85,0,1
419351,-78.125,4,2,1,85,0,0
420612,-78.125,4,2,1,80,0,0
421243,-78.125,4,2,1,70,0,0
421872,-78.125,4,2,1,60,0,0
422506,-78.125,4,2,1,50,0,0
423138,-78.125,4,2,1,40,0,0
423770,-78.125,4,2,1,30,0,0
424404,-78.125,4,2,1,20,0,0
439562,-250,4,2,1,50,0,0
440746,-250,4,2,1,5,0,0
440825,-250,4,2,1,50,0,0
442009,-250,4,2,1,5,0,0
442088,-250,4,2,1,50,0,0
443903,-250,4,2,1,5,0,0
443983,-250,4,2,1,50,0,0
444535,-250,4,2,1,5,0,0
444614,-250,4,2,1,50,0,0
445798,-250,4,2,1,5,0,0
445878,-250,4,2,1,50,0,0
447062,-250,4,2,1,5,0,0
447141,-250,4,2,1,50,0,0
449588,-250,4,2,1,5,0,0
449667,-250,4,2,1,50,0,0
450851,-250,4,2,1,5,0,0
450930,-250,4,2,1,50,0,0
452114,-250,4,2,1,5,0,0
452193,-250,4,2,1,50,0,0
453377,-250,4,2,1,5,0,0
453457,-250,4,2,1,50,0,0
454009,-250,4,2,1,5,0,0
454088,-250,4,2,1,50,0,0
454640,-250,4,2,1,5,0,0
454720,-250,4,2,1,50,0,0
455904,-250,4,2,1,5,0,0
455983,-250,4,2,1,50,0,0
458430,-250,4,2,1,5,0,0
458509,-250,4,2,1,50,0,0
459061,-250,4,2,1,5,0,0
459141,-250,4,2,1,50,0,0
459693,-250,4,2,1,5,0,0
459772,-250,4,2,1,60,0,0
462219,-250,4,2,1,5,0,0
462299,-250,4,2,1,60,0,0
464746,-250,4,2,1,5,0,0
464825,-100,4,2,1,70,0,0
485035,-86.2068965517241,4,2,1,75,0,0
505246,-100,4,2,1,75,0,0
505404,-100,4,2,1,70,0,0
507772,-100,4,2,1,50,0,0
520404,-100,4,2,1,30,0,0
522930,-100,4,2,1,25,0,0
526720,-153.846153846153,4,2,1,25,0,0
545667,-153.846153846153,4,2,1,30,0,0
548193,-153.846153846153,4,2,1,35,0,0
550720,-153.846153846153,4,2,1,40,0,0
553246,-153.846153846153,4,2,1,45,0,0
555772,-153.846153846153,4,2,1,50,0,0
558299,-153.846153846153,4,2,1,55,0,0
560825,-153.846153846153,4,2,1,60,0,0
563351,-153.846153846153,4,2,1,65,0,0
564772,-153.846153846153,4,2,1,75,0,0
565562,-43.1034482758621,4,2,1,75,0,0
565799,-43.1034482758621,4,2,1,5,0,0
565878,-43.1034482758621,4,2,1,75,0,0
566035,-86.2068965517241,4,2,1,75,0,0
568324,-86.2068965517241,4,2,1,5,0,0
568404,-86.2068965517241,4,2,1,75,0,0
573377,-86.2068965517241,4,2,1,5,0,0
573457,-86.2068965517241,4,2,1,75,0,0
585061,-86.2068965517241,4,2,1,5,0,0
585141,-86.2068965517241,4,2,1,75,0,0
585377,-86.2068965517241,4,2,1,5,0,0
585457,-86.2068965517241,4,2,1,75,0,0
586008,-86.2068965517241,4,2,1,5,0,0
586088,-86.2068965517241,4,2,1,75,0,0
588614,-86.2068965517241,4,2,1,75,0,1
608509,-78.125,4,2,1,75,0,1
608745,-78.125,4,2,1,5,0,1
608825,-78.125,4,2,1,75,0,0
618850,-78.125,4,2,1,5,0,0
618930,-78.125,4,2,1,75,0,0
622171,-78.125,4,2,1,5,0,0
622404,-78.125,4,2,1,75,0,0
630304,-78.125,4,2,1,40,0,0
632830,-78.125,4,2,1,20,0,0
636299,-78.125,4,2,1,10,0,0
636614,-500,4,2,1,10,0,0
658088,-100,4,2,1,85,0,0
658640,-100,4,2,1,5,0,0
658720,-100,4,2,1,85,0,0
658960,-100,4,2,1,5,0,0
659035,-100,4,2,1,85,0,0
659356,300,4,2,1,85,1,0
659356,-90.7441016333938,4,2,1,85,0,0
697756,-90.7441016333938,4,2,1,75,0,0
697981,-90.7441016333938,4,2,1,5,0,0
698056,-90.7441016333938,4,2,1,75,0,0
700381,-90.7441016333938,4,2,1,5,0,0
700456,-90.7441016333938,4,2,1,75,0,0
702781,-90.7441016333938,4,2,1,5,0,0
702856,-90.7441016333938,4,2,1,75,0,0
705181,-90.7441016333938,4,2,1,5,0,0
705256,-90.7441016333938,4,2,1,75,0,0
736156,-82.2368421052632,4,2,1,90,0,1
784156,-82.2368421052632,4,2,1,80,0,1
786556,-82.2368421052632,4,2,1,70,0,1
788956,-82.2368421052632,4,2,1,60,0,1
791356,-82.2368421052632,4,2,1,50,0,1
793756,-82.2368421052632,4,2,1,40,0,0

[Colours]
Combo1 : 128,128,255
Combo2 : 255,128,255
Combo3 : 255,0,255
Combo4 : 255,0,128

[HitObjects]
131,316,45457,6,0,L|195:316,1,50,0|0,3:2|2:0,2:0:0:0:
256,255,45614,2,0,L|192:255,1,50,0|0,2:0|2:0,2:0:0:0:
358,154,45772,2,0,L|422:154,1,50,0|0,2:0|2:0,2:0:0:0:
332,87,45930,1,0,2:0:0:0:
257,119,46009,1,0,2:0:0:0:
407,320,46088,6,0,L|407:112,1,200,0|0,3:2|2:0,2:0:0:0:
256,240,46720,2,0,L|256:32,1,200,0|0,3:2|2:0,2:0:0:0:
105,320,47351,2,0,L|105:112,1,200,0|0,3:2|2:0,2:0:0:0:
407,320,47983,6,0,P|470:256|408:191,1,200,0|0,3:2|2:0,2:0:0:0:
256,240,48614,2,0,L|256:32,1,200,0|0,3:2|2:0,2:0:0:0:
105,320,49246,2,0,P|41:256|103:191,1,200,0|0,3:2|2:0,2:0:0:0:
256,240,49878,2,0,L|256:32,1,200,0|0,3:2|2:0,2:0:0:0:
130,22,50351,1,0,3:2:0:0:
381,316,50509,6,0,L|317:316,1,50,0|0,3:2|2:0,2:0:0:0:
256,255,50667,2,0,L|320:255,1,50,0|0,2:0|2:0,2:0:0:0:
154,154,50825,2,0,L|90:154,1,50,0|0,2:0|2:0,2:0:0:0:
180,87,50983,1,0,2:0:0:0:
255,119,51062,1,0,2:0:0:0:
105,320,51141,6,0,P|56:293|91:160,1,200,0|0,3:2|2:0,2:0:0:0:
256,208,51772,2,0,L|256:0,1,200,0|0,3:2|2:0,2:0:0:0:
438,168,52404,2,0,P|474:254|407:320,1,200,0|0,3:2|2:0,2:0:0:0:
176,320,53035,6,0,L|16:144,1,200,0|0,3:2|2:0,2:0:0:0:
336,320,53667,2,0,L|496:144,1,200,0|0,3:2|2:0,2:0:0:0:
240,80,54299,2,0,L|32:80,1,200,0|0,3:2|2:0,2:0:0:0:
272,80,54930,2,0,L|480:80,1,200,0|0,3:2|3:2,2:0:0:0:
256,160,55404,1,0,3:2:0:0:
472,80,55562,6,0,L|408:80,1,50,0|0,3:2|2:0,2:0:0:0:
347,141,55720,2,0,L|411:141,1,50,0|0,2:0|2:0,2:0:0:0:
245,255,55878,2,0,L|309:255,1,50,0|0,3:2|2:0,2:0:0:0:
219,322,56035,1,0,2:0:0:0:
144,290,56114,1,0,2:0:0:0:
294,343,56193,6,0,L|502:327,1,200,0|0,3:2|3:2,2:0:0:0:
218,343,56825,2,0,L|10:327,1,200,0|0,3:2|3:2,2:0:0:0:
256,240,57457,2,0,L|48:224,1,200,0|0,3:2|3:2,2:0:0:0:
336,304,58088,6,0,P|407:281|375:149,1,200,0|0,3:2|3:2,2:0:0:0:
176,304,58720,2,0,P|105:281|137:149,1,200,0|0,3:2|3:2,2:0:0:0:
355,79,59351,2,0,L|124:73,1,200,0|0,3:2|3:2,2:0:0:0:
386,161,59983,1,0,3:2:0:0:
126,161,60299,2,0,L|263:151,1,100,0|0,3:2|3:2,2:0:0:0:
459,298,60614,6,0,L|466:223,1,50,0|0,3:2|2:0,2:0:0:0:
299,151,60772,2,0,L|292:76,1,50,0|0,3:2|2:0,2:0:0:0:
129,74,60930,2,0,L|59:69,1,50,0|0,3:2|2:0,2:0:0:0:
231,192,61088,2,0,L|161:187,1,50,0|0,3:2|2:0,2:0:0:0:
29,196,61246,1,0,3:2:0:0:
154,173,61404,1,0,3:2:0:0:
381,135,61562,1,0,3:2:0:0:
256,112,61720,1,0,3:2:0:0:
483,196,61878,5,0,3:2:0:0:
358,173,62035,1,0,3:2:0:0:
131,135,62193,1,0,3:2:0:0:
256,112,62351,1,0,3:2:0:0:
29,196,62509,5,0,3:2:0:0:
154,173,62667,1,0,3:2:0:0:
381,135,62825,1,0,3:2:0:0:
256,112,62983,1,0,3:2:0:0:
483,196,63141,6,0,L|486:132,1,50,0|0,3:2|3:2,2:0:0:0:
409,118,63299,2,0,L|412:54,1,50,0|0,3:2|3:2,2:0:0:0:
256,32,63457,2,0,L|336:32,1,50,0|0,3:2|3:2,2:0:0:0:
382,213,63614,2,0,L|302:213,1,50,0|0,3:2|3:2,2:0:0:0:
152,289,63772,6,0,L|149:225,1,50,0|0,3:2|3:2,2:0:0:0:
226,211,63930,2,0,L|223:147,1,50,0|0,3:2|3:2,2:0:0:0:
379,125,64088,2,0,L|299:125,1,50,0|0,3:2|3:2,2:0:0:0:
253,306,64246,2,0,L|333:306,1,50,0|0,3:2|3:2,2:0:0:0:
484,225,64404,5,2,2:0:0:0:
256,192,64720,1,2,2:0:0:0:
484,225,65035,1,2,2:0:0:0:
256,240,65193,1,0,3:2:0:0:
484,225,65351,2,0,B|160:222|160:222|220:58,1,480,8|0,1:2|2:0,2:0:0:0:
408,32,65667,6,0,L|312:32,1,64,6|0,1:2|2:0,2:0:0:0:
263,74,65825,2,0,L|359:74,1,64,0|0,2:0|2:0,2:0:0:0:
133,251,65983,2,0,L|37:251,1,64,8|0,2:0|2:0,2:0:0:0:
215,165,66141,1,2,1:2:0:0:
359,118,66220,1,0,2:0:0:0:
166,330,66299,2,0,L|31:323,1,128,0|0,2:0|1:2,2:0:0:0:
346,330,66614,2,0,L|481:323,1,128,10|0,2:0|2:0,2:0:0:0:
166,330,66930,6,0,L|157:151,1,128,2|0,2:0|1:2,2:0:0:0:
392,122,67246,1,8,2:0:0:0:
262,106,67404,1,2,2:0:0:0:
492,212,67562,2,0,L|501:33,1,128,0|0,2:0|1:2,2:0:0:0:
261,320,67878,2,0,L|254:192,1,128,10|0,2:0|2:0,2:0:0:0:
20,212,68193,6,0,L|276:196,1,256,2|8,1:2|2:0,2:0:0:0:
20,212,68667,2,0,L|11:33,1,128,2|0,1:2|2:0,2:0:0:0:
151,32,68983,1,0,1:2:0:0:
382,267,69141,2,0,L|213:255,1,128,10|0,2:0|2:0,2:0:0:0:
492,212,69457,6,0,L|501:33,1,128,2|0,2:0|1:2,2:0:0:0:
256,80,69772,1,8,2:0:0:0:
387,57,69930,1,2,2:0:0:0:
131,133,70088,2,0,L|258:142,1,128,0|0,2:0|1:2,2:0:0:0:
496,69,70404,2,0,L|368:78,1,128,10|0,2:0|2:0,2:0:0:0:
104,32,70720,6,0,L|200:32,1,64,2|0,1:2|2:0,2:0:0:0:
249,74,70878,2,0,L|153:74,1,64,0|0,2:0|2:0,2:0:0:0:
379,251,71035,2,0,L|475:251,1,64,8|0,2:0|2:0,2:0:0:0:
297,165,71193,1,2,1:2:0:0:
153,118,71272,1,0,2:0:0:0:
346,330,71351,2,0,L|481:323,1,128,0|0,2:0|1:2,2:0:0:0:
216,102,71667,2,0,L|351:95,1,128,10|0,2:0|2:0,2:0:0:0:
86,333,71983,6,0,L|77:154,1,128,2|0,2:0|1:2,2:0:0:0:
312,125,72299,1,8,2:0:0:0:
182,109,72457,1,2,2:0:0:0:
437,305,72614,2,0,L|263:288,1,128,0|0,2:0|1:2,2:0:0:0:
75,305,72930,2,0,L|249:288,1,128,10|0,2:0|2:0,2:0:0:0:
496,80,73246,6,0,L|224:64,1,256,2|8,1:2|2:0,2:0:0:0:
16,224,73720,2,0,L|191:216,1,128,2|0,1:2|2:0,2:0:0:0:
16,224,74035,1,0,1:2:0:0:
256,128,74193,2,0,L|81:120,1,128,10|0,2:0|2:0,2:0:0:0:
367,122,74509,5,2,2:0:0:0:
78,5,74667,1,8,2:0:0:0:
222,68,74746,1,8,2:0:0:0:
367,122,74825,2,0,L|231:112,1,128,8|2,2:0|1:2,2:0:0:0:
494,132,75141,2,0,L|367:122,1,128,8|0,2:0|1:2,2:0:0:0:
50,346,75457,2,0,P|13:259|48:172,1,192,10|0,2:0|2:0,2:0:0:0:
239,112,75772,6,0,L|303:112,1,64,6|0,1:2|2:0,2:0:0:0:
222,70,75930,2,0,L|158:70,1,64,0|0,2:0|2:0,2:0:0:0:
352,303,76088,2,0,L|416:303,1,64,8|0,2:0|2:0,2:0:0:0:
270,217,76246,1,2,1:2:0:0:
126,170,76325,1,0,2:0:0:0:
318,190,76404,2,0,L|327:11,1,128,0|0,2:0|1:2,2:0:0:0:
66,279,76720,2,0,L|57:100,1,128,10|0,2:0|2:0,2:0:0:0:
316,116,77035,5,2,2:0:0:0:
187,103,77193,1,0,1:2:0:0:
446,279,77351,2,0,L|455:100,1,128,8|2,2:0|2:0,2:0:0:0:
238,178,77667,2,0,L|229:-1,1,128,0|0,2:0|1:2,2:0:0:0:
16,32,77983,2,0,L|160:32,1,128,10|0,2:0|2:0,2:0:0:0:
385,260,78299,6,0,L|97:260,1,256,2|8,1:2|2:0,2:0:0:0:
385,260,78772,2,0,L|394:81,1,128,2|0,1:2|2:0,2:0:0:0:
262,95,79088,1,0,1:2:0:0:
496,16,79246,2,0,L|320:16,1,128,10|0,2:0|2:0,2:0:0:0:
121,132,79562,5,2,2:0:0:0:
250,95,79720,1,0,1:2:0:0:
16,16,79878,2,0,L|192:16,1,128,8|2,2:0|2:0,2:0:0:0:
385,260,80193,2,0,L|394:81,1,128,0|0,2:0|1:2,2:0:0:0:
127,260,80509,2,0,L|118:81,1,128,10|0,2:0|2:0,2:0:0:0:
380,98,80825,6,0,L|316:98,1,64,2|0,1:2|2:0,2:0:0:0:
397,56,80983,2,0,L|461:56,1,64,0|0,2:0|2:0,2:0:0:0:
267,289,81141,2,0,L|203:289,1,64,8|0,2:0|2:0,2:0:0:0:
349,203,81299,1,2,1:2:0:0:
493,156,81378,1,0,2:0:0:0:
298,204,81457,2,0,L|289:25,1,128,0|0,2:0|1:2,2:0:0:0:
35,59,81772,2,0,L|188:50,1,128,10|0,2:0|2:0,2:0:0:0:
391,175,82088,5,2,2:0:0:0:
263,159,82246,1,0,1:2:0:0:
489,255,82404,2,0,L|496:128,1,128,8|2,2:0|2:0,2:0:0:0:
259,304,82720,2,0,L|252:177,1,128,0|0,2:0|1:2,2:0:0:0:
16,48,83035,2,0,L|169:39,1,128,10|0,2:0|2:0,2:0:0:0:
384,240,83351,6,0,L|115:228,1,256,2|8,1:2|2:0,2:0:0:0:
401,88,83825,2,0,L|252:79,1,128,2|0,1:2|2:0,2:0:0:0:
410,239,84141,1,0,1:2:0:0:
111,88,84299,2,0,L|260:79,1,128,10|0,2:0|2:0,2:0:0:0:
16,288,84614,5,2,2:0:0:0:
305,171,84772,1,8,2:0:0:0:
161,234,84851,1,8,2:0:0:0:
16,288,84930,2,0,L|152:278,1,128,8|2,2:0|1:2,2:0:0:0:
367,156,85246,2,0,L|231:146,1,128,8|0,2:0|1:2,2:0:0:0:
462,346,85562,2,0,P|499:259|464:172,1,192,10|0,2:0|2:0,2:0:0:0:
264,158,85878,6,0,L|496:144,1,232,4|8,1:2|2:0,2:0:0:0:
368,54,86351,1,0,1:2:0:0:
86,240,86509,2,0,L|218:230,1,116,2|0,2:0|1:2,2:0:0:0:
426,240,86825,2,0,L|294:230,1,116,10|0,2:0|2:0,2:0:0:0:
77,268,87141,6,0,L|70:142,1,116,2|0,2:0|2:0,2:0:0:0:
304,111,87457,1,8,2:0:0:0:
188,307,87614,2,0,P|112:266|183:153,1,232,0|0,1:2|1:2,2:0:0:0:
387,54,88088,2,0,L|254:46,1,116,10|0,2:0|2:0,2:0:0:0:
496,128,88404,6,0,L|240:112,1,232,2|8,1:2|2:0,2:0:0:0:
381,237,88878,1,0,1:2:0:0:
240,304,89035,2,0,L|77:294,1,116,0|0,2:0|1:2,2:0:0:0:
380,127,89351,1,10,2:0:0:0:
235,128,89509,1,2,2:0:0:0:
489,291,89667,6,0,L|496:176,1,116,2|0,2:0|1:2,2:0:0:0:
259,307,89983,2,0,L|252:191,1,116,10|0,2:0|1:2,2:0:0:0:
16,160,90299,2,0,L|160:160,1,116,2|0,2:0|1:2,2:0:0:0:
372,96,90614,2,0,L|256:96,1,116,10|0,2:0|2:0,2:0:0:0:
16,240,90930,6,0,L|256:240,1,232,2|8,1:2|2:0,2:0:0:0:
120,125,91404,1,0,1:2:0:0:
370,359,91562,2,0,L|512:352,1,116,2|0,2:0|1:2,2:0:0:0:
256,224,91878,2,0,L|114:217,1,116,8|0,2:0|2:0,2:0:0:0:
369,201,92193,6,0,L|376:85,1,116,2|0,2:0|2:0,2:0:0:0:
140,77,92509,1,8,2:0:0:0:
256,64,92667,1,0,1:2:0:0:
24,285,92825,2,0,L|17:169,1,116,2|0,2:0|1:2,2:0:0:0:
248,374,93141,2,0,L|255:258,1,116,8|0,2:0|2:0,2:0:0:0:
486,286,93457,6,0,P|500:219|376:99,1,232,2|8,1:2|2:0,2:0:0:0:
167,221,93930,2,0,P|153:154|277:34,1,232,0|0,1:2|1:2,2:0:0:0:
16,32,94404,2,0,L|176:16,1,116,8|0,2:0|2:0,2:0:0:0:
277,170,94720,6,0,L|117:154,1,116,0|0,2:0|1:2,2:0:0:0:
395,317,95035,2,0,L|235:301,1,116,10|0,2:0|1:2,2:0:0:0:
46,237,95351,2,0,L|206:221,1,116,2|0,2:0|1:2,2:0:0:0:
466,237,95667,2,0,L|306:221,1,116,10|0,2:0|2:0,2:0:0:0:
109,66,95983,6,0,L|360:39,1,232,2|8,1:2|2:0,2:0:0:0:
99,347,96457,2,0,P|33:320|85:194,1,232,0|0,1:2|1:2,2:0:0:0:
315,153,96930,2,0,L|189:146,1,116,10|0,2:0|2:0,2:0:0:0:
440,335,97246,6,0,L|447:219,1,116,2|0,2:0|2:0,2:0:0:0:
206,164,97562,1,8,2:0:0:0:
328,98,97720,2,0,L|93:82,1,232,0|0,1:2|1:2,2:0:0:0:
387,319,98193,2,0,L|228:303,1,116,10|0,2:0|2:0,2:0:0:0:
16,352,98509,6,0,L|272:336,1,232,2|8,1:2|2:0,2:0:0:0:
496,352,98983,2,0,L|240:336,1,232,0|0,1:2|1:2,2:0:0:0:
496,96,99457,1,10,2:0:0:0:
377,82,99614,1,2,2:0:0:0:
140,227,99772,6,0,L|256:224,1,116,2|0,2:0|1:2,2:0:0:0:
21,353,100088,2,0,L|14:237,1,116,10|0,2:0|1:2,2:0:0:0:
251,256,100404,2,0,L|258:140,1,116,2|0,2:0|1:2,2:0:0:0:
496,80,100720,2,0,L|380:76,1,116,10|0,2:0|2:0,2:0:0:0:
140,285,101035,6,0,L|413:274,1,232,2|8,1:2|2:0,2:0:0:0:
256,128,101509,1,0,1:2:0:0:
489,292,101667,2,0,L|496:176,1,116,2|0,2:0|1:2,2:0:0:0:
256,128,101983,2,0,L|416:112,1,116,10|0,2:0|2:0,2:0:0:0:
137,350,102299,6,0,L|130:234,1,116,2|0,2:0|1:2,2:0:0:0:
362,175,102614,1,8,2:0:0:0:
101,80,102772,2,0,L|357:62,1,232,2|0,1:2|1:2,2:0:0:0:
40,223,103246,2,0,L|172:216,1,116,10|0,2:0|2:0,2:0:0:0:
369,232,103562,6,0,P|451:198|402:79,1,232,2|8,1:2|2:0,2:0:0:0:
143,232,104035,2,0,P|61:198|110:79,1,232,0|0,1:2|1:2,2:0:0:0:
314,52,104509,2,0,L|198:52,1,116,8|0,2:0|2:0,2:0:0:0:
438,270,104825,5,2,1:2:0:0:
166,62,104983,1,8,2:0:0:0:
302,166,105062,1,8,2:0:0:0:
438,270,105141,2,0,L|309:260,1,116,8|0,2:0|1:2,2:0:0:0:
111,170,105457,2,0,L|240:160,1,116,8|0,2:0|1:2,2:0:0:0:
16,96,105772,2,0,L|231:75,1,174,8|0,2:0|2:0,2:0:0:0:
366,320,106088,6,0,L|91:299,1,232,4|8,1:2|2:0,2:0:0:0:
366,320,106562,2,0,P|434:293|367:162,1,232,0|0,1:2|1:2,2:0:0:0:
134,302,107035,2,0,L|257:291,1,116,10|0,2:0|2:0,2:0:0:0:
16,278,107351,6,0,L|9:162,1,116,2|0,2:0|2:0,2:0:0:0:
256,96,107667,1,8,2:0:0:0:
128,231,107825,2,0,L|383:223,1,232,0|0,1:2|1:2,2:0:0:0:
112,80,108299,2,0,L|262:71,1,116,10|0,2:0|2:0,2:0:0:0:
487,327,108614,6,0,L|256:320,1,232,2|8,1:2|2:0,2:0:0:0:
16,320,109088,2,0,P|21:237|156:162,1,232,0|0,1:2|1:2,2:0:0:0:
375,160,109562,1,10,2:0:0:0:
136,160,109720,1,2,2:0:0:0:
375,160,109878,6,0,L|501:152,1,116,2|0,2:0|1:2,2:0:0:0:
256,240,110193,2,0,L|256:96,1,116,10|0,2:0|1:2,2:0:0:0:
21,152,110509,2,0,L|136:160,1,116,2|0,2:0|1:2,2:0:0:0:
375,160,110825,2,0,L|490:152,1,116,10|0,2:0|2:0,2:0:0:0:
256,256,111141,6,0,L|501:234,1,232,2|8,1:2|2:0,2:0:0:0:
359,101,111614,1,0,1:2:0:0:
139,131,111772,2,0,L|-5:123,1,116,2|0,2:0|1:2,2:0:0:0:
256,256,112088,2,0,L|400:248,1,116,8|0,2:0|2:0,2:0:0:0:
131,284,112404,6,0,L|124:168,1,116,2|0,2:0|2:0,2:0:0:0:
369,83,112720,1,8,2:0:0:0:
253,70,112878,1,0,1:2:0:0:
496,16,113035,2,0,L|344:7,1,116,2|0,2:0|1:2,2:0:0:0:
135,190,113351,2,0,L|287:181,1,116,8|0,2:0|2:0,2:0:0:0:
16,336,113667,6,0,P|11:260|151:146,1,232,2|8,1:2|2:0,2:0:0:0:
347,98,114141,2,0,L|95:76,1,232,0|0,1:2|1:2,2:0:0:0:
355,237,114614,2,0,L|523:231,1,116,8|0,2:0|2:0,2:0:0:0:
325,357,114930,6,0,L|318:241,1,116,0|0,2:0|1:2,2:0:0:0:
84,140,115246,2,0,L|217:131,1,116,10|0,2:0|1:2,2:0:0:0:
428,140,115562,2,0,L|295:131,1,116,2|0,2:0|1:2,2:0:0:0:
49,241,115878,2,0,L|182:232,1,116,10|0,2:0|2:0,2:0:0:0:
463,241,116193,6,0,L|187:221,1,232,2|8,1:2|2:0,2:0:0:0:
457,343,116667,2,0,P|510:286|431:173,1,232,0|0,1:2|1:2,2:0:0:0:
195,144,117141,2,0,L|346:136,1,116,10|0,2:0|2:0,2:0:0:0:
68,355,117457,6,0,L|61:239,1,116,2|0,2:0|2:0,2:0:0:0:
299,151,117772,1,8,2:0:0:0:
170,198,117930,2,0,P|85:137|146:53,1,232,0|0,1:2|1:2,2:0:0:0:
443,36,118404,2,0,L|311:27,1,116,10|0,2:0|2:0,2:0:0:0:
16,192,118720,6,0,L|255:172,1,232,2|8,1:2|2:0,2:0:0:0:
496,160,119193,2,0,P|495:236|360:306,1,232,0|0,1:2|1:2,2:0:0:0:
141,308,119667,1,10,2:0:0:0:
371,308,119825,1,2,2:0:0:0:
141,308,119983,6,0,L|10:303,1,116,2|0,2:0|1:2,2:0:0:0:
256,160,120299,2,0,L|125:155,1,116,10|0,2:0|1:2,2:0:0:0:
371,308,120614,2,0,L|502:303,1,116,2|0,2:0|1:2,2:0:0:0:
256,160,120930,2,0,L|249:44,1,116,10|0,2:0|2:0,2:0:0:0:
16,240,121246,6,0,P|25:160|183:63,1,232,2|8,1:2|2:0,2:0:0:0:
16,29,121720,1,0,1:2:0:0:
256,240,121878,2,0,L|116:226,1,116,2|0,2:0|1:2,2:0:0:0:
380,331,122193,2,0,L|496:320,1,116,10|0,2:0|2:0,2:0:0:0:
256,96,122509,6,0,L|371:84,1,116,2|0,2:0|1:2,2:0:0:0:
140,84,122825,1,8,2:0:0:0:
371,84,122983,2,0,P|436:170|368:253,1,232,2|0,1:2|1:2,2:0:0:0:
143,253,123457,2,0,L|278:249,1,116,10|0,2:0|2:0,2:0:0:0:
496,64,123772,6,0,L|264:49,1,232,2|8,1:2|2:0,2:0:0:0:
16,64,124246,2,0,L|247:49,1,232,0|0,1:2|1:2,2:0:0:0:
496,224,124720,2,0,L|339:215,1,116,8|0,2:0|2:0,2:0:0:0:
143,317,125035,5,2,1:2:0:0:
415,109,125193,1,8,2:0:0:0:
279,213,125272,1,8,2:0:0:0:
143,317,125351,2,0,L|272:307,1,116,8|0,2:0|1:2,2:0:0:0:
16,160,125667,2,0,L|145:150,1,116,8|0,2:0|1:2,2:0:0:0:
343,142,125983,2,0,L|169:129,1,174,8|0,2:0|2:0,2:0:0:0:
392,336,126299,6,0,L|399:220,1,116,4|0,1:2|2:0,2:0:0:0:
252,220,126614,2,0,L|245:104,1,116,0|0,2:0|2:0,2:0:0:0:
16,336,126930,2,0,P|16:203|65:97,1,232,8|0,2:0|2:0,2:0:0:0:
200,96,127404,1,0,2:0:0:0:
490,77,127562,6,0,L|483:193,1,116,0|0,1:2|2:0,2:0:0:0:
338,194,127878,2,0,L|345:310,1,116,0|0,2:0|2:0,2:0:0:0:
130,298,128193,1,8,2:0:0:0:
399,320,128509,2,0,L|283:307,1,116,2|0,2:0|2:0,2:0:0:0:
68,243,128825,6,0,L|184:230,1,116,2|0,1:2|2:0,2:0:0:0:
37,341,129141,2,0,L|30:225,1,116,0|0,2:0|2:0,2:0:0:0:
256,336,129457,2,0,P|256:203|207:97,1,232,8|0,2:0|2:0,2:0:0:0:
72,96,129930,1,0,2:0:0:0:
303,335,130088,6,0,L|310:219,1,116,0|0,1:2|2:0,2:0:0:0:
165,218,130404,2,0,L|158:102,1,116,0|0,2:0|2:0,2:0:0:0:
397,78,130720,2,0,L|265:70,1,116,10|0,2:0|2:0,2:0:0:0:
49,28,131035,2,0,L|181:20,1,116,2|0,2:0|2:0,2:0:0:0:
397,78,131351,6,0,L|529:70,1,116,2|0,1:2|2:0,2:0:0:0:
367,332,131667,2,0,L|360:216,1,116,0|0,2:0|2:0,2:0:0:0:
126,345,131983,2,0,L|111:88,1,232,8|0,2:0|2:0,2:0:0:0:
258,88,132457,1,0,2:0:0:0:
23,276,132614,6,0,L|16:160,1,116,0|0,1:2|2:0,2:0:0:0:
253,223,132930,2,0,L|260:107,1,116,2|0,2:0|2:0,2:0:0:0:
496,112,133246,2,0,L|368:96,1,116,10|0,2:0|2:0,2:0:0:0:
140,190,133562,2,0,L|256:176,1,116,2|0,2:0|2:0,2:0:0:0:
16,64,133878,6,0,L|131:49,1,116,2|0,1:2|2:0,2:0:0:0:
16,160,134193,2,0,L|23:276,1,116,0|0,2:0|2:0,2:0:0:0:
257,348,134509,2,0,L|272:91,1,232,8|0,2:0|2:0,2:0:0:0:
125,91,134983,1,0,2:0:0:0:
383,119,135141,6,0,L|390:235,1,116,0|0,1:2|2:0,2:0:0:0:
244,246,135457,2,0,L|237:362,1,116,0|0,2:0|2:0,2:0:0:0:
496,112,135772,2,0,L|240:112,1,232,10|0,2:0|2:0,2:0:0:0:
392,210,136246,1,0,2:0:0:0:
102,194,136404,6,0,L|95:310,1,116,6|0,1:2|2:0,2:0:0:0:
241,91,136720,2,0,L|234:207,1,116,0|0,2:0|2:0,2:0:0:0:
466,313,137035,2,0,L|481:56,1,232,8|0,2:0|2:0,2:0:0:0:
334,56,137509,1,0,2:0:0:0:
102,194,137667,6,0,L|95:310,1,116,0|0,1:2|2:0,2:0:0:0:
329,36,137983,2,0,L|201:36,1,116,2|0,2:0|2:0,2:0:0:0:
447,226,138299,2,0,L|454:342,1,116,10|0,2:0|2:0,2:0:0:0:
204,32,138614,2,0,L|76:32,1,116,2|0,2:0|2:0,2:0:0:0:
308,32,138930,6,0,L|436:32,1,116,2|0,1:2|2:0,2:0:0:0:
278,135,139246,2,0,L|271:251,1,116,0|0,2:0|2:0,2:0:0:0:
57,256,139562,1,8,2:0:0:0:
333,289,139878,2,0,L|217:289,1,116,2|0,2:0|2:0,2:0:0:0:
6,241,140193,6,0,L|122:241,1,116,2|0,1:2|2:0,2:0:0:0:
272,135,140509,2,0,L|156:135,1,116,0|0,2:0|2:0,2:0:0:0:
426,226,140825,2,0,L|433:342,1,116,10|0,2:0|2:0,2:0:0:0:
287,175,141141,2,0,L|280:291,1,116,0|0,2:0|2:0,2:0:0:0:
29,90,141457,6,0,L|22:206,1,116,2|0,1:2|2:0,2:0:0:0:
168,39,141772,2,0,L|175:155,1,116,0|0,2:0|2:0,2:0:0:0:
402,338,142088,2,0,L|417:81,1,232,8|0,2:0|2:0,2:0:0:0:
270,81,142562,1,0,2:0:0:0:
496,32,142720,6,0,L|352:32,1,116,2|0,1:2|2:0,2:0:0:0:
235,152,143035,2,0,L|379:152,1,116,0|0,2:0|2:0,2:0:0:0:
117,202,143351,2,0,L|110:318,1,116,10|0,2:0|2:0,2:0:0:0:
256,144,143667,2,0,L|112:144,1,116,0|0,2:0|2:0,2:0:0:0:
374,52,143983,6,0,L|518:52,1,116,2|0,1:2|2:0,2:0:0:0:
344,215,144299,2,0,L|337:331,1,116,0|0,2:0|2:0,2:0:0:0:
119,338,144614,2,0,L|104:81,1,232,8|0,2:0|2:0,2:0:0:0:
251,81,145088,1,0,2:0:0:0:
32,320,145246,6,0,L|17:63,1,232,0|0,1:2|2:0,2:0:0:0:
164,63,145720,1,0,1:2:0:0:
388,215,145878,2,0,L|260:215,1,116,8|0,2:0|1:2,2:0:0:0:
496,32,146193,1,8,2:0:0:0:
16,32,146509,5,4,1:2:0:0:
161,189,146667,2,0,L|289:189,1,116,0|0,2:0|2:0,2:0:0:0:
131,101,146983,1,0,1:2:0:0:
381,101,147141,2,0,L|253:101,1,116,8|0,2:0|2:0,2:0:0:0:
411,217,147457,6,0,L|418:333,1,116,0|0,1:2|2:0,2:0:0:0:
302,358,147772,1,0,2:0:0:0:
447,148,147930,2,0,L|454:264,1,116,0|0,1:2|2:0,2:0:0:0:
338,289,148246,1,0,2:0:0:0:
96,112,148404,2,0,L|89:228,1,116,8|0,2:0|2:0,2:0:0:0:
352,53,148720,2,0,L|192:53,1,116,2|0,2:0|2:0,2:0:0:0:
496,32,149035,5,2,1:2:0:0:
351,189,149193,2,0,L|223:189,1,116,0|0,2:0|2:0,2:0:0:0:
381,101,149509,1,0,1:2:0:0:
131,101,149667,2,0,L|259:101,1,116,8|0,2:0|2:0,2:0:0:0:
101,217,149983,6,0,L|94:333,1,116,0|0,1:2|2:0,2:0:0:0:
210,358,150299,1,0,2:0:0:0:
65,148,150457,2,0,L|58:264,1,116,0|0,1:2|2:0,2:0:0:0:
174,289,150772,1,0,2:0:0:0:
432,192,150930,2,0,L|288:192,1,116,10|0,2:0|2:0,2:0:0:0:
80,192,151246,2,0,L|224:192,1,116,2|0,2:0|2:0,2:0:0:0:
496,192,151562,5,2,1:2:0:0:
351,51,151720,2,0,L|344:167,1,116,0|0,2:0|2:0,2:0:0:0:
199,224,152035,1,0,1:2:0:0:
431,206,152193,2,0,L|438:322,1,116,8|0,2:0|2:0,2:0:0:0:
292,235,152509,6,0,L|285:351,1,116,0|0,1:2|2:0,2:0:0:0:
401,376,152825,1,0,2:0:0:0:
256,368,152983,1,0,1:2:0:0:
488,37,153141,6,0,L|495:153,1,116,2|0,2:0|2:0,2:0:0:0:
256,64,153457,2,0,L|256:192,1,116,10|0,2:0|2:0,2:0:0:0:
24,37,153772,2,0,L|17:153,1,116,2|0,2:0|2:0,2:0:0:0:
256,240,154088,5,2,1:2:0:0:
110,99,154246,2,0,L|247:102,1,116,0|0,2:0|2:0,2:0:0:0:
80,8,154562,1,0,1:2:0:0:
312,131,154720,2,0,L|319:247,1,116,8|0,2:0|2:0,2:0:0:0:
174,199,155035,6,0,L|167:315,1,116,0|0,1:2|2:0,2:0:0:0:
283,340,155351,1,0,2:0:0:0:
137,151,155509,2,0,L|130:267,1,116,0|0,1:2|2:0,2:0:0:0:
246,292,155825,1,0,2:0:0:0:
480,64,155983,2,0,L|352:64,1,116,10|0,2:0|2:0,2:0:0:0:
148,64,156299,2,0,L|32:64,1,116,0|0,1:2|2:0,2:0:0:0:
256,192,156614,5,6,1:2:0:0:
128,192,156772,2,0,L|0:192,1,116,0|0,2:0|2:0,2:0:0:0:
158,96,157088,1,0,1:2:0:0:
384,192,157246,2,0,L|512:192,1,116,8|0,2:0|2:0,2:0:0:0:
359,191,157562,2,0,L|352:307,1,116,0|0,1:2|2:0,2:0:0:0:
140,64,157878,6,0,L|256:64,1,116,2|0,2:0|1:2,2:0:0:0:
16,192,158193,2,0,L|132:192,1,116,2|0,2:0|2:0,2:0:0:0:
372,64,158509,2,0,L|256:64,1,116,10|0,2:0|2:0,2:0:0:0:
496,192,158825,2,0,L|380:192,1,116,2|0,2:0|2:0,2:0:0:0:
132,192,159141,5,2,1:2:0:0:
277,66,159299,2,0,L|117:66,1,116,0|0,2:0|2:0,2:0:0:0:
16,64,159614,1,0,1:2:0:0:
235,66,159772,2,0,L|395:66,1,116,8|0,2:0|2:0,2:0:0:0:
205,251,160088,2,0,L|198:367,1,116,2|0,1:2|2:0,2:0:0:0:
432,272,160404,5,2,2:0:0:0:
287,241,160562,1,0,1:2:0:0:
403,114,160720,2,0,L|410:230,1,116,0|0,2:0|2:0,2:0:0:0:
109,114,161035,2,0,L|102:230,1,116,10|0,2:0|2:0,2:0:0:0:
256,80,161351,2,0,L|112:80,1,116,0|0,1:2|2:0,2:0:0:0:
372,80,161667,5,2,1:2:0:0:
227,173,161825,2,0,L|220:289,1,116,0|0,2:0|2:0,2:0:0:0:
366,364,162141,1,0,1:2:0:0:
134,183,162299,2,0,L|141:299,1,116,8|0,2:0|2:0,2:0:0:0:
286,233,162614,2,0,L|279:349,1,116,0|0,1:2|2:0,2:0:0:0:
16,176,162930,6,0,L|160:176,1,116,2|0,2:0|1:2,2:0:0:0:
372,64,163246,2,0,L|256:64,1,116,2|0,2:0|2:0,2:0:0:0:
496,176,163562,2,0,L|352:176,1,116,10|0,2:0|2:0,2:0:0:0:
140,64,163878,2,0,L|256:64,1,116,2|0,2:0|2:0,2:0:0:0:
16,320,164193,5,2,1:2:0:0:
161,227,164351,2,0,L|168:111,1,116,0|0,2:0|2:0,2:0:0:0:
22,36,164667,1,0,1:2:0:0:
256,16,164825,2,0,L|112:16,2,116,8|0|0,2:0|2:0|1:2,2:0:0:0:
400,224,165299,2,0,L|304:224,1,58,0|0,2:0|2:0,2:0:0:0:
163,221,165457,5,10,2:0:0:0:
400,224,165614,1,8,2:0:0:0:
163,221,165772,1,0,1:2:0:0:
279,223,165930,1,0,1:2:0:0:
42,220,166088,5,10,2:0:0:0:
279,223,166246,1,0,1:2:0:0:
42,220,166404,1,8,2:0:0:0:
279,223,166562,1,0,1:2:0:0:
16,176,166720,6,0,L|80:176,1,58,6|0,2:0|2:0,2:0:0:0:
151,111,166878,2,0,L|87:111,1,58,0|0,2:0|2:0,2:0:0:0:
267,22,167035,2,0,L|331:22,1,58,0|0,2:0|2:0,2:0:0:0:
248,120,167193,1,0,2:0:0:0:
172,177,167272,1,0,2:0:0:0:
496,176,171772,6,0,L|432:176,1,58,2|2,2:0|2:0,2:0:0:0:
361,111,171930,2,0,L|425:111,1,58,2|2,2:0|2:0,2:0:0:0:
245,22,172088,2,0,L|181:22,1,58,2|2,2:0|2:0,2:0:0:0:
264,120,172246,1,2,2:0:0:0:
340,177,172325,1,0,2:0:0:0:
192,336,176351,5,0,1:2:0:0:
432,192,176509,2,0,B|83:190|83:190|57:15|57:15|85:203,1,696.000000000001,8|0,2:0|3:2,2:0:0:0:
155,230,176904,1,0,3:2:0:0:
82,183,176983,1,0,3:2:0:0:
155,230,177062,1,0,3:2:0:0:
357,230,177141,5,6,1:2:0:0:
212,201,177299,2,0,L|205:317,1,116,2|8,2:0|2:0,2:0:0:0:
437,93,177614,1,2,2:0:0:0:
291,84,177772,2,0,L|245:201,1,116,2|0,2:0|1:2,2:0:0:0:
480,16,178088,5,2,2:0:0:0:
334,14,178246,2,0,L|206:98,1,116,2|0,2:0|1:2,2:0:0:0:
496,128,178562,1,2,2:0:0:0:
256,96,178720,2,0,L|400:96,1,116,10|0,2:0|2:0,2:0:0:0:
227,234,179035,2,0,L|83:234,1,116,2|0,2:0|2:0,2:0:0:0:
355,274,179351,5,2,1:2:0:0:
279,217,179430,1,0,2:0:0:0:
202,119,179509,2,0,L|260:119,1,58,0|0,2:0|2:0,2:0:0:0:
86,320,179667,2,0,L|28:320,1,58,2|0,1:2|2:0,2:0:0:0:
105,217,179825,2,0,L|163:217,1,58,2|0,2:0|2:0,2:0:0:0:
349,217,179983,1,8,2:0:0:0:
204,152,180141,1,2,2:0:0:0:
436,48,180299,2,0,L|443:164,1,116,2|0,2:0|1:2,2:0:0:0:
298,212,180614,5,2,2:0:0:0:
76,48,180772,2,0,L|69:164,1,116,2|0,2:0|1:2,2:0:0:0:
215,205,181088,1,2,2:0:0:0:
436,299,181246,2,0,L|292:299,1,116,10|0,2:0|2:0,2:0:0:0:
449,351,181562,2,0,P|508:302|450:252,1,174,2|0,2:0|2:0,2:0:0:0:
240,144,181878,6,0,L|512:128,1,232,6|2,1:2|1:2,2:0:0:0:
326,43,182351,1,2,2:0:0:0:
91,282,182509,2,0,L|254:273,1,116,8|2,2:0|2:0,2:0:0:0:
443,132,182825,2,0,L|280:123,1,116,2|0,2:0|1:2,2:0:0:0:
181,113,183141,5,2,2:0:0:0:
413,53,183299,2,0,L|420:169,1,116,2|0,2:0|1:2,2:0:0:0:
274,210,183614,1,2,2:0:0:0:
496,256,183772,2,0,L|336:240,1,116,10|0,2:0|2:0,2:0:0:0:
234,117,184088,2,0,L|394:101,1,116,2|0,2:0|2:0,2:0:0:0:
116,192,184404,6,0,L|174:192,1,58,2|0,1:2|2:0,2:0:0:0:
251,295,184562,2,0,L|193:295,1,58,0|0,2:0|2:0,2:0:0:0:
370,45,184720,2,0,L|428:45,1,58,2|0,1:2|2:0,2:0:0:0:
351,143,184878,1,2,2:0:0:0:
275,200,184957,1,0,2:0:0:0:
103,288,185035,1,8,2:0:0:0:
248,260,185193,1,2,2:0:0:0:
23,172,185351,2,0,L|16:288,1,116,2|0,2:0|1:2,2:0:0:0:
256,144,185667,5,2,2:0:0:0:
111,132,185825,1,2,2:0:0:0:
351,332,185983,1,2,1:2:0:0:
496,320,186141,1,2,2:0:0:0:
206,344,186299,1,10,2:0:0:0:
496,320,186457,1,2,2:0:0:0:
351,332,186614,1,2,2:0:0:0:
16,320,186772,1,10,2:0:0:0:
256,192,186930,6,0,L|16:192,1,232,6|2,1:2|1:2,2:0:0:0:
170,80,187404,1,2,2:0:0:0:
406,78,187562,2,0,L|262:78,1,116,8|2,2:0|2:0,2:0:0:0:
67,149,187878,2,0,L|230:140,1,116,2|0,2:0|1:2,2:0:0:0:
329,130,188193,5,2,2:0:0:0:
97,70,188351,2,0,L|90:186,1,116,2|0,2:0|1:2,2:0:0:0:
236,227,188667,1,2,2:0:0:0:
16,256,188825,2,0,L|153:253,1,116,10|0,2:0|2:0,2:0:0:0:
278,97,189141,2,0,L|141:94,1,116,2|0,2:0|2:0,2:0:0:0:
397,206,189457,5,2,1:2:0:0:
321,149,189535,1,0,2:0:0:0:
244,51,189614,2,0,L|302:51,1,58,0|0,2:0|2:0,2:0:0:0:
476,22,189772,2,0,L|418:22,1,58,2|0,1:2|2:0,2:0:0:0:
341,125,189930,2,0,L|399:125,1,58,2|0,2:0|2:0,2:0:0:0:
224,224,190088,1,8,2:0:0:0:
79,224,190246,1,2,2:0:0:0:
316,151,190404,2,0,L|323:267,1,116,2|0,2:0|1:2,2:0:0:0:
469,297,190720,5,2,2:0:0:0:
196,151,190878,2,0,L|189:267,1,116,2|0,2:0|1:2,2:0:0:0:
43,297,191193,1,2,2:0:0:0:
316,151,191351,2,0,L|323:267,1,116,10|0,2:0|2:0,2:0:0:0:
196,151,191667,2,0,L|189:267,1,116,2|0,2:0|2:0,2:0:0:0:
432,80,191983,5,6,1:2:0:0:
315,64,192141,1,2,2:0:0:0:
460,200,192299,2,0,L|467:316,1,116,2|2,1:2|2:0,2:0:0:0:
240,144,192614,2,0,L|384:144,1,116,8|2,2:0|2:0,2:0:0:0:
122,214,192930,2,0,L|129:330,1,116,2|0,2:0|1:2,2:0:0:0:
275,332,193246,5,2,2:0:0:0:
23,276,193404,2,0,L|16:160,1,116,2|0,2:0|1:2,2:0:0:0:
162,264,193720,1,2,2:0:0:0:
416,96,193878,2,0,L|288:96,1,116,10|0,2:0|2:0,2:0:0:0:
68,127,194193,2,0,L|196:127,1,116,2|0,2:0|2:0,2:0:0:0:
476,333,194509,5,8,1:2:0:0:
256,176,194667,1,0,1:2:0:0:
401,137,194825,1,0,1:2:0:0:
36,333,194983,1,8,1:2:0:0:
256,176,195141,1,0,1:2:0:0:
111,16,195299,2,0,B|397:16|397:16|405:343,1,580.000017700196,0|0,1:0|2:0,2:0:0:0:
400,137,196720,6,0,B|111:136|111:136|188:289,1,434.999999999999,4|0,3:2|2:0,2:0:0:0:
403,269,197035,5,4,1:2:0:0:
256,240,197193,1,0,3:2:0:0:
109,269,197351,1,0,3:2:0:0:
173,257,197430,1,0,3:2:0:0:
109,269,197509,1,0,3:2:0:0:
403,269,197667,5,8,3:2:0:0:
256,240,197825,1,0,3:2:0:0:
192,284,197904,1,0,3:2:0:0:
256,240,197983,1,0,3:2:0:0:
403,269,198141,1,0,3:2:0:0:
339,311,198220,1,0,3:2:0:0:
403,269,198299,5,0,1:2:0:0:
256,240,198457,1,0,3:2:0:0:
193,207,198535,1,0,3:2:0:0:
129,251,198614,1,0,3:2:0:0:
276,296,198772,1,0,3:2:0:0:
16,192,198930,5,8,3:2:0:0:
80,180,199009,1,0,3:2:0:0:
16,192,199088,1,0,3:2:0:0:
256,96,199246,1,0,3:2:0:0:
320,84,199325,1,0,3:2:0:0:
256,96,199404,1,0,3:2:0:0:
496,192,199562,5,0,1:2:0:0:
349,163,199720,1,0,3:2:0:0:
202,192,199878,1,0,3:2:0:0:
138,251,199957,1,0,3:2:0:0:
202,192,200035,1,0,3:2:0:0:
496,192,200193,5,8,3:2:0:0:
349,163,200351,1,0,3:2:0:0:
413,151,200430,1,0,3:2:0:0:
349,163,200509,1,0,3:2:0:0:
202,192,200667,1,0,3:2:0:0:
266,180,200746,1,0,3:2:0:0:
413,151,200825,5,0,1:2:0:0:
266,118,200983,1,0,3:2:0:0:
329,151,201062,1,0,3:2:0:0:
393,107,201141,1,0,3:2:0:0:
245,32,201299,1,0,3:2:0:0:
496,192,201457,5,8,3:2:0:0:
432,180,201535,1,0,3:2:0:0:
496,192,201614,1,0,3:2:0:0:
350,280,201772,1,0,3:2:0:0:
286,268,201851,1,0,3:2:0:0:
350,280,201930,1,0,3:2:0:0:
109,269,202088,5,4,1:2:0:0:
256,240,202246,1,0,3:2:0:0:
403,269,202404,1,0,3:2:0:0:
339,257,202483,1,0,3:2:0:0:
403,269,202562,1,0,3:2:0:0:
109,269,202720,5,8,3:2:0:0:
256,240,202878,1,0,3:2:0:0:
320,296,202957,1,0,3:2:0:0:
256,240,203035,1,0,3:2:0:0:
109,269,203193,1,0,3:2:0:0:
173,316,203272,1,0,3:2:0:0:
109,269,203351,5,0,1:2:0:0:
256,240,203509,1,0,3:2:0:0:
319,207,203588,1,0,3:2:0:0:
383,251,203667,1,0,3:2:0:0:
236,125,203825,1,0,3:2:0:0:
496,192,203983,5,8,3:2:0:0:
432,180,204062,1,0,3:2:0:0:
496,192,204141,1,0,3:2:0:0:
256,64,204299,1,0,3:2:0:0:
192,53,204378,1,0,3:2:0:0:
256,64,204457,1,0,3:2:0:0:
16,192,204614,5,0,1:2:0:0:
163,163,204772,1,0,3:2:0:0:
310,192,204930,1,0,3:2:0:0:
374,161,205009,1,0,3:2:0:0:
310,192,205088,1,0,3:2:0:0:
16,192,205246,5,8,3:2:0:0:
163,163,205404,1,0,3:2:0:0:
227,151,205483,1,0,3:2:0:0:
80,47,205562,1,0,3:2:0:0:
227,151,205720,1,0,3:2:0:0:
291,139,205799,1,0,3:2:0:0:
144,35,205878,5,0,1:2:0:0:
290,217,206035,1,0,3:2:0:0:
354,209,206114,1,0,3:2:0:0:
290,217,206193,1,0,3:2:0:0:
437,55,206351,5,0,3:2:0:0:
144,35,206509,1,8,3:2:0:0:
208,23,206588,1,0,3:2:0:0:
144,35,206667,1,0,3:2:0:0:
291,149,206825,1,0,3:2:0:0:
354,182,206904,1,0,3:2:0:0:
418,138,206983,1,0,3:2:0:0:
109,269,207141,5,4,1:2:0:0:
256,240,207299,1,0,3:2:0:0:
403,269,207457,1,0,3:2:0:0:
339,257,207535,1,0,3:2:0:0:
403,269,207614,1,0,3:2:0:0:
109,269,207772,5,8,3:2:0:0:
256,240,207930,1,0,3:2:0:0:
192,228,208009,1,0,3:2:0:0:
256,240,208088,1,0,3:2:0:0:
109,269,208246,1,0,3:2:0:0:
173,257,208325,1,0,3:2:0:0:
319,55,208404,5,0,1:2:0:0:
173,237,208562,1,0,3:2:0:0:
109,211,208641,1,0,3:2:0:0:
173,237,208720,1,0,3:2:0:0:
319,55,208878,1,0,3:2:0:0:
16,272,209035,5,8,3:2:0:0:
80,267,209114,1,0,3:2:0:0:
16,272,209193,1,0,3:2:0:0:
319,55,209351,1,0,3:2:0:0:
383,43,209430,1,0,3:2:0:0:
319,55,209509,1,0,3:2:0:0:
46,62,209667,5,0,3:2:0:0:
193,55,209825,1,0,1:2:0:0:
340,59,209983,1,0,3:2:0:0:
276,118,210062,1,0,3:2:0:0:
340,59,210141,1,0,3:2:0:0:
26,75,210299,5,8,3:2:0:0:
173,104,210457,1,0,3:2:0:0:
109,92,210535,1,0,3:2:0:0:
256,48,210614,1,0,3:2:0:0:
403,92,210772,1,0,3:2:0:0:
339,104,210851,1,0,3:2:0:0:
192,237,210930,5,0,1:2:0:0:
339,320,211088,1,0,3:2:0:0:
403,308,211167,1,0,3:2:0:0:
256,144,211246,1,0,3:2:0:0:
403,308,211404,1,0,3:2:0:0:
100,91,211562,5,8,3:2:0:0:
36,127,211641,1,0,3:2:0:0:
100,91,211720,1,0,3:2:0:0:
403,308,211878,1,0,3:2:0:0:
467,281,211957,1,0,3:2:0:0:
403,308,212035,1,0,3:2:0:0:
109,269,212193,5,4,1:2:0:0:
256,240,212351,1,0,3:2:0:0:
109,269,212509,1,0,3:2:0:0:
45,257,212588,1,0,3:2:0:0:
109,269,212667,1,0,3:2:0:0:
403,269,212825,5,8,3:2:0:0:
256,240,212983,1,0,3:2:0:0:
320,228,213062,1,0,3:2:0:0:
173,152,213141,1,0,3:2:0:0:
320,228,213299,1,0,3:2:0:0:
384,216,213378,1,0,3:2:0:0:
237,178,213457,5,0,1:2:0:0:
91,47,213614,1,0,3:2:0:0:
27,125,213693,1,0,3:2:0:0:
91,47,213772,1,0,3:2:0:0:
237,178,213930,1,0,3:2:0:0:
496,112,214088,5,8,3:2:0:0:
432,100,214167,1,0,3:2:0:0:
496,112,214246,1,0,3:2:0:0:
193,137,214404,1,0,3:2:0:0:
256,170,214483,1,0,3:2:0:0:
320,126,214562,1,0,3:2:0:0:
16,192,214720,5,0,1:2:0:0:
256,240,214878,1,0,3:2:0:0:
496,192,215035,1,0,3:2:0:0:
423,171,215114,1,0,3:2:0:0:
496,192,215193,1,0,3:2:0:0:
256,160,215351,5,8,3:2:0:0:
16,192,215509,1,0,3:2:0:0:
89,171,215588,1,0,3:2:0:0:
16,192,215667,1,0,3:2:0:0:
256,160,215825,1,0,3:2:0:0:
329,139,215904,1,0,3:2:0:0:
128,320,215983,6,0,L|113:147,1,128,4|0,1:2|3:0,2:0:0:0:
384,320,216299,2,0,L|399:147,1,128,4|0,1:2|3:0,2:0:0:0:
43,101,216614,1,8,3:2:0:0:
320,208,216772,1,0,1:0:0:0:
192,208,216930,1,8,3:2:0:0:
469,101,217088,1,0,1:0:0:0:
256,80,217246,6,0,L|192:80,1,58,12|0,2:0|2:0,2:0:0:0:
275,123,217404,2,0,L|339:123,1,58,0|0,2:0|2:0,2:0:0:0:
156,266,217562,2,0,L|92:266,1,58,0|0,2:0|2:0,2:0:0:0:
175,210,217720,1,0,2:0:0:0:
251,174,217799,1,0,2:0:0:0:
256,192,217878,12,0,221983,2:0:0:0:
256,80,222299,6,0,L|320:80,1,58,2|2,2:0|2:0,2:0:0:0:
237,123,222457,2,0,L|173:123,1,58,2|2,2:0|2:0,2:0:0:0:
356,266,222614,2,0,L|420:266,1,58,2|2,2:0|2:0,2:0:0:0:
337,210,222772,1,2,2:0:0:0:
261,174,222851,1,0,2:0:0:0:
112,192,226878,5,0,1:2:0:0:
399,192,227035,2,0,P|453:133|398:77,1,174,8|0,2:0|2:0,2:0:0:0:
256,144,227351,6,0,L|256:64,1,77.3333333333334,0|0,3:0|2:0,2:0:0:0:
176,37,227562,1,0,2:0:0:0:
369,20,227667,2,0,L|273:20,2,77.3333333333334,0|0|0,3:0|2:0|2:0,2:0:0:0:
174,268,227983,6,0,L|174:188,1,77.3333333333334,0|0,3:0|2:0,2:0:0:0:
254,161,228193,1,0,2:0:0:0:
61,70,228299,2,0,L|157:70,1,77.3333333333334,0|0,3:0|2:0,2:0:0:0:
331,73,228509,1,0,2:0:0:0:
138,70,228614,6,0,L|138:150,1,77.3333333333334,0|0,3:0|2:0,2:0:0:0:
58,177,228825,1,0,2:0:0:0:
256,240,228930,2,0,L|384:240,2,77.3333333333334,0|0|0,3:0|2:0|2:0,2:0:0:0:
454,177,229246,6,0,L|454:257,1,77.3333333333334,0|0,3:0|2:0,2:0:0:0:
374,284,229457,1,0,2:0:0:0:
179,241,229562,2,0,L|307:241,1,77.3333333333334,0|0,3:0|2:0,2:0:0:0:
63,303,229772,1,0,2:0:0:0:
256,241,229878,6,0,L|256:321,1,77.3333333333334,0|0,3:0|2:0,2:0:0:0:
336,348,230088,1,0,2:0:0:0:
140,303,230193,2,0,L|44:303,2,77.3333333333334,0|0|0,3:0|2:0|2:0,2:0:0:0:
334,100,230509,5,0,3:0:0:0:
256,100,230614,1,0,2:0:0:0:
179,100,230720,1,0,2:0:0:0:
372,303,230825,2,0,L|468:303,1,77.3333333333334,0|0,3:0|2:0,2:0:0:0:
256,96,231035,1,0,2:0:0:0:
449,303,231141,6,0,L|449:223,1,77.3333333333334,0|0,3:0|2:0,2:0:0:0:
369,196,231351,1,0,2:0:0:0:
193,138,231457,2,0,L|321:138,2,77.3333333333334,0|0|0,3:0|2:0|2:0,2:0:0:0:
16,208,231772,5,0,3:0:0:0:
96,237,231878,2,0,L|96:314,1,77.3333333333334,0|0,2:0|2:0,2:0:0:0:
289,235,232088,2,0,L|209:235,1,77.3333333333334,0|0,3:0|2:0,2:0:0:0:
406,127,232299,1,0,2:0:0:0:
213,47,232404,5,0,3:0:0:0:
290,47,232509,1,0,2:0:0:0:
367,47,232614,1,0,2:0:0:0:
172,144,232720,1,0,3:2:0:0:
269,144,232825,1,0,2:0:0:0:
366,144,232930,1,0,2:0:0:0:
173,86,233035,5,0,3:2:0:0:
250,86,233141,1,0,2:0:0:0:
327,86,233246,1,0,2:0:0:0:
132,183,233351,1,0,3:2:0:0:
229,183,233457,1,0,2:0:0:0:
35,183,233562,1,0,2:0:0:0:
228,124,233667,5,0,3:2:0:0:
151,124,233772,1,0,2:0:0:0:
74,124,233878,1,0,2:0:0:0:
269,221,233983,1,0,3:2:0:0:
172,221,234088,1,0,2:0:0:0:
75,221,234193,1,0,2:0:0:0:
268,163,234299,5,0,3:2:0:0:
191,163,234404,1,0,2:0:0:0:
114,163,234509,1,0,2:0:0:0:
309,260,234614,1,0,3:2:0:0:
212,260,234720,1,0,2:0:0:0:
406,260,234825,1,0,2:0:0:0:
213,157,234930,5,0,3:2:0:0:
136,157,235035,1,0,2:0:0:0:
59,157,235141,1,0,2:0:0:0:
254,254,235246,1,0,3:2:0:0:
157,254,235351,1,0,2:0:0:0:
60,254,235457,1,0,2:0:0:0:
299,157,235562,5,0,3:2:0:0:
376,157,235667,1,0,2:0:0:0:
453,157,235772,1,0,2:0:0:0:
258,254,235878,1,0,3:2:0:0:
355,254,235983,1,0,2:0:0:0:
157,254,236088,1,0,2:0:0:0:
355,254,236193,5,2,2:0:0:0:
433,254,236299,1,0,3:2:0:0:
394,254,236351,1,0,3:2:0:0:
355,254,236404,1,0,3:2:0:0:
141,115,236509,1,0,3:2:0:0:
218,115,236614,1,0,3:2:0:0:
295,115,236720,1,0,3:2:0:0:
79,254,236825,5,0,3:2:0:0:
157,254,236930,1,0,3:2:0:0:
79,254,237035,1,0,3:2:0:0:
294,171,237141,2,0,L|198:171,1,77.3333333333334,8|0,2:0|1:2,2:0:0:0:
433,254,237351,1,8,2:0:0:0:
256,256,237457,6,0,L|256:64,1,170.666666666667,4|0,1:2|2:0,2:0:0:0:
79,254,237772,2,0,L|176:256,2,85.3333333333333,8|0|0,2:0|2:0|2:0,2:0:0:0:
294,330,238088,6,0,P|349:277|294:225,1,170.666666666667,2|0,1:2|2:0,2:0:0:0:
127,160,238404,2,0,L|127:64,1,85.3333333333333,8|0,2:0|2:0,2:0:0:0:
218,49,238614,1,0,2:0:0:0:
16,48,238720,6,0,L|240:48,1,170.666666666667,2|0,1:2|2:0,2:0:0:0:
357,142,239035,2,0,L|245:142,2,85.3333333333333,8|0|0,2:0|2:0|2:0,2:0:0:0:
142,311,239351,6,0,L|334:311,1,170.666666666667,2|0,1:2|2:0,2:0:0:0:
139,114,239667,2,0,L|251:114,2,85.3333333333333,8|0|0,2:0|2:0|2:0,2:0:0:0:
354,198,239983,6,0,P|416:164|355:128,1,170.666666666667,2|0,1:2|2:0,2:0:0:0:
181,179,240299,2,0,L|181:83,1,85.3333333333333,8|0,2:0|2:0,2:0:0:0:
272,68,240509,1,0,2:0:0:0:
102,48,240614,6,0,P|40:82|101:118,1,170.666666666667,0|0,1:2|2:0,2:0:0:0:
272,68,240930,1,8,2:0:0:0:
102,48,241035,2,0,L|208:48,1,85.3333333333333,2|0,2:0|2:0,2:0:0:0:
402,235,241246,6,0,P|464:201|403:165,1,170.666666666667,2|0,1:2|2:0,2:0:0:0:
232,91,241562,2,0,L|360:91,2,85.3333333333333,8|0|0,2:0|2:0|2:0,2:0:0:0:
61,91,241878,6,0,L|253:91,1,170.666666666667,0|0,1:2|2:0,2:0:0:0:
61,91,242193,2,0,L|194:90,1,85.3333333333333,10|2,2:0|2:0,2:0:0:0:
365,90,242404,1,2,2:0:0:0:
146,90,242509,6,0,P|84:124|145:160,1,170.666666666667,2|0,1:2|2:0,2:0:0:0:
336,242,242825,1,8,2:0:0:0:
250,242,242930,1,0,2:0:0:0:
165,242,243035,1,0,2:0:0:0:
366,90,243141,6,0,P|428:124|367:160,1,170.666666666667,0|0,1:2|2:0,2:0:0:0:
152,109,243457,1,10,2:0:0:0:
322,96,243562,2,0,L|226:96,1,85.3333333333333,2|2,2:0|2:0,2:0:0:0:
24,40,243772,6,0,L|248:40,1,170.666666666667,2|0,1:2|2:0,2:0:0:0:
16,256,244088,2,0,L|16:160,1,85.3333333333333,8|0,2:0|2:0,2:0:0:0:
107,145,244299,1,0,2:0:0:0:
322,137,244404,6,0,L|98:137,1,170.666666666667,2|0,1:2|2:0,2:0:0:0:
322,137,244720,2,0,L|322:41,1,85.3333333333333,8|0,2:0|2:0,2:0:0:0:
231,26,244930,1,0,2:0:0:0:
444,238,245035,6,0,P|506:272|445:308,1,170.666666666667,2|0,1:2|2:0,2:0:0:0:
274,272,245351,2,0,L|418:272,2,85.3333333333333,8|0|0,2:0|2:0|2:0,2:0:0:0:
68,238,245667,6,0,P|6:272|67:308,1,170.666666666667,2|0,1:2|2:0,2:0:0:0:
238,272,245983,2,0,L|94:272,2,85.3333333333333,8|0|0,2:0|2:0|2:0,2:0:0:0:
453,114,246299,6,0,L|261:114,1,170.666666666667,2|0,1:2|2:0,2:0:0:0:
453,114,246614,2,0,L|326:114,2,85.3333333333333,8|0|0,2:0|2:0|2:0,2:0:0:0:
238,160,246930,6,0,P|176:194|237:230,1,170.666666666667,2|0,1:2|1:2,2:0:0:0:
408,150,247246,1,8,2:0:0:0:
191,266,247351,1,0,1:2:0:0:
363,290,247457,1,8,2:0:0:0:
150,141,247562,6,0,P|88:175|149:211,1,170.666666666667,4|0,1:2|2:0,2:0:0:0:
322,137,247878,2,0,L|322:41,1,85.3333333333333,8|0,2:0|2:0,2:0:0:0:
231,26,248088,1,0,2:0:0:0:
444,112,248193,6,0,L|236:112,1,170.666666666667,2|0,1:2|2:0,2:0:0:0:
444,112,248509,2,0,L|444:16,1,85.3333333333333,8|0,2:0|2:0,2:0:0:0:
353,1,248720,1,0,2:0:0:0:
138,254,248825,6,0,L|346:254,1,170.666666666667,2|0,1:2|2:0,2:0:0:0:
138,254,249141,2,0,L|26:254,2,85.3333333333333,8|0|0,2:0|2:0|2:0,2:0:0:0:
374,254,249457,6,0,L|166:254,1,170.666666666667,2|0,1:2|2:0,2:0:0:0:
374,254,249772,2,0,L|288:254,2,85.3333333333333,8|0|0,2:0|2:0|2:0,2:0:0:0:
161,129,250088,6,0,P|99:163|160:199,1,170.666666666667,2|0,1:2|2:0,2:0:0:0:
331,153,250404,1,8,2:0:0:0:
245,153,250509,1,0,2:0:0:0:
160,153,250614,1,0,2:0:0:0:
331,153,250720,6,0,L|509:154,1,170.666666666667,0|0,1:2|2:0,2:0:0:0:
331,61,251035,1,8,2:0:0:0:
117,224,251141,2,0,L|21:224,1,85.3333333333333,2|0,2:0|2:0,2:0:0:0:
245,68,251351,6,0,L|69:68,1,170.666666666667,2|0,1:2|2:0,2:0:0:0:
245,153,251667,2,0,L|245:57,1,85.3333333333333,8|0,2:0|2:0,2:0:0:0:
154,42,251878,1,0,2:0:0:0:
369,194,251983,6,0,P|431:228|370:264,1,170.666666666667,0|0,1:2|2:0,2:0:0:0:
199,80,252299,2,0,L|327:80,1,85.3333333333333,10|2,2:0|2:0,2:0:0:0:
496,80,252509,1,2,2:0:0:0:
284,80,252614,6,0,L|479:80,1,170.666666666667,2|0,1:2|2:0,2:0:0:0:
284,80,252930,2,0,L|284:176,1,85.3333333333333,8|0,2:0|2:0,2:0:0:0:
375,191,253141,1,0,2:0:0:0:
160,207,253246,6,0,P|98:241|159:277,1,170.666666666667,0|0,1:2|2:0,2:0:0:0:
375,191,253562,2,0,L|256:192,2,85.3333333333333,10|0|0,2:0|2:0|2:0,2:0:0:0:
160,208,253878,6,0,L|336:208,1,170.666666666667,2|0,1:2|2:0,2:0:0:0:
160,208,254193,2,0,L|48:208,2,85.3333333333333,8|0|0,2:0|2:0|2:0,2:0:0:0:
375,80,254509,6,0,L|167:80,1,170.666666666667,2|0,1:2|2:0,2:0:0:0:
419,214,254825,2,0,L|333:214,2,85.3333333333333,8|0|0,2:0|2:0|2:0,2:0:0:0:
204,345,255141,6,0,P|112:299|109:210,1,170.666666666667,2|0,1:2|2:0,2:0:0:0:
272,74,255457,1,8,2:0:0:0:
186,70,255562,1,0,2:0:0:0:
101,67,255667,1,0,2:0:0:0:
314,186,255772,6,0,P|376:220|315:256,1,170.666666666667,2|0,1:2|2:0,2:0:0:0:
144,160,256088,2,0,L|256:160,2,85.3333333333333,8|0|0,2:0|2:0|2:0,2:0:0:0:
316,346,256404,6,0,P|408:300|411:211,1,170.666666666667,2|0,1:2|2:0,2:0:0:0:
248,131,256720,2,0,L|248:35,1,85.3333333333333,8|0,2:0|2:0,2:0:0:0:
339,20,256930,1,0,2:0:0:0:
126,104,257035,6,0,P|64:138|125:174,1,170.666666666667,2|0,1:2|1:2,2:0:0:0:
339,169,257351,1,8,2:0:0:0:
124,174,257457,1,0,1:2:0:0:
295,252,257562,1,8,2:0:0:0:
82,309,257667,6,0,L|82:213,1,85.3333333333333,6|0,1:2|2:0,2:0:0:0:
173,198,257878,1,0,2:0:0:0:
345,54,257983,1,8,2:0:0:0:
254,79,258088,2,0,L|254:164,1,85.3333333333333,0|0,2:0|2:0,2:0:0:0:
469,277,258299,6,0,L|373:277,2,85.3333333333333,0|0|0,1:2|2:0|2:0,2:0:0:0:
256,176,258614,2,0,L|368:176,1,85.3333333333333,10|0,2:0|2:0,2:0:0:0:
512,176,258825,1,0,2:0:0:0:
299,99,258930,6,0,L|187:99,2,85.3333333333333,2|0|0,1:2|2:0|2:0,2:0:0:0:
127,350,259246,2,0,L|127:254,1,85.3333333333333,8|0,2:0|2:0,2:0:0:0:
218,239,259457,1,0,2:0:0:0:
0,112,259562,6,0,L|112:112,1,85.3333333333333,2|0,1:2|2:0,2:0:0:0:
298,47,259772,2,0,L|186:47,1,85.3333333333333,2|8,2:0|2:0,2:0:0:0:
426,112,259983,2,0,L|512:112,1,85.3333333333333,2|0,2:0|2:0,2:0:0:0:
298,132,260193,6,0,L|298:36,1,85.3333333333333,2|0,1:2|2:0,2:0:0:0:
389,21,260404,1,0,2:0:0:0:
217,177,260509,1,8,2:0:0:0:
308,203,260614,2,0,L|308:288,1,85.3333333333333,0|0,2:0|2:0,2:0:0:0:
93,329,260825,6,0,L|189:329,2,85.3333333333333,0|0|0,1:2|2:0|2:0,2:0:0:0:
308,119,261141,2,0,L|420:119,1,85.3333333333333,10|0,2:0|2:0,2:0:0:0:
222,42,261351,1,0,2:0:0:0:
437,132,261457,6,0,L|437:46,1,85.3333333333333,2|0,1:2|2:0,2:0:0:0:
346,20,261667,1,0,2:0:0:0:
176,20,261772,1,8,2:0:0:0:
261,20,261878,1,0,2:0:0:0:
346,20,261983,1,0,2:0:0:0:
131,185,262088,6,0,L|35:185,2,85.3333333333333,0|0|0,1:2|2:0|2:0,2:0:0:0:
346,63,262404,2,0,L|202:63,1,85.3333333333333,10|0,2:0|2:0,2:0:0:0:
90,61,262614,1,0,2:0:0:0:
305,191,262720,6,0,L|305:105,1,85.3333333333333,2|0,1:2|2:0,2:0:0:0:
214,79,262930,1,0,2:0:0:0:
384,165,263035,1,8,2:0:0:0:
293,191,263141,2,0,L|293:277,1,85.3333333333333,0|0,2:0|2:0,2:0:0:0:
508,32,263351,6,0,L|396:32,2,85.3333333333333,0|0|0,1:2|2:0|2:0,2:0:0:0:
293,29,263667,2,0,L|149:29,1,85.3333333333333,10|0,2:0|2:0,2:0:0:0:
379,209,263878,1,0,2:0:0:0:
166,288,263983,6,0,L|166:202,1,85.3333333333333,2|0,1:2|2:0,2:0:0:0:
257,176,264193,1,0,2:0:0:0:
42,38,264299,1,10,2:0:0:0:
127,38,264404,1,0,2:0:0:0:
212,38,264509,1,0,2:0:0:0:
425,103,264614,5,2,1:2:0:0:
340,103,264720,1,0,2:0:0:0:
255,103,264825,1,0,2:0:0:0:
470,340,264930,2,0,L|470:254,1,85.3333333333333,10|0,2:0|2:0,2:0:0:0:
300,114,265141,1,0,2:0:0:0:
85,41,265246,6,0,L|197:41,2,85.3333333333333,2|0|0,1:2|2:0|2:0,2:0:0:0:
256,160,265562,2,0,L|368:160,2,85.3333333333333,8|0|0,2:0|2:0|2:0,2:0:0:0:
471,114,265878,6,0,L|359:114,2,85.3333333333333,2|0|0,1:2|2:0|2:0,2:0:0:0:
300,233,266193,2,0,L|188:233,1,85.3333333333333,8|0,2:0|2:0,2:0:0:0:
387,117,266404,1,0,2:0:0:0:
173,277,266509,6,0,L|173:191,1,85.3333333333333,2|0,1:2|2:0,2:0:0:0:
264,165,266720,1,0,2:0:0:0:
436,141,266825,2,0,L|436:55,1,85.3333333333333,8|0,2:0|2:0,2:0:0:0:
264,165,267035,1,0,1:2:0:0:
471,336,267141,1,2,3:2:0:0:
256,169,267246,6,0,L|361:169,1,85.3333333333333,0|0,3:2|3:2,2:0:0:0:
170,169,267457,2,0,L|256:169,1,85.3333333333333,0|0,1:2|1:2,2:0:0:0:
41,336,267667,1,0,1:2:0:0:
256,272,267772,5,6,2:0:0:0:
256,192,267930,12,0,270299,2:0:0:0:
256,208,287193,6,0,L|128:208,1,100,0|0,2:0|2:0,2:0:0:0:
307,124,287509,1,0,2:0:0:0:
410,120,287667,1,0,2:0:0:0:
448,90,287746,1,0,2:0:0:0:
448,42,287825,1,0,2:0:0:0:
411,12,287904,1,0,2:0:0:0:
256,48,287983,6,0,L|144:48,1,100,2|0,2:0|2:0,2:0:0:0:
307,210,288299,1,0,2:0:0:0:
156,173,288457,2,0,L|44:173,1,100,2|0,2:0|2:0,2:0:0:0:
207,335,288772,1,0,2:0:0:0:
356,288,288930,2,0,L|356:176,1,100,2|0,2:0|2:0,2:0:0:0:
303,169,289167,1,0,2:0:0:0:
228,96,289246,6,0,L|356:96,1,100,0|2,2:0|2:0,2:0:0:0:
177,254,289562,2,0,L|49:254,1,100,0|0,2:0|2:0,2:0:0:0:
228,138,289878,1,2,2:0:0:0:
377,307,290035,2,0,L|505:307,1,100,2|0,2:0|2:0,2:0:0:0:
427,307,290272,1,0,2:0:0:0:
377,307,290351,1,0,2:0:0:0:
127,234,290509,6,0,L|127:122,1,100,2|0,2:0|2:0,2:0:0:0:
278,55,290825,1,0,2:0:0:0:
429,234,290983,2,0,L|429:122,1,100,2|0,2:0|2:0,2:0:0:0:
278,55,291299,1,0,2:0:0:0:
127,134,291457,2,0,L|239:134,1,100,2|0,2:0|2:0,2:0:0:0:
176,221,291693,1,0,2:0:0:0:
101,264,291772,6,0,L|101:152,1,100,0|2,2:0|2:0,2:0:0:0:
252,39,292088,2,0,L|140:39,1,100,0|0,2:0|2:0,2:0:0:0:
303,192,292404,1,2,2:0:0:0:
152,39,292562,6,0,L|152:151,1,100,2|0,2:0|2:0,2:0:0:0:
102,142,292799,1,0,2:0:0:0:
52,145,292878,1,0,2:0:0:0:
296,73,293035,6,0,L|408:73,1,100,2|0,2:0|2:0,2:0:0:0:
245,235,293351,1,0,2:0:0:0:
396,198,293509,2,0,L|496:198,1,100,2|0,2:0|2:0,2:0:0:0:
345,360,293825,1,0,2:0:0:0:
195,324,293983,2,0,L|195:212,1,100,2|0,2:0|2:0,2:0:0:0:
248,205,294220,1,0,2:0:0:0:
173,140,294299,6,0,L|61:140,1,100,0|2,2:0|2:0,2:0:0:0:
223,36,294614,2,0,L|111:36,1,100,0|0,2:0|2:0,2:0:0:0:
274,123,294930,1,2,2:0:0:0:
424,232,295088,2,0,L|312:232,1,100,2|0,2:0|2:0,2:0:0:0:
374,232,295325,1,0,2:0:0:0:
424,232,295404,1,0,2:0:0:0:
172,321,295562,6,0,L|172:209,1,100,2|0,2:0|2:0,2:0:0:0:
323,142,295878,1,0,2:0:0:0:
172,221,296035,2,0,L|60:221,1,100,2|0,2:0|2:0,2:0:0:0:
223,67,296351,1,0,2:0:0:0:
72,221,296509,2,0,L|72:109,1,100,2|0,2:0|2:0,2:0:0:0:
124,96,296746,1,0,2:0:0:0:
300,90,296825,5,0,1:2:0:0:
100,250,297141,1,0,1:2:0:0:
300,90,297457,2,0,L|154:89,1,100,8|0,2:0|1:2,2:0:0:0:
250,154,297693,1,0,1:2:0:0:
425,241,297772,2,0,L|329:241,1,50,0|0,1:2|1:2,2:0:0:0:
299,321,297930,2,0,L|395:321,1,50,0|0,1:2|1:2,2:0:0:0:
171,149,298088,6,0,L|43:149,1,100,4|0,1:2|2:0,2:0:0:0:
322,102,298562,1,0,1:2:0:0:
172,171,298720,2,0,L|164:275,1,100,0|0,2:0|2:0,2:0:0:0:
379,293,299035,2,0,L|251:293,1,100,2|0,1:2|2:0,2:0:0:0:
496,160,299351,6,0,L|368:160,1,100,2|0,1:2|2:0,2:0:0:0:
145,129,299825,1,0,1:2:0:0:
295,198,299983,2,0,L|303:302,1,100,0|0,2:0|2:0,2:0:0:0:
88,320,300299,2,0,L|216:320,1,100,2|0,1:2|2:0,2:0:0:0:
424,320,300614,6,0,L|296:320,1,100,2|0,1:2|2:0,2:0:0:0:
74,333,301088,1,0,1:2:0:0:
224,137,301246,2,0,L|232:241,1,100,0|0,2:0|2:0,2:0:0:0:
483,288,301562,1,2,1:2:0:0:
256,192,301720,1,2,2:0:0:0:
29,288,301878,6,0,L|21:184,1,100,2|0,1:2|2:0,2:0:0:0:
263,98,302193,2,0,L|119:82,1,100,2|0,1:2|1:2,2:0:0:0:
408,322,302509,2,0,L|416:218,1,100,0|0,2:0|2:0,2:0:0:0:
163,86,302825,2,0,L|337:72,1,150,6|0,1:2|2:0,2:0:0:0:
135,254,303141,6,0,P|76:167|151:110,1,200,4|8,1:2|2:0,2:0:0:0:
232,99,303614,1,0,1:2:0:0:
82,196,303772,2,0,L|74:300,1,100,0|0,1:2|2:0,2:0:0:0:
306,176,304088,2,0,L|162:176,1,100,10|0,2:0|2:0,2:0:0:0:
438,93,304404,6,0,L|214:93,1,200,2|8,1:2|2:0,2:0:0:0:
339,197,304878,1,0,2:0:0:0:
488,336,305035,2,0,L|344:336,1,100,0|0,1:2|2:0,2:0:0:0:
160,186,305351,2,0,L|304:186,1,100,10|0,2:0|2:0,2:0:0:0:
32,368,305667,6,0,P|4:266|43:164,1,200,2|8,1:2|2:0,2:0:0:0:
135,132,306141,1,0,2:0:0:0:
361,209,306299,2,0,L|233:209,1,100,2|0,1:2|2:0,2:0:0:0:
488,252,306614,1,10,2:0:0:0:
384,256,306772,2,0,L|320:256,1,50,0|0,2:0|2:0,2:0:0:0:
128,256,306930,5,14,2:0:0:0:
356,112,307088,2,0,L|256:112,1,100,0|2,1:2|1:2,2:0:0:0:
16,96,307404,1,12,2:0:0:0:
256,96,307562,2,0,L|156:96,1,100,2|0,1:2|1:2,2:0:0:0:
396,336,307878,2,0,L|496:336,1,100,14|0,2:0|2:0,2:0:0:0:
256,160,308193,5,6,1:2:0:0:
375,124,308351,1,2,2:0:0:0:
137,124,308509,1,10,2:0:0:0:
375,124,308667,2,0,P|446:201|374:278,1,232,2|2,2:0|2:0,2:0:0:0:
140,192,309141,2,0,L|256:192,1,116,10|2,2:0|2:0,2:0:0:0:
16,192,309457,5,2,1:2:0:0:
256,192,309614,2,0,L|372:192,1,116,2|10,2:0|2:0,2:0:0:0:
136,124,309930,2,0,P|65:201|137:278,1,232,2|2,2:0|2:0,2:0:0:0:
372,192,310404,2,0,L|256:192,1,116,10|2,2:0|2:0,2:0:0:0:
489,372,310720,6,0,L|496:256,1,116,2|2,1:2|2:0,2:0:0:0:
256,240,311035,1,10,2:0:0:0:
496,240,311193,2,0,P|486:137|403:45,1,232,2|2,2:0|2:0,2:0:0:0:
140,80,311667,2,0,L|256:80,1,116,10|2,2:0|2:0,2:0:0:0:
16,80,311983,5,2,1:2:0:0:
256,144,312141,1,2,2:0:0:0:
16,80,312299,1,10,2:0:0:0:
132,120,312457,1,2,2:0:0:0:
371,103,312614,1,2,1:2:0:0:
131,167,312772,1,2,2:0:0:0:
371,103,312930,1,10,2:0:0:0:
255,143,313088,1,2,2:0:0:0:
496,64,313246,6,0,L|352:64,1,116,2|2,1:2|2:0,2:0:0:0:
132,64,313562,1,10,2:0:0:0:
380,64,313720,2,0,P|451:141|379:218,1,232,2|2,2:0|2:0,2:0:0:0:
132,64,314193,2,0,L|276:64,1,116,10|2,2:0|2:0,2:0:0:0:
16,176,314509,5,2,1:2:0:0:
256,192,314667,1,2,2:0:0:0:
496,176,314825,1,10,2:0:0:0:
256,192,314983,2,0,P|185:269|257:346,1,232,2|2,2:0|2:0,2:0:0:0:
496,176,315457,1,10,2:0:0:0:
256,192,315614,1,2,2:0:0:0:
16,176,315772,6,0,L|23:60,1,116,2|2,1:2|2:0,2:0:0:0:
256,192,316088,1,10,2:0:0:0:
16,48,316246,2,0,L|256:48,1,232,2|2,2:0|2:0,2:0:0:0:
496,48,316720,2,0,L|368:48,1,116,10|2,2:0|2:0,2:0:0:0:
140,152,317035,5,2,1:2:0:0:
380,216,317193,1,2,2:0:0:0:
140,152,317351,1,10,2:0:0:0:
256,192,317509,1,2,2:0:0:0:
496,176,317667,1,10,2:0:0:0:
380,216,317825,1,2,2:0:0:0:
132,216,317983,1,10,2:0:0:0:
380,216,318141,1,2,2:0:0:0:
132,64,318299,6,0,P|61:141|133:218,1,232,4|8,1:2|2:0,2:0:0:0:
256,160,318772,1,0,2:0:0:0:
23,356,318930,2,0,L|16:240,1,116,2|2,1:2|2:0,2:0:0:0:
256,160,319246,1,10,2:0:0:0:
134,127,319404,1,2,2:0:0:0:
378,127,319562,6,0,P|445:143|499:315,1,232,2|8,1:2|2:0,2:0:0:0:
256,288,320035,2,0,L|249:172,1,116,2|0,2:0|1:0,2:0:0:0:
368,117,320351,1,0,2:0:0:0:
144,117,320509,2,0,L|151:1,1,116,10|0,2:0|2:0,2:0:0:0:
396,20,320825,6,0,L|252:20,1,116,2|2,1:2|2:0,2:0:0:0:
44,35,321141,1,10,2:0:0:0:
280,20,321299,2,0,P|351:97|279:174,1,232,2|2,2:0|2:0,2:0:0:0:
16,272,321772,2,0,L|158:272,1,116,10|2,2:0|2:0,2:0:0:0:
372,263,322088,6,0,L|100:263,1,232,2|8,1:2|2:0,2:0:0:0:
256,160,322562,1,0,2:0:0:0:
496,80,322720,2,0,L|336:80,1,116,2|0,1:2|2:0,2:0:0:0:
132,80,323035,1,10,2:0:0:0:
380,80,323193,1,8,2:0:0:0:
32,320,323351,6,0,L|25:204,1,116,2|0,1:2|2:0,2:0:0:0:
256,115,323667,2,0,L|140:115,1,116,8|0,2:0|2:0,2:0:0:0:
372,75,323983,1,2,1:2:0:0:
256,115,324141,1,2,2:0:0:0:
24,116,324299,1,10,2:0:0:0:
256,115,324457,1,2,2:0:0:0:
496,192,324614,6,0,L|368:192,1,116,2|0,1:2|2:0,2:0:0:0:
140,115,324930,2,0,L|268:115,1,116,8|0,2:0|2:0,2:0:0:0:
110,280,325246,2,0,L|103:164,1,116,0|0,1:2|2:0,2:0:0:0:
380,80,325562,1,10,2:0:0:0:
132,80,325720,1,2,2:0:0:0:
380,80,325878,6,0,L|512:80,1,116,2|0,1:2|2:0,2:0:0:0:
198,35,326193,2,0,L|314:35,1,116,10|0,2:0|2:0,2:0:0:0:
16,208,326509,2,0,L|9:92,1,116,2|0,1:2|2:0,2:0:0:0:
252,352,326825,2,0,L|259:236,1,116,10|0,2:0|2:0,2:0:0:0:
496,176,327141,5,2,1:2:0:0:
351,96,327299,2,0,L|409:96,1,58,8|8,2:0|2:0,2:0:0:0:
233,36,327457,2,0,L|89:36,1,116,8|0,2:0|1:2,2:0:0:0:
351,259,327772,2,0,L|293:259,1,58,10|0,2:0|2:0,2:0:0:0:
116,134,327930,2,0,L|253:134,1,116,0|8,1:2|2:0,2:0:0:0:
463,139,328246,1,0,1:2:0:0:
205,98,328404,5,6,1:2:0:0:
351,259,328562,2,0,L|351:115,1,116,0|0,2:0|2:0,2:0:0:0:
205,98,328878,1,0,2:0:0:0:
437,211,329035,2,0,L|437:67,1,116,8|0,2:0|2:0,2:0:0:0:
205,98,329351,2,0,L|356:98,1,116,2|0,2:0|2:0,2:0:0:0:
89,98,329667,6,0,L|240:98,1,116,2|0,1:2|2:0,2:0:0:0:
351,204,329983,2,0,L|200:204,1,116,0|0,2:0|2:0,2:0:0:0:
16,240,330299,2,0,L|16:96,1,116,8|0,2:0|2:0,2:0:0:0:
256,96,330614,2,0,L|112:96,1,116,2|0,2:0|2:0,2:0:0:0:
372,96,330930,6,0,L|228:96,1,116,2|0,1:2|2:0,2:0:0:0:
402,318,331246,2,0,L|402:174,1,116,0|0,2:0|2:0,2:0:0:0:
110,318,331562,2,0,L|110:174,1,116,8|0,2:0|2:0,2:0:0:0:
344,127,331878,1,2,2:0:0:0:
200,108,332035,1,2,2:0:0:0:
432,232,332193,6,0,L|432:88,1,116,2|0,1:2|2:0,2:0:0:0:
198,23,332509,2,0,L|342:23,1,116,2|0,2:0|2:0,2:0:0:0:
80,232,332825,2,0,L|80:88,1,116,10|0,2:0|2:0,2:0:0:0:
314,139,333141,2,0,L|314:-5,1,116,2|0,2:0|2:0,2:0:0:0:
16,16,333457,5,2,1:2:0:0:
44,127,333614,1,0,2:0:0:0:
123,210,333772,1,0,2:0:0:0:
233,241,333930,1,0,2:0:0:0:
464,160,334088,2,0,L|348:160,1,116,10|0,2:0|2:0,2:0:0:0:
117,241,334404,2,0,L|233:241,1,116,2|0,2:0|2:0,2:0:0:0:
496,16,334720,5,2,1:2:0:0:
468,127,334878,1,0,2:0:0:0:
389,210,335035,1,0,2:0:0:0:
279,241,335193,1,0,2:0:0:0:
48,160,335351,2,0,L|164:160,1,116,10|0,2:0|2:0,2:0:0:0:
395,241,335667,2,0,L|279:241,1,116,2|0,2:0|2:0,2:0:0:0:
16,240,335983,5,2,1:2:0:0:
161,103,336141,2,0,L|161:231,1,116,0|0,2:0|2:0,2:0:0:0:
395,164,336457,1,2,2:0:0:0:
161,103,336614,2,0,L|310:103,1,116,8|0,2:0|2:0,2:0:0:0:
496,32,336930,2,0,L|347:32,1,116,2|0,2:0|2:0,2:0:0:0:
117,32,337246,5,2,1:2:0:0:
233,140,337404,2,0,L|233:236,1,58,0|0,1:2|1:2,2:0:0:0:
56,280,337562,2,0,L|200:280,1,116,0|0,1:2|2:0,2:0:0:0:
393,142,337878,2,0,L|233:142,1,116,8|0,2:0|2:0,2:0:0:0:
496,48,338193,2,0,L|336:48,1,116,0|0,1:2|2:0,2:0:0:0:
88,161,338509,5,6,1:2:0:0:
233,24,338667,2,0,L|233:152,1,116,0|0,2:0|2:0,2:0:0:0:
467,192,338983,1,0,2:0:0:0:
233,140,339141,2,0,L|361:140,1,116,8|0,2:0|2:0,2:0:0:0:
116,304,339457,2,0,L|0:304,1,116,2|0,2:0|2:0,2:0:0:0:
247,195,339772,5,2,1:2:0:0:
102,202,339930,1,0,2:0:0:0:
247,79,340088,2,0,L|247:207,1,116,0|0,2:0|2:0,2:0:0:0:
496,208,340404,2,0,L|352:208,1,116,8|0,2:0|2:0,2:0:0:0:
146,33,340720,2,0,L|290:33,1,116,2|0,2:0|2:0,2:0:0:0:
496,324,341035,6,0,L|496:208,1,116,2|0,1:2|2:0,2:0:0:0:
351,345,341351,1,0,2:0:0:0:
496,208,341509,1,0,2:0:0:0:
264,312,341667,2,0,L|143:312,1,116,8|0,2:0|2:0,2:0:0:0:
294,152,341983,2,0,L|294:36,1,116,2|0,2:0|2:0,2:0:0:0:
16,48,342299,6,0,L|144:48,1,116,2|0,1:2|2:0,2:0:0:0:
380,48,342614,2,0,L|496:48,1,116,2|0,2:0|2:0,2:0:0:0:
256,160,342930,2,0,L|372:160,1,116,10|0,2:0|2:0,2:0:0:0:
132,48,343246,2,0,L|16:48,1,116,2|0,2:0|2:0,2:0:0:0:
256,160,343562,6,0,L|372:160,2,116,2|0|0,1:2|2:0|2:0,2:0:0:0:
16,160,344035,1,2,2:0:0:0:
256,160,344193,2,0,L|140:160,1,116,8|0,2:0|2:0,2:0:0:0:
374,282,344509,2,0,L|374:166,1,116,2|0,2:0|2:0,2:0:0:0:
82,229,344825,6,0,L|82:113,1,116,2|0,1:2|2:0,2:0:0:0:
316,132,345141,2,0,L|186:132,1,116,2|0,2:0|2:0,2:0:0:0:
432,132,345457,2,0,L|302:132,1,116,10|0,2:0|2:0,2:0:0:0:
80,132,345772,2,0,L|210:132,1,116,2|0,2:0|2:0,2:0:0:0:
496,272,346088,5,2,1:2:0:0:
384,136,346246,1,0,2:0:0:0:
273,58,346404,1,0,2:0:0:0:
16,48,346562,1,2,2:0:0:0:
273,58,346720,2,0,L|410:58,1,116,8|0,2:0|2:0,2:0:0:0:
123,58,347035,1,2,2:0:0:0:
240,160,347193,2,0,L|160:160,1,58,0|0,1:2|1:0,2:0:0:0:
16,160,347351,5,10,1:2:0:0:
310,338,347509,2,0,P|402:280|353:169,1,232,8|0,1:2|1:2,2:0:0:0:
128,160,347983,1,8,2:0:0:0:
384,160,348141,1,8,2:0:0:0:
100,88,348299,1,8,2:0:0:0:
412,88,348457,1,8,2:0:0:0:
128,160,348614,5,6,1:2:0:0:
194,154,348693,1,0,2:0:0:0:
258,160,348772,2,0,L|264:81,1,64,0|0,2:0|2:0,2:0:0:0:
101,261,348930,2,0,L|95:182,1,64,8|0,2:0|2:0,2:0:0:0:
291,282,349088,5,2,1:2:0:0:
225,276,349167,1,0,2:0:0:0:
161,282,349246,2,0,L|265:292,1,64,0|0,2:0|2:0,2:0:0:0:
387,224,349404,2,0,L|383:287,1,64,0|0,1:0|2:0,2:0:0:0:
187,66,349562,5,10,2:0:0:0:
253,60,349641,1,0,2:0:0:0:
445,47,349720,2,0,L|341:57,1,64,0|0,2:0|2:0,2:0:0:0:
219,107,349878,2,0,L|115:117,1,64,2|0,1:2|2:0,2:0:0:0:
349,222,350035,5,2,2:0:0:0:
189,201,350114,1,0,2:0:0:0:
29,180,350193,2,0,L|119:171,1,64,10|0,2:0|2:0,2:0:0:0:
287,124,350351,2,0,L|377:115,1,64,2|0,1:2|2:0,2:0:0:0:
156,90,350509,6,0,L|150:11,1,64,2|0,2:0|2:0,2:0:0:0:
321,205,350667,2,0,L|327:126,1,64,0|0,1:0|2:0,2:0:0:0:
496,176,350825,1,10,2:0:0:0:
504,113,350904,1,0,2:0:0:0:
468,62,350983,1,0,2:0:0:0:
407,47,351062,1,0,2:0:0:0:
212,256,351141,5,2,1:2:0:0:
278,250,351220,1,0,2:0:0:0:
342,256,351299,2,0,L|348:177,1,64,0|0,2:0|2:0,2:0:0:0:
185,138,351457,2,0,L|179:59,1,64,8|0,2:0|2:0,2:0:0:0:
372,70,351614,5,2,1:2:0:0:
306,64,351693,1,0,2:0:0:0:
242,70,351772,2,0,L|346:80,1,64,0|0,2:0|2:0,2:0:0:0:
468,298,351930,2,0,L|364:308,1,64,0|0,1:0|2:0,2:0:0:0:
210,363,352088,5,10,2:0:0:0:
144,357,352167,1,0,2:0:0:0:
336,124,352246,2,0,L|232:134,1,64,0|0,2:0|2:0,2:0:0:0:
110,194,352404,2,0,L|104:115,1,64,2|0,1:2|2:0,2:0:0:0:
300,276,352562,5,2,2:0:0:0:
460,255,352641,1,0,2:0:0:0:
300,276,352720,2,0,L|185:266,1,64,10|0,2:0|2:0,2:0:0:0:
431,90,352878,2,0,L|334:87,1,64,2|0,1:2|2:0,2:0:0:0:
175,298,353035,6,0,L|169:219,1,64,2|0,2:0|2:0,2:0:0:0:
368,88,353193,2,0,L|374:167,1,64,0|0,1:0|2:0,2:0:0:0:
176,190,353351,1,10,2:0:0:0:
160,129,353430,1,0,2:0:0:0:
192,76,353509,1,0,2:0:0:0:
253,62,353588,1,0,2:0:0:0:
58,66,353667,5,6,1:2:0:0:
124,60,353746,1,0,2:0:0:0:
188,66,353825,2,0,L|194:-13,1,64,0|0,2:0|2:0,2:0:0:0:
31,160,353983,2,0,L|143:160,1,64,8|0,2:0|2:0,2:0:0:0:
290,285,354141,5,2,1:2:0:0:
224,279,354220,1,0,2:0:0:0:
160,285,354299,2,0,L|264:295,1,64,0|0,2:0|2:0,2:0:0:0:
386,319,354457,2,0,L|392:240,1,64,0|0,1:0|2:0,2:0:0:0:
198,87,354614,5,10,2:0:0:0:
132,81,354693,1,0,2:0:0:0:
324,222,354772,2,0,L|414:213,1,64,0|0,2:0|2:0,2:0:0:0:
204,193,354930,2,0,L|198:114,1,64,2|0,1:2|2:0,2:0:0:0:
16,128,355088,5,2,2:0:0:0:
176,107,355167,1,0,2:0:0:0:
336,86,355246,2,0,L|246:77,1,64,10|0,2:0|2:0,2:0:0:0:
78,185,355404,2,0,L|168:176,1,64,2|0,1:2|2:0,2:0:0:0:
336,348,355562,6,0,L|426:339,1,64,2|0,2:0|2:0,2:0:0:0:
237,233,355720,2,0,L|231:154,1,64,0|0,1:0|2:0,2:0:0:0:
70,141,355878,1,10,2:0:0:0:
54,80,355957,1,0,2:0:0:0:
86,27,356035,1,0,2:0:0:0:
147,13,356114,1,0,2:0:0:0:
339,204,356193,5,2,1:2:0:0:
273,198,356272,1,0,2:0:0:0:
209,204,356351,2,0,L|203:125,1,64,0|0,2:0|2:0,2:0:0:0:
366,102,356509,2,0,L|372:23,1,64,8|0,2:0|2:0,2:0:0:0:
176,312,356667,5,2,1:2:0:0:
242,306,356746,1,0,2:0:0:0:
306,312,356825,2,0,L|202:322,1,64,0|0,2:0|2:0,2:0:0:0:
405,317,356983,2,0,L|411:238,1,64,0|0,1:0|2:0,2:0:0:0:
215,145,357141,5,10,2:0:0:0:
149,139,357220,1,0,2:0:0:0:
341,109,357299,2,0,L|445:119,1,64,0|0,2:0|2:0,2:0:0:0:
210,145,357457,2,0,L|132:137,1,64,12|0,2:0|2:0,2:0:0:0:
339,277,357614,5,0,1:0:0:0:
179,256,357693,1,0,2:0:0:0:
19,235,357772,2,0,L|109:226,1,64,0|0,1:0|2:0,2:0:0:0:
277,176,357930,2,0,L|367:167,1,64,12|0,2:0|2:0,2:0:0:0:
146,79,358088,6,0,L|56:70,1,64,0|0,1:0|2:0,2:0:0:0:
244,166,358246,2,0,L|250:87,1,64,0|0,1:0|2:0,2:0:0:0:
411,207,358404,2,0,L|501:198,1,64,12|0,2:0|2:0,2:0:0:0:
313,294,358562,2,0,L|307:215,1,64,0|0,2:0|2:0,2:0:0:0:
146,79,358720,6,0,L|28:68,2,100,6|2|2,2:0|2:0|2:0,2:0:0:0:
296,244,359193,2,0,L|71:228,1,200,2|0,2:0|2:0,2:0:0:0:
248,341,359667,2,0,L|256:213,1,100,2|0,2:0|2:0,2:0:0:0:
496,176,359983,5,2,2:0:0:0:
346,197,360141,2,0,L|338:69,1,100,2|2,2:0|2:0,2:0:0:0:
189,56,360457,2,0,L|408:48,1,200,2|0,2:0|2:0,2:0:0:0:
239,257,360930,2,0,L|99:264,1,100,2|0,2:0|2:0,2:0:0:0:
397,123,361246,6,0,L|496:128,2,100,2|0|0,2:0|2:0|2:0,2:0:0:0:
245,110,361720,2,0,P|178:148|267:209,1,200,2|0,2:0|2:0,2:0:0:0:
392,324,362193,2,0,L|293:328,1,100,2|0,2:0|2:0,2:0:0:0:
39,343,362509,5,2,2:0:0:0:
164,329,362667,1,0,2:0:0:0:
16,240,362825,2,0,L|8:112,1,100,0|0,2:0|2:0,2:0:0:0:
247,229,363141,1,2,2:0:0:0:
122,215,363299,1,0,2:0:0:0:
270,126,363457,2,0,L|278:-2,1,100,0|0,2:0|2:0,2:0:0:0:
512,48,363772,6,0,L|387:42,2,100,2|2|2,2:0|2:0|2:0,2:0:0:0:
361,164,364246,2,0,P|294:202|383:263,1,200,2|2,2:0|2:0,2:0:0:0:
206,88,364720,2,0,L|331:82,1,100,2|2,2:0|2:0,2:0:0:0:
56,278,365035,5,2,2:0:0:0:
181,253,365193,1,2,2:0:0:0:
31,168,365351,1,2,2:0:0:0:
253,80,365509,2,0,P|320:118|231:179,1,200,2|2,2:0|2:0,2:0:0:0:
481,168,365983,2,0,L|353:168,1,100,2|2,2:0|2:0,2:0:0:0:
129,174,366299,5,2,2:0:0:0:
279,130,366457,2,0,L|287:2,1,100,0|0,2:0|2:0,2:0:0:0:
436,40,366772,2,0,L|212:40,1,200,2|2,2:0|2:0,2:0:0:0:
85,144,367246,2,0,L|213:144,1,100,0|0,2:0|2:0,2:0:0:0:
437,216,367562,5,2,2:0:0:0:
312,173,367720,1,0,2:0:0:0:
464,64,367878,2,0,L|336:64,1,100,0|0,2:0|2:0,2:0:0:0:
114,115,368193,2,0,L|214:115,1,100,2|0,2:0|2:0,2:0:0:0:
62,224,368509,1,0,2:0:0:0:
187,267,368667,1,0,2:0:0:0:
481,351,368825,6,0,P|507:205|479:58,1,300.000000000001,2|0,2:0|2:0,2:0:0:0:
454,5,369614,1,0,2:0:0:0:
304,94,369772,1,0,2:0:0:0:
416,68,369930,1,0,2:0:0:0:
162,352,370088,6,0,P|45:308|12:212,2,225.000000000001,2|0|0,2:0|2:0|2:0,2:0:0:0:
421,192,371351,6,0,L|496:192,2,75.0000000000002,2|0|0,2:0|2:0|2:0,2:0:0:0:
308,101,371825,2,0,L|468:101,1,150,0|0,2:0|2:0,2:0:0:0:
344,13,372299,2,0,L|248:13,1,75.0000000000002,0|0,2:0|2:0,2:0:0:0:
48,16,372614,6,0,P|6:116|48:217,1,225.000000000001,2|0,2:0|2:0,2:0:0:0:
211,281,373246,2,0,P|241:227|193:191,1,112.5,2|0,2:0|2:0,2:0:0:0:
66,98,373562,2,0,L|358:97,1,232,12|0,2:0|1:2,2:0:0:0:
17,241,373878,6,0,L|145:240,1,116.000003540039,6|0,1:2|2:0,2:0:0:0:
360,356,374193,2,0,L|367:240,1,116,8|0,2:0|2:0,2:0:0:0:
132,126,374509,1,2,1:2:0:0:
256,112,374667,1,2,2:0:0:0:
0,96,374825,1,10,2:0:0:0:
256,112,374983,1,2,2:0:0:0:
512,96,375141,6,0,L|374:89,1,116,2|0,1:2|2:0,2:0:0:0:
141,117,375457,2,0,L|279:110,1,116,8|0,2:0|2:0,2:0:0:0:
112,356,375772,2,0,L|105:240,1,116,2|0,1:2|2:0,2:0:0:0:
368,144,376088,1,10,2:0:0:0:
144,144,376246,1,2,2:0:0:0:
368,272,376404,6,0,L|528:272,1,116,2|0,1:2|2:0,2:0:0:0:
144,272,376720,2,0,L|-16:272,1,116,10|0,2:0|2:0,2:0:0:0:
368,272,377035,2,0,L|375:156,1,116,2|0,1:2|2:0,2:0:0:0:
144,272,377351,2,0,L|137:156,1,116,10|0,2:0|2:0,2:0:0:0:
429,56,377667,5,2,1:2:0:0:
304,144,377825,2,0,L|400:144,1,58,8|8,2:0|2:0,2:0:0:0:
185,60,377983,2,0,L|41:60,1,116,8|0,2:0|1:2,2:0:0:0:
304,16,378299,2,0,L|208:16,1,58,10|8,2:0|2:0,2:0:0:0:
69,212,378457,2,0,L|213:212,1,116,8|8,2:0|2:0,2:0:0:0:
443,212,378772,1,8,2:0:0:0:
185,212,378930,5,6,1:2:0:0:
330,314,379088,2,0,L|337:198,1,116,0|0,2:0|2:0,2:0:0:0:
483,135,379404,1,0,2:0:0:0:
251,180,379562,2,0,L|244:64,1,116,8|0,2:0|2:0,2:0:0:0:
478,61,379878,2,0,L|345:52,1,116,2|0,2:0|2:0,2:0:0:0:
130,323,380193,6,0,L|263:314,1,116,2|0,1:2|2:0,2:0:0:0:
123,323,380509,1,0,2:0:0:0:
0,176,380667,1,0,2:0:0:0:
232,195,380825,2,0,L|239:79,1,116,8|0,2:0|2:0,2:0:0:0:
5,76,381141,2,0,L|138:67,1,116,2|0,2:0|2:0,2:0:0:0:
392,68,381457,6,0,L|507:76,1,116,2|0,1:2|2:0,2:0:0:0:
362,224,381772,1,0,2:0:0:0:
508,76,381930,1,0,2:0:0:0:
260,200,382088,2,0,L|253:84,1,116,8|0,2:0|2:0,2:0:0:0:
4,76,382404,1,2,2:0:0:0:
150,224,382562,1,2,2:0:0:0:
440,354,382720,6,0,L|447:238,1,116,2|0,1:2|2:0,2:0:0:0:
232,83,383035,2,0,L|392:67,1,116,2|0,2:0|2:0,2:0:0:0:
132,315,383351,2,0,L|16:304,1,116,10|0,2:0|2:0,2:0:0:0:
250,234,383667,2,0,L|257:118,1,116,2|0,2:0|2:0,2:0:0:0:
491,142,383983,6,0,L|341:129,1,116,2|0,1:2|2:0,2:0:0:0:
229,70,384299,1,0,2:0:0:0:
345,89,384457,1,0,2:0:0:0:
134,350,384614,2,0,L|127:234,1,116,10|0,2:0|2:0,2:0:0:0:
378,350,384930,2,0,L|385:234,1,116,2|0,2:0|2:0,2:0:0:0:
93,114,385246,5,2,1:2:0:0:
238,216,385404,2,0,L|245:100,1,116,0|0,2:0|2:0,2:0:0:0:
99,114,385720,1,0,2:0:0:0:
336,64,385878,2,0,L|464:64,1,116,10|0,2:0|2:0,2:0:0:0:
176,64,386193,2,0,L|48:64,1,116,2|0,2:0|2:0,2:0:0:0:
352,213,386509,5,2,1:2:0:0:
207,315,386667,2,0,L|200:199,1,116,0|0,2:0|2:0,2:0:0:0:
436,129,386983,1,2,2:0:0:0:
201,199,387141,2,0,L|345:199,1,116,8|0,2:0|2:0,2:0:0:0:
83,204,387457,2,0,L|76:88,1,116,2|0,2:0|2:0,2:0:0:0:
366,63,387772,5,2,1:2:0:0:
221,26,387930,2,0,L|301:26,1,58,0|0,1:2|1:2,2:0:0:0:
456,132,388088,2,0,L|328:132,1,116,0|0,1:2|2:0,2:0:0:0:
120,136,388404,2,0,L|248:136,1,116,8|0,2:0|2:0,2:0:0:0:
16,48,388720,2,0,L|144:48,1,116,0|0,1:2|2:0,2:0:0:0:
368,160,389035,5,6,1:2:0:0:
224,64,389193,2,0,L|352:64,1,116,0|0,2:0|2:0,2:0:0:0:
106,206,389509,1,2,2:0:0:0:
334,179,389667,2,0,L|341:63,1,116,8|0,2:0|2:0,2:0:0:0:
113,321,389983,2,0,L|106:205,1,116,2|0,2:0|2:0,2:0:0:0:
398,169,390299,5,2,1:2:0:0:
253,145,390457,1,0,2:0:0:0:
398,169,390614,2,0,L|405:53,1,116,0|0,2:0|2:0,2:0:0:0:
171,346,390930,2,0,L|164:230,1,116,8|0,2:0|2:0,2:0:0:0:
398,169,391246,2,0,L|240:160,1,116,2|0,2:0|2:0,2:0:0:0:
16,128,391562,5,2,1:2:0:0:
134,104,391720,1,0,2:0:0:0:
279,275,391878,1,0,2:0:0:0:
161,251,392035,1,2,2:0:0:0:
386,156,392193,2,0,L|514:156,1,116,8|0,2:0|2:0,2:0:0:0:
356,272,392509,2,0,L|349:156,1,116,2|0,2:0|2:0,2:0:0:0:
110,95,392825,6,0,L|238:95,1,116,2|0,1:2|2:0,2:0:0:0:
462,44,393141,2,0,L|334:44,1,116,2|0,2:0|2:0,2:0:0:0:
116,320,393457,2,0,L|0:320,1,116,10|0,2:0|2:0,2:0:0:0:
234,296,393772,2,0,L|241:180,1,116,2|0,2:0|2:0,2:0:0:0:
479,91,394088,5,2,1:2:0:0:
334,193,394246,2,0,L|327:77,1,116,0|0,2:0|2:0,2:0:0:0:
93,66,394562,1,2,2:0:0:0:
334,193,394720,2,0,L|341:309,1,116,8|0,2:0|2:0,2:0:0:0:
93,66,395035,2,0,L|86:182,1,116,2|0,2:0|2:0,2:0:0:0:
318,80,395351,6,0,L|190:80,1,116,2|0,1:2|2:0,2:0:0:0:
419,66,395667,2,0,L|426:182,1,116,2|0,2:0|2:0,2:0:0:0:
194,80,395983,2,0,L|322:80,1,116,10|0,2:0|2:0,2:0:0:0:
93,66,396299,2,0,L|86:182,1,116,2|0,2:0|2:0,2:0:0:0:
368,320,396614,5,2,1:2:0:0:
252,288,396772,1,0,2:0:0:0:
380,208,396930,1,0,2:0:0:0:
496,176,397088,1,2,2:0:0:0:
256,112,397246,2,0,L|112:112,2,116,8|0|2,2:0|2:0|2:0,2:0:0:0:
400,32,397720,2,0,L|304:32,1,58,0|0,1:2|1:0,2:0:0:0:
112,32,397878,5,10,1:2:0:0:
400,32,398035,1,8,1:2:0:0:
40,163,398509,5,8,2:0:0:0:
472,163,398667,1,8,2:0:0:0:
96,260,399141,6,0,L|90:181,1,64,6|0,1:2|2:0,2:0:0:0:
172,148,399299,2,0,L|178:69,1,64,0|0,2:0|2:0,2:0:0:0:
368,208,399457,2,0,L|480:208,1,64,8|0,2:0|2:0,2:0:0:0:
272,96,399614,2,0,L|266:17,1,64,2|0,1:2|2:0,2:0:0:0:
462,30,399772,5,0,2:0:0:0:
302,27,399851,1,0,2:0:0:0:
142,113,399930,2,0,L|37:112,1,64,0|0,1:0|2:0,2:0:0:0:
273,261,400088,2,0,L|279:182,1,64,10|0,2:0|2:0,2:0:0:0:
116,79,400246,2,0,L|110:0,1,64,0|0,2:0|2:0,2:0:0:0:
306,185,400404,6,0,L|411:184,1,64,2|0,1:2|2:0,2:0:0:0:
289,115,400562,2,0,L|184:114,1,64,2|0,2:0|2:0,2:0:0:0:
420,349,400720,2,0,L|426:270,1,64,10|0,2:0|2:0,2:0:0:0:
263,96,400878,2,0,L|257:17,1,64,2|0,1:2|2:0,2:0:0:0:
66,162,401035,5,2,2:0:0:0:
226,159,401114,1,0,2:0:0:0:
386,275,401193,2,0,L|323:275,1,64,2|0,1:2|2:0,2:0:0:0:
128,227,401351,2,0,L|65:226,1,64,10|0,2:0|2:0,2:0:0:0:
226,96,401509,2,0,L|290:95,1,64,0|0,2:0|2:0,2:0:0:0:
485,9,401667,6,0,L|421:8,1,64,2|0,1:2|2:0,2:0:0:0:
340,121,401825,2,0,L|404:122,1,64,0|0,2:0|2:0,2:0:0:0:
209,315,401983,2,0,L|203:236,1,64,8|0,2:0|2:0,2:0:0:0:
366,211,402141,2,0,L|372:132,1,64,2|0,1:2|2:0,2:0:0:0:
176,116,402299,5,0,2:0:0:0:
16,113,402378,1,0,2:0:0:0:
176,116,402457,2,0,L|292:115,1,64,0|0,1:0|2:0,2:0:0:0:
48,205,402614,2,0,L|42:126,1,64,10|0,2:0|2:0,2:0:0:0:
205,101,402772,2,0,L|211:22,1,64,0|0,2:0|2:0,2:0:0:0:
405,101,402930,6,0,L|309:101,1,64,2|0,1:2|2:0,2:0:0:0:
260,198,403088,2,0,L|254:119,1,64,2|0,2:0|2:0,2:0:0:0:
450,186,403246,2,0,L|354:186,1,64,10|0,2:0|2:0,2:0:0:0:
191,105,403404,2,0,L|127:105,1,64,2|0,1:2|2:0,2:0:0:0:
322,100,403562,5,2,2:0:0:0:
482,97,403641,1,0,2:0:0:0:
322,100,403720,2,0,L|316:21,1,64,2|0,1:2|2:0,2:0:0:0:
122,20,403878,2,0,L|42:20,1,64,10|0,2:0|2:0,2:0:0:0:
218,175,404035,2,0,L|224:96,1,64,0|0,2:0|2:0,2:0:0:0:
28,346,404193,6,0,L|22:267,1,64,2|0,1:2|2:0,2:0:0:0:
104,249,404351,2,0,L|24:249,1,64,0|0,2:0|2:0,2:0:0:0:
235,121,404509,2,0,L|315:121,1,64,8|0,2:0|2:0,2:0:0:0:
137,194,404667,2,0,L|131:115,1,64,2|0,1:2|2:0,2:0:0:0:
327,81,404825,5,0,2:0:0:0:
487,78,404904,1,0,2:0:0:0:
327,81,404983,2,0,L|224:81,1,64,0|0,1:0|2:0,2:0:0:0:
458,299,405141,2,0,L|464:220,1,64,10|0,2:0|2:0,2:0:0:0:
301,145,405299,2,0,L|404:145,1,64,0|0,2:0|2:0,2:0:0:0:
170,347,405457,6,0,L|164:268,1,64,2|0,1:2|2:0,2:0:0:0:
245,260,405614,2,0,L|239:181,1,64,2|0,2:0|2:0,2:0:0:0:
45,109,405772,2,0,L|141:109,1,64,10|0,2:0|2:0,2:0:0:0:
271,63,405930,2,0,L|277:-16,1,64,2|0,1:2|2:0,2:0:0:0:
471,262,406088,5,2,2:0:0:0:
311,259,406167,1,0,2:0:0:0:
151,258,406246,2,0,L|145:179,1,64,2|0,1:2|2:0,2:0:0:0:
341,53,406404,2,0,L|245:53,1,64,10|0,2:0|2:0,2:0:0:0:
115,147,406562,2,0,L|211:147,1,64,0|0,2:0|2:0,2:0:0:0:
374,335,406720,6,0,L|368:256,1,64,2|0,1:2|2:0,2:0:0:0:
288,255,406878,2,0,L|282:176,1,64,0|0,2:0|2:0,2:0:0:0:
475,106,407035,2,0,L|481:27,1,64,8|0,2:0|2:0,2:0:0:0:
318,268,407193,2,0,L|312:189,1,64,2|0,1:2|2:0,2:0:0:0:
118,241,407351,5,0,2:0:0:0:
278,238,407430,1,0,2:0:0:0:
438,237,407509,2,0,L|444:158,1,64,0|0,1:0|2:0,2:0:0:0:
248,92,407667,2,0,L|242:13,1,64,10|0,2:0|2:0,2:0:0:0:
405,249,407825,2,0,L|411:170,1,64,0|0,2:0|2:0,2:0:0:0:
215,127,407983,6,0,L|103:127,1,64,2|0,1:2|2:0,2:0:0:0:
70,296,408141,2,0,L|182:296,1,64,0|0,2:0|2:0,2:0:0:0:
329,26,408299,2,0,L|217:26,1,64,10|0,2:0|2:0,2:0:0:0:
103,302,408457,2,0,L|215:302,1,64,0|0,1:0|2:0,2:0:0:0:
361,157,408614,5,2,2:0:0:0:
201,157,408693,1,0,2:0:0:0:
41,154,408772,2,0,L|153:154,1,64,0|0,1:0|2:0,2:0:0:0:
297,157,408930,2,0,L|361:157,1,64,10|0,2:0|2:0,2:0:0:0:
199,54,409088,2,0,L|263:54,1,64,0|0,2:0|2:0,2:0:0:0:
458,320,409246,6,0,L|464:241,1,64,6|0,1:2|2:0,2:0:0:0:
382,205,409404,2,0,L|388:126,1,64,0|0,2:0|2:0,2:0:0:0:
191,294,409562,2,0,L|185:215,1,64,8|0,2:0|2:0,2:0:0:0:
348,70,409720,2,0,L|268:70,1,64,2|0,1:2|2:0,2:0:0:0:
90,41,409878,5,0,2:0:0:0:
250,38,409957,1,0,2:0:0:0:
410,124,410035,2,0,L|515:123,1,64,0|0,1:0|2:0,2:0:0:0:
282,140,410193,2,0,L|177:139,1,64,10|0,2:0|2:0,2:0:0:0:
380,290,410351,2,0,L|386:211,1,64,0|0,2:0|2:0,2:0:0:0:
190,253,410509,6,0,L|184:174,1,64,2|0,1:2|2:0,2:0:0:0:
266,180,410667,2,0,L|272:101,1,64,0|0,2:0|2:0,2:0:0:0:
76,26,410825,2,0,L|-20:26,1,64,10|0,2:0|2:0,2:0:0:0:
174,176,410983,2,0,L|270:176,1,64,0|0,1:0|2:0,2:0:0:0:
433,43,411141,5,2,2:0:0:0:
273,40,411220,1,0,2:0:0:0:
113,126,411299,2,0,L|206:126,1,64,0|0,1:0|2:0,2:0:0:0:
372,240,411457,2,0,L|465:240,1,64,10|0,2:0|2:0,2:0:0:0:
276,97,411614,2,0,L|183:97,1,64,0|0,2:0|2:0,2:0:0:0:
18,336,411772,6,0,L|111:336,1,64,2|0,1:2|2:0,2:0:0:0:
163,213,411930,2,0,L|70:213,1,64,0|0,2:0|2:0,2:0:0:0:
293,305,412088,2,0,L|299:226,1,64,8|0,2:0|2:0,2:0:0:0:
136,133,412246,2,0,L|130:54,1,64,2|0,1:2|2:0,2:0:0:0:
326,50,412404,5,0,2:0:0:0:
486,47,412483,1,0,2:0:0:0:
326,50,412562,2,0,L|226:49,1,64,0|0,1:0|2:0,2:0:0:0:
68,276,412720,2,0,L|168:275,1,64,10|0,2:0|2:0,2:0:0:0:
294,111,412878,2,0,L|358:111,1,64,0|0,2:0|2:0,2:0:0:0:
166,235,413035,6,0,L|160:156,1,64,2|0,1:2|2:0,2:0:0:0:
242,160,413193,2,0,L|320:160,1,64,0|0,2:0|2:0,2:0:0:0:
111,355,413351,2,0,L|117:276,1,64,10|0,2:0|2:0,2:0:0:0:
311,202,413509,2,0,L|389:202,1,64,0|0,1:0|2:0,2:0:0:0:
181,50,413667,5,2,2:0:0:0:
21,47,413746,1,0,2:0:0:0:
181,50,413825,2,0,L|187:129,1,64,0|0,1:0|2:0,2:0:0:0:
380,271,413983,2,0,L|476:271,1,64,10|0,2:0|2:0,2:0:0:0:
249,132,414141,2,0,L|345:132,1,64,0|0,2:0|2:0,2:0:0:0:
507,130,414299,6,0,L|513:209,1,64,2|0,1:2|2:0,2:0:0:0:
431,218,414457,2,0,L|437:297,1,64,0|0,2:0|2:0,2:0:0:0:
244,336,414614,2,0,L|164:336,1,64,8|0,2:0|2:0,2:0:0:0:
342,38,414772,2,0,L|348:117,1,64,2|0,1:2|2:0,2:0:0:0:
152,269,414930,5,0,2:0:0:0:
312,266,415009,1,0,2:0:0:0:
472,265,415088,2,0,L|395:265,1,64,0|0,1:0|2:0,2:0:0:0:
213,111,415246,2,0,L|136:111,1,64,10|0,2:0|2:0,2:0:0:0:
343,38,415404,2,0,L|349:117,1,64,0|0,2:0|2:0,2:0:0:0:
153,159,415562,6,0,L|147:238,1,64,2|0,1:2|2:0,2:0:0:0:
229,291,415720,2,0,L|306:291,1,64,0|0,2:0|2:0,2:0:0:0:
98,149,415878,2,0,L|103:85,1,64,10|0,2:0|2:0,2:0:0:0:
263,232,416035,2,0,L|340:232,1,64,0|0,1:0|2:0,2:0:0:0:
133,45,416193,5,2,2:0:0:0:
293,42,416272,1,0,2:0:0:0:
453,41,416351,2,0,L|376:41,1,64,0|0,1:0|2:0,2:0:0:0:
195,234,416509,2,0,L|272:234,1,64,10|0,2:0|2:0,2:0:0:0:
421,333,416667,2,0,L|344:333,1,64,0|0,2:0|2:0,2:0:0:0:
163,334,416825,5,2,1:2:0:0:
83,332,416904,1,0,2:0:0:0:
163,334,416983,1,0,2:0:0:0:
243,332,417062,1,0,2:0:0:0:
435,81,417141,1,8,2:0:0:0:
355,79,417220,1,0,2:0:0:0:
195,137,417299,1,2,1:2:0:0:
115,139,417378,1,0,2:0:0:0:
307,137,417457,5,0,2:0:0:0:
467,177,417535,1,0,2:0:0:0:
307,137,417614,1,0,1:0:0:0:
227,139,417693,1,0,2:0:0:0:
35,338,417772,1,10,2:0:0:0:
115,340,417851,1,0,2:0:0:0:
276,218,417930,1,0,2:0:0:0:
356,220,418009,1,0,2:0:0:0:
132,344,418088,6,0,L|127:280,1,64,12|0,2:0|2:0,2:0:0:0:
321,165,418246,2,0,L|326:101,1,64,0|0,1:0|2:0,2:0:0:0:
164,66,418404,2,0,L|169:2,1,64,0|0,1:0|2:0,2:0:0:0:
396,355,418562,6,0,L|401:291,1,64,12|0,2:0|2:0,2:0:0:0:
206,251,418720,1,0,1:0:0:0:
46,245,418799,1,0,2:0:0:0:
206,251,418878,2,0,L|319:242,1,64,0|0,1:0|2:0,2:0:0:0:
77,95,419035,6,0,L|190:86,1,64,12|0,2:0|2:0,2:0:0:0:
337,37,419193,2,0,L|224:28,1,64,0|0,1:0|2:0,2:0:0:0:
77,95,419351,5,4,1:0:0:0:
256,192,419430,12,0,424404,2:0:0:0:
176,348,439562,6,0,P|80:252|175:156,1,300,6|0,2:0|2:0,2:0:0:0:
336,348,440825,2,0,P|431:252|336:156,1,300,2|0,2:0|2:0,2:0:0:0:
188,231,442088,6,0,P|255:65|322:232,1,460,2|0,2:0|2:0,2:0:0:0:
159,306,443983,2,0,P|113:263|158:220,1,140,2|0,2:0|2:0,2:0:0:0:
320,160,444614,6,0,L|16:160,1,300,2|0,2:0|2:0,2:0:0:0:
192,160,445878,2,0,L|496:160,1,300,2|0,2:0|2:0,2:0:0:0:
332,383,447141,6,0,B|272:362|241:346|226:317|218:296|216:278|193:216|264:237|280:228|298:229|307:229|324:227|361:225|400:223|410:215|466:232|482:226|486:151|461:76|408:68|353:56|307:57,1,620,2|0,2:0|2:0,2:0:0:0:
161,282,449667,6,0,P|161:219|346:82,1,300,6|0,2:0|2:0,2:0:0:0:
498,282,450930,2,0,P|498:219|313:82,1,300,2|0,2:0|2:0,2:0:0:0:
182,81,452193,6,0,P|50:141|14:282,1,300,2|0,2:0|2:0,2:0:0:0:
176,320,453457,2,0,L|320:320,1,140,2|0,2:0|2:0,2:0:0:0:
156,353,454088,2,0,L|12:353,1,140,2|0,2:0|2:0,2:0:0:0:
176,320,454720,6,0,P|272:224|177:128,1,300,2|0,2:0|2:0,2:0:0:0:
338,334,455983,2,0,P|388:229|337:125,1,240,2|2,2:0|2:0,2:0:0:0:
174,125,457088,1,2,2:0:0:0:
498,281,457246,6,0,P|462:141|330:81,1,300,2|0,2:0|2:0,2:0:0:0:
169,226,458509,2,0,L|313:226,1,140,2|0,2:0|2:0,2:0:0:0:
471,271,459141,2,0,L|327:271,1,140,2|0,2:0|2:0,2:0:0:0:
81,296,459772,6,0,P|214:74|349:295,1,620,6|0,2:0|2:0,2:0:0:0:
162,295,462299,6,0,P|297:74|431:296,1,620,4|0,2:0|2:0,2:0:0:0:
256,304,464825,6,0,L|384:304,1,100,4|0,1:2|1:2,2:0:0:0:
205,156,465141,1,0,1:2:0:0:
55,156,465299,2,0,L|65:87,1,50,2|0,1:2|1:2,2:0:0:0:
113,309,465457,2,0,L|103:240,1,50,2|0,1:2|1:2,2:0:0:0:
32,208,465614,2,0,L|144:208,1,100,0|2,1:2|1:2,2:0:0:0:
283,208,465930,1,2,1:2:0:0:
433,156,466088,6,0,L|321:156,1,100,0|0,1:2|1:2,2:0:0:0:
182,156,466404,1,0,1:2:0:0:
333,156,466562,2,0,L|323:87,1,50,2|0,1:2|1:2,2:0:0:0:
275,309,466720,2,0,L|285:240,1,50,2|0,1:2|1:2,2:0:0:0:
358,237,466878,1,0,1:2:0:0:
209,107,467035,2,0,L|199:38,1,50,2|0,1:2|1:0,2:0:0:0:
253,231,467193,2,0,L|263:162,1,50,2|0,1:2|1:0,2:0:0:0:
184,156,467351,6,0,L|40:156,1,100,0|0,1:2|1:2,2:0:0:0:
235,80,467667,1,0,1:2:0:0:
385,257,467825,2,0,L|395:188,1,50,2|0,1:2|1:2,2:0:0:0:
341,149,467983,2,0,L|351:80,1,50,2|0,1:2|1:2,2:0:0:0:
424,55,468141,2,0,L|296:55,1,100,0|2,1:2|1:2,2:0:0:0:
173,64,468457,1,2,1:2:0:0:
324,55,468614,6,0,L|196:55,1,100,0|0,1:2|1:2,2:0:0:0:
73,49,468930,1,0,1:2:0:0:
223,324,469088,2,0,L|233:255,1,50,2|0,1:2|1:2,2:0:0:0:
179,216,469246,2,0,L|189:147,1,50,2|0,1:2|1:2,2:0:0:0:
262,132,469404,1,0,1:2:0:0:
419,261,469562,2,0,L|412:311,1,50,2|0,1:2|1:0,2:0:0:0:
361,153,469720,2,0,L|353:202,1,50,2|0,1:2|1:0,2:0:0:0:
430,153,469878,6,0,L|446:33,1,100,0|0,1:2|1:2,2:0:0:0:
293,22,470193,1,0,1:2:0:0:
155,308,470351,2,0,L|167:239,1,50,2|0,1:2|1:2,2:0:0:0:
214,182,470509,2,0,L|202:113,1,50,2|0,1:2|1:2,2:0:0:0:
129,112,470667,2,0,L|113:-8,1,100,0|2,1:2|1:2,2:0:0:0:
267,26,470983,1,2,1:2:0:0:
115,211,471141,6,0,L|131:91,1,100,0|0,1:2|1:2,2:0:0:0:
281,65,471457,1,0,1:2:0:0:
430,310,471614,2,0,L|418:241,1,50,2|0,1:2|1:2,2:0:0:0:
371,184,471772,2,0,L|383:115,1,50,2|0,1:2|1:2,2:0:0:0:
455,93,471930,1,0,1:2:0:0:
305,151,472088,2,0,L|296:200,1,50,2|0,1:2|1:0,2:0:0:0:
346,277,472246,2,0,L|354:326,1,50,2|0,1:2|1:0,2:0:0:0:
278,318,472404,6,0,L|262:198,1,100,0|0,1:2|1:2,2:0:0:0:
114,172,472720,1,0,1:2:0:0:
264,218,472878,2,0,L|274:149,1,50,2|0,1:2|1:2,2:0:0:0:
220,110,473035,2,0,L|230:41,1,50,2|0,1:2|1:2,2:0:0:0:
302,209,473193,2,0,L|318:89,1,100,0|2,1:2|1:2,2:0:0:0:
466,63,473509,1,2,1:2:0:0:
316,253,473667,6,0,L|332:133,1,100,0|0,1:2|1:2,2:0:0:0:
480,107,473983,1,0,1:2:0:0:
330,170,474141,2,0,L|320:101,1,50,2|0,1:2|1:2,2:0:0:0:
374,62,474299,2,0,L|364:-7,1,50,2|0,1:2|1:2,2:0:0:0:
292,161,474457,1,0,1:2:0:0:
143,12,474614,2,0,L|135:61,1,50,2|0,1:2|1:0,2:0:0:0:
187,120,474772,2,0,L|179:169,1,50,2|0,1:2|1:0,2:0:0:0:
104,240,474930,6,0,L|216:240,1,100,0|0,1:2|1:2,2:0:0:0:
53,352,475246,1,0,1:2:0:0:
204,240,475404,2,0,L|268:240,1,50,2|0,1:2|1:2,2:0:0:0:
204,240,475562,2,0,L|140:240,1,50,2|0,1:2|1:2,2:0:0:0:
230,358,475720,6,0,L|246:238,1,100,0|2,1:2|1:2,2:0:0:0:
393,205,476035,1,2,1:2:0:0:
243,258,476193,6,0,L|131:258,1,100,0|0,1:2|1:2,2:0:0:0:
294,370,476509,1,0,1:2:0:0:
143,258,476667,2,0,L|79:258,1,50,2|0,1:2|1:2,2:0:0:0:
143,258,476825,2,0,L|207:258,1,50,2|0,1:2|1:2,2:0:0:0:
117,154,476983,1,0,1:2:0:0:
267,84,477141,2,0,L|203:84,1,50,2|0,1:2|1:0,2:0:0:0:
167,84,477299,2,0,L|231:84,1,50,2|0,1:2|1:0,2:0:0:0:
293,120,477457,6,0,L|405:120,1,100,0|0,1:2|1:2,2:0:0:0:
242,232,477772,1,0,1:2:0:0:
391,298,477930,2,0,L|455:298,1,50,2|0,1:2|1:2,2:0:0:0:
391,298,478088,2,0,L|383:347,1,50,2|0,1:2|1:2,2:0:0:0:
460,371,478246,2,0,L|331:371,1,100,0|2,1:2|1:2,2:0:0:0:
208,384,478562,1,2,1:2:0:0:
360,371,478720,6,0,L|376:251,1,100,0|0,1:2|1:2,2:0:0:0:
221,186,479035,1,0,1:2:0:0:
70,136,479193,2,0,L|6:136,1,50,2|0,1:2|1:2,2:0:0:0:
70,136,479351,2,0,L|78:185,1,50,2|0,1:2|1:2,2:0:0:0:
2,225,479509,1,0,1:2:0:0:
152,325,479667,2,0,L|144:276,1,50,2|0,1:2|1:0,2:0:0:0:
94,276,479825,2,0,L|144:276,1,50,2|0,1:2|1:0,2:0:0:0:
220,215,479983,6,0,L|92:215,1,100,0|0,1:2|1:2,2:0:0:0:
271,88,480299,1,0,1:2:0:0:
421,65,480457,2,0,L|411:-4,1,50,2|0,1:2|1:2,2:0:0:0:
363,218,480614,2,0,L|373:149,1,50,2|0,1:2|1:2,2:0:0:0:
445,128,480772,2,0,L|333:128,1,100,0|2,1:2|1:2,2:0:0:0:
194,120,481088,1,2,1:2:0:0:
44,172,481246,6,0,L|156:172,1,100,0|0,1:2|1:2,2:0:0:0:
295,164,481562,1,0,1:2:0:0:
145,146,481720,2,0,L|155:77,1,50,2|0,1:2|1:2,2:0:0:0:
203,299,481878,2,0,L|193:230,1,50,2|0,1:2|1:2,2:0:0:0:
120,231,482035,1,0,1:2:0:0:
271,193,482193,2,0,L|278:242,1,50,2|0,1:2|1:0,2:0:0:0:
227,40,482351,2,0,L|219:89,1,50,2|0,1:2|1:0,2:0:0:0:
296,141,482509,6,0,L|312:21,1,100,0|0,1:2|1:2,2:0:0:0:
158,53,482825,1,0,1:2:0:0:
309,41,482983,2,0,L|319:110,1,50,2|0,1:2|1:2,2:0:0:0:
265,149,483141,2,0,L|275:218,1,50,2|0,1:2|1:2,2:0:0:0:
348,280,483299,6,0,L|364:160,1,100,0|2,1:2|1:2,2:0:0:0:
511,129,483614,1,2,1:2:0:0:
361,180,483772,2,0,L|345:60,1,100,0|0,1:2|1:2,2:0:0:0:
198,29,484088,1,0,1:2:0:0:
47,142,484246,2,0,L|37:211,1,50,2|0,1:2|1:2,2:0:0:0:
91,250,484404,2,0,L|81:319,1,50,2|0,1:2|1:2,2:0:0:0:
8,327,484562,1,0,1:2:0:0:
158,185,484720,2,0,L|165:135,1,50,2|0,1:2|1:0,2:0:0:0:
114,77,484878,2,0,L|121:27,1,50,2|0,1:2|1:0,2:0:0:0:
295,27,485035,6,0,L|439:27,1,116,4|0,1:2|1:2,2:0:0:0:
177,250,485351,1,0,3:2:0:0:
322,326,485509,2,0,L|330:261,1,58,2|0,1:2|1:2,2:0:0:0:
256,280,485667,2,0,L|248:215,1,58,2|0,1:2|1:2,2:0:0:0:
425,162,485825,2,0,L|443:14,1,116,0|2,3:2|1:2,2:0:0:0:
219,10,486141,1,2,1:2:0:0:
0,128,486299,6,0,L|160:128,1,116,0|0,1:2|1:2,2:0:0:0:
348,128,486614,1,0,3:2:0:0:
203,171,486772,2,0,L|210:228,1,58,2|0,1:2|1:2,2:0:0:0:
283,217,486930,2,0,L|275:274,1,58,2|0,1:2|1:2,2:0:0:0:
100,331,487088,1,0,3:2:0:0:
245,195,487246,2,0,L|237:252,1,58,2|0,1:2|1:0,2:0:0:0:
165,241,487404,2,0,L|172:298,1,58,2|0,1:2|1:2,2:0:0:0:
349,346,487562,6,0,L|189:346,1,116,0|0,1:2|1:2,2:0:0:0:
467,201,487878,1,0,3:2:0:0:
323,226,488035,2,0,L|211:226,1,58,2|0,1:2|1:2,2:0:0:0:
339,257,488193,2,0,L|347:314,1,58,2|0,1:2|1:2,2:0:0:0:
171,377,488351,2,0,L|153:229,1,116,0|2,3:2|1:2,2:0:0:0:
391,187,488667,1,2,1:2:0:0:
156,261,488825,6,0,L|316:261,1,116,0|0,1:2|1:2,2:0:0:0:
38,116,489141,1,0,3:2:0:0:
183,118,489299,2,0,L|175:61,1,58,2|0,1:2|1:2,2:0:0:0:
101,30,489457,2,0,L|159:30,1,58,2|0,1:2|1:2,2:0:0:0:
333,32,489614,1,0,3:2:0:0:
188,218,489772,2,0,L|196:161,1,58,2|0,1:2|1:0,2:0:0:0:
270,130,489930,2,0,L|212:130,1,58,2|0,1:2|1:2,2:0:0:0:
389,64,490088,6,0,L|505:64,1,116,0|0,1:2|1:2,2:0:0:0:
271,216,490404,1,0,3:2:0:0:
416,102,490562,2,0,L|304:102,1,58,2|0,1:2|1:2,2:0:0:0:
284,277,490720,2,0,L|276:220,1,58,2|0,1:2|1:2,2:0:0:0:
452,333,490878,2,0,L|470:185,1,116,0|2,3:2|1:2,2:0:0:0:
241,112,491193,1,2,1:2:0:0:
16,160,491351,6,0,L|160:160,1,116,0|0,1:2|1:2,2:0:0:0:
366,162,491667,1,0,3:2:0:0:
221,276,491825,2,0,L|229:333,1,58,2|0,1:2|1:2,2:0:0:0:
303,158,491983,2,0,L|361:158,1,58,2|0,1:2|1:2,2:0:0:0:
184,98,492141,1,0,3:2:0:0:
329,212,492299,2,0,L|321:269,1,58,2|0,1:2|1:0,2:0:0:0:
247,94,492457,2,0,L|189:94,1,58,2|0,1:2|1:2,2:0:0:0:
363,295,492614,6,0,L|381:147,1,116,0|0,1:2|1:2,2:0:0:0:
142,134,492930,1,0,3:2:0:0:
287,65,493088,2,0,L|229:65,1,58,2|0,1:2|1:2,2:0:0:0:
155,242,493246,2,0,L|213:242,1,58,2|0,1:2|1:2,2:0:0:0:
390,155,493404,2,0,L|246:155,1,116,0|2,3:2|1:2,2:0:0:0:
41,156,493720,1,2,1:2:0:0:
274,155,493878,6,0,L|390:155,1,116,0|0,1:2|1:2,2:0:0:0:
158,62,494193,1,0,3:2:0:0:
304,266,494351,2,0,L|362:266,1,58,2|0,1:2|1:2,2:0:0:0:
288,89,494509,2,0,L|230:89,1,58,2|0,1:2|1:2,2:0:0:0:
406,23,494667,1,0,3:2:0:0:
261,336,494825,2,0,L|203:336,1,58,2|0,1:2|1:0,2:0:0:0:
277,159,494983,2,0,L|335:159,1,58,2|0,1:2|1:2,2:0:0:0:
159,93,495141,6,0,L|19:93,1,116,0|0,1:2|1:2,2:0:0:0:
277,224,495457,1,0,3:2:0:0:
133,243,495614,2,0,L|140:300,1,58,2|0,1:2|1:2,2:0:0:0:
213,289,495772,2,0,L|205:346,1,58,2|0,1:2|1:2,2:0:0:0:
28,341,495930,2,0,L|10:193,1,116,0|2,3:2|1:2,2:0:0:0:
256,160,496246,1,2,1:2:0:0:
111,85,496404,6,0,L|125:200,1,116,0|0,1:2|1:2,2:0:0:0:
359,78,496720,1,0,3:2:0:0:
213,315,496878,2,0,L|205:258,1,58,2|0,1:2|1:2,2:0:0:0:
278,269,497035,2,0,L|285:212,1,58,2|0,1:2|1:2,2:0:0:0:
111,142,497193,1,0,3:2:0:0:
256,336,497351,2,0,L|264:279,1,58,2|0,1:2|1:0,2:0:0:0:
191,290,497509,2,0,L|184:233,1,58,2|0,1:2|1:2,2:0:0:0:
358,163,497667,6,0,L|494:164,1,116,0|0,1:2|1:2,2:0:0:0:
242,92,497983,1,0,3:2:0:0:
387,278,498141,2,0,L|379:221,1,58,2|0,1:2|1:2,2:0:0:0:
305,190,498299,2,0,L|363:190,1,58,2|0,1:2|1:2,2:0:0:0:
186,218,498457,2,0,L|172:333,1,116,0|2,3:2|1:2,2:0:0:0:
404,323,498772,1,2,1:2:0:0:
171,333,498930,6,0,L|320:336,1,116,0|0,1:2|1:2,2:0:0:0:
53,193,499246,1,0,3:2:0:0:
198,162,499404,2,0,L|310:162,1,58,2|0,1:2|1:2,2:0:0:0:
182,193,499562,2,0,L|174:250,1,58,2|0,1:2|1:2,2:0:0:0:
350,74,499720,1,0,3:2:0:0:
205,43,499878,2,0,L|93:43,1,58,2|0,1:2|1:0,2:0:0:0:
221,74,500035,2,0,L|229:131,1,58,2|0,1:2|1:2,2:0:0:0:
55,193,500193,6,0,L|199:193,1,116,0|0,1:2|1:2,2:0:0:0:
405,186,500509,1,0,3:2:0:0:
260,214,500667,2,0,L|268:271,1,58,2|0,1:2|1:2,2:0:0:0:
342,96,500825,2,0,L|400:96,1,58,2|0,1:2|1:2,2:0:0:0:
223,138,500983,2,0,L|209:253,1,116,0|2,3:2|1:2,2:0:0:0:
443,281,501299,1,2,1:2:0:0:
298,131,501457,6,0,L|150:131,1,116,0|0,1:2|1:2,2:0:0:0:
414,249,501772,1,0,3:2:0:0:
269,93,501930,2,0,L|381:93,1,58,2|0,1:2|1:2,2:0:0:0:
401,268,502088,2,0,L|409:211,1,58,2|0,1:2|1:2,2:0:0:0:
233,185,502246,1,0,3:2:0:0:
378,29,502404,2,0,L|266:29,1,58,2|0,1:2|1:0,2:0:0:0:
246,204,502562,2,0,L|238:147,1,58,2|0,1:2|1:2,2:0:0:0:
414,187,502720,6,0,L|428:302,1,116,0|0,1:2|1:2,2:0:0:0:
196,280,503035,1,0,3:2:0:0:
341,316,503193,2,0,L|399:316,1,58,2|0,1:2|1:2,2:0:0:0:
325,139,503351,2,0,L|267:139,1,58,2|0,1:2|1:2,2:0:0:0:
90,50,503509,2,0,L|218:50,1,116,0|2,3:2|1:2,2:0:0:0:
441,46,503825,1,2,1:2:0:0:
183,98,503983,5,0,1:2:0:0:
38,63,504141,1,0,1:2:0:0:
328,133,504299,5,0,3:2:0:0:
183,98,504457,1,2,1:2:0:0:
474,63,504614,5,2,1:2:0:0:
329,98,504772,1,0,3:2:0:0:
38,63,504930,5,0,1:0:0:0:
183,98,505009,1,0,1:2:0:0:
329,98,505088,1,0,1:0:0:0:
474,63,505167,1,0,1:2:0:0:
256,160,505246,6,0,L|192:160,1,50,6|2,1:2|1:2,2:0:0:0:
272,209,505404,2,0,L|336:209,1,50,2|2,2:0|2:0,2:0:0:0:
170,277,505562,2,0,L|106:277,1,50,2|2,2:0|2:0,2:0:0:0:
186,337,505720,1,2,2:0:0:0:
251,349,505799,1,0,2:0:0:0:
256,192,505878,12,0,507457,2:0:0:0:
256,192,507772,5,0,2:0:0:0:
256,192,507851,12,0,509983,2:0:0:0:
256,160,510299,6,0,L|320:160,1,50,2|2,2:0|2:0,2:0:0:0:
240,209,510457,2,0,L|176:209,1,50,2|2,2:0|2:0,2:0:0:0:
342,277,510614,2,0,L|406:277,1,50,2|2,2:0|2:0,2:0:0:0:
326,337,510772,1,2,2:0:0:0:
261,349,510851,1,0,2:0:0:0:
256,192,510930,12,0,512509,2:0:0:0:
256,192,512825,5,0,2:0:0:0:
256,192,512904,12,0,515035,2:0:0:0:
257,303,515351,6,0,L|264:233,1,50,2|2,2:0|2:0,2:0:0:0:
196,211,515509,2,0,L|189:141,1,50,2|2,2:0|2:0,2:0:0:0:
345,207,515667,2,0,L|352:137,1,50,2|2,2:0|2:0,2:0:0:0:
284,137,515825,1,2,2:0:0:0:
219,122,515904,1,0,2:0:0:0:
256,192,515983,12,0,517562,2:0:0:0:
256,192,517878,5,0,2:0:0:0:
256,192,517957,12,0,520088,2:0:0:0:
255,303,520404,6,0,L|248:233,1,50,2|2,2:0|2:0,2:0:0:0:
316,211,520562,2,0,L|323:141,1,50,2|2,2:0|2:0,2:0:0:0:
167,207,520720,2,0,L|160:137,1,50,2|2,2:0|2:0,2:0:0:0:
228,137,520878,1,2,2:0:0:0:
293,122,520957,1,0,2:0:0:0:
256,192,521035,12,0,522614,2:0:0:0:
256,192,522930,5,0,2:0:0:0:
256,192,523009,12,0,525457,2:0:0:0:
256,272,526088,5,2,2:0:0:0:
125,237,526404,1,2,2:0:0:0:
114,194,526457,1,0,2:0:0:0:
255,272,526720,2,0,P|375:140|254:10,1,390.000000000002,2|2,2:0|2:0,2:0:0:0:
61,114,527983,6,0,L|450:114,1,390.000000000002,2|2,2:0|2:0,2:0:0:0:
367,204,529088,1,2,2:0:0:0:
450,114,529246,2,0,P|491:61|445:36,1,130.000000000001,2|2,2:0|2:0,2:0:0:0:
256,96,529878,2,0,L|400:96,1,130.000000000001,2|2,2:0|2:0,2:0:0:0:
191,219,530509,5,2,2:0:0:0:
183,263,530535,2,0,P|127:253|139:99,1,249.166655260722,0|2,2:0|2:0,2:0:0:0:
331,261,531772,2,0,P|382:255|354:96,1,260.000000000001,2|2,2:0|2:0,2:0:0:0:
88,289,533035,6,0,B|229:294|291:291|311:278|428:263|289:221|250:208|198:187|178:168|119:119|206:120|244:116|424:115,1,650.000000000004,2|2,2:0|2:0,2:0:0:0:
256,256,534930,2,0,L|107:257,1,130.000000000001,2|2,2:0|2:0,2:0:0:0:
256,367,535562,6,0,P|375:237|254:108,1,390.000000000002,2|2,2:0|2:0,2:0:0:0:
128,268,536825,2,0,P|8:137|129:8,1,390.000000000002,2|2,2:0|2:0,2:0:0:0:
384,268,538088,6,0,P|503:137|382:8,1,390.000000000002,2|2,2:0|2:0,2:0:0:0:
311,87,539193,1,2,2:0:0:0:
239,169,539351,2,0,L|380:169,1,130.000000000001,2|2,2:0|2:0,2:0:0:0:
173,254,539983,2,0,L|32:254,1,130.000000000001,2|2,2:0|2:0,2:0:0:0:
240,368,540614,5,2,2:0:0:0:
274,366,540693,2,0,P|321:361|306:219,1,227.500000000001,0|2,2:0|2:0,2:0:0:0:
184,138,541562,1,2,2:0:0:0:
54,66,541878,6,0,L|262:66,2,195.000000000001,2|2|2,2:0|2:0|2:0,2:0:0:0:
43,120,542878,1,0,2:0:0:0:
208,368,543141,6,0,P|281:373|299:118,1,390.000000000002,2|0,2:0|2:0,2:0:0:0:
188,129,544404,2,0,P|139:300|304:368,1,390.000000000002,2|0,2:0|2:0,2:0:0:0:
375,350,545509,1,0,2:0:0:0:
137,350,545667,6,0,L|0:336,2,130.000000000001,2|0|0,2:0|2:0|2:0,2:0:0:0:
255,320,546614,1,2,2:0:0:0:
266,283,546667,1,0,2:0:0:0:
375,350,546930,2,0,L|512:336,2,130.000000000001,2|0|0,2:0|2:0|2:0,2:0:0:0:
191,276,547878,1,2,2:0:0:0:
7,336,548193,6,0,L|137:350,2,130.000000000001,2|0|0,2:0|2:0|2:0,2:0:0:0:
203,201,549141,2,0,L|283:201,1,65.0000000000004,2|2,2:0|2:0,2:0:0:0:
366,321,549457,6,0,L|510:321,1,130.000000000001,2|0,2:0|2:0,2:0:0:0:
299,103,550088,2,0,L|155:103,1,130.000000000001,2|0,2:0|2:0,2:0:0:0:
366,291,550720,5,2,2:0:0:0:
382,275,550746,2,0,L|395:148,1,119.16666121165,0|0,2:0|2:0,2:0:0:0:
256,176,551351,2,0,L|241:33,1,130.000000000001,2|0,2:0|2:0,2:0:0:0:
116,145,551983,2,0,L|130:275,1,130.000000000001,2|0,2:0|2:0,2:0:0:0:
256,224,552614,2,0,L|242:353,1,130.000000000001,2|0,2:0|2:0,2:0:0:0:
368,368,553246,6,0,L|512:352,4,130.000000000001,2|0|0|0|0,2:0|2:0|2:0|2:0|2:0,2:0:0:0:
192,224,554825,2,0,L|336:224,1,130.000000000001,2|2,2:0|2:0,2:0:0:0:
144,368,555457,1,2,2:0:0:0:
375,350,555772,6,0,L|512:336,2,130.000000000001,2|0|0,2:0|2:0|2:0,2:0:0:0:
256,320,556720,1,2,2:0:0:0:
137,350,557035,2,0,L|0:336,2,130.000000000001,2|0|0,2:0|2:0|2:0,2:0:0:0:
321,276,557983,1,2,2:0:0:0:
505,336,558299,6,0,L|375:350,2,130.000000000001,2|0|0,2:0|2:0|2:0,2:0:0:0:
256,208,559246,2,0,L|176:208,1,65.0000000000004,2|2,2:0|2:0,2:0:0:0:
306,301,559562,2,0,P|363:261|333:203,1,130.000000000001,2|0,2:0|2:0,2:0:0:0:
86,155,560193,2,0,L|246:139,1,130.000000000001,2|0,2:0|2:0,2:0:0:0:
464,128,560825,5,2,2:0:0:0:
431,208,560904,2,0,L|303:208,1,97.5000000000005,0|0,2:0|2:0,2:0:0:0:
96,208,561457,1,2,2:0:0:0:
333,208,561772,1,2,2:0:0:0:
96,208,562088,6,0,P|46:192|46:114,1,130.000000000001,2|0,2:0|2:0,2:0:0:0:
141,91,562562,2,0,L|57:84,1,65.0000000000004,2|0,2:0|2:0,2:0:0:0:
337,47,563035,2,0,L|369:47,1,21.6666666666668,2|0,2:0|2:0,2:0:0:0:
160,320,563351,6,0,L|150:179,1,130.000000000001,2|0,2:0|2:0,2:0:0:0:
352,320,563983,2,0,L|362:179,1,130.000000000001,0|0,2:0|2:0,2:0:0:0:
215,129,564457,1,0,1:2:0:0:
355,114,564535,1,0,1:2:0:0:
496,96,564614,5,8,1:2:0:0:
256,64,564772,1,0,1:2:0:0:
375,47,564930,1,0,1:2:0:0:
16,96,565088,1,8,2:0:0:0:
256,64,565246,1,0,1:2:0:0:
137,47,565404,1,0,1:2:0:0:
374,47,565562,2,0,B|139:48|139:48|221:179,1,348.000010620117,2|0,2:0|2:0,2:0:0:0:
364,352,565878,5,4,1:2:0:0:
81,272,566035,2,0,L|449:272,1,348,0|8,1:2|2:0,2:0:0:0:
128,192,566825,5,4,1:2:0:0:
384,192,566983,2,0,P|448:185|376:8,1,348,0|8,1:2|1:2,2:0:0:0:
112,48,567772,5,4,1:2:0:0:
400,48,567930,1,0,1:2:0:0:
256,127,568088,2,0,P|220:204|254:282,1,174,8|0,1:2|2:0,2:0:0:0:
400,304,568404,5,4,1:2:0:0:
112,304,568562,2,0,P|48:297|120:120,1,348,0|8,1:2|2:0,2:0:0:0:
416,112,569351,5,4,1:2:0:0:
96,112,569509,1,0,1:2:0:0:
208,320,569667,6,0,P|282:276|193:191,1,232,2|8,1:2|0:0,2:0:0:0:
84,133,570141,2,0,L|356:117,1,232,2|0,2:0|1:0,2:0:0:0:
81,220,570614,2,0,L|65:368,1,116,10|0,2:0|2:0,2:0:0:0:
336,336,570930,5,4,1:2:0:0:
64,336,571088,2,0,B|56:221|56:221|175:210|175:210|182:78,1,348,0|8,1:2|2:0,2:0:0:0:
448,80,571878,5,4,1:2:0:0:
198,56,572035,2,0,B|203:169|203:169|322:180|322:180|314:295,1,348,0|8,1:2|2:0,2:0:0:0:
64,80,572825,5,4,1:2:0:0:
304,80,572983,1,0,1:2:0:0:
170,176,573141,2,0,L|362:176,1,174,8|0,1:2|2:0,2:0:0:0:
496,176,573457,5,4,1:2:0:0:
208,356,573614,2,0,B|195:240|195:240|309:230|309:230|296:114,1,348,0|8,1:2|2:0,2:0:0:0:
16,176,574404,5,4,1:2:0:0:
256,176,574562,1,0,1:2:0:0:
140,216,574720,6,0,L|124:364,1,116,2|0,1:2|1:0,2:0:0:0:
384,331,575035,1,8,2:0:0:0:
139,189,575193,2,0,L|411:189,1,232,2|0,2:0|1:0,2:0:0:0:
139,189,575667,2,0,L|11:189,1,116,10|0,2:0|2:0,2:0:0:0:
382,216,575983,6,0,L|398:364,1,116,4|0,1:2|2:0,2:0:0:0:
249,159,576299,2,0,L|261:274,1,116,0|0,1:2|2:0,2:0:0:0:
117,331,576614,2,0,L|130:216,1,116,0|0,1:2|2:0,2:0:0:0:
382,216,576930,2,0,L|395:331,1,116,2|0,1:2|2:0,2:0:0:0:
92,338,577246,6,0,L|104:222,1,116,2|0,1:2|2:0,2:0:0:0:
250,246,577562,2,0,L|262:130,1,116,0|0,1:2|2:0,2:0:0:0:
407,222,577878,2,0,L|420:338,1,116,0|0,1:2|2:0,2:0:0:0:
168,192,578193,2,0,L|24:192,1,116,2|0,1:2|2:0,2:0:0:0:
344,192,578509,6,0,L|488:192,1,116,2|0,1:2|2:0,2:0:0:0:
314,78,578825,2,0,L|198:78,1,116,0|0,1:2|2:0,2:0:0:0:
52,192,579141,2,0,L|168:192,1,116,0|0,1:2|2:0,2:0:0:0:
384,192,579457,1,2,1:2:0:0:
128,192,579614,1,2,2:0:0:0:
344,192,579772,6,0,L|460:192,1,116,2|0,1:2|2:0,2:0:0:0:
168,192,580088,2,0,L|52:192,1,116,2|0,1:2|2:0,2:0:0:0:
358,208,580404,2,0,L|370:323,1,116,2|0,1:2|2:0,2:0:0:0:
142,323,580720,1,2,1:2:0:0:
256,272,580878,2,0,L|176:272,1,58,0|0,1:2|1:2,2:0:0:0:
16,240,581035,5,6,1:2:0:0:
161,202,581193,1,0,1:2:0:0:
400,96,581351,1,0,1:2:0:0:
255,58,581509,1,0,1:2:0:0:
496,208,581667,1,0,1:2:0:0:
351,170,581825,1,0,1:2:0:0:
16,208,581983,1,2,1:2:0:0:
161,170,582141,1,0,1:2:0:0:
496,240,582299,5,2,1:2:0:0:
351,202,582457,1,0,1:2:0:0:
112,96,582614,1,0,1:2:0:0:
257,58,582772,1,0,1:2:0:0:
16,208,582930,1,0,1:2:0:0:
161,170,583088,1,0,1:2:0:0:
496,208,583246,1,2,1:2:0:0:
351,170,583404,1,0,1:2:0:0:
74,208,583562,6,0,L|-13:208,1,58.0000017700196,2|0,1:2|1:2,2:0:0:0:
90,306,583720,2,0,L|99:398,1,58,0|0,1:2|1:2,2:0:0:0:
272,64,583878,2,0,L|281:156,1,58,0|0,1:2|1:2,2:0:0:0:
204,147,584035,2,0,L|213:239,1,58,0|0,1:2|1:2,2:0:0:0:
386,352,584193,6,0,L|466:352,1,58.0000017700196,2|0,1:2|1:2,2:0:0:0:
370,211,584351,2,0,L|290:211,1,58,0|0,1:2|1:2,2:0:0:0:
489,152,584509,2,0,L|498:244,1,58,2|0,1:2|1:2,2:0:0:0:
421,235,584667,2,0,L|430:327,1,58,0|0,1:2|1:2,2:0:0:0:
224,336,584825,6,0,P|167:328|207:222,1,174,2|0,1:2|2:0,2:0:0:0:
318,196,585141,2,0,P|375:188|335:82,1,174,2|0,2:0|2:0,2:0:0:0:
192,112,585457,1,2,2:0:0:0:
320,112,585614,1,0,1:2:0:0:
41,48,585772,1,10,1:2:0:0:
471,48,586088,5,4,1:2:0:0:
161,287,587825,5,0,1:0:0:0:
101,291,587904,1,0,1:2:0:0:
161,287,587983,1,0,1:2:0:0:
16,249,588141,1,0,1:2:0:0:
161,287,588299,1,0,1:2:0:0:
16,249,588457,1,0,1:2:0:0:
256,160,588614,5,4,1:2:0:0:
109,131,588772,1,0,3:2:0:0:
256,160,588930,1,0,3:2:0:0:
320,148,589009,1,0,3:2:0:0:
256,160,589088,1,0,3:2:0:0:
496,176,589246,5,8,3:2:0:0:
349,206,589404,1,0,3:2:0:0:
285,194,589483,1,0,3:2:0:0:
349,206,589562,1,0,3:2:0:0:
202,339,589720,1,0,3:2:0:0:
138,327,589799,1,0,3:2:0:0:
202,339,589878,5,0,1:2:0:0:
349,206,590035,1,0,3:2:0:0:
285,194,590114,1,0,3:2:0:0:
221,182,590193,1,0,3:2:0:0:
368,56,590351,1,0,3:2:0:0:
112,327,590509,5,8,3:2:0:0:
48,315,590588,1,0,3:2:0:0:
112,327,590667,1,0,3:2:0:0:
400,327,590825,1,0,3:2:0:0:
464,315,590904,1,0,3:2:0:0:
400,327,590983,1,0,3:2:0:0:
112,327,591141,5,0,1:2:0:0:
256,176,591299,1,0,3:2:0:0:
400,327,591457,1,0,3:2:0:0:
336,315,591535,1,0,3:2:0:0:
400,327,591614,1,0,3:2:0:0:
109,128,591772,5,8,3:2:0:0:
256,128,591930,1,0,3:2:0:0:
320,116,592009,1,0,3:2:0:0:
256,128,592088,1,0,3:2:0:0:
403,128,592246,1,0,3:2:0:0:
339,116,592325,1,0,3:2:0:0:
192,112,592404,5,0,1:2:0:0:
40,316,592562,1,0,3:2:0:0:
104,304,592641,1,0,3:2:0:0:
168,292,592720,1,0,3:2:0:0:
16,224,592878,1,0,3:2:0:0:
256,208,593035,5,8,3:2:0:0:
122,191,593193,1,0,3:2:0:0:
390,191,593351,1,8,3:2:0:0:
256,208,593509,1,0,3:2:0:0:
496,320,593667,5,4,1:2:0:0:
496,320,593825,1,0,3:2:0:0:
349,295,593983,1,0,3:2:0:0:
285,283,594062,1,0,3:2:0:0:
349,295,594141,1,0,3:2:0:0:
16,320,594299,5,8,3:2:0:0:
163,298,594457,1,0,3:2:0:0:
227,286,594535,1,0,3:2:0:0:
163,298,594614,1,0,3:2:0:0:
310,298,594772,1,0,3:2:0:0:
374,286,594851,1,0,3:2:0:0:
310,298,594930,5,0,1:2:0:0:
150,150,595088,1,0,3:2:0:0:
214,138,595167,1,0,3:2:0:0:
278,126,595246,1,0,3:2:0:0:
425,108,595404,1,0,3:2:0:0:
144,222,595562,5,8,3:2:0:0:
80,210,595641,1,0,3:2:0:0:
144,222,595720,1,0,3:2:0:0:
368,222,595878,1,0,3:2:0:0:
432,210,595957,1,0,3:2:0:0:
368,222,596035,1,0,3:2:0:0:
109,308,596193,5,0,1:2:0:0:
256,176,596351,1,0,3:2:0:0:
109,308,596509,1,0,3:2:0:0:
173,296,596588,1,0,3:2:0:0:
109,308,596667,1,0,3:2:0:0:
403,308,596825,5,8,3:2:0:0:
256,176,596983,1,0,3:2:0:0:
192,164,597062,1,0,3:2:0:0:
339,85,597141,1,0,3:2:0:0:
486,273,597299,1,0,3:2:0:0:
422,261,597378,1,0,3:2:0:0:
275,224,597457,5,0,1:2:0:0:
138,335,597614,1,0,3:2:0:0:
74,323,597693,1,0,3:2:0:0:
138,335,597772,1,0,3:2:0:0:
0,96,597930,1,0,3:2:0:0:
255,265,598088,5,8,3:2:0:0:
313,238,598167,1,0,0:2:0:0:
328,176,598246,1,0,0:2:0:0:
288,125,598325,1,0,0:0:0:0:
224,125,598404,1,0,0:2:0:0:
184,174,598483,1,0,0:2:0:0:
197,237,598562,1,0,0:2:0:0:
255,265,598641,1,0,0:0:0:0:
403,327,598720,5,4,1:2:0:0:
256,176,598878,1,0,3:2:0:0:
109,327,599035,1,0,3:2:0:0:
173,315,599114,1,0,3:2:0:0:
109,327,599193,1,0,3:2:0:0:
403,327,599351,5,8,3:2:0:0:
256,176,599509,1,0,3:2:0:0:
320,164,599588,1,0,3:2:0:0:
256,176,599667,1,0,3:2:0:0:
109,238,599825,1,0,3:2:0:0:
173,226,599904,1,0,3:2:0:0:
237,214,599983,5,0,1:2:0:0:
384,200,600141,1,0,3:2:0:0:
320,188,600220,1,0,3:2:0:0:
256,176,600299,1,0,3:2:0:0:
403,85,600457,1,0,3:2:0:0:
64,272,600614,5,8,3:2:0:0:
0,260,600693,1,0,3:2:0:0:
64,272,600772,1,0,3:2:0:0:
288,330,600930,1,0,3:2:0:0:
224,318,601009,1,0,3:2:0:0:
288,330,601088,1,0,3:2:0:0:
512,208,601246,5,0,1:2:0:0:
365,172,601404,1,0,3:2:0:0:
218,134,601562,1,0,3:2:0:0:
282,122,601641,1,0,3:2:0:0:
218,134,601720,1,0,3:2:0:0:
0,208,601878,5,8,3:2:0:0:
146,232,602035,1,0,3:2:0:0:
210,220,602114,1,0,3:2:0:0:
146,232,602193,1,0,3:2:0:0:
293,344,602351,1,0,3:2:0:0:
357,332,602430,1,0,3:2:0:0:
210,146,602509,5,0,1:2:0:0:
357,100,602667,1,0,3:2:0:0:
293,88,602746,1,0,3:2:0:0:
229,76,602825,1,0,3:2:0:0:
82,75,602983,1,0,3:2:0:0:
357,100,603141,5,8,3:2:0:0:
421,88,603220,1,0,3:2:0:0:
357,100,603299,1,0,3:2:0:0:
91,88,603457,1,8,3:2:0:0:
155,76,603535,1,0,3:2:0:0:
91,88,603614,1,0,3:2:0:0:
403,221,603772,5,4,1:2:0:0:
256,192,603930,1,0,3:2:0:0:
403,221,604088,1,0,3:2:0:0:
467,209,604167,1,0,3:2:0:0:
403,221,604246,1,0,3:2:0:0:
109,221,604404,5,8,3:2:0:0:
256,192,604562,1,0,3:2:0:0:
320,180,604641,1,0,3:2:0:0:
256,192,604720,1,0,3:2:0:0:
403,221,604878,1,0,3:2:0:0:
467,209,604957,1,0,3:2:0:0:
403,221,605035,5,0,1:2:0:0:
256,192,605193,1,0,3:2:0:0:
192,180,605272,1,0,3:2:0:0:
256,192,605351,1,0,3:2:0:0:
109,221,605509,1,0,3:2:0:0:
403,221,605667,5,8,3:2:0:0:
467,209,605746,1,0,3:2:0:0:
403,221,605825,1,0,3:2:0:0:
109,221,605983,1,0,3:2:0:0:
45,209,606062,1,0,3:2:0:0:
109,221,606141,1,0,3:2:0:0:
496,320,606299,5,0,1:2:0:0:
256,128,606457,1,0,3:2:0:0:
16,320,606614,1,0,3:2:0:0:
80,308,606693,1,0,3:2:0:0:
16,320,606772,1,0,3:2:0:0:
256,288,606930,5,8,3:2:0:0:
496,320,607088,1,0,3:2:0:0:
432,308,607167,1,0,3:2:0:0:
496,320,607246,1,0,3:2:0:0:
256,288,607404,1,0,3:2:0:0:
192,277,607483,1,0,3:2:0:0:
403,221,607562,5,0,1:2:0:0:
256,192,607720,1,0,3:2:0:0:
192,180,607799,1,0,3:2:0:0:
256,192,607878,1,0,3:2:0:0:
109,221,608035,1,0,3:2:0:0:
448,352,608193,5,8,3:2:0:0:
109,221,608351,1,8,3:2:0:0:
256,256,608430,1,8,3:2:0:0:
403,221,608509,2,0,P|440:147|393:31,1,192,8|0,3:2|2:0,2:0:0:0:
215,143,608825,6,0,L|71:143,1,128,6|0,1:2|2:0,2:0:0:0:
344,289,609141,1,8,2:0:0:0:
197,366,609299,2,0,P|151:249|196:132,1,256,2|0,1:2|1:2,2:0:0:0:
452,69,609772,2,0,L|305:69,1,128,10|0,2:0|2:0,2:0:0:0:
176,206,610088,6,0,L|323:206,1,128,2|0,2:0|1:2,2:0:0:0:
46,212,610404,1,8,2:0:0:0:
193,289,610562,2,0,P|238:172|193:55,1,256,2|0,2:0|1:2,2:0:0:0:
450,32,611035,2,0,L|322:32,1,128,10|0,2:0|2:0,2:0:0:0:
62,32,611351,6,0,L|190:32,1,128,2|0,1:2|2:0,2:0:0:0:
448,256,611667,1,8,2:0:0:0:
301,324,611825,2,0,P|311:240|465:166,1,256,2|0,1:2|1:2,2:0:0:0:
192,192,612299,2,0,L|64:192,1,128,10|0,2:0|2:0,2:0:0:0:
211,323,612614,6,0,L|219:194,1,128,2|0,2:0|2:0,2:0:0:0:
496,144,612930,1,8,2:0:0:0:
368,124,613088,1,2,2:0:0:0:
128,111,613246,2,0,L|288:95,1,128,0|0,2:0|1:2,2:0:0:0:
16,32,613562,2,0,L|176:16,1,128,10|0,2:0|2:0,2:0:0:0:
496,32,613878,6,0,L|336:16,1,128,6|0,1:2|2:0,2:0:0:0:
112,240,614193,1,8,2:0:0:0:
259,153,614351,2,0,L|3:153,1,256,2|0,1:2|1:2,2:0:0:0:
259,153,614825,2,0,L|403:153,1,128,10|0,2:0|2:0,2:0:0:0:
239,337,615141,6,0,L|231:208,1,128,2|0,2:0|2:0,2:0:0:0:
492,266,615457,2,0,L|500:136,1,128,10|0,2:0|2:0,2:0:0:0:
248,97,615772,2,0,L|376:97,1,128,2|0,2:0|1:2,2:0:0:0:
144,272,616088,2,0,L|16:272,1,128,10|0,2:0|2:0,2:0:0:0:
242,368,616404,6,0,L|249:239,1,128,2|0,1:2|2:0,2:0:0:0:
496,192,616720,1,8,2:0:0:0:
349,328,616878,2,0,P|304:211|349:94,1,256,2|0,1:2|1:2,2:0:0:0:
128,80,617351,2,0,L|0:80,2,128,10|0|2,2:0|2:0|2:0,2:0:0:0:
403,240,617825,5,8,2:0:0:0:
256,256,617904,1,8,2:0:0:0:
109,240,617983,1,8,2:0:0:0:
256,256,618141,1,2,1:2:0:0:
496,320,618299,1,8,2:0:0:0:
349,336,618457,1,0,1:2:0:0:
32,320,618614,2,0,L|16:112,1,192,10|0,2:0|2:0,2:0:0:0:
211,289,618930,6,0,L|219:154,1,128,6|0,1:2|2:0,2:0:0:0:
496,128,619246,1,8,2:0:0:0:
349,323,619404,2,0,P|273:297|373:204,1,256,2|0,1:2|1:2,2:0:0:0:
85,60,619878,2,0,L|213:60,1,128,10|0,2:0|2:0,2:0:0:0:
469,122,620193,6,0,L|341:122,1,128,2|0,2:0|1:0,2:0:0:0:
85,60,620509,1,8,2:0:0:0:
232,285,620667,2,0,P|308:259|208:166,1,256,2|2,2:0|1:2,2:0:0:0:
480,48,621141,1,10,2:0:0:0:
256,128,621299,1,2,2:0:0:0:
32,48,621457,6,0,L|26:177,1,128,2|0,1:2|2:0,2:0:0:0:
256,320,621772,1,8,2:0:0:0:
128,202,621930,2,0,L|400:202,1,256,2|0,1:2|1:2,2:0:0:0:
112,80,622404,2,0,L|272:80,1,128,10|0,2:0|2:0,2:0:0:0:
496,272,622720,6,0,L|336:272,1,128,2|0,2:0|1:2,2:0:0:0:
144,272,623035,1,8,2:0:0:0:
293,111,623193,2,0,P|283:195|129:269,1,256,2|0,2:0|1:2,2:0:0:0:
402,209,623667,2,0,L|410:339,1,128,10|0,2:0|2:0,2:0:0:0:
138,75,623983,6,0,L|298:75,1,128,6|0,1:2|2:0,2:0:0:0:
16,240,624299,1,8,2:0:0:0:
163,75,624457,2,0,P|239:101|139:194,1,256,2|0,1:2|1:2,2:0:0:0:
421,188,624930,2,0,L|430:322,1,128,10|0,2:0|2:0,2:0:0:0:
91,188,625246,6,0,L|82:318,1,128,2|0,2:0|1:0,2:0:0:0:
384,112,625562,2,0,L|256:112,1,128,10|0,2:0|2:0,2:0:0:0:
16,32,625878,2,0,L|26:167,1,128,2|0,2:0|1:0,1:0:0:0:
320,224,626193,2,0,L|192:224,1,128,8|0,2:0|2:0,2:0:0:0:
480,208,626509,6,0,L|488:338,1,128,2|0,1:2|2:0,2:0:0:0:
206,290,626825,1,8,2:0:0:0:
335,274,626983,1,0,1:2:0:0:
32,208,627141,2,0,L|24:336,1,128,2|0,2:0|1:0,2:0:0:0:
306,290,627457,1,10,2:0:0:0:
177,274,627614,1,0,2:0:0:0:
480,208,627772,5,2,1:2:0:0:
308,112,627878,2,0,L|420:112,1,85.3333333333333,0|0,1:2|1:2,2:0:0:0:
223,85,628088,2,0,L|111:85,1,85.3333333333333,0|0,1:2|1:2,2:0:0:0:
308,112,628299,1,0,1:2:0:0:
84,155,628404,5,8,1:2:0:0:
256,59,628509,2,0,L|144:59,1,85.3333333333333,8|8,1:2|1:2,2:0:0:0:
384,240,628720,1,8,1:2:0:0:
214,226,628825,1,8,1:2:0:0:
44,212,628930,1,8,1:2:0:0:
256,96,629035,5,4,1:2:0:0:
256,192,629114,12,0,631246,2:0:0:0:
256,192,631562,12,0,633772,2:0:0:0:
256,192,634088,12,0,636299,2:0:0:0:
256,368,636614,6,0,L|256:48,1,320,0|0,2:0|2:0,2:0:0:0:
177,383,658088,6,0,P|75:257|178:132,1,350,4|0,2:0|2:0,2:0:0:0:
356,81,658720,2,0,L|148:81,1,200,4|0,2:0|1:2,2:0:0:0:
406,16,659193,1,0,1:2:0:0:
106,16,659356,6,0,L|97:158,1,110.2,6|0,1:2|2:0,2:0:0:0:
337,176,659656,1,8,2:0:0:0:
199,232,659806,2,0,L|208:374,1,110.2,0|2,1:2|2:0,2:0:0:0:
67,357,660106,1,0,1:2:0:0:
304,89,660256,2,0,L|160:89,1,110.2,10|0,2:0|2:0,2:0:0:0:
432,63,660556,6,0,L|288:63,1,110.2,2|0,1:2|2:0,2:0:0:0:
85,66,660856,1,8,2:0:0:0:
223,236,661006,2,0,L|232:378,1,110.2,0|2,1:2|2:0,2:0:0:0:
369,204,661306,1,0,1:2:0:0:
132,201,661456,2,0,L|4:201,1,110.2,10|0,2:0|2:0,2:0:0:0:
380,201,661756,6,0,L|508:201,1,110.2,2|0,1:2|2:0,2:0:0:0:
256,96,662056,1,8,2:0:0:0:
394,25,662206,2,0,L|250:25,1,110.2,0|2,1:2|2:0,2:0:0:0:
146,30,662506,1,0,1:2:0:0:
384,208,662656,1,10,2:0:0:0:
128,208,662806,1,2,1:2:0:0:
384,208,662956,6,0,L|496:208,1,110.2,2|0,2:0|1:2,2:0:0:0:
256,288,663256,2,0,L|368:288,1,110.2,10|0,2:0|2:0,2:0:0:0:
128,208,663556,2,0,L|16:208,1,110.2,2|0,2:0|1:2,2:0:0:0:
256,288,663856,2,0,L|144:288,1,110.2,10|0,2:0|2:0,2:0:0:0:
423,339,664156,6,0,L|432:197,1,110.2,2|0,1:2|2:0,2:0:0:0:
191,128,664456,1,8,2:0:0:0:
329,107,664606,1,0,1:2:0:0:
89,339,664756,2,0,L|80:197,1,110.2,2|0,2:0|1:2,2:0:0:0:
320,190,665056,2,0,L|329:48,1,110.2,10|0,2:0|2:0,2:0:0:0:
50,30,665356,6,0,L|162:30,1,110.2,2|0,1:2|2:0,2:0:0:0:
399,256,665656,1,8,2:0:0:0:
261,235,665806,1,0,1:2:0:0:
498,349,665956,2,0,L|504:239,1,110.2,2|0,2:0|1:2,2:0:0:0:
256,320,666256,2,0,L|256:192,1,110.2,10|0,2:0|2:0,2:0:0:0:
14,349,666556,6,0,L|7:239,1,110.2,2|0,1:2|2:0,2:0:0:0:
256,128,666856,1,8,2:0:0:0:
19,129,667006,2,0,L|25:238,1,110.2,2|0,1:2|2:0,2:0:0:0:
165,263,667306,1,0,1:2:0:0:
390,224,667456,2,0,L|262:224,1,110.2,10|0,2:0|1:2,2:0:0:0:
505,269,667756,6,0,L|512:160,1,110.2,2|0,2:0|1:2,2:0:0:0:
256,96,668056,1,8,2:0:0:0:
394,74,668206,1,0,1:2:0:0:
145,292,668356,2,0,L|138:182,1,110.2,0|0,1:2|1:2,2:0:0:0:
394,118,668656,1,8,2:0:0:0:
118,118,668806,1,0,1:2:0:0:
374,182,668956,6,0,L|484:182,1,110.2,6|0,1:2|2:0,2:0:0:0:
247,113,669256,1,8,2:0:0:0:
484,90,669406,2,0,L|491:200,1,110.2,0|2,1:2|2:0,2:0:0:0:
363,273,669706,1,0,1:2:0:0:
126,262,669856,2,0,L|119:372,1,110.2,10|0,2:0|2:0,2:0:0:0:
358,102,670156,6,0,L|246:102,1,110.2,2|0,1:2|2:0,2:0:0:0:
16,176,670456,1,8,2:0:0:0:
154,171,670606,1,0,1:2:0:0:
16,176,670756,2,0,L|9:286,1,110.2,2|0,2:0|1:2,2:0:0:0:
247,64,671056,2,0,L|103:64,1,110.2,10|0,2:0|2:0,2:0:0:0:
375,220,671356,6,0,L|519:220,1,110.2,2|0,1:2|2:0,2:0:0:0:
248,138,671656,1,8,2:0:0:0:
386,205,671806,2,0,L|393:315,1,110.2,0|2,1:2|2:0,2:0:0:0:
254,362,672106,1,0,1:2:0:0:
16,308,672256,2,0,L|144:308,1,110.2,10|0,2:0|1:2,2:0:0:0:
426,110,672556,6,0,L|433:220,1,110.2,2|0,2:0|1:2,2:0:0:0:
192,128,672856,1,10,2:0:0:0:
320,128,673006,1,0,2:0:0:0:
86,110,673156,2,0,L|79:220,1,110.2,2|0,2:0|1:2,2:0:0:0:
320,128,673456,1,10,2:0:0:0:
192,128,673606,1,0,2:0:0:0:
402,356,673756,6,0,L|514:356,1,110.2,2|0,1:2|2:0,2:0:0:0:
275,142,674056,1,8,2:0:0:0:
40,275,674206,2,0,L|150:275,1,110.2,2|0,1:2|2:0,2:0:0:0:
16,112,674506,1,0,1:2:0:0:
256,32,674656,2,0,L|145:32,1,110.2,10|0,2:0|2:0,2:0:0:0:
426,110,674956,6,0,L|433:220,1,110.2,2|0,1:2|2:0,2:0:0:0:
149,232,675256,2,0,L|142:342,1,110.2,10|0,2:0|1:2,2:0:0:0:
370,341,675556,2,0,L|363:231,1,110.2,2|0,2:0|1:2,2:0:0:0:
79,220,675856,2,0,L|86:110,1,110.2,10|0,2:0|2:0,2:0:0:0:
325,198,676156,6,0,L|165:198,1,110.2,2|0,1:2|2:0,2:0:0:0:
453,96,676456,1,8,2:0:0:0:
315,214,676606,2,0,L|308:324,1,110.2,2|0,1:2|2:0,2:0:0:0:
169,322,676906,1,0,1:2:0:0:
385,352,677056,2,0,L|496:352,1,110.2,10|0,2:0|1:2,2:0:0:0:
256,160,677356,5,2,2:0:0:0:
16,128,677506,1,8,1:2:0:0:
256,160,677656,1,8,2:0:0:0:
128,145,677806,1,0,1:2:0:0:
384,145,677956,5,8,2:0:0:0:
256,160,678106,1,0,1:2:0:0:
496,128,678256,1,8,1:2:0:0:
256,160,678406,1,8,1:2:0:0:
16,128,678556,6,0,L|144:128,1,110.2,6|0,1:2|2:0,2:0:0:0:
348,128,678856,1,8,2:0:0:0:
210,324,679006,2,0,L|217:214,1,110.2,0|2,1:2|2:0,2:0:0:0:
78,142,679306,1,0,1:2:0:0:
315,328,679456,2,0,L|322:218,1,110.2,10|0,2:0|2:0,2:0:0:0:
80,63,679756,6,0,L|224:63,1,110.2,2|0,1:2|2:0,2:0:0:0:
427,66,680056,1,8,2:0:0:0:
289,236,680206,2,0,L|280:378,1,110.2,0|2,1:2|2:0,2:0:0:0:
143,204,680506,1,0,1:2:0:0:
380,201,680656,2,0,L|508:201,1,110.2,10|0,2:0|2:0,2:0:0:0:
132,201,680956,6,0,L|4:201,1,110.2,2|0,1:2|2:0,2:0:0:0:
256,96,681256,1,8,2:0:0:0:
118,25,681406,2,0,L|262:25,1,110.2,0|2,1:2|2:0,2:0:0:0:
366,30,681706,1,0,1:2:0:0:
128,208,681856,1,10,2:0:0:0:
384,208,682006,1,2,1:2:0:0:
128,208,682156,6,0,L|16:208,1,110.2,2|0,2:0|1:2,2:0:0:0:
256,288,682456,2,0,L|144:288,1,110.2,10|0,2:0|2:0,2:0:0:0:
384,208,682756,2,0,L|496:208,1,110.2,2|0,2:0|1:2,2:0:0:0:
256,288,683056,2,0,L|368:288,1,110.2,10|0,2:0|2:0,2:0:0:0:
89,339,683356,6,0,L|80:197,1,110.2,2|0,1:2|2:0,2:0:0:0:
321,128,683656,1,8,2:0:0:0:
183,107,683806,1,0,1:2:0:0:
423,339,683956,2,0,L|432:197,1,110.2,2|0,2:0|1:2,2:0:0:0:
192,190,684256,2,0,L|183:48,1,110.2,10|0,2:0|2:0,2:0:0:0:
462,30,684556,6,0,L|350:30,1,110.2,2|0,1:2|2:0,2:0:0:0:
113,256,684856,1,8,2:0:0:0:
251,235,685006,1,0,1:2:0:0:
14,349,685156,2,0,L|8:239,1,110.2,2|0,2:0|1:2,2:0:0:0:
256,320,685456,2,0,L|256:192,1,110.2,10|0,2:0|2:0,2:0:0:0:
498,349,685756,6,0,L|505:239,1,110.2,2|0,1:2|2:0,2:0:0:0:
256,128,686056,1,8,2:0:0:0:
493,129,686206,2,0,L|487:238,1,110.2,2|0,1:2|2:0,2:0:0:0:
347,263,686506,1,0,1:2:0:0:
122,224,686656,2,0,L|250:224,1,110.2,10|0,2:0|1:2,2:0:0:0:
7,269,686956,6,0,L|0:160,1,110.2,2|0,2:0|1:2,2:0:0:0:
256,96,687256,1,8,2:0:0:0:
118,74,687406,1,0,2:0:0:0:
367,292,687556,2,0,L|374:182,1,110.2,2|0,2:0|1:2,2:0:0:0:
118,118,687856,1,8,2:0:0:0:
394,118,688006,1,0,2:0:0:0:
138,182,688156,6,0,L|28:182,1,110.2,6|0,1:2|2:0,2:0:0:0:
265,113,688456,1,8,2:0:0:0:
28,90,688606,2,0,L|21:200,1,110.2,0|2,1:2|2:0,2:0:0:0:
149,273,688906,1,0,1:2:0:0:
386,262,689056,2,0,L|393:372,1,110.2,10|0,2:0|2:0,2:0:0:0:
154,102,689356,6,0,L|266:102,1,110.2,2|0,1:2|2:0,2:0:0:0:
496,176,689656,1,8,2:0:0:0:
358,171,689806,1,0,1:2:0:0:
496,176,689956,2,0,L|503:286,1,110.2,2|0,2:0|1:2,2:0:0:0:
265,64,690256,2,0,L|409:64,1,110.2,10|0,2:0|2:0,2:0:0:0:
137,220,690556,6,0,L|-7:220,1,110.2,2|0,1:2|2:0,2:0:0:0:
264,138,690856,1,8,2:0:0:0:
126,205,691006,2,0,L|119:315,1,110.2,0|2,1:2|2:0,2:0:0:0:
258,362,691306,1,0,1:2:0:0:
496,308,691456,2,0,L|368:308,1,110.2,10|0,2:0|1:2,2:0:0:0:
86,110,691756,6,0,L|79:220,1,110.2,2|0,2:0|1:2,2:0:0:0:
320,128,692056,1,10,2:0:0:0:
192,128,692206,1,0,2:0:0:0:
426,110,692356,2,0,L|433:220,1,110.2,2|0,2:0|1:2,2:0:0:0:
192,128,692656,1,10,2:0:0:0:
320,128,692806,1,0,2:0:0:0:
110,356,692956,6,0,L|-2:356,1,110.2,2|0,1:2|2:0,2:0:0:0:
237,142,693256,1,8,2:0:0:0:
472,275,693406,2,0,L|362:275,1,110.2,2|0,1:2|2:0,2:0:0:0:
496,112,693706,1,0,1:2:0:0:
256,32,693856,2,0,L|367:32,1,110.2,10|0,2:0|2:0,2:0:0:0:
86,110,694156,6,0,L|79:220,1,110.2,2|0,1:2|2:0,2:0:0:0:
363,232,694456,2,0,L|370:342,1,110.2,10|0,2:0|1:2,2:0:0:0:
142,341,694756,2,0,L|149:231,1,110.2,2|0,2:0|1:2,2:0:0:0:
433,220,695056,2,0,L|426:110,1,110.2,10|0,2:0|2:0,2:0:0:0:
187,198,695356,6,0,L|347:198,1,110.2,2|0,1:2|2:0,2:0:0:0:
59,96,695656,1,8,2:0:0:0:
197,214,695806,2,0,L|204:324,1,110.2,2|0,1:2|2:0,2:0:0:0:
343,322,696106,1,0,1:2:0:0:
127,352,696256,2,0,L|16:352,1,110.2,10|0,2:0|1:2,2:0:0:0:
303,350,696556,6,0,B|308:238|308:238|197:231|197:231|191:88,1,330.6,4|0,2:0|2:0,2:0:0:0:
421,54,697156,2,0,L|90:38,1,330.6,4|0,2:0|2:0,2:0:0:0:
419,360,697756,6,0,P|488:289|415:222,1,220.4,4|0,1:2|1:2,2:0:0:0:
305,216,698206,1,0,1:2:0:0:
83,218,698356,1,8,1:2:0:0:
193,182,698506,1,0,1:2:0:0:
303,146,698656,1,0,1:2:0:0:
193,182,698806,1,0,1:2:0:0:
187,236,698881,1,0,1:2:0:0:
16,336,698956,5,0,1:2:0:0:
125,313,699106,1,0,1:2:0:0:
235,219,699256,1,0,1:2:0:0:
241,273,699331,1,0,1:2:0:0:
247,327,699406,1,0,1:2:0:0:
468,352,699556,1,8,1:2:0:0:
358,334,699706,1,0,1:2:0:0:
468,352,699856,1,0,1:2:0:0:
85,360,700156,6,0,P|16:289|89:222,1,220.4,0|0,1:2|1:2,2:0:0:0:
199,216,700606,1,0,1:2:0:0:
421,225,700756,1,8,1:2:0:0:
311,207,700906,1,0,1:2:0:0:
421,225,701056,1,0,1:2:0:0:
283,222,701206,1,0,1:2:0:0:
277,276,701281,1,0,1:2:0:0:
271,330,701356,5,0,1:2:0:0:
160,359,701506,1,0,1:2:0:0:
298,119,701656,1,0,1:2:0:0:
304,173,701731,1,0,1:2:0:0:
310,227,701806,1,0,1:2:0:0:
80,192,701956,1,8,1:2:0:0:
218,183,702106,1,0,1:2:0:0:
432,192,702256,1,8,1:2:0:0:
16,96,702556,6,0,L|256:96,1,220.4,0|0,1:2|1:2,2:0:0:0:
128,208,703006,1,0,1:2:0:0:
348,280,703156,1,8,1:2:0:0:
238,244,703306,1,0,1:2:0:0:
128,208,703456,1,0,1:2:0:0:
238,244,703606,1,0,1:2:0:0:
244,298,703681,1,0,1:2:0:0:
410,248,703756,5,0,1:2:0:0:
300,230,703906,1,0,1:2:0:0:
410,248,704056,1,0,1:2:0:0:
416,302,704131,1,0,1:2:0:0:
422,356,704206,1,0,1:2:0:0:
202,213,704356,1,8,1:2:0:0:
312,177,704506,1,0,1:2:0:0:
422,141,704656,1,0,1:2:0:0:
16,288,704956,6,0,P|16:207|148:126,1,220.4,0|0,1:2|1:2,2:0:0:0:
229,124,705406,1,0,1:2:0:0:
16,48,705556,1,8,1:2:0:0:
128,48,705706,1,0,1:2:0:0:
239,48,705856,1,0,1:2:0:0:
101,186,706006,1,0,1:2:0:0:
95,240,706081,1,0,1:2:0:0:
89,294,706156,5,0,1:2:0:0:
199,328,706306,1,0,1:2:0:0:
61,362,706456,1,0,1:2:0:0:
67,308,706531,1,0,1:2:0:0:
73,254,706606,1,0,1:2:0:0:
320,256,706756,1,8,1:2:0:0:
99,167,706906,1,4,1:3:0:0:
237,143,707056,1,4,1:3:0:0:
99,167,707206,1,4,1:3:0:0:
413,167,707356,6,0,P|483:141|432:14,1,220.4,4|0,1:2|1:2,2:0:0:0:
346,24,707806,1,0,1:2:0:0:
126,156,707956,1,8,1:2:0:0:
236,140,708106,1,0,1:0:0:0:
126,156,708256,1,0,1:2:0:0:
16,251,708406,1,0,1:2:0:0:
10,305,708481,1,0,1:2:0:0:
176,336,708556,5,0,1:2:0:0:
286,312,708706,1,0,1:2:0:0:
176,336,708856,1,0,1:2:0:0:
170,282,708931,1,0,1:2:0:0:
164,228,709006,1,0,1:2:0:0:
406,241,709156,5,8,1:2:0:0:
296,217,709306,1,0,1:0:0:0:
406,241,709456,1,0,1:0:0:0:
16,128,709756,6,0,L|240:128,1,220.4,0|0,1:2|1:2,2:0:0:0:
128,240,710206,1,0,1:2:0:0:
348,312,710356,1,8,1:2:0:0:
238,276,710506,1,0,1:0:0:0:
128,240,710656,1,0,1:2:0:0:
238,276,710806,1,0,1:2:0:0:
244,330,710881,1,0,1:2:0:0:
410,280,710956,5,0,1:2:0:0:
300,218,711106,1,0,1:2:0:0:
410,280,711256,1,0,1:2:0:0:
416,226,711331,1,0,1:2:0:0:
422,172,711406,1,0,1:2:0:0:
201,166,711556,1,8,1:2:0:0:
339,142,711706,1,0,1:0:0:0:
113,72,711856,1,8,1:2:0:0:
496,48,712156,6,0,L|256:48,1,220.4,0|0,1:2|1:2,2:0:0:0:
384,192,712606,1,0,1:2:0:0:
164,315,712756,5,8,1:2:0:0:
54,291,712906,1,0,1:0:0:0:
164,315,713056,1,0,1:2:0:0:
302,334,713206,1,0,1:2:0:0:
308,280,713281,1,0,1:2:0:0:
314,226,713356,5,0,1:2:0:0:
424,181,713506,1,0,1:2:0:0:
286,212,713656,1,0,1:2:0:0:
280,158,713731,1,0,1:2:0:0:
274,104,713806,1,0,1:2:0:0:
49,92,713956,1,8,1:2:0:0:
159,68,714106,1,0,1:0:0:0:
49,92,714256,1,0,1:2:0:0:
427,360,714556,6,0,P|496:289|423:222,1,220.4,0|0,1:2|1:2,2:0:0:0:
313,216,715006,1,0,1:2:0:0:
93,288,715156,1,8,1:2:0:0:
203,252,715306,1,0,1:0:0:0:
313,216,715456,1,0,1:2:0:0:
175,276,715606,1,0,1:2:0:0:
169,330,715681,1,0,1:2:0:0:
163,384,715756,5,0,1:2:0:0:
417,113,715906,1,8,1:2:0:0:
280,136,715981,1,8,1:2:0:0:
143,159,716056,1,8,1:2:0:0:
280,136,716206,1,0,1:2:0:0:
59,86,716356,1,8,1:2:0:0:
196,63,716506,1,0,1:0:0:0:
453,86,716656,1,8,1:2:0:0:
316,63,716806,1,0,1:0:0:0:
16,272,716956,6,0,L|240:272,1,220.4,4|0,1:2|1:2,2:0:0:0:
347,272,717406,1,0,1:2:0:0:
127,160,717556,1,8,1:2:0:0:
237,124,717706,1,0,1:0:0:0:
347,88,717856,1,0,1:2:0:0:
209,148,718006,1,0,1:2:0:0:
203,202,718081,1,0,1:2:0:0:
37,258,718156,5,0,1:2:0:0:
147,244,718306,1,0,1:2:0:0:
12,178,718456,1,0,1:2:0:0:
6,232,718531,1,0,1:2:0:0:
0,286,718606,1,0,1:2:0:0:
256,96,718756,1,8,1:2:0:0:
146,60,718906,1,0,1:2:0:0:
36,24,719056,1,0,1:2:0:0:
427,360,719356,6,0,P|496:289|423:222,1,220.4,0|0,1:2|1:2,2:0:0:0:
313,216,719806,1,0,1:2:0:0:
93,288,719956,1,8,1:2:0:0:
203,252,720106,1,0,1:0:0:0:
93,288,720256,1,0,1:2:0:0:
231,240,720406,1,0,1:2:0:0:
237,294,720481,1,0,1:2:0:0:
243,348,720556,5,0,1:2:0:0:
353,362,720706,1,0,1:2:0:0:
215,108,720856,1,0,1:2:0:0:
209,162,720931,1,0,1:2:0:0:
203,216,721006,1,0,1:2:0:0:
432,224,721156,1,8,1:2:0:0:
321,211,721306,1,0,1:2:0:0:
459,156,721456,1,0,1:2:0:0:
348,143,721606,1,0,1:2:0:0:
128,329,721756,6,0,L|368:329,1,220.4,0|0,1:2|1:2,2:0:0:0:
237,189,722206,1,0,1:2:0:0:
16,160,722356,1,8,1:2:0:0:
126,124,722506,1,0,1:0:0:0:
16,160,722656,1,0,1:2:0:0:
154,112,722806,1,0,1:2:0:0:
160,166,722881,1,0,1:2:0:0:
326,193,722956,5,0,1:2:0:0:
216,237,723106,1,0,1:2:0:0:
354,241,723256,1,0,1:2:0:0:
360,295,723331,1,0,1:2:0:0:
366,349,723406,1,0,1:2:0:0:
115,66,723556,1,8,1:2:0:0:
225,30,723706,1,0,1:2:0:0:
115,66,723856,1,0,1:2:0:0:
496,80,724156,6,0,L|224:80,1,220.4,0|0,1:2|1:2,2:0:0:0:
384,160,724606,1,0,1:2:0:0:
164,232,724756,1,8,1:2:0:0:
274,196,724906,1,0,1:0:0:0:
384,160,725056,1,0,1:2:0:0:
246,207,725206,1,0,1:2:0:0:
240,261,725281,1,0,1:2:0:0:
234,315,725356,5,0,1:2:0:0:
124,338,725506,1,0,1:2:0:0:
262,77,725656,1,0,1:2:0:0:
268,131,725731,1,0,1:2:0:0:
274,185,725806,1,0,1:2:0:0:
44,193,725956,1,8,1:2:0:0:
182,240,726106,1,0,1:2:0:0:
468,193,726256,1,8,1:2:0:0:
330,240,726406,1,0,1:2:0:0:
16,128,726556,6,0,L|256:128,1,220.4,4|0,1:2|1:2,2:0:0:0:
128,32,727006,1,0,1:2:0:0:
348,232,727156,1,8,1:2:0:0:
238,196,727306,1,0,1:2:0:0:
348,232,727456,1,0,1:2:0:0:
210,282,727606,1,0,1:2:0:0:
204,336,727681,1,0,1:2:0:0:
370,205,727756,5,0,1:2:0:0:
260,169,727906,1,0,1:2:0:0:
398,250,728056,1,0,1:2:0:0:
404,304,728131,1,0,1:2:0:0:
410,358,728206,1,0,1:2:0:0:
135,205,728356,1,8,1:2:0:0:
245,169,728506,1,0,1:2:0:0:
135,205,728656,1,0,1:2:0:0:
498,351,728956,6,0,L|506:131,1,220.399997948547,0|0,1:2|1:2,2:0:0:0:
395,52,729406,1,0,1:2:0:0:
164,120,729556,1,8,1:2:0:0:
274,84,729706,1,0,1:2:0:0:
384,48,729856,1,0,1:2:0:0:
246,136,730006,1,0,1:2:0:0:
240,190,730081,1,0,1:2:0:0:
75,255,730156,5,0,1:2:0:0:
186,294,730306,1,0,1:2:0:0:
48,230,730456,1,0,1:2:0:0:
42,284,730531,1,0,1:2:0:0:
36,338,730606,1,0,1:2:0:0:
300,115,730756,1,8,1:2:0:0:
162,94,730906,1,0,1:2:0:0:
428,136,731056,1,8,1:2:0:0:
290,115,731131,1,8,1:2:0:0:
152,136,731206,1,8,1:2:0:0:
290,115,731281,1,8,1:2:0:0:
428,136,731356,6,0,P|478:98|370:10,1,220.4,8|0,1:2|1:2,2:0:0:0:
294,20,731806,1,0,1:2:0:0:
72,245,731956,1,8,1:2:0:0:
182,209,732106,1,0,1:2:0:0:
72,245,732256,1,0,1:2:0:0:
210,288,732406,1,0,1:2:0:0:
216,342,732481,1,0,1:2:0:0:
382,300,732556,5,0,1:2:0:0:
272,264,732706,1,0,1:2:0:0:
382,300,732856,1,0,1:2:0:0:
388,246,732931,1,0,1:2:0:0:
394,192,733006,1,0,1:2:0:0:
145,96,733156,2,0,L|256:96,1,110.2,8|0,1:2|1:2,2:0:0:0:
6,259,733456,1,0,1:2:0:0:
256,96,733606,1,0,1:2:0:0:
506,125,733756,6,0,B|396:123|396:123|391:234|391:234|279:233|279:233|271:341|271:341|162:340|162:340|159:224|159:224|38:222,1,771.4,4|0,1:2|2:0,2:0:0:0:
288,352,734956,6,0,P|346:324|275:112,1,330.6,4|0,1:2|2:0,2:0:0:0:
74,129,735556,2,0,L|314:113,1,220.4,4|8,1:2|1:2,2:0:0:0:
16,64,736006,1,8,1:2:0:0:
293,114,736156,6,0,L|300:209,1,60.8,6|0,1:2|2:0,2:0:0:0:
221,216,736306,2,0,L|228:311,1,60.8,0|0,2:0|2:0,2:0:0:0:
408,330,736456,2,0,L|520:330,1,60.8,8|0,2:0|2:0,2:0:0:0:
315,35,736606,2,0,L|203:35,1,60.8,2|0,1:2|2:0,2:0:0:0:
72,173,736756,5,0,2:0:0:0:
224,283,736831,1,0,2:0:0:0:
376,353,736906,2,0,L|312:353,1,60.8,0|0,1:0|2:0,2:0:0:0:
130,78,737056,2,0,L|194:78,1,60.8,10|0,2:0|2:0,2:0:0:0:
343,229,737206,2,0,L|338:168,1,60.8,0|0,2:0|2:0,2:0:0:0:
156,199,737356,6,0,L|160:138,1,60.8,2|0,1:2|2:0,2:0:0:0:
237,84,737506,2,0,L|232:23,1,60.8,0|0,2:0|2:0,2:0:0:0:
48,32,737656,2,0,L|112:32,1,60.8,10|0,2:0|2:0,2:0:0:0:
261,251,737806,2,0,L|197:251,1,60.8,0|0,1:0|2:0,2:0:0:0:
15,219,737956,5,2,2:0:0:0:
167,329,738031,1,0,2:0:0:0:
319,353,738106,2,0,L|415:353,1,60.8,0|0,1:0|2:0,2:0:0:0:
195,113,738256,2,0,L|291:113,1,60.8,10|0,2:0|2:0,2:0:0:0:
410,239,738406,2,0,L|314:239,1,60.8,0|0,2:0|2:0,2:0:0:0:
164,326,738556,6,0,L|160:265,1,60.8,2|0,1:2|2:0,2:0:0:0:
236,254,738706,2,0,L|232:193,1,60.8,0|0,2:0|2:0,2:0:0:0:
49,122,738856,2,0,L|45:61,1,60.8,8|0,2:0|2:0,2:0:0:0:
197,73,739006,2,0,L|201:12,1,60.8,2|0,1:2|2:0,2:0:0:0:
384,83,739156,5,0,2:0:0:0:
232,193,739231,1,0,2:0:0:0:
80,263,739306,2,0,L|76:202,1,60.8,0|0,1:0|2:0,2:0:0:0:
259,350,739456,2,0,L|263:289,1,60.8,10|0,2:0|2:0,2:0:0:0:
111,139,739606,2,0,L|115:78,1,60.8,0|0,2:0|2:0,2:0:0:0:
298,241,739756,6,0,L|294:180,1,60.8,2|0,1:2|2:0,2:0:0:0:
218,131,739906,2,0,L|214:70,1,60.8,0|0,2:0|2:0,2:0:0:0:
397,172,740056,2,0,L|393:111,1,60.8,10|0,2:0|2:0,2:0:0:0:
241,162,740206,2,0,L|237:101,1,60.8,0|0,1:0|2:0,2:0:0:0:
54,149,740356,5,2,2:0:0:0:
206,259,740431,1,0,2:0:0:0:
358,329,740506,2,0,L|362:268,1,60.8,0|0,1:0|2:0,2:0:0:0:
179,51,740656,2,0,L|259:51,1,60.8,10|0,2:0|2:0,2:0:0:0:
394,201,740806,2,0,L|390:140,1,60.8,0|0,2:0|2:0,2:0:0:0:
207,312,740956,6,0,L|127:312,1,60.8,2|0,1:2|2:0,2:0:0:0:
223,183,741106,2,0,L|227:122,1,60.8,0|0,2:0|2:0,2:0:0:0:
44,277,741256,2,0,L|40:216,1,60.8,8|0,2:0|2:0,2:0:0:0:
189,216,741406,2,0,L|195:136,1,60.8000020781251,2|0,1:2|2:0,2:0:0:0:
378,79,741556,5,0,2:0:0:0:
226,77,741631,1,0,2:0:0:0:
74,102,741706,2,0,L|165:102,1,60.8,0|0,1:0|2:0,2:0:0:0:
317,79,741856,2,0,L|378:79,1,60.8000020781251,10|0,2:0|2:0,2:0:0:0:
224,284,742006,2,0,L|221:223,1,60.8000020781251,0|0,2:0|2:0,2:0:0:0:
412,337,742156,6,0,L|492:337,1,60.8,2|0,1:2|2:0,2:0:0:0:
396,208,742306,2,0,L|392:147,1,60.8,2|0,2:0|2:0,2:0:0:0:
209,111,742456,2,0,L|306:111,1,60.8,10|0,2:0|2:0,2:0:0:0:
428,285,742606,2,0,L|424:346,1,60.8,2|0,1:2|2:0,2:0:0:0:
241,248,742756,5,2,2:0:0:0:
89,246,742831,1,0,2:0:0:0:
241,248,742906,2,0,L|245:309,1,60.8,2|0,1:2|2:0,2:0:0:0:
62,302,743056,2,0,L|-20:302,1,60.8000020781251,10|0,2:0|2:0,2:0:0:0:
153,102,743206,2,0,L|157:163,1,60.8,0|0,0:2|2:0,2:0:0:0:
340,161,743356,6,0,L|408:161,1,60.8000020781251,2|0,1:2|2:0,2:0:0:0:
324,212,743506,2,0,L|320:273,1,60.8,0|0,2:0|2:0,2:0:0:0:
149,145,743656,2,0,L|145:206,1,60.8,8|0,2:0|2:0,2:0:0:0:
296,349,743806,2,0,L|216:349,1,60.8,2|0,1:2|2:0,2:0:0:0:
54,158,743956,5,0,2:0:0:0:
206,268,744031,1,0,2:0:0:0:
358,338,744106,2,0,L|294:338,1,60.8,0|0,1:0|2:0,2:0:0:0:
112,65,744256,2,0,L|108:126,1,60.8,10|0,2:0|2:0,2:0:0:0:
260,269,744406,2,0,L|364:269,1,60.8,0|0,2:0|2:0,2:0:0:0:
136,155,744556,6,0,L|32:155,1,60.8,2|0,1:2|2:0,2:0:0:0:
151,78,744706,2,0,L|255:78,1,60.8,0|0,2:0|2:0,2:0:0:0:
396,223,744856,2,0,L|292:223,1,60.8,10|0,2:0|2:0,2:0:0:0:
181,314,745006,2,0,L|285:314,1,60.8,0|0,1:0|2:0,2:0:0:0:
424,176,745156,5,2,2:0:0:0:
272,286,745231,1,0,2:0:0:0:
120,356,745306,2,0,L|184:356,1,60.8,0|0,1:0|2:0,2:0:0:0:
363,241,745456,2,0,L|299:241,1,60.8,10|0,2:0|2:0,2:0:0:0:
148,142,745606,2,0,L|87:142,1,60.8,0|0,2:0|2:0,2:0:0:0:
300,34,745756,6,0,L|304:95,1,60.8,6|0,1:2|2:0,2:0:0:0:
228,91,745906,2,0,L|224:152,1,60.8,0|0,2:0|2:0,2:0:0:0:
406,304,746056,2,0,L|304:304,1,60.8,8|0,2:0|2:0,2:0:0:0:
191,135,746206,2,0,L|293:135,1,60.8,2|0,1:2|2:0,2:0:0:0:
434,147,746356,5,0,2:0:0:0:
282,257,746431,1,0,2:0:0:0:
130,327,746506,2,0,L|70:326,1,60.8,0|0,1:0|2:0,2:0:0:0:
251,28,746656,2,0,L|255:89,1,60.8,10|0,2:0|2:0,2:0:0:0:
72,169,746806,2,0,L|68:230,1,60.8,0|0,2:0|2:0,2:0:0:0:
256,320,746956,6,0,L|320:320,1,60.8,2|0,1:2|2:0,2:0:0:0:
240,320,747106,2,0,L|176:320,1,60.8,0|0,2:0|2:0,2:0:0:0:
362,47,747256,2,0,L|366:108,1,60.8,10|0,2:0|2:0,2:0:0:0:
442,154,747406,2,0,L|446:215,1,60.8,0|0,1:0|2:0,2:0:0:0:
263,157,747556,5,2,2:0:0:0:
111,267,747631,1,0,2:0:0:0:
263,157,747706,2,0,L|351:157,1,60.8,0|0,1:0|2:0,2:0:0:0:
139,188,747856,2,0,L|143:249,1,60.8,10|0,2:0|2:0,2:0:0:0:
295,292,748006,2,0,L|299:353,1,60.8,0|0,2:0|2:0,2:0:0:0:
116,322,748156,6,0,L|28:322,1,60.8,2|0,1:2|2:0,2:0:0:0:
131,178,748306,2,0,L|219:178,1,60.8,0|0,2:0|2:0,2:0:0:0:
377,24,748456,2,0,L|289:24,1,60.8,8|0,2:0|2:0,2:0:0:0:
162,85,748606,2,0,L|250:85,1,60.8,2|0,1:2|2:0,2:0:0:0:
405,162,748756,5,0,2:0:0:0:
253,272,748831,1,0,2:0:0:0:
101,342,748906,2,0,L|200:342,1,60.8,0|0,1:0|2:0,2:0:0:0:
350,342,749056,2,0,L|411:342,1,60.8,10|0,2:0|2:0,2:0:0:0:
259,272,749206,1,0,2:0:0:0:
107,195,749281,1,0,2:0:0:0:
292,292,749356,6,0,L|296:353,1,60.8,2|0,1:2|2:0,2:0:0:0:
220,292,749506,2,0,L|216:353,1,60.8,0|0,2:0|2:0,2:0:0:0:
400,112,749656,2,0,L|304:112,1,60.8,10|0,2:0|2:0,2:0:0:0:
185,35,749806,2,0,L|112:32,1,60.8,0|0,1:0|2:0,2:0:0:0:
307,186,749956,5,2,2:0:0:0:
459,296,750031,1,0,2:0:0:0:
307,186,750106,2,0,L|303:247,1,60.8,0|0,1:0|2:0,2:0:0:0:
120,184,750256,2,0,L|47:181,1,60.8,10|0,2:0|2:0,2:0:0:0:
211,52,750406,2,0,L|284:49,1,60.8,0|0,2:0|2:0,2:0:0:0:
87,275,750556,6,0,L|83:336,1,60.8,2|0,1:2|2:0,2:0:0:0:
159,224,750706,2,0,L|86:221,1,60.8,0|0,2:0|2:0,2:0:0:0:
283,85,750856,2,0,L|356:82,1,60.8,8|0,2:0|2:0,2:0:0:0:
190,239,751006,2,0,L|186:300,1,60.8,2|0,1:2|2:0,2:0:0:0:
369,138,751156,5,0,2:0:0:0:
217,248,751231,1,0,2:0:0:0:
65,318,751306,2,0,L|164:318,1,60.8,0|0,1:0|2:0,2:0:0:0:
308,320,751456,2,0,L|368:320,1,60.8,10|0,2:0|2:0,2:0:0:0:
184,153,751606,2,0,L|180:214,1,60.8,0|0,2:0|2:0,2:0:0:0:
362,47,751756,6,0,L|366:108,1,60.8,2|0,1:2|2:0,2:0:0:0:
442,165,751906,2,0,L|446:226,1,60.8,0|0,2:0|2:0,2:0:0:0:
263,258,752056,2,0,L|343:258,1,60.8,10|0,2:0|2:0,2:0:0:0:
478,89,752206,2,0,L|398:89,1,60.8,0|0,1:0|2:0,2:0:0:0:
235,173,752356,5,2,2:0:0:0:
83,283,752431,1,0,2:0:0:0:
235,173,752506,2,0,L|239:234,1,60.8,0|0,1:0|2:0,2:0:0:0:
56,153,752656,2,0,L|136:153,1,60.8,10|0,2:0|2:0,2:0:0:0:
269,48,752806,2,0,L|329:48,1,60.8,0|0,2:0|2:0,2:0:0:0:
145,277,752956,6,0,L|141:338,1,60.8,2|0,1:2|2:0,2:0:0:0:
217,306,753106,2,0,L|213:367,1,60.8,0|0,2:0|2:0,2:0:0:0:
396,127,753256,2,0,L|300:127,1,60.8,8|0,2:0|2:0,2:0:0:0:
181,50,753406,2,0,L|277:50,1,60.8,2|0,1:2|2:0,2:0:0:0:
424,156,753556,5,0,2:0:0:0:
272,266,753631,1,0,2:0:0:0:
120,336,753706,2,0,L|32:336,1,60.8,0|0,1:0|2:0,2:0:0:0:
242,73,753856,2,0,L|330:73,1,60.8,10|0,2:0|2:0,2:0:0:0:
149,277,754006,2,0,L|145:338,1,60.8,0|0,2:0|2:0,2:0:0:0:
327,277,754156,6,0,L|331:338,1,60.8,2|0,1:2|2:0,2:0:0:0:
255,306,754306,2,0,L|259:367,1,60.8,0|0,2:0|2:0,2:0:0:0:
76,127,754456,2,0,L|172:127,1,60.8,10|0,2:0|2:0,2:0:0:0:
291,50,754606,2,0,L|195:50,1,60.8,0|0,1:0|2:0,2:0:0:0:
48,156,754756,5,2,2:0:0:0:
200,266,754831,1,0,2:0:0:0:
352,336,754906,2,0,L|440:336,1,60.8,0|0,1:0|2:0,2:0:0:0:
230,73,755056,2,0,L|142:73,1,60.8,10|0,2:0|2:0,2:0:0:0:
323,226,755206,2,0,L|402:226,1,60.8,0|0,2:0|2:0,2:0:0:0:
189,226,755356,6,0,L|110:226,1,60.8,6|0,1:2|2:0,2:0:0:0:
204,152,755506,2,0,L|283:152,1,60.8,0|0,2:0|2:0,2:0:0:0:
80,57,755656,2,0,L|1:57,1,60.8,10|0,2:0|2:0,2:0:0:0:
171,177,755806,2,0,L|250:177,1,60.8,0|0,1:0|2:0,2:0:0:0:
47,167,755956,5,2,2:0:0:0:
199,277,756031,1,0,2:0:0:0:
351,347,756106,2,0,L|431:347,1,60.8,0|0,1:0|2:0,2:0:0:0:
246,356,756256,2,0,L|242:295,1,60.8,10|0,2:0|2:0,2:0:0:0:
80,308,756406,2,0,L|140:308,1,60.8,0|0,2:0|2:0,2:0:0:0:
323,226,756556,6,0,L|402:226,1,60.8,2|0,1:2|2:0,2:0:0:0:
308,152,756706,2,0,L|229:152,1,60.8,0|0,2:0|2:0,2:0:0:0:
432,57,756856,2,0,L|511:57,1,60.8,10|0,2:0|2:0,2:0:0:0:
341,177,757006,2,0,L|262:177,1,60.8,0|0,1:0|2:0,2:0:0:0:
465,167,757156,5,2,2:0:0:0:
313,277,757231,1,0,2:0:0:0:
161,347,757306,2,0,L|225:347,1,60.8,0|0,1:0|2:0,2:0:0:0:
408,290,757456,2,0,L|344:290,1,60.8,10|0,2:0|2:0,2:0:0:0:
164,290,757606,2,0,L|104:290,1,60.8,0|0,2:0|2:0,2:0:0:0:
285,188,757756,6,0,L|289:127,1,60.8,2|0,1:2|2:0,2:0:0:0:
213,137,757906,2,0,L|217:76,1,60.8,0|0,2:0|2:0,2:0:0:0:
400,12,758056,2,0,L|336:12,1,60.8,8|0,2:0|2:0,2:0:0:0:
185,168,758206,2,0,L|249:168,1,60.8,0|0,1:0|2:0,2:0:0:0:
465,167,758356,5,0,2:0:0:0:
313,277,758431,1,0,2:0:0:0:
161,322,758506,2,0,L|157:261,1,60.8,0|0,1:0|2:0,2:0:0:0:
338,56,758656,2,0,L|226:56,1,60.8,10|0,2:0|2:0,2:0:0:0:
125,200,758806,2,0,L|13:200,1,60.8,0|0,2:0|2:0,2:0:0:0:
247,210,758956,6,0,L|251:149,1,60.8,2|0,1:2|2:0,2:0:0:0:
175,74,759106,2,0,L|63:74,1,60.8,0|0,2:0|2:0,2:0:0:0:
297,275,759256,2,0,L|293:214,1,60.8,8|0,2:0|2:0,2:0:0:0:
141,176,759406,2,0,L|29:176,1,60.8,0|0,1:0|2:0,2:0:0:0:
262,81,759556,5,2,2:0:0:0:
414,191,759631,1,0,2:0:0:0:
262,81,759706,2,0,L|258:142,1,60.8,0|0,1:0|2:0,2:0:0:0:
441,280,759856,2,0,L|445:341,1,60.8,10|0,2:0|2:0,2:0:0:0:
293,153,760006,2,0,L|289:214,1,60.8,0|0,2:0|2:0,2:0:0:0:
496,64,760156,6,0,L|432:64,1,60.8,2|0,1:2|2:0,2:0:0:0:
297,233,760306,2,0,L|361:233,1,60.8,2|0,2:0|2:0,2:0:0:0:
215,233,760456,2,0,L|151:233,1,60.8,10|0,2:0|2:0,2:0:0:0:
16,64,760606,2,0,L|76:64,1,60.8,2|0,1:2|2:0,2:0:0:0:
256,64,760756,5,2,2:0:0:0:
408,65,760831,1,0,2:0:0:0:
256,64,760906,2,0,L|160:64,1,60.8,2|0,1:2|2:0,2:0:0:0:
16,288,761056,2,0,L|112:288,1,60.8,10|0,2:0|2:0,2:0:0:0:
231,120,761206,2,0,L|135:120,1,60.8,2|0,2:0|2:0,2:0:0:0:
353,225,761356,6,0,L|357:286,1,60.8,2|0,1:2|2:0,2:0:0:0:
281,300,761506,2,0,L|277:361,1,60.8,0|0,2:0|2:0,2:0:0:0:
460,148,761656,2,0,L|464:209,1,60.8,10|0,2:0|2:0,2:0:0:0:
312,39,761806,2,0,L|308:100,1,60.8,0|0,1:0|2:0,2:0:0:0:
496,64,761956,5,2,2:0:0:0:
344,174,762031,1,0,2:0:0:0:
192,219,762106,2,0,L|188:158,1,60.8,0|0,1:0|2:0,2:0:0:0:
371,94,762256,2,0,L|367:33,1,60.8,10|0,2:0|2:0,2:0:0:0:
215,202,762406,2,0,L|211:141,1,60.8,0|0,2:0|2:0,2:0:0:0:
28,124,762556,6,0,L|92:124,1,60.8,2|0,1:2|2:0,2:0:0:0:
165,284,762706,2,0,L|101:284,1,60.8,0|0,2:0|2:0,2:0:0:0:
289,195,762856,2,0,L|293:134,1,60.8,8|0,2:0|2:0,2:0:0:0:
141,78,763006,2,0,L|145:17,1,60.8,0|0,1:0|2:0,2:0:0:0:
327,59,763156,5,0,2:0:0:0:
175,169,763231,1,0,2:0:0:0:
23,239,763306,2,0,L|87:239,1,60.8,0|0,1:0|2:0,2:0:0:0:
266,354,763456,2,0,L|330:354,1,60.8,8|0,2:0|2:0,2:0:0:0:
175,225,763606,2,0,L|111:225,1,60.8,0|0,2:0|2:0,2:0:0:0:
297,160,763756,6,0,L|301:99,1,60.8,2|0,1:2|2:0,2:0:0:0:
225,198,763906,2,0,L|221:137,1,60.8,0|0,2:0|2:0,2:0:0:0:
404,68,764056,2,0,L|308:68,1,60.8,10|0,2:0|2:0,2:0:0:0:
189,64,764206,2,0,L|128:64,1,60.8,0|0,1:0|2:0,2:0:0:0:
311,189,764356,5,2,2:0:0:0:
463,299,764431,1,0,2:0:0:0:
311,189,764506,2,0,L|243:189,1,60.8,0|0,1:0|2:0,2:0:0:0:
432,69,764656,2,0,L|364:69,1,60.8,10|0,2:0|2:0,2:0:0:0:
219,13,764806,2,0,L|287:13,1,60.8,0|0,2:0|2:0,2:0:0:0:
465,268,764956,6,0,L|469:207,1,60.8,6|0,1:2|2:0,2:0:0:0:
393,317,765106,2,0,L|397:256,1,60.8,0|0,2:0|2:0,2:0:0:0:
214,210,765256,2,0,L|118:210,1,60.8,8|0,2:0|2:0,2:0:0:0:
335,241,765406,2,0,L|339:180,1,60.8,0|0,1:0|2:0,2:0:0:0:
156,120,765556,5,0,2:0:0:0:
4,230,765631,1,0,2:0:0:0:
156,120,765706,2,0,L|224:120,1,60.8,0|0,1:0|2:0,2:0:0:0:
32,353,765856,2,0,L|28:292,1,60.8,8|0,2:0|2:0,2:0:0:0:
180,235,766006,2,0,L|184:174,1,60.8,0|0,2:0|2:0,2:0:0:0:
367,112,766156,5,2,1:2:0:0:
185,86,766256,2,0,L|313:86,1,81.0666666666666,2|2,2:0|2:0,2:0:0:0:
471,299,766456,2,0,L|343:299,1,81.0666666666666,10|2,2:0|2:0,2:0:0:0:
206,289,766656,1,2,2:0:0:0:
16,240,766756,5,2,2:0:0:0:
256,176,766856,1,2,2:0:0:0:
496,240,766956,1,2,2:0:0:0:
296,286,767056,2,0,L|214:286,1,81.0666666666666,10|2,2:0|2:0,2:0:0:0:
400,128,767256,1,2,2:0:0:0:
214,286,767356,6,0,L|150:286,1,60.8,2|0,1:2|2:0,2:0:0:0:
229,170,767506,2,0,L|293:170,1,60.8,0|0,2:0|2:0,2:0:0:0:
105,370,767656,2,0,L|101:309,1,60.8,10|0,2:0|2:0,2:0:0:0:
253,202,767806,2,0,L|249:141,1,60.8,0|0,1:0|2:0,2:0:0:0:
67,96,767956,5,2,2:0:0:0:
219,80,768031,1,0,2:0:0:0:
371,65,768106,2,0,L|259:65,1,60.8,0|0,1:0|2:0,2:0:0:0:
125,44,768256,2,0,L|237:44,1,60.8,10|0,2:0|2:0,2:0:0:0:
338,134,768406,2,0,L|450:134,1,60.8,0|0,2:0|2:0,2:0:0:0:
214,286,768556,6,0,L|210:225,1,60.8,2|0,1:2|2:0,2:0:0:0:
286,195,768706,2,0,L|282:134,1,60.8,0|0,2:0|2:0,2:0:0:0:
100,118,768856,2,0,L|96:57,1,60.8,8|0,2:0|2:0,2:0:0:0:
248,31,769006,2,0,L|344:31,1,60.8,0|0,1:0|2:0,2:0:0:0:
494,141,769156,5,2,2:0:0:0:
342,125,769231,1,0,2:0:0:0:
190,110,769306,2,0,L|302:110,1,60.8,0|0,1:0|2:0,2:0:0:0:
433,318,769456,2,0,L|545:318,1,60.8,8|0,2:0|2:0,2:0:0:0:
342,243,769606,2,0,L|338:182,1,60.8,0|0,2:0|2:0,2:0:0:0:
156,259,769756,6,0,L|44:259,1,60.8,2|0,1:2|2:0,2:0:0:0:
172,127,769906,2,0,L|284:127,1,60.8,0|0,2:0|2:0,2:0:0:0:
48,117,770056,2,0,L|52:56,1,60.8,8|0,2:0|2:0,2:0:0:0:
204,291,770206,2,0,L|288:288,1,60.8,0|0,1:0|2:0,2:0:0:0:
80,197,770356,5,2,2:0:0:0:
232,181,770431,1,0,2:0:0:0:
384,166,770506,2,0,L|474:166,1,60.8,0|0,1:0|2:0,2:0:0:0:
260,72,770656,2,0,L|170:72,1,60.8,8|0,2:0|2:0,2:0:0:0:
351,242,770806,2,0,L|347:181,1,60.8,0|0,2:0|2:0,2:0:0:0:
164,76,770956,6,0,L|276:76,1,60.8,2|0,1:2|2:0,2:0:0:0:
302,204,771106,2,0,L|190:204,1,60.8,0|0,2:0|2:0,2:0:0:0:
56,351,771256,2,0,L|52:290,1,60.8,8|0,2:0|2:0,2:0:0:0:
204,198,771406,2,0,L|208:137,1,60.8,0|0,1:0|2:0,2:0:0:0:
391,113,771556,5,2,2:0:0:0:
239,97,771631,1,0,2:0:0:0:
87,82,771706,2,0,L|-3:82,1,60.8,0|0,1:0|2:0,2:0:0:0:
209,251,771856,2,0,L|213:190,1,60.8,8|0,2:0|2:0,2:0:0:0:
61,302,772006,2,0,L|65:241,1,60.8,0|0,2:0|2:0,2:0:0:0:
248,177,772156,6,0,L|328:177,1,60.8,2|0,1:2|2:0,2:0:0:0:
232,350,772306,2,0,L|228:289,1,60.8,0|0,2:0|2:0,2:0:0:0:
411,278,772456,2,0,L|415:217,1,60.8,8|0,2:0|2:0,2:0:0:0:
263,65,772606,2,0,L|323:65,1,60.8,0|0,1:0|2:0,2:0:0:0:
506,237,772756,5,2,2:0:0:0:
354,221,772831,1,0,2:0:0:0:
202,206,772906,2,0,L|307:206,1,60.8,0|0,1:0|2:0,2:0:0:0:
448,46,773056,2,0,L|343:46,1,60.8,8|0,2:0|2:0,2:0:0:0:
202,206,773206,2,0,L|97:206,1,60.8,0|0,2:0|2:0,2:0:0:0:
359,324,773356,6,0,L|363:263,1,60.8,8|0,2:0|2:0,2:0:0:0:
193,310,773506,2,0,L|189:249,1,60.8,0|0,1:0|2:0,2:0:0:0:
20,253,773656,2,0,L|16:192,1,60.8,0|0,1:0|2:0,2:0:0:0:
229,110,773806,6,0,L|233:49,1,60.8,8|0,2:0|2:0,2:0:0:0:
416,186,773956,1,0,1:0:0:0:
264,170,774031,1,0,2:0:0:0:
112,230,774106,2,0,L|108:169,1,60.8,0|0,1:0|2:0,2:0:0:0:
278,216,774256,6,0,L|282:155,1,60.8,8|0,2:0|2:0,2:0:0:0:
451,159,774406,2,0,L|455:98,1,60.8,0|0,1:0|2:0,2:0:0:0:
242,320,774556,6,0,L|178:320,1,60.8,6|0,1:2|2:0,2:0:0:0:
257,261,774706,2,0,L|321:261,1,60.8,0|0,2:0|2:0,2:0:0:0:
132,219,774856,2,0,L|128:158,1,60.8,8|0,2:0|2:0,2:0:0:0:
280,71,775006,2,0,L|284:10,1,60.8,0|0,1:0|2:0,2:0:0:0:
101,254,775156,5,0,2:0:0:0:
253,238,775231,1,0,2:0:0:0:
405,223,775306,2,0,L|300:223,1,60.8,0|0,1:0|2:0,2:0:0:0:
159,124,775456,2,0,L|54:124,1,60.8,8|0,2:0|2:0,2:0:0:0:
252,98,775606,2,0,L|256:37,1,60.8,0|0,2:0|2:0,2:0:0:0:
76,64,775756,6,0,L|16:64,1,60.8,2|0,1:2|2:0,2:0:0:0:
154,233,775906,2,0,L|215:233,1,60.8,2|0,2:0|2:0,2:0:0:0:
357,233,776056,2,0,L|297:233,1,60.8,10|0,2:0|2:0,2:0:0:0:
436,64,776206,2,0,L|496:64,1,60.8,2|0,1:2|2:0,2:0:0:0:
312,116,776356,5,2,2:0:0:0:
160,117,776431,1,0,2:0:0:0:
312,116,776506,2,0,L|408:116,1,60.8,2|0,1:2|2:0,2:0:0:0:
224,225,776656,2,0,L|128:225,1,60.8,10|0,2:0|2:0,2:0:0:0:
16,128,776806,2,0,L|112:128,1,60.8,2|0,2:0|2:0,2:0:0:0:
260,246,776956,6,0,L|264:185,1,60.8,2|0,1:2|2:0,2:0:0:0:
188,139,777106,2,0,L|192:78,1,60.8,0|0,2:0|2:0,2:0:0:0:
374,332,777256,2,0,L|378:271,1,60.8,10|0,2:0|2:0,2:0:0:0:
226,170,777406,2,0,L|230:109,1,60.8,0|0,1:0|2:0,2:0:0:0:
412,129,777556,5,2,2:0:0:0:
260,113,777631,1,0,2:0:0:0:
108,98,777706,2,0,L|112:37,1,60.8,0|0,1:0|2:0,2:0:0:0:
295,305,777856,2,0,L|299:244,1,60.8,10|0,2:0|2:0,2:0:0:0:
147,145,778006,2,0,L|227:145,1,60.8,0|0,2:0|2:0,2:0:0:0:
390,145,778156,6,0,L|470:145,1,60.8,2|0,1:2|2:0,2:0:0:0:
375,345,778306,2,0,L|371:284,1,60.8,0|0,2:0|2:0,2:0:0:0:
189,72,778456,2,0,L|109:72,1,60.8,10|0,2:0|2:0,2:0:0:0:
280,311,778606,2,0,L|284:250,1,60.8,0|0,1:0|2:0,2:0:0:0:
102,151,778756,5,2,2:0:0:0:
254,152,778831,1,0,2:0:0:0:
406,67,778906,2,0,L|310:67,1,60.8,0|0,1:0|2:0,2:0:0:0:
160,320,779056,2,0,L|156:259,1,60.8,10|0,2:0|2:0,2:0:0:0:
308,123,779206,2,0,L|212:123,1,60.8,0|0,2:0|2:0,2:0:0:0:
63,310,779356,6,0,L|59:249,1,60.8,2|0,1:2|2:0,2:0:0:0:
135,205,779506,2,0,L|139:144,1,60.8,0|0,2:0|2:0,2:0:0:0:
322,323,779656,2,0,L|418:323,1,60.8,8|0,2:0|2:0,2:0:0:0:
229,236,779806,2,0,L|225:175,1,60.8,0|0,1:0|2:0,2:0:0:0:
408,151,779956,5,0,2:0:0:0:
256,152,780031,1,0,2:0:0:0:
104,67,780106,2,0,L|18:67,1,60.8,0|0,1:0|2:0,2:0:0:0:
225,175,780256,2,0,L|229:236,1,60.8,10|0,2:0|2:0,2:0:0:0:
411,67,780406,2,0,L|497:67,1,60.8,2|0,2:0|2:0,2:0:0:0:
286,234,780556,6,0,L|282:295,1,60.8,2|0,1:2|2:0,2:0:0:0:
358,352,780706,2,0,L|444:352,1,60.8,0|0,2:0|2:0,2:0:0:0:
233,234,780856,2,0,L|237:295,1,60.8,10|0,2:0|2:0,2:0:0:0:
389,302,781006,2,0,L|475:302,1,60.8,0|0,1:0|2:0,2:0:0:0:
265,272,781156,5,2,2:0:0:0:
113,254,781231,1,0,2:0:0:0:
265,272,781306,2,0,L|269:333,1,60.8,0|0,1:0|2:0,2:0:0:0:
87,358,781456,2,0,L|23:358,1,60.8,10|0,2:0|2:0,2:0:0:0:
211,100,781606,2,0,L|215:161,1,60.8,0|0,2:0|2:0,2:0:0:0:
32,32,781756,6,0,L|36:93,1,60.8,2|0,1:2|2:0,2:0:0:0:
112,151,781906,2,0,L|116:212,1,60.8,0|0,2:0|2:0,2:0:0:0:
299,320,782056,2,0,L|235:320,1,60.8,10|0,2:0|2:0,2:0:0:0:
163,173,782206,2,0,L|227:173,1,60.8,0|0,1:0|2:0,2:0:0:0:
408,108,782356,5,2,2:0:0:0:
268,81,782431,1,0,2:0:0:0:
128,45,782506,2,0,L|192:45,1,60.8,0|0,1:0|2:0,2:0:0:0:
371,228,782656,2,0,L|375:289,1,60.8,10|0,2:0|2:0,2:0:0:0:
299,298,782806,2,0,L|295:359,1,60.8,0|0,2:0|2:0,2:0:0:0:
478,146,782956,6,0,L|398:146,1,60.8,2|0,1:2|2:0,2:0:0:0:
340,269,783106,2,0,L|420:269,1,60.8,0|0,2:0|2:0,2:0:0:0:
218,270,783256,2,0,L|214:331,1,60.8,10|0,2:0|2:0,2:0:0:0:
294,212,783406,2,0,L|298:151,1,60.8,0|0,1:0|2:0,2:0:0:0:
115,126,783556,5,2,2:0:0:0:
255,99,783631,1,0,2:0:0:0:
395,58,783706,2,0,L|331:58,1,60.8,0|0,1:0|2:0,2:0:0:0:
149,152,783856,2,0,L|153:213,1,60.8,10|0,2:0|2:0,2:0:0:0:
233,332,784006,2,0,L|229:271,1,60.8,0|0,2:0|2:0,2:0:0:0:
52,256,784156,5,6,1:2:0:0:
256,192,784306,8,4,793756,2:0:0:0:
