osu file format v14

[General]
AudioFilename: DM DOKURO - UNDERTALE- The Underground Radio - 04 Septisicle.mp3
AudioLeadIn: 0
PreviewTime: 62294
Countdown: 0
SampleSet: Normal
StackLeniency: 0.7
Mode: 1
LetterboxInBreaks: 0
WidescreenStoryboard: 0

[Editor]
DistanceSpacing: 1
BeatDivisor: 2
GridSize: 32
TimelineZoom: 0.6999998

[Metadata]
Title:Septisicle
TitleUnicode:Septisicle
Artist:DM DOKURO
ArtistUnicode:DM DOKURO
Creator:Vulkin
Version:A Muzukashii of Sweetness
Source:UNDERTALE
Tags:The Underground Radio Snowy toby fox Snowdin winter christmas xmas x-mas pc game
BeatmapID:1480489
BeatmapSetID:699086

[Difficulty]
HPDrainRate:6
CircleSize:7
OverallDifficulty:5
ApproachRate:10
SliderMultiplier:1.4
SliderTickRate:1

[Events]
//Background and Video events
0,0,"04_snowdin_v02b_by_bakenius-d9lg4d4.jpg",0,-115
//Break Periods
//Storyboard Layer 0 (Background)
//Storyboard Layer 1 (Fail)
//Storyboard Layer 2 (Pass)
//Storyboard Layer 3 (Foreground)
//Storyboard Sound Samples

[TimingPoints]
114,444.444444444444,7,1,0,50,1,0
12447,-100,7,1,0,60,0,0
12517,444.444444444444,7,1,0,60,1,0
24850,-100,7,1,0,70,0,0
74628,-100,7,1,0,80,0,0
74739,-100,7,1,0,80,0,1
105739,-100,7,1,0,70,0,1
105850,-100,7,1,0,70,0,0
155516,-100,7,1,0,85,0,0
155628,-100,7,1,0,85,0,1
180405,-100,7,1,0,75,0,1
180516,-100,7,1,0,75,0,0
199183,465.116279069767,7,1,0,75,1,0
200113,495.867768595041,7,1,0,75,1,0
201352,526.315789473684,7,1,0,75,1,0
201878,550.45871559633,7,1,0,75,1,0
202703,582.52427184466,7,1,0,75,1,0
203868,612.244897959184,7,1,0,75,1,0
204786,652.173913043478,7,1,0,75,1,0
205438,674.157303370787,7,1,0,75,1,0
206112,705.882352941176,7,1,0,75,1,0
206817,740.74074074074,7,1,0,75,1,0
207187,749.999999999999,7,1,0,75,1,0
207562,-100,7,1,0,10,0,0

[HitObjects]
256,192,114,5,0,1:0:0:0:
256,192,558,1,8,1:0:0:0:
256,192,1002,1,8,1:0:0:0:
256,192,1669,1,0,1:0:0:0:
256,192,2558,1,8,1:0:0:0:
256,192,3225,1,0,1:0:0:0:
256,192,3669,1,8,1:0:0:0:
256,192,4113,1,8,1:0:0:0:
256,192,4780,1,0,1:0:0:0:
256,192,5669,1,8,1:0:0:0:
256,192,6336,1,8,1:0:0:0:
256,192,6780,1,8,1:0:0:0:
256,192,7225,1,0,1:0:0:0:
256,192,7891,1,8,1:0:0:0:
256,192,8780,1,0,1:0:0:0:
256,192,9447,1,8,1:0:0:0:
256,192,9891,1,8,1:0:0:0:
256,192,10336,1,0,1:0:0:0:
256,192,11002,1,8,1:0:0:0:
256,192,11891,1,0,1:0:0:0:
256,192,12517,1,0,1:0:0:0:
256,192,12961,1,8,0:0:0:0:
256,192,13406,1,8,1:0:0:0:
256,192,14072,1,0,1:0:0:0:
256,192,14517,1,8,1:0:0:0:
256,192,14961,1,0,1:0:0:0:
256,192,15628,1,0,1:0:0:0:
256,192,16072,1,8,0:0:0:0:
256,192,16517,1,8,1:0:0:0:
256,192,17184,1,0,1:0:0:0:
256,192,17628,1,8,1:0:0:0:
256,192,18072,1,0,1:0:0:0:
256,192,18739,1,8,1:0:0:0:
256,192,19183,1,8,0:0:0:0:
256,192,19628,1,0,1:0:0:0:
256,192,20295,1,8,1:0:0:0:
256,192,20739,1,0,1:0:0:0:
256,192,21184,1,8,1:0:0:0:
256,192,21850,1,8,1:0:0:0:
256,192,22294,1,8,0:0:0:0:
256,192,22740,1,0,1:0:0:0:
256,192,23406,1,8,1:0:0:0:
256,192,23850,1,0,1:0:0:0:
256,192,24295,1,8,1:0:0:0:
256,192,24739,1,0,1:0:0:0:
256,192,24960,1,12,0:0:0:0:
256,192,25849,1,8,0:0:0:0:
256,192,26294,1,0,0:0:0:0:
256,192,26516,1,8,0:0:0:0:
256,192,26960,1,8,0:0:0:0:
256,192,27405,1,0,0:0:0:0:
256,192,27850,1,0,0:0:0:0:
256,192,28071,1,8,0:0:0:0:
256,192,28960,1,8,0:0:0:0:
256,192,29405,1,0,0:0:0:0:
256,192,29627,1,8,0:0:0:0:
256,192,30071,1,8,0:0:0:0:
256,192,30516,1,0,0:0:0:0:
256,192,30961,1,0,0:0:0:0:
256,192,31183,1,8,0:0:0:0:
256,192,32071,1,0,0:0:0:0:
256,192,32516,1,8,0:0:0:0:
256,192,32738,1,0,0:0:0:0:
256,192,33183,1,8,0:0:0:0:
256,192,33628,1,0,0:0:0:0:
256,192,34072,1,8,0:0:0:0:
256,192,34294,1,0,0:0:0:0:
256,192,35183,1,8,0:0:0:0:
256,192,35627,1,8,0:0:0:0:
256,192,35849,1,0,0:0:0:0:
256,192,36294,1,0,0:0:0:0:
256,192,36738,1,8,0:0:0:0:
256,192,36961,1,0,0:0:0:0:
256,192,37183,1,0,0:0:0:0:
256,192,37405,1,12,0:0:0:0:
256,192,38294,1,8,0:0:0:0:
256,192,38739,1,0,0:0:0:0:
256,192,38961,1,8,0:0:0:0:
256,192,39405,1,8,0:0:0:0:
256,192,39850,1,0,0:0:0:0:
256,192,40294,1,0,0:0:0:0:
256,192,40516,1,8,0:0:0:0:
256,192,41405,1,8,0:0:0:0:
256,192,41850,1,0,0:0:0:0:
256,192,42072,1,8,0:0:0:0:
256,192,42516,1,8,0:0:0:0:
256,192,42961,1,0,0:0:0:0:
256,192,43405,1,0,0:0:0:0:
256,192,43628,1,8,0:0:0:0:
256,192,44516,1,0,0:0:0:0:
256,192,44961,1,8,0:0:0:0:
256,192,45183,1,0,0:0:0:0:
256,192,45628,1,8,0:0:0:0:
256,192,46073,1,8,0:0:0:0:
256,192,46294,1,8,0:0:0:0:
256,192,46516,1,8,0:0:0:0:
256,192,46739,1,0,0:0:0:0:
256,192,47628,1,8,0:0:0:0:
256,192,48072,1,8,0:0:0:0:
256,192,48294,1,0,0:0:0:0:
256,192,48739,1,0,0:0:0:0:
256,192,49183,1,8,0:0:0:0:
256,192,49628,1,0,0:0:0:0:
256,192,49849,1,12,0:0:0:0:
256,192,50294,1,8,0:0:0:0:
256,192,50738,1,8,0:0:0:0:
256,192,51183,1,0,0:0:0:0:
256,192,51405,1,8,0:0:0:0:
256,192,51849,1,8,0:0:0:0:
256,192,52294,1,0,0:0:0:0:
256,192,52960,1,8,0:0:0:0:
256,192,53405,1,8,0:0:0:0:
256,192,53849,1,8,0:0:0:0:
256,192,54294,1,0,0:0:0:0:
256,192,54516,1,8,0:0:0:0:
256,192,54960,1,8,0:0:0:0:
256,192,55405,1,0,0:0:0:0:
256,192,56072,1,0,0:0:0:0:
256,192,56516,1,0,0:0:0:0:
256,192,56960,1,8,0:0:0:0:
256,192,57405,1,0,0:0:0:0:
256,192,57627,1,8,0:0:0:0:
256,192,58072,1,8,0:0:0:0:
256,192,58516,1,0,0:0:0:0:
256,192,58960,1,8,0:0:0:0:
256,192,59183,1,0,0:0:0:0:
256,192,59628,1,0,0:0:0:0:
256,192,60072,1,8,0:0:0:0:
256,192,60516,1,0,0:0:0:0:
256,192,60738,1,0,0:0:0:0:
256,192,61183,1,0,0:0:0:0:
256,192,61627,1,8,0:0:0:0:
256,192,62072,1,0,0:0:0:0:
256,192,62294,1,12,0:0:0:0:
256,192,62739,1,8,0:0:0:0:
256,192,62961,1,0,0:0:0:0:
256,192,63183,1,8,0:0:0:0:
256,192,63628,1,0,0:0:0:0:
256,192,63850,1,8,0:0:0:0:
256,192,64294,1,8,0:0:0:0:
256,192,64739,1,0,0:0:0:0:
256,192,65405,1,8,0:0:0:0:
256,192,65850,1,8,0:0:0:0:
256,192,66072,1,0,0:0:0:0:
256,192,66294,1,8,0:0:0:0:
256,192,66516,1,0,0:0:0:0:
256,192,66739,1,0,0:0:0:0:
256,192,66961,1,8,0:0:0:0:
256,192,67405,1,8,0:0:0:0:
256,192,67850,1,0,0:0:0:0:
256,192,68517,1,0,0:0:0:0:
256,192,68961,1,0,0:0:0:0:
256,192,69183,1,0,0:0:0:0:
256,192,69405,1,8,0:0:0:0:
256,192,69850,1,0,0:0:0:0:
256,192,70072,1,8,0:0:0:0:
256,192,70516,1,0,0:0:0:0:
256,192,70961,1,8,0:0:0:0:
256,192,71183,1,0,0:0:0:0:
256,192,71405,1,8,0:0:0:0:
256,192,71628,1,0,0:0:0:0:
256,192,72517,1,8,0:0:0:0:
256,192,72961,1,8,0:0:0:0:
256,192,73183,1,0,0:0:0:0:
256,192,73628,1,0,0:0:0:0:
256,192,74072,1,8,0:0:0:0:
256,192,74294,1,0,0:0:0:0:
256,192,74517,1,0,0:0:0:0:
256,192,74739,1,12,0:0:0:0:
256,192,75183,1,8,0:0:0:0:
256,192,75405,1,0,0:0:0:0:
256,192,75627,1,8,0:0:0:0:
256,192,76071,1,0,0:0:0:0:
256,192,76294,1,8,0:0:0:0:
256,192,76516,1,8,0:0:0:0:
256,192,76627,1,8,0:0:0:0:
256,192,76738,1,8,0:0:0:0:
256,192,77183,1,8,0:0:0:0:
256,192,77627,1,0,0:0:0:0:
256,192,77849,1,8,0:0:0:0:
256,192,78072,1,8,0:0:0:0:
256,192,78294,1,0,0:0:0:0:
256,192,78738,1,8,0:0:0:0:
256,192,79183,1,8,0:0:0:0:
256,192,79405,1,0,0:0:0:0:
256,192,79627,1,8,0:0:0:0:
256,192,79850,1,8,0:0:0:0:
256,192,80294,1,8,0:0:0:0:
256,192,80738,1,8,0:0:0:0:
256,192,80960,1,0,0:0:0:0:
256,192,81405,1,0,0:0:0:0:
256,192,81849,1,8,0:0:0:0:
256,192,82294,1,8,0:0:0:0:
256,192,82516,1,0,0:0:0:0:
256,192,82739,1,0,0:0:0:0:
256,192,82850,1,0,0:0:0:0:
256,192,82961,1,0,0:0:0:0:
256,192,83405,1,8,0:0:0:0:
256,192,83849,1,8,0:0:0:0:
256,192,84071,1,0,0:0:0:0:
256,192,84516,1,0,0:0:0:0:
256,192,84960,1,8,0:0:0:0:
256,192,85405,1,8,0:0:0:0:
256,192,85627,1,0,0:0:0:0:
256,192,85849,1,8,0:0:0:0:
256,192,86071,1,8,0:0:0:0:
256,192,86516,1,8,0:0:0:0:
256,192,86738,1,0,0:0:0:0:
256,192,87183,1,12,0:0:0:0:
256,192,87627,1,8,0:0:0:0:
256,192,88071,1,8,0:0:0:0:
256,192,88516,1,0,0:0:0:0:
256,192,88738,1,8,0:0:0:0:
256,192,88960,1,8,0:0:0:0:
256,192,89071,1,8,0:0:0:0:
256,192,89183,1,8,0:0:0:0:
256,192,89627,1,8,0:0:0:0:
256,192,90071,1,0,0:0:0:0:
256,192,90294,1,8,0:0:0:0:
256,192,90516,1,8,0:0:0:0:
256,192,90738,1,0,0:0:0:0:
256,192,91183,1,8,0:0:0:0:
256,192,91628,1,8,0:0:0:0:
256,192,91849,1,0,0:0:0:0:
256,192,92071,1,8,0:0:0:0:
256,192,92294,1,8,0:0:0:0:
256,192,92738,1,8,0:0:0:0:
256,192,93183,1,8,0:0:0:0:
256,192,93405,1,0,0:0:0:0:
256,192,93850,1,0,0:0:0:0:
256,192,94294,1,8,0:0:0:0:
256,192,94738,1,0,0:0:0:0:
256,192,94960,1,8,0:0:0:0:
256,192,95183,1,0,0:0:0:0:
256,192,95294,1,0,0:0:0:0:
256,192,95405,1,0,0:0:0:0:
256,192,95849,1,8,0:0:0:0:
256,192,96294,1,0,0:0:0:0:
256,192,96516,1,8,0:0:0:0:
256,192,96960,1,0,0:0:0:0:
256,192,97405,1,8,0:0:0:0:
256,192,97849,1,0,0:0:0:0:
256,192,98071,1,8,0:0:0:0:
256,192,98294,1,8,0:0:0:0:
256,192,98405,1,8,0:0:0:0:
256,192,98516,1,8,0:0:0:0:
256,192,98738,1,0,0:0:0:0:
256,192,98960,1,8,0:0:0:0:
256,192,99405,1,0,0:0:0:0:
256,192,99627,1,12,0:0:0:0:
256,192,100294,1,0,0:0:0:0:
256,192,100960,1,8,0:0:0:0:
256,192,101183,1,8,0:0:0:0:
256,192,101405,1,0,0:0:0:0:
256,192,101849,1,0,0:0:0:0:
256,192,102516,1,8,0:0:0:0:
256,192,102738,1,0,0:0:0:0:
256,192,103405,1,0,0:0:0:0:
256,192,104071,1,8,0:0:0:0:
256,192,104294,1,8,0:0:0:0:
256,192,104516,1,0,0:0:0:0:
256,192,104960,1,0,0:0:0:0:
256,192,105405,1,8,0:0:0:0:
256,192,105627,1,0,0:0:0:0:
256,192,105849,1,12,0:0:0:0:
256,192,106738,1,8,0:0:0:0:
256,192,106960,1,8,0:0:0:0:
256,192,107183,1,0,0:0:0:0:
256,192,107405,1,8,0:0:0:0:
256,192,107849,1,8,0:0:0:0:
256,192,108294,1,0,0:0:0:0:
256,192,108739,1,0,0:0:0:0:
256,192,108960,1,8,0:0:0:0:
256,192,109849,1,8,0:0:0:0:
256,192,110071,1,8,0:0:0:0:
256,192,110294,1,0,0:0:0:0:
256,192,110516,1,8,0:0:0:0:
256,192,110960,1,8,0:0:0:0:
256,192,111405,1,0,0:0:0:0:
256,192,111850,1,8,0:0:0:0:
256,192,112072,1,0,0:0:0:0:
256,192,112960,1,8,0:0:0:0:
256,192,113183,1,0,0:0:0:0:
256,192,113405,1,0,0:0:0:0:
256,192,113627,1,8,0:0:0:0:
256,192,114071,1,0,0:0:0:0:
256,192,114516,1,8,0:0:0:0:
256,192,114960,1,8,0:0:0:0:
256,192,115183,1,0,0:0:0:0:
256,192,116071,1,8,0:0:0:0:
256,192,116294,1,0,0:0:0:0:
256,192,116516,1,0,0:0:0:0:
256,192,116738,1,8,0:0:0:0:
256,192,117183,1,0,0:0:0:0:
256,192,117627,1,8,0:0:0:0:
256,192,118071,1,0,0:0:0:0:
256,192,118294,1,12,0:0:0:0:
256,192,119183,1,8,0:0:0:0:
256,192,119405,1,8,0:0:0:0:
256,192,119627,1,0,0:0:0:0:
256,192,119849,1,8,0:0:0:0:
256,192,120294,1,8,0:0:0:0:
256,192,120738,1,0,0:0:0:0:
256,192,121183,1,0,0:0:0:0:
256,192,121405,1,8,0:0:0:0:
256,192,122294,1,8,0:0:0:0:
256,192,122516,1,8,0:0:0:0:
256,192,122738,1,0,0:0:0:0:
256,192,122960,1,8,0:0:0:0:
256,192,123405,1,8,0:0:0:0:
256,192,123849,1,0,0:0:0:0:
256,192,124294,1,8,0:0:0:0:
256,192,124516,1,0,0:0:0:0:
256,192,125405,1,8,0:0:0:0:
256,192,125627,1,0,0:0:0:0:
256,192,125849,1,0,0:0:0:0:
256,192,126071,1,8,0:0:0:0:
256,192,126516,1,0,0:0:0:0:
256,192,126960,1,8,0:0:0:0:
256,192,127183,1,8,0:0:0:0:
256,192,127405,1,8,0:0:0:0:
256,192,127627,1,0,0:0:0:0:
256,192,128071,1,0,0:0:0:0:
256,192,128516,1,8,0:0:0:0:
256,192,128738,1,0,0:0:0:0:
256,192,128960,1,0,0:0:0:0:
256,192,129183,1,8,0:0:0:0:
256,192,129627,1,0,0:0:0:0:
256,192,129849,1,8,0:0:0:0:
256,192,130071,1,0,0:0:0:0:
256,192,130294,1,8,0:0:0:0:
256,192,130738,1,12,0:0:0:0:
256,192,131627,1,8,0:0:0:0:
256,192,131849,1,0,0:0:0:0:
256,192,132071,1,0,0:0:0:0:
256,192,132294,1,8,0:0:0:0:
256,192,132738,1,8,0:0:0:0:
256,192,132961,1,0,0:0:0:0:
256,192,133183,1,0,0:0:0:0:
256,192,133627,1,0,0:0:0:0:
256,192,133849,1,8,0:0:0:0:
256,192,134738,1,8,0:0:0:0:
256,192,134960,1,0,0:0:0:0:
256,192,135183,1,0,0:0:0:0:
256,192,135405,1,8,0:0:0:0:
256,192,135849,1,8,0:0:0:0:
256,192,136072,1,8,0:0:0:0:
256,192,136294,1,0,0:0:0:0:
256,192,136738,1,8,0:0:0:0:
256,192,136960,1,0,0:0:0:0:
256,192,137850,1,8,0:0:0:0:
256,192,138072,1,0,0:0:0:0:
256,192,138294,1,8,0:0:0:0:
256,192,138516,1,0,0:0:0:0:
256,192,138960,1,0,0:0:0:0:
256,192,139405,1,8,0:0:0:0:
256,192,139849,1,8,0:0:0:0:
256,192,140071,1,0,0:0:0:0:
256,192,140960,1,8,0:0:0:0:
256,192,141183,1,0,0:0:0:0:
256,192,141405,1,8,0:0:0:0:
256,192,141627,1,0,0:0:0:0:
256,192,142071,1,0,0:0:0:0:
256,192,142294,1,0,0:0:0:0:
256,192,142516,1,8,0:0:0:0:
256,192,142738,1,0,0:0:0:0:
256,192,142960,1,0,0:0:0:0:
256,192,143183,1,12,0:0:0:0:
256,192,143627,1,8,0:0:0:0:
256,192,144071,1,8,0:0:0:0:
256,192,144294,1,0,0:0:0:0:
256,192,144516,1,0,0:0:0:0:
256,192,144738,1,8,0:0:0:0:
256,192,145183,1,8,0:0:0:0:
256,192,145627,1,0,0:0:0:0:
256,192,146071,1,0,0:0:0:0:
256,192,146294,1,8,0:0:0:0:
256,192,146738,1,8,0:0:0:0:
256,192,147183,1,8,0:0:0:0:
256,192,147405,1,0,0:0:0:0:
256,192,147627,1,0,0:0:0:0:
256,192,147849,1,8,0:0:0:0:
256,192,148294,1,8,0:0:0:0:
256,192,148738,1,0,0:0:0:0:
256,192,149183,1,8,0:0:0:0:
256,192,149405,1,0,0:0:0:0:
256,192,149849,1,0,0:0:0:0:
256,192,150071,1,8,0:0:0:0:
256,192,150294,1,8,0:0:0:0:
256,192,150738,1,0,0:0:0:0:
256,192,150960,1,8,0:0:0:0:
256,192,151405,1,0,0:0:0:0:
256,192,151627,1,0,0:0:0:0:
256,192,151849,1,8,0:0:0:0:
256,192,152072,1,0,0:0:0:0:
256,192,152294,1,8,0:0:0:0:
256,192,152516,1,0,0:0:0:0:
256,192,153405,1,8,0:0:0:0:
256,192,153627,1,0,0:0:0:0:
256,192,153849,1,0,0:0:0:0:
256,192,154071,1,8,0:0:0:0:
256,192,154516,1,8,0:0:0:0:
256,192,154738,1,8,0:0:0:0:
256,192,154960,1,0,0:0:0:0:
256,192,155183,1,8,0:0:0:0:
256,192,155405,1,0,0:0:0:0:
256,192,155627,1,12,0:0:0:0:
256,192,156071,1,8,0:0:0:0:
256,192,156516,1,8,0:0:0:0:
256,192,156960,1,0,0:0:0:0:
256,192,157183,1,8,0:0:0:0:
256,192,157405,1,0,0:0:0:0:
256,192,157516,1,0,0:0:0:0:
256,192,157627,1,0,0:0:0:0:
256,192,157849,1,0,0:0:0:0:
256,192,158071,1,8,0:0:0:0:
256,192,158516,1,8,0:0:0:0:
256,192,158738,1,8,0:0:0:0:
256,192,158960,1,0,0:0:0:0:
256,192,159183,1,0,0:0:0:0:
256,192,159627,1,8,0:0:0:0:
256,192,160071,1,0,0:0:0:0:
256,192,160294,1,8,0:0:0:0:
256,192,160516,1,0,0:0:0:0:
256,192,160738,1,0,0:0:0:0:
256,192,160960,1,0,0:0:0:0:
256,192,161183,1,8,0:0:0:0:
256,192,161627,1,8,0:0:0:0:
256,192,161849,1,0,0:0:0:0:
256,192,162294,1,8,0:0:0:0:
256,192,162516,1,0,0:0:0:0:
256,192,162738,1,8,0:0:0:0:
256,192,163183,1,8,0:0:0:0:
256,192,163405,1,0,0:0:0:0:
256,192,163627,1,8,0:0:0:0:
256,192,163738,1,8,0:0:0:0:
256,192,163849,1,8,0:0:0:0:
256,192,164071,1,8,0:0:0:0:
256,192,164294,1,0,0:0:0:0:
256,192,164738,1,8,0:0:0:0:
256,192,164960,1,0,0:0:0:0:
256,192,165405,1,8,0:0:0:0:
256,192,165627,1,0,0:0:0:0:
256,192,165849,1,8,0:0:0:0:
256,192,166294,1,8,0:0:0:0:
256,192,166516,1,0,0:0:0:0:
256,192,166738,1,8,0:0:0:0:
256,192,166960,1,8,0:0:0:0:
256,192,167183,1,8,0:0:0:0:
256,192,167405,1,0,0:0:0:0:
256,192,167849,1,0,0:0:0:0:
256,192,168071,1,12,0:0:0:0:
256,192,168516,1,8,0:0:0:0:
256,192,168960,1,8,0:0:0:0:
256,192,169405,1,8,0:0:0:0:
256,192,169627,1,0,0:0:0:0:
256,192,169849,1,0,0:0:0:0:
256,192,169960,1,0,0:0:0:0:
256,192,170071,1,0,0:0:0:0:
256,192,170294,1,0,0:0:0:0:
256,192,170516,1,8,0:0:0:0:
256,192,170960,1,8,0:0:0:0:
256,192,171183,1,8,0:0:0:0:
256,192,171405,1,0,0:0:0:0:
256,192,171627,1,0,0:0:0:0:
256,192,172071,1,8,0:0:0:0:
256,192,172516,1,8,0:0:0:0:
256,192,172738,1,0,0:0:0:0:
256,192,172960,1,8,0:0:0:0:
256,192,173183,1,8,0:0:0:0:
256,192,173405,1,0,0:0:0:0:
256,192,173627,1,8,0:0:0:0:
256,192,174071,1,8,0:0:0:0:
256,192,174294,1,0,0:0:0:0:
256,192,174738,1,8,0:0:0:0:
256,192,174960,1,0,0:0:0:0:
256,192,175183,1,8,0:0:0:0:
256,192,175627,1,0,0:0:0:0:
256,192,175849,1,8,0:0:0:0:
256,192,176071,1,8,0:0:0:0:
256,192,176183,1,8,0:0:0:0:
256,192,176294,1,8,0:0:0:0:
256,192,176516,1,0,0:0:0:0:
256,192,176739,1,8,0:0:0:0:
256,192,177183,1,0,0:0:0:0:
256,192,177405,1,8,0:0:0:0:
256,192,177849,1,8,0:0:0:0:
256,192,178071,1,0,0:0:0:0:
256,192,178294,1,8,0:0:0:0:
256,192,178738,1,0,0:0:0:0:
256,192,178960,1,8,0:0:0:0:
256,192,179183,1,0,0:0:0:0:
256,192,179405,1,8,0:0:0:0:
256,192,179627,1,8,0:0:0:0:
256,192,179850,1,8,0:0:0:0:
256,192,180294,1,0,0:0:0:0:
256,192,180516,1,12,0:0:0:0:
256,192,181405,1,8,0:0:0:0:
256,192,181627,1,0,0:0:0:0:
256,192,181739,1,0,0:0:0:0:
256,192,181849,1,0,0:0:0:0:
256,192,182071,1,8,0:0:0:0:
256,192,182516,1,8,0:0:0:0:
256,192,182738,1,0,0:0:0:0:
256,192,182960,1,8,0:0:0:0:
256,192,183405,1,0,0:0:0:0:
256,192,183627,1,8,0:0:0:0:
256,192,184516,1,8,0:0:0:0:
256,192,184738,1,0,0:0:0:0:
256,192,184850,1,0,0:0:0:0:
256,192,184960,1,0,0:0:0:0:
256,192,185183,1,8,0:0:0:0:
256,192,185627,1,8,0:0:0:0:
256,192,185849,1,0,0:0:0:0:
256,192,186071,1,8,0:0:0:0:
256,192,186516,1,0,0:0:0:0:
256,192,186738,1,8,0:0:0:0:
256,192,186960,1,0,0:0:0:0:
256,192,187183,1,8,0:0:0:0:
256,192,187405,1,8,0:0:0:0:
256,192,187627,1,8,0:0:0:0:
256,192,188071,1,0,0:0:0:0:
256,192,188294,1,8,0:0:0:0:
256,192,188738,1,8,0:0:0:0:
256,192,188960,1,0,0:0:0:0:
256,192,189183,1,8,0:0:0:0:
256,192,189405,1,0,0:0:0:0:
256,192,189627,1,8,0:0:0:0:
256,192,189849,1,8,0:0:0:0:
256,192,190294,1,0,0:0:0:0:
256,192,190516,1,0,0:0:0:0:
256,192,190738,1,8,0:0:0:0:
256,192,190960,1,0,0:0:0:0:
256,192,191183,1,0,0:0:0:0:
256,192,191405,1,8,0:0:0:0:
256,192,191849,1,8,0:0:0:0:
256,192,192071,1,0,0:0:0:0:
256,192,192294,1,8,0:0:0:0:
256,192,192516,1,8,0:0:0:0:
256,192,192738,1,0,0:0:0:0:
256,192,192960,1,12,0:0:0:0:
256,192,193849,1,8,0:0:0:0:
256,192,194071,1,0,0:0:0:0:
256,192,194183,1,0,0:0:0:0:
256,192,194294,1,0,0:0:0:0:
256,192,194516,1,8,0:0:0:0:
256,192,194960,1,8,0:0:0:0:
256,192,195183,1,0,0:0:0:0:
256,192,195405,1,8,0:0:0:0:
256,192,195849,1,0,0:0:0:0:
256,192,196071,1,8,0:0:0:0:
256,192,196960,1,8,0:0:0:0:
256,192,197183,1,0,0:0:0:0:
256,192,197294,1,0,0:0:0:0:
256,192,197405,1,0,0:0:0:0:
256,192,197627,1,8,0:0:0:0:
256,192,198071,1,8,0:0:0:0:
256,192,198294,1,0,0:0:0:0:
256,192,198516,1,8,0:0:0:0:
256,192,198960,1,0,0:0:0:0:
256,192,199183,1,8,0:0:0:0:
256,192,199648,1,8,0:0:0:0:
256,192,199880,1,0,0:0:0:0:
256,192,200113,1,8,0:0:0:0:
256,192,200608,1,0,0:0:0:0:
256,192,200856,1,8,0:0:0:0:
256,192,201352,1,8,0:0:0:0:
256,192,201615,1,8,0:0:0:0:
256,192,201878,1,0,0:0:0:0:
256,192,202153,1,0,0:0:0:0:
256,192,202428,1,8,0:0:0:0:
256,192,202703,1,8,0:0:0:0:
256,192,203285,1,0,0:0:0:0:
256,192,203576,1,0,0:0:0:0:
256,192,203868,1,8,0:0:0:0:
256,192,204174,1,8,0:0:0:0:
256,192,204480,1,0,0:0:0:0:
256,192,204786,1,8,0:0:0:0:
256,192,205438,1,8,0:0:0:0:
256,192,205775,1,0,0:0:0:0:
256,192,206112,1,8,0:0:0:0:
256,192,206464,1,8,0:0:0:0:
256,192,206817,1,0,0:0:0:0:
256,192,207187,1,12,0:0:0:0:
256,192,207562,8,0,212437,0:0:0:0:
