osu file format v14

[General]
AudioFilename: DM DOKURO - UNDERTALE- The Underground Radio - 04 Septisicle.mp3
AudioLeadIn: 0
PreviewTime: 62294
Countdown: 0
SampleSet: Normal
StackLeniency: 0.7
Mode: 1
LetterboxInBreaks: 0
WidescreenStoryboard: 0

[Editor]
DistanceSpacing: 1
BeatDivisor: 2
GridSize: 32
TimelineZoom: 1.4

[Metadata]
Title:Septisicle
TitleUnicode:Septisicle
Artist:DM DOKURO
ArtistUnicode:DM DOKURO
Creator:Vulkin
Version:A Kantan of Hope
Source:UNDERTALE
Tags:The Underground Radio Snowy toby fox Snowdin winter christmas xmas x-mas pc game
BeatmapID:1480488
BeatmapSetID:699086

[Difficulty]
HPDrainRate:7
CircleSize:7
OverallDifficulty:3
ApproachRate:10
SliderMultiplier:1.4
SliderTickRate:1

[Events]
//Background and Video events
0,0,"04_snowdin_v02b_by_bakenius-d9lg4d4.jpg",0,-115
//Break Periods
//Storyboard Layer 0 (Background)
//Storyboard Layer 1 (Fail)
//Storyboard Layer 2 (Pass)
//Storyboard Layer 3 (Foreground)
//Storyboard Sound Samples

[TimingPoints]
114,444.444444444444,7,1,0,50,1,0
12447,-100,7,1,0,60,0,0
12517,444.444444444444,7,1,0,60,1,0
24850,-100,7,1,0,70,0,0
74628,-100,7,1,0,80,0,0
74739,-100,7,1,0,80,0,1
105739,-100,7,1,0,70,0,1
105850,-100,7,1,0,70,0,0
155516,-100,7,1,0,85,0,0
155628,-100,7,1,0,85,0,1
180405,-100,7,1,0,75,0,1
180516,-100,7,1,0,75,0,0
199183,465.116279069767,7,1,0,75,1,0
200113,495.867768595041,7,1,0,75,1,0
201352,526.315789473684,7,1,0,75,1,0
201878,550.45871559633,7,1,0,75,1,0
202703,582.52427184466,7,1,0,75,1,0
203868,612.244897959184,7,1,0,75,1,0
204786,652.173913043478,7,1,0,75,1,0
205438,674.157303370787,7,1,0,75,1,0
206112,705.882352941176,7,1,0,75,1,0
206817,740.74074074074,7,1,0,75,1,0
207187,749.999999999999,7,1,0,75,1,0
207562,-100,7,1,0,10,0,0

[HitObjects]
256,192,114,5,0,0:0:0:0:
256,192,3225,1,0,0:0:0:0:
256,192,6336,1,8,0:0:0:0:
256,192,9447,1,8,0:0:0:0:
256,192,12517,1,0,0:0:0:0:
256,192,14072,1,8,0:0:0:0:
256,192,15628,1,0,0:0:0:0:
256,192,17183,1,8,0:0:0:0:
256,192,18739,1,8,0:0:0:0:
256,192,20294,1,0,0:0:0:0:
256,192,21850,1,8,0:0:0:0:
256,192,23405,1,0,0:0:0:0:
256,192,24294,1,8,0:0:0:0:
256,192,24961,1,12,0:0:0:0:
256,192,26516,1,0,0:0:0:0:
256,192,27405,1,0,0:0:0:0:
256,192,28072,1,8,0:0:0:0:
256,192,29628,1,0,0:0:0:0:
256,192,30516,1,8,0:0:0:0:
256,192,31183,1,0,0:0:0:0:
256,192,32739,1,0,0:0:0:0:
256,192,33628,1,8,0:0:0:0:
256,192,34294,1,0,0:0:0:0:
256,192,35850,1,0,0:0:0:0:
256,192,36739,1,8,0:0:0:0:
256,192,37405,1,12,0:0:0:0:
256,192,38961,1,0,0:0:0:0:
256,192,39850,1,0,0:0:0:0:
256,192,40516,1,8,0:0:0:0:
256,192,42072,1,0,0:0:0:0:
256,192,42961,1,8,0:0:0:0:
256,192,43628,1,0,0:0:0:0:
256,192,45183,1,0,0:0:0:0:
256,192,46072,1,8,0:0:0:0:
256,192,46739,1,0,0:0:0:0:
256,192,48294,1,0,0:0:0:0:
256,192,48961,1,8,0:0:0:0:
256,192,49405,1,0,0:0:0:0:
256,192,49850,1,12,0:0:0:0:
256,192,51405,1,0,0:0:0:0:
256,192,52294,1,0,0:0:0:0:
256,192,52961,1,8,0:0:0:0:
256,192,54516,1,0,0:0:0:0:
256,192,55405,1,8,0:0:0:0:
256,192,56072,1,0,0:0:0:0:
256,192,57628,1,0,0:0:0:0:
256,192,58516,1,8,0:0:0:0:
256,192,59183,1,0,0:0:0:0:
256,192,60739,1,0,0:0:0:0:
256,192,61628,1,8,0:0:0:0:
256,192,62294,1,12,0:0:0:0:
256,192,63850,1,0,0:0:0:0:
256,192,64739,1,0,0:0:0:0:
256,192,65405,1,8,0:0:0:0:
256,192,66961,1,0,0:0:0:0:
256,192,67850,1,8,0:0:0:0:
256,192,68516,1,0,0:0:0:0:
256,192,70072,1,0,0:0:0:0:
256,192,70961,1,8,0:0:0:0:
256,192,71628,1,0,0:0:0:0:
256,192,73183,1,0,0:0:0:0:
256,192,73850,1,8,0:0:0:0:
256,192,74294,1,0,0:0:0:0:
256,192,74739,1,12,0:0:0:0:
256,192,75850,1,0,0:0:0:0:
256,192,76294,1,8,0:0:0:0:
256,192,77183,1,8,0:0:0:0:
256,192,77850,1,8,0:0:0:0:
256,192,78294,1,0,0:0:0:0:
256,192,78739,1,8,0:0:0:0:
256,192,79405,1,0,0:0:0:0:
256,192,80294,1,8,0:0:0:0:
256,192,80961,1,8,0:0:0:0:
256,192,82072,1,0,0:0:0:0:
256,192,82516,1,8,0:0:0:0:
256,192,83405,1,8,0:0:0:0:
256,192,84072,1,0,0:0:0:0:
256,192,84961,1,8,0:0:0:0:
256,192,85628,1,0,0:0:0:0:
256,192,86516,1,8,0:0:0:0:
256,192,87183,1,4,0:0:0:0:
256,192,88294,1,0,0:0:0:0:
256,192,88739,1,8,0:0:0:0:
256,192,89628,1,8,0:0:0:0:
256,192,90294,1,0,0:0:0:0:
256,192,90739,1,8,0:0:0:0:
256,192,91183,1,0,0:0:0:0:
256,192,92072,1,8,0:0:0:0:
256,192,92739,1,8,0:0:0:0:
256,192,93405,1,0,0:0:0:0:
256,192,94294,1,8,0:0:0:0:
256,192,94961,1,0,0:0:0:0:
256,192,95405,1,8,0:0:0:0:
256,192,95850,1,0,0:0:0:0:
256,192,96516,1,8,0:0:0:0:
256,192,97405,1,8,0:0:0:0:
256,192,98072,1,0,0:0:0:0:
256,192,98516,1,8,0:0:0:0:
256,192,98961,1,0,0:0:0:0:
256,192,99628,1,12,0:0:0:0:
256,192,100072,12,0,102739,0:0:0:0:
256,192,105405,5,8,0:0:0:0:
256,192,105850,1,12,0:0:0:0:
256,192,107405,1,0,0:0:0:0:
256,192,107850,1,8,0:0:0:0:
256,192,108294,1,0,0:0:0:0:
256,192,108961,1,8,0:0:0:0:
256,192,110516,1,0,0:0:0:0:
256,192,110961,1,8,0:0:0:0:
256,192,111405,1,0,0:0:0:0:
256,192,112072,1,8,0:0:0:0:
256,192,113628,1,8,0:0:0:0:
256,192,114072,1,0,0:0:0:0:
256,192,114516,1,8,0:0:0:0:
256,192,115183,1,0,0:0:0:0:
256,192,116739,1,0,0:0:0:0:
256,192,117628,1,8,0:0:0:0:
256,192,118294,1,12,0:0:0:0:
256,192,119850,1,0,0:0:0:0:
256,192,120294,1,8,0:0:0:0:
256,192,120739,1,0,0:0:0:0:
256,192,121405,1,8,0:0:0:0:
256,192,122961,1,0,0:0:0:0:
256,192,123405,1,8,0:0:0:0:
256,192,123850,1,0,0:0:0:0:
256,192,124516,1,8,0:0:0:0:
256,192,126072,1,8,0:0:0:0:
256,192,126516,1,0,0:0:0:0:
256,192,126961,1,8,0:0:0:0:
256,192,127628,1,0,0:0:0:0:
256,192,128516,1,8,0:0:0:0:
256,192,129183,1,0,0:0:0:0:
256,192,129850,1,8,0:0:0:0:
256,192,130294,1,8,0:0:0:0:
256,192,130739,1,12,0:0:0:0:
256,192,132294,1,0,0:0:0:0:
256,192,132739,1,8,0:0:0:0:
256,192,133183,1,0,0:0:0:0:
256,192,133850,1,8,0:0:0:0:
256,192,135405,1,0,0:0:0:0:
256,192,135850,1,8,0:0:0:0:
256,192,136294,1,0,0:0:0:0:
256,192,136961,1,8,0:0:0:0:
256,192,138516,1,8,0:0:0:0:
256,192,138961,1,0,0:0:0:0:
256,192,139405,1,8,0:0:0:0:
256,192,140072,1,0,0:0:0:0:
256,192,141628,1,0,0:0:0:0:
256,192,142516,1,8,0:0:0:0:
256,192,143183,1,12,0:0:0:0:
256,192,144739,1,0,0:0:0:0:
256,192,145183,1,8,0:0:0:0:
256,192,145628,1,0,0:0:0:0:
256,192,146294,1,8,0:0:0:0:
256,192,147850,1,0,0:0:0:0:
256,192,148294,1,8,0:0:0:0:
256,192,148739,1,0,0:0:0:0:
256,192,149405,1,8,0:0:0:0:
256,192,150961,1,8,0:0:0:0:
256,192,151405,1,0,0:0:0:0:
256,192,151850,1,8,0:0:0:0:
256,192,152516,1,0,0:0:0:0:
256,192,153405,1,8,0:0:0:0:
256,192,154072,1,0,0:0:0:0:
256,192,154739,1,8,0:0:0:0:
256,192,155183,1,8,0:0:0:0:
256,192,155628,1,12,0:0:0:0:
256,192,156739,1,0,0:0:0:0:
256,192,157183,1,8,0:0:0:0:
256,192,158072,1,8,0:0:0:0:
256,192,158739,1,8,0:0:0:0:
256,192,159183,1,0,0:0:0:0:
256,192,159628,1,8,0:0:0:0:
256,192,160294,1,0,0:0:0:0:
256,192,161183,1,8,0:0:0:0:
256,192,161850,1,8,0:0:0:0:
256,192,162961,1,0,0:0:0:0:
256,192,163405,1,8,0:0:0:0:
256,192,164294,1,8,0:0:0:0:
256,192,164961,1,0,0:0:0:0:
256,192,165850,1,8,0:0:0:0:
256,192,166516,1,0,0:0:0:0:
256,192,167405,1,8,0:0:0:0:
256,192,168072,1,12,0:0:0:0:
256,192,169183,1,0,0:0:0:0:
256,192,169628,1,8,0:0:0:0:
256,192,170516,1,8,0:0:0:0:
256,192,171183,1,0,0:0:0:0:
256,192,172072,1,8,0:0:0:0:
256,192,172516,1,0,0:0:0:0:
256,192,172961,1,8,0:0:0:0:
256,192,173628,1,8,0:0:0:0:
256,192,174294,1,0,0:0:0:0:
256,192,175183,1,8,0:0:0:0:
256,192,175850,1,0,0:0:0:0:
256,192,176294,1,8,0:0:0:0:
256,192,176739,1,8,0:0:0:0:
256,192,177405,1,0,0:0:0:0:
256,192,178516,1,8,0:0:0:0:
256,192,178961,1,0,0:0:0:0:
256,192,179405,1,8,0:0:0:0:
256,192,179850,1,8,0:0:0:0:
256,192,180516,1,12,0:0:0:0:
256,192,182072,1,0,0:0:0:0:
256,192,182516,1,8,0:0:0:0:
256,192,182961,1,0,0:0:0:0:
256,192,183628,1,8,0:0:0:0:
256,192,185183,1,0,0:0:0:0:
256,192,185628,1,8,0:0:0:0:
256,192,186072,1,0,0:0:0:0:
256,192,186739,1,8,0:0:0:0:
256,192,187628,1,8,0:0:0:0:
256,192,188294,1,8,0:0:0:0:
256,192,188739,1,0,0:0:0:0:
256,192,189183,1,0,0:0:0:0:
256,192,189850,1,8,0:0:0:0:
256,192,190739,1,0,0:0:0:0:
256,192,191405,1,8,0:0:0:0:
256,192,192294,1,8,0:0:0:0:
256,192,192961,1,12,0:0:0:0:
256,192,194516,1,0,0:0:0:0:
256,192,194961,1,8,0:0:0:0:
256,192,195405,1,0,0:0:0:0:
256,192,196072,1,8,0:0:0:0:
256,192,197628,1,0,0:0:0:0:
256,192,198072,1,8,0:0:0:0:
256,192,198516,1,0,0:0:0:0:
256,192,199183,1,8,0:0:0:0:
256,192,200113,1,8,0:0:0:0:
256,192,200856,1,8,0:0:0:0:
256,192,201878,1,0,0:0:0:0:
256,192,202703,1,8,0:0:0:0:
256,192,203868,1,0,0:0:0:0:
256,192,204786,1,8,0:0:0:0:
256,192,206112,1,8,0:0:0:0:
256,192,207187,1,4,0:0:0:0:
256,192,207562,12,0,212437,0:0:0:0:
