osu file format v14

[General]
AudioFilename: DM DOKURO - UNDERTALE- The Underground Radio - 04 Septisicle.mp3
AudioLeadIn: 0
PreviewTime: 62294
Countdown: 0
SampleSet: Normal
StackLeniency: 0.7
Mode: 1
LetterboxInBreaks: 0
WidescreenStoryboard: 0

[Editor]
DistanceSpacing: 1
BeatDivisor: 2
GridSize: 32
TimelineZoom: 1.2

[Metadata]
Title:Septisicle
TitleUnicode:Septisicle
Artist:DM DOKURO
ArtistUnicode:DM DOKURO
Creator:Vulkin
Version:A Futsuu of Dreams
Source:UNDERTALE
Tags:The Underground Radio Snowy toby fox Snowdin winter christmas xmas x-mas pc game
BeatmapID:1480487
BeatmapSetID:699086

[Difficulty]
HPDrainRate:7
CircleSize:7
OverallDifficulty:4
ApproachRate:10
SliderMultiplier:1.4
SliderTickRate:1

[Events]
//Background and Video events
0,0,"04_snowdin_v02b_by_bakenius-d9lg4d4.jpg",0,-115
//Break Periods
//Storyboard Layer 0 (Background)
//Storyboard Layer 1 (Fail)
//Storyboard Layer 2 (Pass)
//Storyboard Layer 3 (Foreground)
//Storyboard Sound Samples

[TimingPoints]
114,444.444444444444,7,1,0,50,1,0
12447,-100,7,1,0,60,0,0
12517,444.444444444444,7,1,0,60,1,0
24850,-100,7,1,0,70,0,0
74628,-100,7,1,0,80,0,0
74739,-100,7,1,0,80,0,1
105739,-100,7,1,0,70,0,1
105850,-100,7,1,0,70,0,0
155516,-100,7,1,0,85,0,0
155628,-100,7,1,0,85,0,1
180405,-100,7,1,0,75,0,1
180516,-100,7,1,0,75,0,0
199183,465.116279069767,7,1,0,75,1,0
200113,495.867768595041,7,1,0,75,1,0
201352,526.315789473684,7,1,0,75,1,0
201878,550.45871559633,7,1,0,75,1,0
202703,582.52427184466,7,1,0,75,1,0
203868,612.244897959184,7,1,0,75,1,0
204786,652.173913043478,7,1,0,75,1,0
205438,674.157303370787,7,1,0,75,1,0
206112,705.882352941176,7,1,0,75,1,0
206817,740.74074074074,7,1,0,75,1,0
207187,749.999999999999,7,1,0,75,1,0
207562,-100,7,1,0,10,0,0

[HitObjects]
256,192,114,5,0,0:0:0:0:
256,192,1002,1,8,0:0:0:0:
256,192,2558,1,8,0:0:0:0:
256,192,3225,1,0,0:0:0:0:
256,192,4113,1,8,0:0:0:0:
256,192,5669,1,8,0:0:0:0:
256,192,6336,1,8,0:0:0:0:
256,192,7225,1,0,0:0:0:0:
256,192,8780,1,0,0:0:0:0:
256,192,9447,1,8,0:0:0:0:
256,192,10336,1,0,0:0:0:0:
256,192,11891,1,0,0:0:0:0:
256,192,12517,5,0,0:0:0:0:
256,192,12961,1,0,0:0:0:0:
256,192,13405,1,8,0:0:0:0:
256,192,14072,1,0,0:0:0:0:
256,192,14961,1,8,0:0:0:0:
256,192,15628,1,0,0:0:0:0:
256,192,16072,1,0,0:0:0:0:
256,192,16516,1,8,0:0:0:0:
256,192,17183,1,0,0:0:0:0:
256,192,18072,1,8,0:0:0:0:
256,192,18739,1,8,0:0:0:0:
256,192,19183,1,8,0:0:0:0:
256,192,19628,1,0,0:0:0:0:
256,192,20294,1,8,0:0:0:0:
256,192,21183,1,0,0:0:0:0:
256,192,21850,1,8,0:0:0:0:
256,192,22294,1,8,0:0:0:0:
256,192,22739,1,0,0:0:0:0:
256,192,23405,1,8,0:0:0:0:
256,192,24294,5,8,0:0:0:0:
256,192,24739,1,0,0:0:0:0:
256,192,24961,1,12,0:0:0:0:
256,192,25850,1,8,0:0:0:0:
256,192,26516,1,0,0:0:0:0:
256,192,26961,1,0,0:0:0:0:
256,192,27405,1,0,0:0:0:0:
256,192,28072,1,8,0:0:0:0:
256,192,28961,1,8,0:0:0:0:
256,192,29628,1,0,0:0:0:0:
256,192,30072,1,0,0:0:0:0:
256,192,30516,1,0,0:0:0:0:
256,192,31183,1,8,0:0:0:0:
256,192,32072,1,0,0:0:0:0:
256,192,32739,1,8,0:0:0:0:
256,192,33183,1,0,0:0:0:0:
256,192,33628,1,8,0:0:0:0:
256,192,34294,1,0,0:0:0:0:
256,192,35183,1,8,0:0:0:0:
256,192,35850,1,0,0:0:0:0:
256,192,36294,1,0,0:0:0:0:
256,192,36739,1,8,0:0:0:0:
256,192,37183,1,0,0:0:0:0:
256,192,37405,1,12,0:0:0:0:
256,192,38294,1,8,0:0:0:0:
256,192,38961,1,0,0:0:0:0:
256,192,39405,1,0,0:0:0:0:
256,192,39850,1,0,0:0:0:0:
256,192,40516,1,8,0:0:0:0:
256,192,41405,1,8,0:0:0:0:
256,192,42072,1,0,0:0:0:0:
256,192,42516,1,0,0:0:0:0:
256,192,42961,1,0,0:0:0:0:
256,192,43628,1,8,0:0:0:0:
256,192,44516,1,0,0:0:0:0:
256,192,45183,1,8,0:0:0:0:
256,192,45628,1,0,0:0:0:0:
256,192,46072,1,8,0:0:0:0:
256,192,46739,1,0,0:0:0:0:
256,192,47628,1,8,0:0:0:0:
256,192,48294,1,0,0:0:0:0:
256,192,48961,1,8,0:0:0:0:
256,192,49405,1,8,0:0:0:0:
256,192,49628,1,0,0:0:0:0:
256,192,49850,1,12,0:0:0:0:
256,192,50739,1,8,0:0:0:0:
256,192,51405,1,0,0:0:0:0:
256,192,51850,1,0,0:0:0:0:
256,192,52294,1,0,0:0:0:0:
256,192,52961,1,8,0:0:0:0:
256,192,53850,1,8,0:0:0:0:
256,192,54516,1,0,0:0:0:0:
256,192,54961,1,0,0:0:0:0:
256,192,55405,1,0,0:0:0:0:
256,192,56072,1,8,0:0:0:0:
256,192,56961,1,0,0:0:0:0:
256,192,57628,1,8,0:0:0:0:
256,192,58072,1,0,0:0:0:0:
256,192,58516,1,8,0:0:0:0:
256,192,59183,1,8,0:0:0:0:
256,192,60072,1,0,0:0:0:0:
256,192,60739,1,8,0:0:0:0:
256,192,61183,1,0,0:0:0:0:
256,192,61628,1,8,0:0:0:0:
256,192,62072,1,0,0:0:0:0:
256,192,62294,1,12,0:0:0:0:
256,192,63183,1,8,0:0:0:0:
256,192,63850,1,0,0:0:0:0:
256,192,64294,1,0,0:0:0:0:
256,192,64739,1,0,0:0:0:0:
256,192,65405,1,8,0:0:0:0:
256,192,66294,1,8,0:0:0:0:
256,192,66961,1,0,0:0:0:0:
256,192,67405,1,0,0:0:0:0:
256,192,67850,1,0,0:0:0:0:
256,192,68516,1,8,0:0:0:0:
256,192,69405,1,0,0:0:0:0:
256,192,70072,1,8,0:0:0:0:
256,192,70516,1,0,0:0:0:0:
256,192,70961,1,8,0:0:0:0:
256,192,71628,1,8,0:0:0:0:
256,192,72516,1,0,0:0:0:0:
256,192,73183,1,0,0:0:0:0:
256,192,73850,1,8,0:0:0:0:
256,192,74294,1,8,0:0:0:0:
256,192,74516,1,0,0:0:0:0:
256,192,74739,1,12,0:0:0:0:
256,192,75405,1,0,0:0:0:0:
256,192,75628,1,8,0:0:0:0:
256,192,76072,1,8,0:0:0:0:
256,192,76294,1,0,0:0:0:0:
256,192,76739,1,8,0:0:0:0:
256,192,77183,1,8,0:0:0:0:
256,192,77850,1,0,0:0:0:0:
256,192,78294,1,8,0:0:0:0:
256,192,78739,1,8,0:0:0:0:
256,192,79183,1,8,0:0:0:0:
256,192,79405,1,0,0:0:0:0:
256,192,79850,1,8,0:0:0:0:
256,192,80072,1,0,0:0:0:0:
256,192,80294,1,8,0:0:0:0:
256,192,80739,1,8,0:0:0:0:
256,192,80961,1,0,0:0:0:0:
256,192,81628,1,0,0:0:0:0:
256,192,81850,1,8,0:0:0:0:
256,192,82294,1,8,0:0:0:0:
256,192,82516,1,0,0:0:0:0:
256,192,82961,1,0,0:0:0:0:
256,192,83405,1,8,0:0:0:0:
256,192,83850,1,8,0:0:0:0:
256,192,84072,1,0,0:0:0:0:
256,192,84516,1,8,0:0:0:0:
256,192,84739,1,0,0:0:0:0:
256,192,84961,1,8,0:0:0:0:
256,192,85405,1,8,0:0:0:0:
256,192,85628,1,0,0:0:0:0:
256,192,86072,1,0,0:0:0:0:
256,192,86516,1,8,0:0:0:0:
256,192,86961,1,0,0:0:0:0:
256,192,87183,1,12,0:0:0:0:
256,192,87850,1,0,0:0:0:0:
256,192,88072,1,8,0:0:0:0:
256,192,88516,1,8,0:0:0:0:
256,192,88739,1,0,0:0:0:0:
256,192,89183,1,0,0:0:0:0:
256,192,89628,1,8,0:0:0:0:
256,192,90294,1,0,0:0:0:0:
256,192,90739,1,8,0:0:0:0:
256,192,91183,1,0,0:0:0:0:
256,192,91628,1,8,0:0:0:0:
256,192,91850,1,8,0:0:0:0:
256,192,92072,1,0,0:0:0:0:
256,192,92739,1,8,0:0:0:0:
256,192,93183,1,8,0:0:0:0:
256,192,93405,1,0,0:0:0:0:
256,192,93850,1,8,0:0:0:0:
256,192,94294,1,8,0:0:0:0:
256,192,94739,1,0,0:0:0:0:
256,192,94961,1,8,0:0:0:0:
256,192,95405,1,0,0:0:0:0:
256,192,95850,1,8,0:0:0:0:
256,192,96516,1,8,0:0:0:0:
256,192,96961,1,8,0:0:0:0:
256,192,97183,1,0,0:0:0:0:
256,192,97405,1,8,0:0:0:0:
256,192,97850,1,8,0:0:0:0:
256,192,98072,1,8,0:0:0:0:
256,192,98516,1,0,0:0:0:0:
256,192,98961,1,8,0:0:0:0:
256,192,99628,1,12,0:0:0:0:
256,192,100072,12,0,102739,0:0:0:0:
256,192,105405,5,8,0:0:0:0:
256,192,105628,1,0,0:0:0:0:
256,192,105850,1,12,0:0:0:0:
256,192,106739,1,8,0:0:0:0:
256,192,107183,1,0,0:0:0:0:
256,192,107405,1,8,0:0:0:0:
256,192,107850,1,8,0:0:0:0:
256,192,108294,1,8,0:0:0:0:
256,192,108739,1,0,0:0:0:0:
256,192,108961,1,8,0:0:0:0:
256,192,109850,1,8,0:0:0:0:
256,192,110294,1,0,0:0:0:0:
256,192,110516,1,8,0:0:0:0:
256,192,110961,1,8,0:0:0:0:
256,192,111405,1,0,0:0:0:0:
256,192,111850,1,8,0:0:0:0:
256,192,112072,1,0,0:0:0:0:
256,192,112961,1,0,0:0:0:0:
256,192,113405,1,8,0:0:0:0:
256,192,113628,1,0,0:0:0:0:
256,192,114072,1,0,0:0:0:0:
256,192,114516,1,8,0:0:0:0:
256,192,114961,1,8,0:0:0:0:
256,192,115183,1,0,0:0:0:0:
256,192,116072,1,8,0:0:0:0:
256,192,116739,1,0,0:0:0:0:
256,192,117628,1,8,0:0:0:0:
256,192,118072,1,0,0:0:0:0:
256,192,118294,1,12,0:0:0:0:
256,192,119183,1,8,0:0:0:0:
256,192,119628,1,0,0:0:0:0:
256,192,119850,1,8,0:0:0:0:
256,192,120294,1,8,0:0:0:0:
256,192,120739,1,8,0:0:0:0:
256,192,121183,1,0,0:0:0:0:
256,192,121405,1,8,0:0:0:0:
256,192,122294,1,8,0:0:0:0:
256,192,122739,1,0,0:0:0:0:
256,192,122961,1,8,0:0:0:0:
256,192,123405,1,8,0:0:0:0:
256,192,123850,1,0,0:0:0:0:
256,192,124294,1,8,0:0:0:0:
256,192,124516,1,0,0:0:0:0:
256,192,125405,1,0,0:0:0:0:
256,192,125850,1,8,0:0:0:0:
256,192,126072,1,0,0:0:0:0:
256,192,126516,1,8,0:0:0:0:
256,192,126961,1,8,0:0:0:0:
256,192,127405,1,8,0:0:0:0:
256,192,127628,1,0,0:0:0:0:
256,192,128516,1,8,0:0:0:0:
256,192,129183,1,0,0:0:0:0:
256,192,130072,1,8,0:0:0:0:
256,192,130516,1,0,0:0:0:0:
256,192,130739,1,12,0:0:0:0:
256,192,131628,1,8,0:0:0:0:
256,192,132072,1,0,0:0:0:0:
256,192,132294,1,8,0:0:0:0:
256,192,132739,1,8,0:0:0:0:
256,192,133183,1,0,0:0:0:0:
256,192,133628,1,0,0:0:0:0:
256,192,133850,1,8,0:0:0:0:
256,192,134739,1,8,0:0:0:0:
256,192,135183,1,0,0:0:0:0:
256,192,135405,1,8,0:0:0:0:
256,192,135850,1,8,0:0:0:0:
256,192,136294,1,0,0:0:0:0:
256,192,136739,1,8,0:0:0:0:
256,192,136961,1,0,0:0:0:0:
256,192,137850,1,8,0:0:0:0:
256,192,138294,1,0,0:0:0:0:
256,192,138516,1,8,0:0:0:0:
256,192,138961,1,0,0:0:0:0:
256,192,139405,1,8,0:0:0:0:
256,192,139850,1,8,0:0:0:0:
256,192,140072,1,0,0:0:0:0:
256,192,140516,1,0,0:0:0:0:
256,192,140961,1,8,0:0:0:0:
256,192,141405,1,8,0:0:0:0:
256,192,141628,1,0,0:0:0:0:
256,192,142072,1,0,0:0:0:0:
256,192,142516,1,8,0:0:0:0:
256,192,142739,1,0,0:0:0:0:
256,192,142961,1,0,0:0:0:0:
256,192,143183,1,12,0:0:0:0:
256,192,144072,1,8,0:0:0:0:
256,192,144516,1,0,0:0:0:0:
256,192,144739,1,8,0:0:0:0:
256,192,145183,1,8,0:0:0:0:
256,192,145628,1,0,0:0:0:0:
256,192,146072,1,0,0:0:0:0:
256,192,146294,1,8,0:0:0:0:
256,192,147183,1,8,0:0:0:0:
256,192,147628,1,0,0:0:0:0:
256,192,147850,1,8,0:0:0:0:
256,192,148294,1,8,0:0:0:0:
256,192,148739,1,0,0:0:0:0:
256,192,149183,1,8,0:0:0:0:
256,192,149405,1,0,0:0:0:0:
256,192,150294,1,8,0:0:0:0:
256,192,150739,1,0,0:0:0:0:
256,192,150961,1,8,0:0:0:0:
256,192,151405,1,8,0:0:0:0:
256,192,151850,1,8,0:0:0:0:
256,192,152294,1,8,0:0:0:0:
256,192,152516,1,0,0:0:0:0:
256,192,153405,1,8,0:0:0:0:
256,192,153850,1,8,0:0:0:0:
256,192,154072,1,0,0:0:0:0:
256,192,154516,1,8,0:0:0:0:
256,192,154739,1,8,0:0:0:0:
256,192,154961,1,0,0:0:0:0:
256,192,155183,1,8,0:0:0:0:
256,192,155628,1,12,0:0:0:0:
256,192,156294,1,0,0:0:0:0:
256,192,156516,1,8,0:0:0:0:
256,192,156961,1,8,0:0:0:0:
256,192,157183,1,0,0:0:0:0:
256,192,157628,1,8,0:0:0:0:
256,192,158072,1,8,0:0:0:0:
256,192,158739,1,0,0:0:0:0:
256,192,159183,1,8,0:0:0:0:
256,192,159628,1,8,0:0:0:0:
256,192,160072,1,0,0:0:0:0:
256,192,160294,1,8,0:0:0:0:
256,192,160739,1,8,0:0:0:0:
256,192,160961,1,0,0:0:0:0:
256,192,161183,1,8,0:0:0:0:
256,192,161628,1,8,0:0:0:0:
256,192,161850,1,0,0:0:0:0:
256,192,162516,1,0,0:0:0:0:
256,192,162739,1,8,0:0:0:0:
256,192,163183,1,8,0:0:0:0:
256,192,163405,1,0,0:0:0:0:
256,192,163850,1,0,0:0:0:0:
256,192,164294,1,8,0:0:0:0:
256,192,164961,1,0,0:0:0:0:
256,192,165405,1,8,0:0:0:0:
256,192,165850,1,8,0:0:0:0:
256,192,166294,1,8,0:0:0:0:
256,192,166516,1,0,0:0:0:0:
256,192,166961,1,8,0:0:0:0:
256,192,167405,1,8,0:0:0:0:
256,192,167628,1,0,0:0:0:0:
256,192,167850,1,0,0:0:0:0:
256,192,168072,1,12,0:0:0:0:
256,192,168739,1,0,0:0:0:0:
256,192,168961,1,8,0:0:0:0:
256,192,169405,1,8,0:0:0:0:
256,192,169628,1,0,0:0:0:0:
256,192,170072,1,8,0:0:0:0:
256,192,170516,1,8,0:0:0:0:
256,192,170961,1,0,0:0:0:0:
256,192,171183,1,8,0:0:0:0:
256,192,171628,1,0,0:0:0:0:
256,192,172072,1,8,0:0:0:0:
256,192,172516,1,8,0:0:0:0:
256,192,172739,1,8,0:0:0:0:
256,192,172961,1,0,0:0:0:0:
256,192,173405,1,0,0:0:0:0:
256,192,173628,1,8,0:0:0:0:
256,192,174072,1,8,0:0:0:0:
256,192,174294,1,0,0:0:0:0:
256,192,174739,1,8,0:0:0:0:
256,192,174961,1,0,0:0:0:0:
256,192,175183,1,8,0:0:0:0:
256,192,175628,1,0,0:0:0:0:
256,192,175850,1,8,0:0:0:0:
256,192,176294,1,8,0:0:0:0:
256,192,176739,1,8,0:0:0:0:
256,192,177183,1,0,0:0:0:0:
256,192,177405,1,8,0:0:0:0:
256,192,178294,1,8,0:0:0:0:
256,192,178739,1,0,0:0:0:0:
256,192,178961,1,8,0:0:0:0:
256,192,179405,1,8,0:0:0:0:
256,192,179850,1,8,0:0:0:0:
256,192,180294,1,0,0:0:0:0:
256,192,180516,1,12,0:0:0:0:
256,192,181405,1,8,0:0:0:0:
256,192,181850,1,0,0:0:0:0:
256,192,182072,1,8,0:0:0:0:
256,192,182516,1,8,0:0:0:0:
256,192,182961,1,0,0:0:0:0:
256,192,183405,1,0,0:0:0:0:
256,192,183628,1,8,0:0:0:0:
256,192,184516,1,8,0:0:0:0:
256,192,184961,1,0,0:0:0:0:
256,192,185183,1,8,0:0:0:0:
256,192,185628,1,8,0:0:0:0:
256,192,186072,1,0,0:0:0:0:
256,192,186516,1,0,0:0:0:0:
256,192,186739,1,8,0:0:0:0:
256,192,187183,1,8,0:0:0:0:
256,192,187628,1,8,0:0:0:0:
256,192,188294,1,8,0:0:0:0:
256,192,188739,1,8,0:0:0:0:
256,192,189183,1,0,0:0:0:0:
256,192,189628,1,8,0:0:0:0:
256,192,189850,1,8,0:0:0:0:
256,192,190294,1,0,0:0:0:0:
256,192,190739,1,8,0:0:0:0:
256,192,191183,1,0,0:0:0:0:
256,192,191405,1,8,0:0:0:0:
256,192,191850,1,0,0:0:0:0:
256,192,192294,1,8,0:0:0:0:
256,192,192516,1,0,0:0:0:0:
256,192,192739,1,0,0:0:0:0:
256,192,192961,1,12,0:0:0:0:
256,192,193850,1,8,0:0:0:0:
256,192,194294,1,0,0:0:0:0:
256,192,194516,1,8,0:0:0:0:
256,192,194961,1,8,0:0:0:0:
256,192,195405,1,0,0:0:0:0:
256,192,195850,1,0,0:0:0:0:
256,192,196072,1,8,0:0:0:0:
256,192,196961,1,8,0:0:0:0:
256,192,197405,1,0,0:0:0:0:
256,192,197628,1,8,0:0:0:0:
256,192,198072,1,8,0:0:0:0:
256,192,198516,1,0,0:0:0:0:
256,192,198961,1,0,0:0:0:0:
256,192,199183,1,8,0:0:0:0:
256,192,199648,1,8,0:0:0:0:
256,192,200113,1,8,0:0:0:0:
256,192,200856,1,8,0:0:0:0:
256,192,201352,1,8,0:0:0:0:
256,192,201878,1,0,0:0:0:0:
256,192,202428,1,8,0:0:0:0:
256,192,202703,1,8,0:0:0:0:
256,192,203285,1,0,0:0:0:0:
256,192,203868,1,8,0:0:0:0:
256,192,204480,1,0,0:0:0:0:
256,192,204786,1,8,0:0:0:0:
256,192,205438,1,0,0:0:0:0:
256,192,205775,1,0,0:0:0:0:
256,192,206112,1,8,0:0:0:0:
256,192,206464,1,0,0:0:0:0:
256,192,206817,1,8,0:0:0:0:
256,192,207187,1,4,0:0:0:0:
256,192,207562,12,0,212437,0:0:0:0:
