osu file format v14

[General]
AudioFilename: audio.mp3
AudioLeadIn: 0
PreviewTime: 62287
Countdown: 0
SampleSet: Normal
StackLeniency: 0.7
Mode: 1
LetterboxInBreaks: 0
WidescreenStoryboard: 1

[Editor]
Bookmarks: 49850
DistanceSpacing: 1
BeatDivisor: 4
GridSize: 32
TimelineZoom: 3.299999

[Metadata]
Title:Septisicle
TitleUnicode:Septisicle
Artist:DM DOKURO
ArtistUnicode:DM DOKURO
Creator:Remus
Version:An Oni Filled with Determination
Source:UNDERTALE
Tags:The Underground Radio Snowy toby fox Snowdin winter christmas xmas x-mas pc game vulkin
BeatmapID:1733746
BeatmapSetID:722711

[Difficulty]
HPDrainRate:7
CircleSize:2
OverallDifficulty:7
ApproachRate:10
SliderMultiplier:1.4
SliderTickRate:1

[Events]
//Background and Video events
0,0,"bg.jpg",0,-115
//Break Periods
//Storyboard Layer 0 (Background)
//Storyboard Layer 1 (Fail)
//Storyboard Layer 2 (Pass)
//Storyboard Layer 3 (Foreground)
//Storyboard Layer 4 (Overlay)
//Storyboard Sound Samples

[TimingPoints]
84,444.444444444444,7,1,0,65,1,0
24287,444.444444444444,7,1,0,65,1,8
24953,444.444444444444,7,1,0,65,1,0
74730,-100,7,1,0,80,0,1
99619,-100,7,1,0,80,0,0
105841,-100,7,1,0,70,0,0
155619,-100,7,1,0,85,0,1
180508,-100,7,1,0,75,0,0
198952,-102.040816326531,7,1,0,75,0,0
199176,465.116279069767,7,1,0,75,1,0
199176,-98.0392156862745,7,1,0,75,0,0
199407,-101.375256732838,7,1,0,74,0,0
199524,-101.84212027147,7,1,0,74,0,0
199641,-102.788867554488,7,1,0,73,0,0
199873,-104.242459621683,7,1,0,72,0,0
200113,495.867768595041,7,1,0,72,1,0
200113,-99.1803733942697,7,1,0,71,0,0
200360,-100.62365125326,7,1,0,70,0,0
200608,-102.109665865528,7,1,0,69,0,0
200856,-103.640229440282,7,1,0,67,0,0
201104,-105.217375750475,7,1,0,66,0,0
201228,-105.75381234409,7,1,0,66,0,0
201352,526.315789473684,7,1,0,66,1,8
201352,-100.662248989079,7,1,0,65,0,0
201615,-102.242162553038,7,1,0,64,0,0
201878,550.45871559633,7,1,0,64,1,0
201878,-99.3166513249774,7,1,0,63,0,0
202153,-100.925962371412,7,1,0,62,0,0
202428,-102.588286467569,7,1,0,61,0,0
202703,582.52427184466,7,1,0,61,1,8
202703,-98.5645348229553,7,1,0,60,0,0
202994,-100.243262173464,7,1,0,59,0,0
203091,-100.81561792486,7,1,0,58,0,0
203188,-101.394547131198,7,1,0,58,0,0
203285,-101.980163689846,7,1,0,58,0,0
203576,-103.778316618979,7,1,0,57,0,0
203868,612.244897959184,7,1,0,56,1,0
203868,-100.512814327416,7,1,0,56,0,0
204174,-102.349878003123,7,1,0,55,0,0
204480,-104.255343549123,7,1,0,54,0,0
204786,652.173913043478,7,1,0,53,1,8
204786,-99.7290362086211,7,1,0,53,0,0
205112,-101.657514727909,7,1,0,52,0,0
205220,-102.317022354001,7,1,0,52,0,0
205329,-102.985143027446,7,1,0,52,0,0
205438,674.157303370787,7,1,0,52,1,0
205438,-100.281762456707,7,1,0,51,0,0
205775,-102.298790606456,7,1,0,50,0,0
206112,705.882352941176,7,1,0,50,1,8
206112,-99.7067015935722,7,1,0,50,0,0
206464,-101.796379145907,7,1,0,50,0,0
206817,740.74074074074,7,1,0,50,1,8
206817,-99.0825578991679,7,1,0,50,0,0
207187,749.999999999999,7,1,0,50,1,0
207562,-100,7,1,0,10,0,0

[HitObjects]
256,192,84,5,0,1:0:0:0:
256,192,528,1,8,1:0:0:0:
256,192,972,1,8,1:0:0:0:
256,192,1639,1,0,1:0:0:0:
256,192,2084,1,0,1:0:0:0:
256,192,2306,1,8,1:0:0:0:
256,192,2528,1,8,1:0:0:0:
256,192,3195,1,0,1:0:0:0:
256,192,3639,1,8,1:0:0:0:
256,192,4084,1,8,1:0:0:0:
256,192,4750,1,0,1:0:0:0:
256,192,5195,1,0,1:0:0:0:
256,192,5417,1,8,1:0:0:0:
256,192,5639,1,8,1:0:0:0:
256,192,6306,1,0,1:0:0:0:
256,192,6750,1,8,1:0:0:0:
256,192,7195,1,0,1:0:0:0:
256,192,7861,1,0,1:0:0:0:
256,192,8306,1,8,1:0:0:0:
256,192,8528,1,0,1:0:0:0:
256,192,8750,1,8,1:0:0:0:
256,192,9417,1,0,1:0:0:0:
256,192,9861,1,8,1:0:0:0:
256,192,10306,1,0,1:0:0:0:
256,192,10972,1,0,1:0:0:0:
256,192,11417,1,8,1:0:0:0:
256,192,11639,1,0,1:0:0:0:
256,192,11861,1,8,1:0:0:0:
256,192,12528,1,0,1:0:0:0:
256,192,12972,1,8,0:0:0:0:
256,192,13416,1,8,1:0:0:0:
256,192,13639,1,0,0:0:0:0:
256,192,13861,1,0,1:0:0:0:
256,192,14083,1,8,1:0:0:0:
256,192,14527,1,8,1:0:0:0:
256,192,14750,1,0,1:0:0:0:
256,192,14972,1,8,1:0:0:0:
256,192,15416,1,0,1:0:0:0:
256,192,15639,1,8,1:0:0:0:
256,192,16083,1,8,0:0:0:0:
256,192,16527,1,8,1:0:0:0:
256,192,16750,1,0,0:0:0:0:
256,192,16972,1,0,1:0:0:0:
256,192,17194,1,8,1:0:0:0:
256,192,17639,1,8,1:0:0:0:
256,192,17861,1,0,1:0:0:0:
256,192,18083,1,8,1:0:0:0:
256,192,18527,1,8,1:0:0:0:
256,192,18750,1,0,1:0:0:0:
256,192,19194,1,0,0:0:0:0:
256,192,19639,1,0,1:0:0:0:
256,192,19861,1,0,0:0:0:0:
256,192,20083,1,8,1:0:0:0:
256,192,20305,1,0,1:0:0:0:
256,192,20750,1,0,1:0:0:0:
256,192,21194,1,8,1:0:0:0:
256,192,21639,1,8,1:0:0:0:
256,192,21861,1,0,1:0:0:0:
256,192,22305,1,0,0:0:0:0:
256,192,22528,1,0,0:0:0:0:
256,192,22750,1,0,1:0:0:0:
256,192,23194,1,8,1:0:0:0:
256,192,23416,1,0,1:0:0:0:
256,192,23861,1,8,1:0:0:0:
256,192,24083,1,0,1:0:0:0:
256,192,24287,1,8,1:0:0:0:
256,192,24509,1,0,1:0:0:0:
256,192,24732,1,0,1:0:0:0:
256,192,24954,1,12,1:0:0:0:
256,192,25397,1,0,1:0:0:0:
256,192,25842,1,8,1:0:0:0:
256,192,26064,1,0,1:0:0:0:
256,192,26286,1,0,1:0:0:0:
256,192,26508,1,8,1:0:0:0:
256,192,26953,1,8,1:0:0:0:
256,192,27175,1,0,1:0:0:0:
256,192,27397,1,8,1:0:0:0:
256,192,27842,1,0,1:0:0:0:
256,192,28064,1,8,1:0:0:0:
256,192,28508,1,0,1:0:0:0:
256,192,28731,1,0,1:0:0:0:
256,192,28953,1,8,1:0:0:0:
256,192,29175,1,0,1:0:0:0:
256,192,29397,1,0,1:0:0:0:
256,192,29620,1,8,1:0:0:0:
256,192,30064,1,8,1:0:0:0:
256,192,30286,1,0,1:0:0:0:
256,192,30508,1,8,1:0:0:0:
256,192,30953,1,8,1:0:0:0:
256,192,31175,1,0,1:0:0:0:
256,192,31620,1,0,1:0:0:0:
256,192,31842,1,0,1:0:0:0:
256,192,32064,1,8,1:0:0:0:
256,192,32286,1,0,1:0:0:0:
256,192,32508,1,8,1:0:0:0:
256,192,32731,1,0,1:0:0:0:
256,192,33175,1,0,1:0:0:0:
256,192,33620,1,8,1:0:0:0:
256,192,34064,1,8,1:0:0:0:
256,192,34286,1,0,1:0:0:0:
256,192,34731,1,0,1:0:0:0:
256,192,34953,1,0,1:0:0:0:
256,192,35175,1,8,1:0:0:0:
256,192,35397,1,8,1:0:0:0:
256,192,35620,1,8,1:0:0:0:
256,192,35842,1,0,1:0:0:0:
256,192,36286,1,8,1:0:0:0:
256,192,36508,1,0,1:0:0:0:
256,192,36731,1,8,1:0:0:0:
256,192,36953,1,0,1:0:0:0:
256,192,37175,1,0,1:0:0:0:
256,192,37397,1,12,1:0:0:0:
256,192,37842,1,0,1:0:0:0:
256,192,38286,1,8,1:0:0:0:
256,192,38508,1,0,1:0:0:0:
256,192,38731,1,0,1:0:0:0:
256,192,38953,1,8,1:0:0:0:
256,192,39397,1,8,1:0:0:0:
256,192,39620,1,0,1:0:0:0:
256,192,39842,1,8,1:0:0:0:
256,192,40286,1,0,1:0:0:0:
256,192,40508,1,8,1:0:0:0:
256,192,40953,1,0,1:0:0:0:
256,192,41175,1,0,1:0:0:0:
256,192,41397,1,8,1:0:0:0:
256,192,41620,1,0,1:0:0:0:
256,192,41842,1,0,1:0:0:0:
256,192,42064,1,8,1:0:0:0:
256,192,42508,1,8,1:0:0:0:
256,192,42731,1,0,1:0:0:0:
256,192,42953,1,8,1:0:0:0:
256,192,43397,1,8,1:0:0:0:
256,192,43620,1,0,1:0:0:0:
256,192,44064,1,0,1:0:0:0:
256,192,44286,1,0,1:0:0:0:
256,192,44508,1,8,1:0:0:0:
256,192,44731,1,0,1:0:0:0:
256,192,44953,1,8,1:0:0:0:
256,192,45175,1,0,1:0:0:0:
256,192,45620,1,0,1:0:0:0:
256,192,46064,1,8,1:0:0:0:
256,192,46286,1,0,1:0:0:0:
256,192,46508,1,8,1:0:0:0:
256,192,46731,1,0,1:0:0:0:
256,192,47175,1,0,1:0:0:0:
256,192,47397,1,0,1:0:0:0:
256,192,47620,1,8,1:0:0:0:
256,192,47842,1,8,1:0:0:0:
256,192,48064,1,8,1:0:0:0:
256,192,48286,1,0,1:0:0:0:
256,192,48731,1,0,1:0:0:0:
256,192,48953,1,8,1:0:0:0:
256,192,49175,1,0,1:0:0:0:
256,192,49397,1,8,1:0:0:0:
256,192,49620,1,8,1:0:0:0:
256,192,49842,1,12,1:0:0:0:
256,192,50286,1,8,1:0:0:0:
256,192,50508,1,0,1:0:0:0:
256,192,50620,1,0,1:0:0:0:
256,192,50731,1,8,1:0:0:0:
256,192,50953,1,0,1:0:0:0:
256,192,51175,1,8,1:0:0:0:
256,192,51397,1,8,1:0:0:0:
256,192,51842,1,8,1:0:0:0:
256,192,52064,1,0,1:0:0:0:
256,192,52286,1,8,1:0:0:0:
256,192,52731,1,0,1:0:0:0:
256,192,52953,1,8,1:0:0:0:
256,192,53397,1,8,1:0:0:0:
256,192,53620,1,0,1:0:0:0:
256,192,53731,1,0,1:0:0:0:
256,192,53842,1,8,1:0:0:0:
256,192,54064,1,0,1:0:0:0:
256,192,54286,1,0,1:0:0:0:
256,192,54508,1,8,1:0:0:0:
256,192,54953,1,8,1:0:0:0:
256,192,55175,1,0,1:0:0:0:
256,192,55397,1,8,1:0:0:0:
256,192,55842,1,8,1:0:0:0:
256,192,56064,1,0,1:0:0:0:
256,192,56508,1,0,1:0:0:0:
256,192,56731,1,8,1:0:0:0:
256,192,56842,1,0,1:0:0:0:
256,192,56953,1,8,1:0:0:0:
256,192,57175,1,0,1:0:0:0:
256,192,57397,1,8,1:0:0:0:
256,192,57620,1,0,1:0:0:0:
256,192,58064,1,0,1:0:0:0:
256,192,58286,1,0,1:0:0:0:
256,192,58508,1,8,1:0:0:0:
256,192,58953,1,8,1:0:0:0:
256,192,59175,1,0,1:0:0:0:
256,192,59620,1,0,1:0:0:0:
256,192,59842,1,8,1:0:0:0:
256,192,59953,1,0,1:0:0:0:
256,192,60064,1,8,1:0:0:0:
256,192,60286,1,0,1:0:0:0:
256,192,60508,1,8,1:0:0:0:
256,192,60731,1,0,1:0:0:0:
256,192,61175,1,8,1:0:0:0:
256,192,61397,1,0,1:0:0:0:
256,192,61620,1,8,1:0:0:0:
256,192,61842,1,0,1:0:0:0:
256,192,62064,1,0,1:0:0:0:
256,192,62286,1,12,1:0:0:0:
256,192,62731,1,8,1:0:0:0:
256,192,62953,1,0,1:0:0:0:
256,192,63064,1,0,1:0:0:0:
256,192,63175,1,8,1:0:0:0:
256,192,63397,1,0,1:0:0:0:
256,192,63620,1,8,1:0:0:0:
256,192,63842,1,8,1:0:0:0:
256,192,64286,1,8,1:0:0:0:
256,192,64508,1,0,1:0:0:0:
256,192,64731,1,8,1:0:0:0:
256,192,65175,1,0,1:0:0:0:
256,192,65397,1,8,1:0:0:0:
256,192,65842,1,8,1:0:0:0:
256,192,66064,1,0,0:0:0:0:
256,192,66175,1,0,0:0:0:0:
256,192,66286,1,8,1:0:0:0:
256,192,66508,1,0,1:0:0:0:
256,192,66731,1,0,1:0:0:0:
256,192,66953,1,8,1:0:0:0:
256,192,67397,1,8,1:0:0:0:
256,192,67620,1,0,1:0:0:0:
256,192,67842,1,8,1:0:0:0:
256,192,68286,1,8,1:0:0:0:
256,192,68508,1,0,1:0:0:0:
256,192,68953,1,0,1:0:0:0:
256,192,69175,1,8,1:0:0:0:
256,192,69286,1,0,1:0:0:0:
256,192,69397,1,8,1:0:0:0:
256,192,69620,1,0,1:0:0:0:
256,192,69842,1,8,1:0:0:0:
256,192,70064,1,0,1:0:0:0:
256,192,70508,1,8,1:0:0:0:
256,192,70731,1,0,1:0:0:0:
256,192,70953,1,8,1:0:0:0:
256,192,71064,1,8,0:0:0:0:
256,192,71175,1,0,0:0:0:0:
256,192,71397,1,8,1:0:0:0:
256,192,71620,1,0,1:0:0:0:
256,192,72064,1,0,1:0:0:0:
256,192,72286,1,8,1:0:0:0:
256,192,72397,1,0,1:0:0:0:
256,192,72508,1,8,1:0:0:0:
256,192,72731,1,8,1:0:0:0:
256,192,72953,1,8,1:0:0:0:
256,192,73175,1,0,1:0:0:0:
256,192,73620,1,0,1:0:0:0:
256,192,73842,1,8,1:0:0:0:
256,192,74064,1,0,1:0:0:0:
256,192,74286,1,8,1:0:0:0:
256,192,74508,1,8,1:0:0:0:
256,192,74730,1,12,1:0:0:0:
256,192,74953,1,0,1:0:0:0:
256,192,75027,1,0,1:0:0:0:
256,192,75101,1,0,1:0:0:0:
256,192,75175,1,0,1:0:0:0:
256,192,75397,1,0,1:0:0:0:
256,192,75620,1,8,1:0:0:0:
256,192,75842,1,0,1:0:0:0:
256,192,76064,1,8,1:0:0:0:
256,192,76286,1,8,1:0:0:0:
256,192,76508,1,0,1:0:0:0:
256,192,76583,1,0,1:0:0:0:
256,192,76657,1,0,1:0:0:0:
256,192,76731,1,0,1:0:0:0:
256,192,76953,1,0,1:0:0:0:
256,192,77175,1,8,1:0:0:0:
256,192,77620,1,8,1:0:0:0:
256,192,77842,1,8,1:0:0:0:
256,192,78064,1,0,1:0:0:0:
256,192,78138,1,0,1:0:0:0:
256,192,78212,1,0,1:0:0:0:
256,192,78286,1,0,1:0:0:0:
256,192,78508,1,0,1:0:0:0:
256,192,78731,1,8,1:0:0:0:
256,192,78953,1,0,1:0:0:0:
256,192,79175,1,0,1:0:0:0:
256,192,79397,1,8,1:0:0:0:
256,192,79620,1,0,1:0:0:0:
256,192,79694,1,0,1:0:0:0:
256,192,79768,1,0,1:0:0:0:
256,192,79842,1,0,1:0:0:0:
256,192,80064,1,0,1:0:0:0:
256,192,80286,1,8,1:0:0:0:
256,192,80731,1,8,1:0:0:0:
256,192,80953,1,0,1:0:0:0:
256,192,81175,1,8,1:0:0:0:
256,192,81249,1,8,1:0:0:0:
256,192,81323,1,8,1:0:0:0:
256,192,81397,1,8,1:0:0:0:
256,192,81620,1,0,1:0:0:0:
256,192,81842,1,8,1:0:0:0:
256,192,82064,1,0,1:0:0:0:
256,192,82286,1,8,1:0:0:0:
256,192,82508,1,8,1:0:0:0:
256,192,82731,1,0,1:0:0:0:
256,192,82805,1,0,1:0:0:0:
256,192,82879,1,0,1:0:0:0:
256,192,82953,1,0,1:0:0:0:
256,192,83175,1,0,1:0:0:0:
256,192,83397,1,8,1:0:0:0:
256,192,83842,1,8,1:0:0:0:
256,192,84064,1,0,1:0:0:0:
256,192,84286,1,8,1:0:0:0:
256,192,84360,1,8,1:0:0:0:
256,192,84434,1,8,1:0:0:0:
256,192,84508,1,8,1:0:0:0:
256,192,84731,1,0,1:0:0:0:
256,192,84953,1,8,1:0:0:0:
256,192,85175,1,0,1:0:0:0:
256,192,85397,1,0,1:0:0:0:
256,192,85620,1,8,1:0:0:0:
256,192,85842,1,0,1:0:0:0:
256,192,85916,1,0,1:0:0:0:
256,192,85990,1,0,1:0:0:0:
256,192,86064,1,0,1:0:0:0:
256,192,86286,1,0,1:0:0:0:
256,192,86508,1,8,1:0:0:0:
256,192,86731,1,0,1:0:0:0:
256,192,86953,1,0,1:0:0:0:
256,192,87175,1,12,1:0:0:0:
256,192,87397,1,0,1:0:0:0:
256,192,87471,1,0,1:0:0:0:
256,192,87546,1,0,1:0:0:0:
256,192,87620,1,0,1:0:0:0:
256,192,87842,1,0,1:0:0:0:
256,192,88064,1,8,1:0:0:0:
256,192,88286,1,0,1:0:0:0:
256,192,88508,1,0,1:0:0:0:
256,192,88731,1,8,1:0:0:0:
256,192,88953,1,0,1:0:0:0:
256,192,89027,1,0,1:0:0:0:
256,192,89101,1,0,1:0:0:0:
256,192,89175,1,0,1:0:0:0:
256,192,89397,1,0,1:0:0:0:
256,192,89620,1,8,1:0:0:0:
256,192,90064,1,8,1:0:0:0:
256,192,90286,1,8,1:0:0:0:
256,192,90508,1,0,1:0:0:0:
256,192,90583,1,0,1:0:0:0:
256,192,90657,1,0,1:0:0:0:
256,192,90731,1,0,1:0:0:0:
256,192,90953,1,0,1:0:0:0:
256,192,91175,1,8,1:0:0:0:
256,192,91397,1,0,1:0:0:0:
256,192,91620,1,8,1:0:0:0:
256,192,91842,1,0,1:0:0:0:
256,192,92064,1,8,1:0:0:0:
256,192,92138,1,8,1:0:0:0:
256,192,92212,1,8,1:0:0:0:
256,192,92286,1,8,1:0:0:0:
256,192,92508,1,0,1:0:0:0:
256,192,92731,1,8,1:0:0:0:
256,192,93175,1,0,1:0:0:0:
256,192,93397,1,8,1:0:0:0:
256,192,93620,1,0,1:0:0:0:
256,192,93694,1,0,1:0:0:0:
256,192,93768,1,0,1:0:0:0:
256,192,93842,1,0,1:0:0:0:
256,192,94064,1,0,1:0:0:0:
256,192,94286,1,8,1:0:0:0:
256,192,94508,1,0,1:0:0:0:
256,192,94731,1,8,1:0:0:0:
256,192,94953,1,8,1:0:0:0:
256,192,95175,1,0,1:0:0:0:
256,192,95249,1,0,1:0:0:0:
256,192,95323,1,0,1:0:0:0:
256,192,95397,1,0,1:0:0:0:
256,192,95620,1,0,1:0:0:0:
256,192,95842,1,8,1:0:0:0:
256,192,96286,1,8,1:0:0:0:
256,192,96508,1,8,1:0:0:0:
256,192,96731,1,0,1:0:0:0:
256,192,96805,1,0,1:0:0:0:
256,192,96879,1,0,1:0:0:0:
256,192,96953,1,0,1:0:0:0:
256,192,97175,1,0,1:0:0:0:
256,192,97397,1,8,1:0:0:0:
256,192,97620,1,0,1:0:0:0:
256,192,97842,1,8,1:0:0:0:
256,192,98064,1,8,1:0:0:0:
256,192,98286,1,0,1:0:0:0:
256,192,98360,1,0,1:0:0:0:
256,192,98434,1,0,1:0:0:0:
256,192,98508,1,0,1:0:0:0:
256,192,98731,1,8,1:0:0:0:
256,192,98953,1,0,1:0:0:0:
256,192,99175,1,8,1:0:0:0:
256,192,99397,1,8,1:0:0:0:
256,192,99620,1,12,1:0:0:0:
256,192,100286,1,0,1:0:0:0:
256,192,100953,1,8,1:0:0:0:
256,192,101175,1,8,1:0:0:0:
256,192,101397,1,0,1:0:0:0:
256,192,101842,1,0,1:0:0:0:
256,192,102508,1,8,1:0:0:0:
256,192,102731,1,0,1:0:0:0:
256,192,103397,1,0,1:0:0:0:
256,192,104064,1,8,1:0:0:0:
256,192,104286,1,8,1:0:0:0:
256,192,104508,5,0,1:0:0:0:
256,192,104953,1,0,1:0:0:0:
256,192,105397,1,8,1:0:0:0:
256,192,105620,1,0,1:0:0:0:
256,192,105842,1,12,1:0:0:0:
256,192,106286,1,0,1:0:0:0:
256,192,106508,1,0,1:0:0:0:
256,192,106731,1,8,1:0:0:0:
256,192,106953,1,0,1:0:0:0:
256,192,107175,1,8,1:0:0:0:
256,192,107397,1,8,1:0:0:0:
256,192,107842,1,8,1:0:0:0:
256,192,108064,1,0,1:0:0:0:
256,192,108286,1,8,1:0:0:0:
256,192,108731,1,0,1:0:0:0:
256,192,108953,1,8,1:0:0:0:
256,192,109397,1,0,1:0:0:0:
256,192,109620,1,0,1:0:0:0:
256,192,109842,1,8,1:0:0:0:
256,192,110064,1,0,1:0:0:0:
256,192,110286,1,8,1:0:0:0:
256,192,110508,1,8,1:0:0:0:
256,192,110953,1,8,0:0:0:0:
256,192,111175,1,0,0:0:0:0:
256,192,111397,1,8,1:0:0:0:
256,192,111842,1,8,1:0:0:0:
256,192,112064,1,0,1:0:0:0:
256,192,112508,1,0,1:0:0:0:
256,192,112730,1,0,1:0:0:0:
256,192,112953,1,8,1:0:0:0:
256,192,113175,1,0,1:0:0:0:
256,192,113397,1,8,1:0:0:0:
256,192,113620,1,0,1:0:0:0:
256,192,114064,1,0,1:0:0:0:
256,192,114286,1,0,1:0:0:0:
256,192,114508,1,8,1:0:0:0:
256,192,114953,1,8,1:0:0:0:
256,192,115175,1,0,1:0:0:0:
256,192,115620,1,0,1:0:0:0:
256,192,115842,1,0,1:0:0:0:
256,192,116064,1,8,1:0:0:0:
256,192,116286,1,0,1:0:0:0:
256,192,116508,1,8,1:0:0:0:
256,192,116731,1,0,1:0:0:0:
256,192,117175,1,0,1:0:0:0:
256,192,117397,1,0,1:0:0:0:
256,192,117620,1,8,1:0:0:0:
256,192,117731,1,8,1:0:0:0:
256,192,117842,1,0,1:0:0:0:
256,192,118064,1,0,1:0:0:0:
256,192,118286,1,12,1:0:0:0:
256,192,118731,1,0,1:0:0:0:
256,192,118953,1,0,1:0:0:0:
256,192,119175,1,8,1:0:0:0:
256,192,119397,1,0,1:0:0:0:
256,192,119620,1,0,1:0:0:0:
256,192,119842,1,8,1:0:0:0:
256,192,120286,1,8,1:0:0:0:
256,192,120508,1,0,1:0:0:0:
256,192,120731,1,8,1:0:0:0:
256,192,121175,1,0,1:0:0:0:
256,192,121397,1,8,1:0:0:0:
256,192,121842,1,0,1:0:0:0:
256,192,122064,1,0,1:0:0:0:
256,192,122286,1,8,1:0:0:0:
256,192,122508,1,0,1:0:0:0:
256,192,122731,1,0,1:0:0:0:
256,192,122953,1,8,1:0:0:0:
256,192,123397,1,8,1:0:0:0:
256,192,123620,1,0,1:0:0:0:
256,192,123842,1,8,1:0:0:0:
256,192,124286,1,8,1:0:0:0:
256,192,124508,1,0,1:0:0:0:
256,192,124953,1,0,1:0:0:0:
256,192,125175,1,0,1:0:0:0:
256,192,125397,1,8,1:0:0:0:
256,192,125620,1,0,1:0:0:0:
256,192,125842,1,8,1:0:0:0:
256,192,126064,1,0,1:0:0:0:
256,192,126508,1,0,1:0:0:0:
256,192,126731,1,0,1:0:0:0:
256,192,126953,1,8,1:0:0:0:
256,192,127175,1,8,1:0:0:0:
256,192,127397,1,8,1:0:0:0:
256,192,127620,1,0,1:0:0:0:
256,192,128064,1,0,1:0:0:0:
256,192,128286,1,0,1:0:0:0:
256,192,128508,1,8,1:0:0:0:
256,192,128731,1,0,1:0:0:0:
256,192,128953,1,8,1:0:0:0:
256,192,129175,1,0,1:0:0:0:
256,192,129620,1,0,1:0:0:0:
256,192,129842,1,8,1:0:0:0:
256,192,130064,1,0,1:0:0:0:
256,192,130286,1,8,1:0:0:0:
256,192,130508,1,8,1:0:0:0:
256,192,130731,1,4,1:0:0:0:
256,192,131175,1,0,1:0:0:0:
256,192,131397,1,0,1:0:0:0:
256,192,131508,1,0,1:0:0:0:
256,192,131620,1,8,1:0:0:0:
256,192,131842,1,0,1:0:0:0:
256,192,132064,1,0,1:0:0:0:
256,192,132286,1,8,1:0:0:0:
256,192,132731,1,8,1:0:0:0:
256,192,132953,1,0,1:0:0:0:
256,192,133175,1,8,1:0:0:0:
256,192,133620,1,0,1:0:0:0:
256,192,133842,1,8,1:0:0:0:
256,192,134286,1,0,1:0:0:0:
256,192,134508,1,0,1:0:0:0:
256,192,134620,1,0,1:0:0:0:
256,192,134731,1,8,1:0:0:0:
256,192,134953,1,0,1:0:0:0:
256,192,135175,1,0,1:0:0:0:
256,192,135397,1,8,1:0:0:0:
256,192,135842,1,8,1:0:0:0:
256,192,136064,1,0,1:0:0:0:
256,192,136286,1,8,1:0:0:0:
256,192,136731,1,8,1:0:0:0:
256,192,136953,1,0,1:0:0:0:
256,192,137397,1,0,1:0:0:0:
256,192,137620,1,0,1:0:0:0:
256,192,137731,1,0,1:0:0:0:
256,192,137842,1,8,1:0:0:0:
256,192,138064,1,0,1:0:0:0:
256,192,138286,1,8,1:0:0:0:
256,192,138508,1,0,1:0:0:0:
256,192,138953,1,8,1:0:0:0:
256,192,139175,1,0,1:0:0:0:
256,192,139397,1,8,1:0:0:0:
256,192,139842,1,8,1:0:0:0:
256,192,140064,1,0,1:0:0:0:
256,192,140508,1,0,1:0:0:0:
256,192,140731,1,0,1:0:0:0:
256,192,140842,1,0,1:0:0:0:
256,192,140953,1,8,1:0:0:0:
256,192,141175,1,0,1:0:0:0:
256,192,141397,1,8,1:0:0:0:
256,192,141620,1,0,1:0:0:0:
256,192,142064,1,0,1:0:0:0:
256,192,142286,1,0,1:0:0:0:
256,192,142508,1,8,1:0:0:0:
256,192,142620,1,8,1:0:0:0:
256,192,142731,1,0,1:0:0:0:
256,192,142953,1,0,1:0:0:0:
256,192,143175,1,12,1:0:0:0:
256,192,143620,1,0,1:0:0:0:
256,192,143842,1,0,1:0:0:0:
256,192,144064,1,8,1:0:0:0:
256,192,144175,1,8,1:0:0:0:
256,192,144286,1,0,1:0:0:0:
256,192,144508,1,8,1:0:0:0:
256,192,144731,1,8,1:0:0:0:
256,192,145175,1,8,1:0:0:0:
256,192,145397,1,0,1:0:0:0:
256,192,145620,1,8,1:0:0:0:
256,192,146064,1,0,1:0:0:0:
256,192,146286,1,8,1:0:0:0:
256,192,146731,1,0,1:0:0:0:
256,192,146953,1,0,1:0:0:0:
256,192,147175,1,8,1:0:0:0:
256,192,147286,1,8,1:0:0:0:
256,192,147397,1,0,1:0:0:0:
256,192,147620,1,8,1:0:0:0:
256,192,147842,1,8,1:0:0:0:
256,192,148286,1,8,1:0:0:0:
256,192,148508,1,0,1:0:0:0:
256,192,148731,1,8,1:0:0:0:
256,192,149175,1,8,1:0:0:0:
256,192,149397,1,0,1:0:0:0:
256,192,149842,1,0,1:0:0:0:
256,192,150064,1,0,1:0:0:0:
256,192,150286,1,8,1:0:0:0:
256,192,150397,1,0,1:0:0:0:
256,192,150508,1,8,1:0:0:0:
256,192,150731,1,8,1:0:0:0:
256,192,150953,1,0,1:0:0:0:
256,192,151397,1,8,1:0:0:0:
256,192,151620,1,0,1:0:0:0:
256,192,151842,1,8,1:0:0:0:
256,192,152064,1,8,1:0:0:0:
256,192,152286,1,8,1:0:0:0:
256,192,152508,1,0,1:0:0:0:
256,192,152953,1,0,1:0:0:0:
256,192,153175,1,0,1:0:0:0:
256,192,153397,1,8,1:0:0:0:
256,192,153508,1,8,0:0:0:0:
256,192,153620,1,0,1:0:0:0:
256,192,153842,1,8,1:0:0:0:
256,192,154064,1,0,1:0:0:0:
256,192,154508,1,0,1:0:0:0:
256,192,154620,1,0,1:0:0:0:
256,192,154731,1,8,1:0:0:0:
256,192,154953,1,0,1:0:0:0:
256,192,155175,1,8,1:0:0:0:
256,192,155397,1,8,1:0:0:0:
256,192,155620,1,12,1:0:0:0:
256,192,155842,1,0,1:0:0:0:
256,192,155916,1,0,1:0:0:0:
256,192,155990,1,0,1:0:0:0:
256,192,156064,1,0,1:0:0:0:
256,192,156286,1,0,1:0:0:0:
256,192,156508,1,8,1:0:0:0:
256,192,156731,1,0,1:0:0:0:
256,192,156953,1,8,1:0:0:0:
256,192,157175,1,8,1:0:0:0:
256,192,157397,1,0,1:0:0:0:
256,192,157471,1,0,1:0:0:0:
256,192,157546,1,0,1:0:0:0:
256,192,157620,1,0,1:0:0:0:
256,192,157842,1,0,1:0:0:0:
256,192,158064,1,8,1:0:0:0:
256,192,158508,1,0,1:0:0:0:
256,192,158731,1,8,1:0:0:0:
256,192,158953,1,0,1:0:0:0:
256,192,159027,1,0,1:0:0:0:
256,192,159101,1,0,1:0:0:0:
256,192,159175,1,0,1:0:0:0:
256,192,159397,1,0,1:0:0:0:
256,192,159620,1,8,1:0:0:0:
256,192,160064,1,8,1:0:0:0:
256,192,160286,1,8,1:0:0:0:
256,192,160508,1,0,1:0:0:0:
256,192,160583,1,0,1:0:0:0:
256,192,160657,1,0,1:0:0:0:
256,192,160731,1,0,1:0:0:0:
256,192,160953,1,0,1:0:0:0:
256,192,161175,1,8,1:0:0:0:
256,192,161397,1,0,1:0:0:0:
256,192,161620,1,8,1:0:0:0:
256,192,161842,1,0,1:0:0:0:
256,192,162064,1,8,1:0:0:0:
256,192,162138,1,8,1:0:0:0:
256,192,162212,1,8,1:0:0:0:
256,192,162286,1,8,1:0:0:0:
256,192,162508,1,0,1:0:0:0:
256,192,162731,1,8,1:0:0:0:
256,192,162953,1,0,1:0:0:0:
256,192,163175,1,8,1:0:0:0:
256,192,163397,1,8,1:0:0:0:
256,192,163619,1,0,1:0:0:0:
256,192,163694,1,0,1:0:0:0:
256,192,163768,1,0,1:0:0:0:
256,192,163842,1,0,1:0:0:0:
256,192,164064,1,0,1:0:0:0:
256,192,164286,1,8,1:0:0:0:
256,192,164731,1,8,1:0:0:0:
256,192,164953,1,0,1:0:0:0:
256,192,165175,1,8,1:0:0:0:
256,192,165249,1,8,1:0:0:0:
256,192,165323,1,8,1:0:0:0:
256,192,165397,1,8,1:0:0:0:
256,192,165620,1,0,1:0:0:0:
256,192,165842,1,8,1:0:0:0:
256,192,166064,1,0,1:0:0:0:
256,192,166286,1,8,1:0:0:0:
256,192,166508,1,8,1:0:0:0:
256,192,166731,1,0,1:0:0:0:
256,192,166805,1,0,1:0:0:0:
256,192,166879,1,0,1:0:0:0:
256,192,166953,1,0,1:0:0:0:
256,192,167175,1,0,1:0:0:0:
256,192,167397,1,8,1:0:0:0:
256,192,167620,1,0,1:0:0:0:
256,192,167842,1,0,1:0:0:0:
256,192,168064,1,12,1:0:0:0:
256,192,168286,1,0,1:0:0:0:
256,192,168360,1,0,1:0:0:0:
256,192,168434,1,0,1:0:0:0:
256,192,168508,1,0,1:0:0:0:
256,192,168731,1,0,1:0:0:0:
256,192,168953,1,8,1:0:0:0:
256,192,169175,1,0,1:0:0:0:
256,192,169397,1,8,1:0:0:0:
256,192,169620,1,8,1:0:0:0:
256,192,169842,1,0,1:0:0:0:
256,192,169916,1,0,1:0:0:0:
256,192,169990,1,0,1:0:0:0:
256,192,170064,1,0,1:0:0:0:
256,192,170286,1,0,1:0:0:0:
256,192,170508,1,8,1:0:0:0:
256,192,170953,1,0,1:0:0:0:
256,192,171175,1,8,1:0:0:0:
256,192,171397,1,0,1:0:0:0:
256,192,171471,1,0,1:0:0:0:
256,192,171546,1,0,1:0:0:0:
256,192,171619,1,0,1:0:0:0:
256,192,171842,1,0,1:0:0:0:
256,192,172064,1,8,1:0:0:0:
256,192,172286,1,8,1:0:0:0:
256,192,172508,1,0,1:0:0:0:
256,192,172731,1,0,1:0:0:0:
256,192,172953,1,8,1:0:0:0:
256,192,173027,1,8,1:0:0:0:
256,192,173101,1,8,1:0:0:0:
256,192,173175,1,8,1:0:0:0:
256,192,173397,1,0,1:0:0:0:
256,192,173620,1,8,1:0:0:0:
256,192,173842,1,0,1:0:0:0:
256,192,174064,1,8,1:0:0:0:
256,192,174286,1,0,1:0:0:0:
256,192,174508,1,8,1:0:0:0:
256,192,174583,1,8,1:0:0:0:
256,192,174657,1,8,1:0:0:0:
256,192,174731,1,8,1:0:0:0:
256,192,174953,1,0,1:0:0:0:
256,192,175175,1,8,1:0:0:0:
256,192,175397,1,0,1:0:0:0:
256,192,175620,1,8,1:0:0:0:
256,192,175842,1,0,1:0:0:0:
256,192,176064,1,8,1:0:0:0:
256,192,176138,1,8,1:0:0:0:
256,192,176212,1,8,1:0:0:0:
256,192,176286,1,8,1:0:0:0:
256,192,176508,1,0,1:0:0:0:
256,192,176731,1,8,1:0:0:0:
256,192,177175,1,8,1:0:0:0:
256,192,177397,1,8,1:0:0:0:
256,192,177620,1,0,1:0:0:0:
256,192,177694,1,0,1:0:0:0:
256,192,177768,1,0,1:0:0:0:
256,192,177842,1,0,1:0:0:0:
256,192,178064,1,0,1:0:0:0:
256,192,178286,1,8,1:0:0:0:
256,192,178508,1,0,1:0:0:0:
256,192,178731,1,8,1:0:0:0:
256,192,178953,1,8,1:0:0:0:
256,192,179175,1,0,1:0:0:0:
256,192,179249,1,0,1:0:0:0:
256,192,179323,1,0,1:0:0:0:
256,192,179397,1,0,1:0:0:0:
256,192,179620,1,8,1:0:0:0:
256,192,179842,1,0,1:0:0:0:
256,192,180064,1,8,1:0:0:0:
256,192,180286,1,8,1:0:0:0:
256,192,180508,1,12,1:0:0:0:
256,192,180731,1,0,1:0:0:0:
256,192,180805,1,0,1:0:0:0:
256,192,180879,1,0,1:0:0:0:
256,192,180953,1,0,1:0:0:0:
256,192,181175,1,0,1:0:0:0:
256,192,181397,1,8,1:0:0:0:
256,192,181620,1,0,1:0:0:0:
256,192,181842,1,8,1:0:0:0:
256,192,182064,1,8,1:0:0:0:
256,192,182286,1,0,1:0:0:0:
256,192,182360,1,0,1:0:0:0:
256,192,182434,1,0,1:0:0:0:
256,192,182508,1,0,1:0:0:0:
256,192,182731,1,0,1:0:0:0:
256,192,182953,1,8,1:0:0:0:
256,192,183397,1,8,1:0:0:0:
256,192,183620,1,8,1:0:0:0:
256,192,183842,1,0,1:0:0:0:
256,192,183916,1,0,1:0:0:0:
256,192,183990,1,0,1:0:0:0:
256,192,184064,1,0,1:0:0:0:
256,192,184286,1,0,1:0:0:0:
256,192,184508,1,8,1:0:0:0:
256,192,184731,1,0,1:0:0:0:
256,192,184953,1,8,1:0:0:0:
256,192,185175,1,8,1:0:0:0:
256,192,185397,1,0,1:0:0:0:
256,192,185471,1,0,1:0:0:0:
256,192,185546,1,0,1:0:0:0:
256,192,185620,1,0,1:0:0:0:
256,192,185842,1,0,1:0:0:0:
256,192,186064,1,8,1:0:0:0:
256,192,186508,1,8,1:0:0:0:
256,192,186730,1,8,1:0:0:0:
256,192,186952,1,0,1:0:0:0:
256,192,187064,1,0,1:0:0:0:
256,192,187175,1,8,1:0:0:0:
256,192,187397,1,0,1:0:0:0:
256,192,187620,1,8,1:0:0:0:
256,192,187842,1,0,1:0:0:0:
256,192,188064,1,0,1:0:0:0:
256,192,188286,1,8,1:0:0:0:
256,192,188508,1,0,1:0:0:0:
256,192,188619,1,0,1:0:0:0:
256,192,188731,1,8,1:0:0:0:
256,192,188953,1,0,1:0:0:0:
256,192,189175,1,8,1:0:0:0:
256,192,189620,1,8,1:0:0:0:
256,192,189842,1,8,1:0:0:0:
256,192,190064,1,0,1:0:0:0:
256,192,190138,1,0,1:0:0:0:
256,192,190212,1,0,1:0:0:0:
256,192,190286,1,0,1:0:0:0:
256,192,190508,1,0,1:0:0:0:
256,192,190731,1,8,1:0:0:0:
256,192,190953,1,0,1:0:0:0:
256,192,191175,1,0,1:0:0:0:
256,192,191397,1,8,1:0:0:0:
256,192,191620,1,0,1:0:0:0:
256,192,191694,1,0,1:0:0:0:
256,192,191768,1,0,1:0:0:0:
256,192,191842,1,0,1:0:0:0:
256,192,192064,1,0,1:0:0:0:
256,192,192286,1,8,1:0:0:0:
256,192,192508,1,0,1:0:0:0:
256,192,192731,1,0,1:0:0:0:
256,192,192953,1,12,1:0:0:0:
256,192,193175,1,0,1:0:0:0:
256,192,193249,1,0,1:0:0:0:
256,192,193323,1,0,1:0:0:0:
256,192,193397,1,0,1:0:0:0:
256,192,193620,1,0,1:0:0:0:
256,192,193842,1,8,1:0:0:0:
256,192,194064,1,0,1:0:0:0:
256,192,194286,1,0,1:0:0:0:
256,192,194508,1,8,1:0:0:0:
256,192,194730,1,0,1:0:0:0:
256,192,194841,1,0,1:0:0:0:
256,192,194953,1,8,1:0:0:0:
256,192,195175,1,0,1:0:0:0:
256,192,195397,1,8,1:0:0:0:
256,192,195842,1,8,1:0:0:0:
256,192,196064,1,8,1:0:0:0:
256,192,196286,1,0,1:0:0:0:
256,192,196360,1,0,1:0:0:0:
256,192,196434,1,0,1:0:0:0:
256,192,196508,1,0,1:0:0:0:
256,192,196731,1,0,1:0:0:0:
256,192,196953,1,8,1:0:0:0:
256,192,197175,1,0,1:0:0:0:
256,192,197397,1,0,1:0:0:0:
256,192,197620,1,8,1:0:0:0:
256,192,197842,1,0,1:0:0:0:
256,192,197952,1,0,1:0:0:0:
256,192,198064,1,8,1:0:0:0:
256,192,198286,1,0,1:0:0:0:
256,192,198508,1,8,1:0:0:0:
256,192,198952,1,8,1:0:0:0:
256,192,199176,1,8,1:0:0:0:
256,192,199408,1,0,1:0:0:0:
256,192,199524,1,0,1:0:0:0:
256,192,199641,1,8,1:0:0:0:
256,192,199872,1,0,1:0:0:0:
256,192,200113,1,8,1:0:0:0:
256,192,200360,1,0,1:0:0:0:
256,192,200608,1,8,1:0:0:0:
256,192,200856,1,8,1:0:0:0:
256,192,201104,1,0,1:0:0:0:
256,192,201228,1,0,1:0:0:0:
256,192,201352,1,8,1:0:0:0:
256,192,201615,1,0,1:0:0:0:
256,192,201878,1,8,1:0:0:0:
256,192,202153,1,0,1:0:0:0:
256,192,202428,1,8,1:0:0:0:
256,192,202703,1,8,1:0:0:0:
256,192,202994,1,0,1:0:0:0:
256,192,203091,1,0,1:0:0:0:
256,192,203188,1,0,1:0:0:0:
256,192,203285,1,0,1:0:0:0:
256,192,203576,1,0,1:0:0:0:
256,192,203868,1,8,1:0:0:0:
256,192,204174,1,0,1:0:0:0:
256,192,204480,1,8,1:0:0:0:
256,192,204786,1,8,1:0:0:0:
256,192,205112,1,0,1:0:0:0:
256,192,205220,1,0,1:0:0:0:
256,192,205329,1,0,1:0:0:0:
256,192,205438,1,0,1:0:0:0:
256,192,205775,1,0,1:0:0:0:
256,192,206112,1,8,1:0:0:0:
256,192,206464,1,0,1:0:0:0:
256,192,206817,1,0,1:0:0:0:
256,192,207187,1,12,1:0:0:0:
256,192,207562,8,0,212437,1:0:0:0:
