osu file format v14

[General]
AudioFilename: audio.mp3
AudioLeadIn: 0
PreviewTime: 64064
Countdown: 0
SampleSet: Normal
StackLeniency: 1
Mode: 1
LetterboxInBreaks: 0
WidescreenStoryboard: 0

[Editor]
DistanceSpacing: 1.4
BeatDivisor: 4
GridSize: 32
TimelineZoom: 2.4

[Metadata]
Title:SAVE (Phantasmix)
TitleUnicode:SAVE (Phantasmix)
Artist:DM DOKURO
ArtistUnicode:DM DOKURO
Creator:Vulkin
Version:A Determined Soul, Against a God.
Source:UNDERTALE
Tags:the untouched radio toby "radiation" fox Hopes and Dreams Burn in Despair! SAVE The World His Theme Ulqui
BeatmapID:1858367
BeatmapSetID:889127

[Difficulty]
HPDrainRate:4
CircleSize:7
OverallDifficulty:7
ApproachRate:10
SliderMultiplier:1.4
SliderTickRate:1

[Events]
//Background and Video events
0,0,"4908x3708-1311370-undertale.jpg",0,80
//Break Periods
2,170931,190281
2,256264,276948
2,341598,353614
2,421398,426281
//Storyboard Layer 0 (Background)
//Storyboard Layer 1 (Fail)
//Storyboard Layer 2 (Pass)
//Storyboard Layer 3 (Foreground)
//Storyboard Sound Samples

[TimingPoints]
65,333.333333333333,4,1,0,60,1,0
65,-166.666666666667,4,1,0,60,0,0
19398,-100,4,1,0,60,0,0
20064,-75.7575757575758,4,1,0,60,0,0
20148,-76.9230769230769,4,1,0,60,0,0
20231,-78.125,4,1,0,60,0,0
20314,-79.3650793650794,4,1,0,60,0,0
20398,-80.6451612903226,4,1,0,60,0,0
20481,-81.9672131147541,4,1,0,60,0,0
20564,-83.3333333333333,4,1,0,60,0,0
20648,-84.7457627118644,4,1,0,60,0,0
20731,-86.2068965517241,4,1,0,60,0,0
20814,-87.719298245614,4,1,0,60,0,0
20898,-89.2857142857143,4,1,0,60,0,0
20981,-90.9090909090909,4,1,0,60,0,0
21064,-92.5925925925926,4,1,0,60,0,0
21148,-94.3396226415094,4,1,0,60,0,0
21231,-96.1538461538461,4,1,0,60,0,0
21314,-98.0392156862745,4,1,0,60,0,0
21398,-90.9090909090909,4,1,0,70,0,1
42731,-90.9090909090909,4,1,0,60,0,0
43064,-125,4,1,0,60,0,0
53731,-111.111111111111,4,1,0,60,0,0
63064,-105.263157894737,4,1,0,60,0,0
63398,-99.9999999999999,4,1,0,60,0,0
63731,-98.0392156862745,4,1,0,60,0,0
63814,-96.153846153846,4,1,0,60,0,0
63898,-94.3396226415097,4,1,0,60,0,0
63981,-92.5925925925929,4,1,0,60,0,0
64064,-90.9090909090909,4,1,0,70,0,1
96064,-90.9090909090909,4,1,0,60,0,0
96398,-100,4,1,0,60,0,0
106064,-100,4,1,0,60,0,0
106148,-98.0392156862745,4,1,0,60,0,0
106231,-96.1538461538461,4,1,0,60,0,0
106314,-94.3396226415094,4,1,0,60,0,0
106398,-92.5925925925926,4,1,0,60,0,0
106481,-90.9090909090909,4,1,0,60,0,0
106564,-89.2857142857143,4,1,0,60,0,0
106648,-87.719298245614,4,1,0,60,0,0
106731,-86.2068965517241,4,1,0,70,0,1
128064,-86.2068965517241,4,1,0,60,0,0
129398,-166.666666666667,4,1,0,60,0,0
137398,-166.666666666667,4,1,0,60,0,0
137564,-142.857142857143,4,1,0,60,0,0
137731,-138.888888888889,4,1,0,60,0,0
138064,-138.888888888889,4,1,0,60,0,0
138231,-135.135135135135,4,1,0,60,0,0
138398,-131.578947368421,4,1,0,60,0,0
138564,-128.205128205128,4,1,0,60,0,0
138731,-125,4,1,0,60,0,0
148898,-74.0740740740741,4,1,0,60,0,0
148981,-76.9230769230769,4,1,0,60,0,0
149064,-80,4,1,0,60,0,0
149231,-86.9565217391304,4,1,0,60,0,0
149398,-95.2380952380952,4,1,0,60,0,0
169398,-125,4,1,0,60,0,0
170731,-166.666666666667,4,1,0,60,0,0
190731,-62.5,4,1,0,60,0,0
191648,-66.6666666666667,4,1,0,60,0,0
191898,-83.3333333333333,4,1,0,60,0,0
192064,-100,4,1,0,60,0,0
192231,-83.3333333333333,4,1,0,60,0,0
212731,-98.0392156862745,4,1,0,60,0,0
212814,-94.3396226415094,4,1,0,60,0,0
212898,-90.9090909090909,4,1,0,60,0,0
212981,-87.719298245614,4,1,0,60,0,0
213064,-84.7457627118644,4,1,0,60,0,0
213120,-83.3333333333333,4,1,0,60,0,0
213176,-81.9672131147541,4,1,0,60,0,0
213231,-80.6451612903226,4,1,0,60,0,0
213287,-79.3650793650794,4,1,0,60,0,0
213342,-78.125,4,1,0,60,0,0
213398,-76.9230769230769,4,1,0,70,0,1
234898,-74.0740740740741,4,1,0,70,0,1
235064,-71.4285714285714,4,1,0,70,0,1
253398,-66.6666666666667,4,1,0,70,0,1
256064,-55.5555555555556,4,1,0,60,0,0
257398,-166.666666666667,4,1,0,60,0,0
297377,-75.7575757575758,4,1,0,60,0,0
297461,-76.9230769230769,4,1,0,60,0,0
297544,-78.125,4,1,0,60,0,0
297627,-79.3650793650794,4,1,0,60,0,0
297711,-80.6451612903226,4,1,0,60,0,0
297794,-81.9672131147541,4,1,0,60,0,0
297877,-83.3333333333333,4,1,0,60,0,0
297961,-84.7457627118644,4,1,0,60,0,0
298044,-86.2068965517241,4,1,0,60,0,0
298127,-87.719298245614,4,1,0,60,0,0
298211,-89.2857142857143,4,1,0,60,0,0
298294,-90.9090909090909,4,1,0,60,0,0
298377,-92.5925925925926,4,1,0,60,0,0
298461,-94.3396226415094,4,1,0,60,0,0
298544,-96.1538461538461,4,1,0,60,0,0
298627,-98.0392156862745,4,1,0,60,0,0
298731,-90.9090909090909,4,1,0,70,0,1
341398,-90.9090909090909,4,1,0,60,0,0
342731,-166.666666666667,4,1,0,60,0,0
362731,-90.9090909090909,4,1,0,70,0,1
405398,-90.9090909090909,4,1,0,60,0,0
406064,-125,4,1,0,60,0,0
410731,-83.3333333333333,4,1,0,70,0,1
416064,-83.3333333333333,4,1,0,60,0,0
416231,-83.3333333333333,4,1,0,5,0,0
417398,-100,4,1,0,5,0,0
418731,-125,4,1,0,5,0,0
420064,-166.666666666667,4,1,0,5,0,0
421398,-250.000000000001,4,1,0,60,0,0
436064,-250.000000000001,4,1,0,60,0,0
437398,-166.666666666667,4,1,0,60,0,0
457231,-166.666666666667,4,1,0,60,0,0
457398,-142.857142857143,4,1,0,60,0,0
457564,-125,4,1,0,60,0,0
458731,-83.3333333333333,4,1,0,70,0,1
469398,-76.9230769230769,4,1,0,70,0,1
480064,-71.4285714285714,4,1,0,70,0,1
490731,-66.6666666666667,4,1,0,70,0,1
501398,-62.5,4,1,0,70,0,1
504064,-71.4285714285714,4,1,0,60,0,1
505398,-71.4285714285714,4,1,0,50,0,1
506731,-83.3333333333333,4,1,0,40,0,1
507064,-83.3333333333333,4,1,0,40,0,1
508064,-83.3333333333333,4,1,0,30,0,1
509398,-83.3333333333333,4,1,0,20,0,1
510731,-83.3333333333333,4,1,0,10,0,1
512064,-83.3333333333333,4,1,0,5,0,0

[HitObjects]
256,192,65,5,0,0:0:0:0:
256,192,731,1,8,0:0:0:0:
256,192,1398,1,8,0:0:0:0:
256,192,2731,1,0,0:0:0:0:
256,192,3398,1,8,0:0:0:0:
256,192,4064,1,0,0:0:0:0:
256,192,5398,1,0,0:0:0:0:
256,192,6064,1,0,0:0:0:0:
256,192,6731,1,8,0:0:0:0:
256,192,7731,1,8,0:0:0:0:
256,192,8064,1,8,0:0:0:0:
256,192,8731,1,8,0:0:0:0:
256,192,9398,1,0,0:0:0:0:
256,192,9564,1,8,0:0:0:0:
256,192,9731,1,8,0:0:0:0:
256,192,9898,1,0,0:0:0:0:
256,192,10064,1,8,0:0:0:0:
256,192,10231,1,0,0:0:0:0:
256,192,10398,1,8,0:0:0:0:
256,192,10564,1,8,0:0:0:0:
256,192,10731,1,0,0:0:0:0:
256,192,10898,1,0,0:0:0:0:
256,192,11231,1,0,0:0:0:0:
256,192,11398,1,8,0:0:0:0:
256,192,11564,1,8,0:0:0:0:
256,192,11898,1,8,0:0:0:0:
256,192,12064,1,0,0:0:0:0:
256,192,12231,1,0,0:0:0:0:
256,192,12564,1,0,0:0:0:0:
256,192,12731,1,0,0:0:0:0:
256,192,12898,1,0,0:0:0:0:
256,192,13064,1,8,0:0:0:0:
256,192,13231,1,8,0:0:0:0:
256,192,13398,1,0,0:0:0:0:
256,192,13564,1,0,0:0:0:0:
256,192,13898,1,0,0:0:0:0:
256,192,14064,1,8,0:0:0:0:
256,192,14231,1,8,0:0:0:0:
256,192,14564,1,8,0:0:0:0:
256,192,14731,1,0,0:0:0:0:
256,192,14898,1,0,0:0:0:0:
256,192,15231,1,0,0:0:0:0:
256,192,15398,1,8,0:0:0:0:
256,192,15564,1,0,0:0:0:0:
256,192,15731,1,8,0:0:0:0:
256,192,15898,1,8,0:0:0:0:
256,192,16064,1,0,0:0:0:0:
256,192,16231,1,0,0:0:0:0:
256,192,16564,1,0,0:0:0:0:
256,192,16731,1,8,0:0:0:0:
256,192,16898,1,0,0:0:0:0:
256,192,17231,1,0,0:0:0:0:
256,192,17398,1,8,0:0:0:0:
256,192,17564,1,8,0:0:0:0:
256,192,17898,1,8,0:0:0:0:
256,192,18064,1,8,0:0:0:0:
256,192,18231,1,0,0:0:0:0:
256,192,18398,1,8,0:0:0:0:
256,192,18564,1,0,0:0:0:0:
256,192,18731,1,8,0:0:0:0:
256,192,19398,1,8,0:0:0:0:
256,192,20064,1,0,0:0:0:0:
256,192,20231,1,8,0:0:0:0:
256,192,20314,1,0,0:0:0:0:
256,192,20398,1,8,0:0:0:0:
256,192,20564,1,8,0:0:0:0:
256,192,20648,1,8,0:0:0:0:
256,192,20731,1,0,0:0:0:0:
256,192,20814,1,0,0:0:0:0:
256,192,20898,1,8,0:0:0:0:
256,192,20981,1,0,0:0:0:0:
256,192,21064,1,8,0:0:0:0:
256,192,21148,1,8,0:0:0:0:
256,192,21231,1,8,0:0:0:0:
256,192,21314,1,8,0:0:0:0:
256,192,21398,1,4,0:0:0:0:
256,192,21564,1,0,0:0:0:0:
256,192,21648,1,0,0:0:0:0:
256,192,21731,1,8,0:0:0:0:
256,192,21898,1,0,0:0:0:0:
256,192,22064,1,8,0:0:0:0:
256,192,22148,1,8,0:0:0:0:
256,192,22231,1,0,0:0:0:0:
256,192,22314,1,0,0:0:0:0:
256,192,22398,1,8,0:0:0:0:
256,192,22564,1,8,0:0:0:0:
256,192,22731,1,0,0:0:0:0:
256,192,22898,1,8,0:0:0:0:
256,192,22981,1,8,0:0:0:0:
256,192,23064,1,8,0:0:0:0:
256,192,23231,1,0,0:0:0:0:
256,192,23398,1,8,0:0:0:0:
256,192,23481,1,8,0:0:0:0:
256,192,23564,1,0,0:0:0:0:
256,192,23648,1,0,0:0:0:0:
256,192,23731,1,8,0:0:0:0:
256,192,23814,1,0,0:0:0:0:
256,192,23898,1,8,0:0:0:0:
256,192,23981,1,8,0:0:0:0:
256,192,24064,1,0,0:0:0:0:
256,192,24231,1,0,0:0:0:0:
256,192,24314,1,0,0:0:0:0:
256,192,24398,1,8,0:0:0:0:
256,192,24564,1,0,0:0:0:0:
256,192,24731,1,8,0:0:0:0:
256,192,24814,1,8,0:0:0:0:
256,192,24898,1,0,0:0:0:0:
256,192,24981,1,0,0:0:0:0:
256,192,25064,1,8,0:0:0:0:
256,192,25231,1,8,0:0:0:0:
256,192,25398,1,0,0:0:0:0:
256,192,25564,1,8,0:0:0:0:
256,192,25648,1,8,0:0:0:0:
256,192,25731,1,0,0:0:0:0:
256,192,25898,1,0,0:0:0:0:
256,192,26064,1,8,0:0:0:0:
256,192,26148,1,8,0:0:0:0:
256,192,26231,1,0,0:0:0:0:
256,192,26314,1,0,0:0:0:0:
256,192,26398,1,8,0:0:0:0:
256,192,26481,1,0,0:0:0:0:
256,192,26564,1,8,0:0:0:0:
256,192,26648,1,8,0:0:0:0:
256,192,26731,1,0,0:0:0:0:
256,192,26898,1,0,0:0:0:0:
256,192,26981,1,0,0:0:0:0:
256,192,27064,1,8,0:0:0:0:
256,192,27231,1,0,0:0:0:0:
256,192,27398,1,8,0:0:0:0:
256,192,27481,1,8,0:0:0:0:
256,192,27564,1,0,0:0:0:0:
256,192,27648,1,0,0:0:0:0:
256,192,27731,1,8,0:0:0:0:
256,192,27898,1,0,0:0:0:0:
256,192,28064,1,8,0:0:0:0:
256,192,28148,1,0,0:0:0:0:
256,192,28231,1,8,0:0:0:0:
256,192,28314,1,8,0:0:0:0:
256,192,28398,1,0,0:0:0:0:
256,192,28481,1,0,0:0:0:0:
256,192,28564,1,8,0:0:0:0:
256,192,28648,1,0,0:0:0:0:
256,192,28731,1,8,0:0:0:0:
256,192,28898,1,0,0:0:0:0:
256,192,29064,1,8,0:0:0:0:
256,192,29148,1,8,0:0:0:0:
256,192,29231,1,0,0:0:0:0:
256,192,29314,1,0,0:0:0:0:
256,192,29398,1,8,0:0:0:0:
256,192,29481,1,8,0:0:0:0:
256,192,29564,1,8,0:0:0:0:
256,192,29731,1,0,0:0:0:0:
256,192,29898,1,8,0:0:0:0:
256,192,30064,1,0,0:0:0:0:
256,192,30148,1,0,0:0:0:0:
256,192,30231,1,0,0:0:0:0:
256,192,30398,1,8,0:0:0:0:
256,192,30564,1,0,0:0:0:0:
256,192,30731,1,8,0:0:0:0:
256,192,30814,1,8,0:0:0:0:
256,192,30898,1,0,0:0:0:0:
256,192,30981,1,0,0:0:0:0:
256,192,31064,1,8,0:0:0:0:
256,192,31148,1,0,0:0:0:0:
256,192,31231,1,8,0:0:0:0:
256,192,31314,1,0,0:0:0:0:
256,192,31398,1,8,0:0:0:0:
256,192,31481,1,8,0:0:0:0:
256,192,31564,1,0,0:0:0:0:
256,192,31731,1,8,0:0:0:0:
256,192,31898,1,8,0:0:0:0:
256,192,31981,1,8,0:0:0:0:
256,192,32064,1,0,0:0:0:0:
256,192,32231,1,0,0:0:0:0:
256,192,32314,1,0,0:0:0:0:
256,192,32398,1,8,0:0:0:0:
256,192,32564,1,0,0:0:0:0:
256,192,32731,1,8,0:0:0:0:
256,192,32814,1,8,0:0:0:0:
256,192,32898,1,0,0:0:0:0:
256,192,32981,1,0,0:0:0:0:
256,192,33064,1,8,0:0:0:0:
256,192,33231,1,8,0:0:0:0:
256,192,33398,1,0,0:0:0:0:
256,192,33564,1,8,0:0:0:0:
256,192,33648,1,8,0:0:0:0:
256,192,33731,1,8,0:0:0:0:
256,192,33898,1,0,0:0:0:0:
256,192,34064,1,8,0:0:0:0:
256,192,34148,1,8,0:0:0:0:
256,192,34231,1,0,0:0:0:0:
256,192,34314,1,0,0:0:0:0:
256,192,34398,1,8,0:0:0:0:
256,192,34481,1,0,0:0:0:0:
256,192,34564,1,8,0:0:0:0:
256,192,34648,1,8,0:0:0:0:
256,192,34731,1,0,0:0:0:0:
256,192,34898,1,0,0:0:0:0:
256,192,34981,1,0,0:0:0:0:
256,192,35064,1,8,0:0:0:0:
256,192,35231,1,0,0:0:0:0:
256,192,35398,1,8,0:0:0:0:
256,192,35481,1,8,0:0:0:0:
256,192,35564,1,0,0:0:0:0:
256,192,35648,1,0,0:0:0:0:
256,192,35731,1,8,0:0:0:0:
256,192,35898,1,8,0:0:0:0:
256,192,36064,1,0,0:0:0:0:
256,192,36231,1,8,0:0:0:0:
256,192,36314,1,8,0:0:0:0:
256,192,36398,1,0,0:0:0:0:
256,192,36564,1,0,0:0:0:0:
256,192,36731,1,8,0:0:0:0:
256,192,36814,1,8,0:0:0:0:
256,192,36898,1,0,0:0:0:0:
256,192,36981,1,8,0:0:0:0:
256,192,37064,1,0,0:0:0:0:
256,192,37148,1,0,0:0:0:0:
256,192,37231,1,8,0:0:0:0:
256,192,37398,1,0,0:0:0:0:
256,192,37564,1,0,0:0:0:0:
256,192,37648,1,0,0:0:0:0:
256,192,37731,1,8,0:0:0:0:
256,192,37898,1,0,0:0:0:0:
256,192,38064,1,8,0:0:0:0:
256,192,38148,1,8,0:0:0:0:
256,192,38231,1,0,0:0:0:0:
256,192,38314,1,0,0:0:0:0:
256,192,38398,1,8,0:0:0:0:
256,192,38564,1,8,0:0:0:0:
256,192,38648,1,8,0:0:0:0:
256,192,38731,1,0,0:0:0:0:
256,192,38814,1,0,0:0:0:0:
256,192,38898,1,8,0:0:0:0:
256,192,38981,1,0,0:0:0:0:
256,192,39064,1,8,0:0:0:0:
256,192,39231,1,0,0:0:0:0:
256,192,39398,1,8,0:0:0:0:
256,192,39481,1,8,0:0:0:0:
256,192,39564,1,0,0:0:0:0:
256,192,39731,1,8,0:0:0:0:
256,192,39898,1,0,0:0:0:0:
256,192,39981,1,0,0:0:0:0:
256,192,40064,1,8,0:0:0:0:
256,192,40231,1,0,0:0:0:0:
256,192,40398,1,8,0:0:0:0:
256,192,40564,1,8,0:0:0:0:
256,192,40648,1,8,0:0:0:0:
256,192,40731,1,0,0:0:0:0:
256,192,40898,1,8,0:0:0:0:
256,192,41064,1,0,0:0:0:0:
256,192,41148,1,0,0:0:0:0:
256,192,41231,1,8,0:0:0:0:
256,192,41314,1,0,0:0:0:0:
256,192,41398,1,8,0:0:0:0:
256,192,41564,1,0,0:0:0:0:
256,192,41731,1,8,0:0:0:0:
256,192,41814,1,8,0:0:0:0:
256,192,41898,1,0,0:0:0:0:
256,192,41981,1,8,0:0:0:0:
256,192,42064,1,0,0:0:0:0:
256,192,42148,1,0,0:0:0:0:
256,192,42231,1,8,0:0:0:0:
256,192,42314,1,0,0:0:0:0:
256,192,42398,1,8,0:0:0:0:
256,192,42481,1,8,0:0:0:0:
256,192,42564,1,8,0:0:0:0:
256,192,42731,1,4,0:0:0:0:
256,192,43064,1,0,0:0:0:0:
256,192,43398,1,8,0:0:0:0:
256,192,43564,1,0,0:0:0:0:
256,192,43648,1,0,0:0:0:0:
256,192,43731,1,0,0:0:0:0:
256,192,44064,1,0,0:0:0:0:
256,192,44398,1,0,0:0:0:0:
256,192,44564,1,0,0:0:0:0:
256,192,44731,1,8,0:0:0:0:
256,192,44898,1,0,0:0:0:0:
256,192,44981,1,0,0:0:0:0:
256,192,45064,1,0,0:0:0:0:
256,192,45398,1,0,0:0:0:0:
256,192,45731,1,0,0:0:0:0:
256,192,45898,1,0,0:0:0:0:
256,192,46064,1,8,0:0:0:0:
256,192,46231,1,0,0:0:0:0:
256,192,46314,1,0,0:0:0:0:
256,192,46398,1,0,0:0:0:0:
256,192,46731,1,0,0:0:0:0:
256,192,47064,1,8,0:0:0:0:
256,192,47231,1,0,0:0:0:0:
256,192,47398,1,8,0:0:0:0:
256,192,47564,1,0,0:0:0:0:
256,192,47648,1,0,0:0:0:0:
256,192,47731,1,0,0:0:0:0:
256,192,48064,1,8,0:0:0:0:
256,192,48398,1,0,0:0:0:0:
256,192,48564,1,0,0:0:0:0:
256,192,48731,1,8,0:0:0:0:
256,192,48898,1,0,0:0:0:0:
256,192,48981,1,0,0:0:0:0:
256,192,49064,1,0,0:0:0:0:
256,192,49231,1,0,0:0:0:0:
256,192,49398,1,8,0:0:0:0:
256,192,49731,1,0,0:0:0:0:
256,192,49898,1,0,0:0:0:0:
256,192,50064,1,8,0:0:0:0:
256,192,50231,1,0,0:0:0:0:
256,192,50314,1,0,0:0:0:0:
256,192,50398,1,0,0:0:0:0:
256,192,50564,1,0,0:0:0:0:
256,192,50731,1,8,0:0:0:0:
256,192,50898,1,0,0:0:0:0:
256,192,51064,1,8,0:0:0:0:
256,192,51231,1,8,0:0:0:0:
256,192,51398,1,8,0:0:0:0:
256,192,51564,1,0,0:0:0:0:
256,192,51648,1,0,0:0:0:0:
256,192,51731,1,0,0:0:0:0:
256,192,51898,1,8,0:0:0:0:
256,192,52064,1,0,0:0:0:0:
256,192,52398,1,0,0:0:0:0:
256,192,52564,1,0,0:0:0:0:
256,192,52731,1,8,0:0:0:0:
256,192,52898,1,0,0:0:0:0:
256,192,52981,1,0,0:0:0:0:
256,192,53064,1,0,0:0:0:0:
256,192,53231,1,0,0:0:0:0:
256,192,53398,1,8,0:0:0:0:
256,192,53731,1,0,0:0:0:0:
256,192,53898,1,0,0:0:0:0:
256,192,54064,1,8,0:0:0:0:
256,192,54231,1,0,0:0:0:0:
256,192,54314,1,0,0:0:0:0:
256,192,54398,1,0,0:0:0:0:
256,192,54564,1,0,0:0:0:0:
256,192,54731,1,8,0:0:0:0:
256,192,55064,1,8,0:0:0:0:
256,192,55231,1,0,0:0:0:0:
256,192,55398,1,8,0:0:0:0:
256,192,55564,1,0,0:0:0:0:
256,192,55648,1,0,0:0:0:0:
256,192,55731,1,0,0:0:0:0:
256,192,55898,1,0,0:0:0:0:
256,192,56064,1,8,0:0:0:0:
256,192,56398,1,8,0:0:0:0:
256,192,56564,1,0,0:0:0:0:
256,192,56731,1,8,0:0:0:0:
256,192,56898,1,0,0:0:0:0:
256,192,56981,1,0,0:0:0:0:
256,192,57064,1,0,0:0:0:0:
256,192,57231,1,0,0:0:0:0:
256,192,57398,1,8,0:0:0:0:
256,192,57564,1,0,0:0:0:0:
256,192,57731,1,8,0:0:0:0:
256,192,57898,1,0,0:0:0:0:
256,192,58064,1,8,0:0:0:0:
256,192,58231,1,0,0:0:0:0:
256,192,58314,1,0,0:0:0:0:
256,192,58398,1,0,0:0:0:0:
256,192,58564,1,0,0:0:0:0:
256,192,58731,1,8,0:0:0:0:
256,192,59064,1,0,0:0:0:0:
256,192,59231,1,0,0:0:0:0:
256,192,59398,1,8,0:0:0:0:
256,192,59564,1,0,0:0:0:0:
256,192,59648,1,0,0:0:0:0:
256,192,59731,1,0,0:0:0:0:
256,192,59898,1,0,0:0:0:0:
256,192,60064,1,8,0:0:0:0:
256,192,60398,1,8,0:0:0:0:
256,192,60564,1,0,0:0:0:0:
256,192,60731,1,8,0:0:0:0:
256,192,60898,1,0,0:0:0:0:
256,192,60981,1,0,0:0:0:0:
256,192,61064,1,0,0:0:0:0:
256,192,61231,1,0,0:0:0:0:
256,192,61398,1,8,0:0:0:0:
256,192,61731,1,8,0:0:0:0:
256,192,61898,1,0,0:0:0:0:
256,192,62064,1,8,0:0:0:0:
256,192,62231,1,0,0:0:0:0:
256,192,62314,1,0,0:0:0:0:
256,192,62398,1,0,0:0:0:0:
256,192,62564,1,8,0:0:0:0:
256,192,62731,1,0,0:0:0:0:
256,192,63064,1,0,0:0:0:0:
256,192,63398,1,8,0:0:0:0:
256,192,63731,1,8,0:0:0:0:
256,192,63814,1,0,0:0:0:0:
256,192,63898,1,8,0:0:0:0:
256,192,63981,1,8,0:0:0:0:
256,192,64064,1,4,0:0:0:0:
256,192,64231,1,0,0:0:0:0:
256,192,64314,1,0,0:0:0:0:
256,192,64398,1,8,0:0:0:0:
256,192,64564,1,0,0:0:0:0:
256,192,64731,1,8,0:0:0:0:
256,192,64814,1,8,0:0:0:0:
256,192,64898,1,0,0:0:0:0:
256,192,64981,1,0,0:0:0:0:
256,192,65064,1,8,0:0:0:0:
256,192,65231,1,0,0:0:0:0:
256,192,65398,1,8,0:0:0:0:
256,192,65481,1,0,0:0:0:0:
256,192,65564,1,8,0:0:0:0:
256,192,65648,1,8,0:0:0:0:
256,192,65731,1,0,0:0:0:0:
256,192,65814,1,0,0:0:0:0:
256,192,65898,1,8,0:0:0:0:
256,192,66064,1,0,0:0:0:0:
256,192,66148,1,0,0:0:0:0:
256,192,66231,1,8,0:0:0:0:
256,192,66314,1,8,0:0:0:0:
256,192,66398,1,0,0:0:0:0:
256,192,66564,1,8,0:0:0:0:
256,192,66731,1,0,0:0:0:0:
256,192,66898,1,0,0:0:0:0:
256,192,66981,1,0,0:0:0:0:
256,192,67064,1,8,0:0:0:0:
256,192,67231,1,0,0:0:0:0:
256,192,67398,1,8,0:0:0:0:
256,192,67481,1,0,0:0:0:0:
256,192,67564,1,8,0:0:0:0:
256,192,67648,1,8,0:0:0:0:
256,192,67731,1,0,0:0:0:0:
256,192,67898,1,8,0:0:0:0:
256,192,67981,1,8,0:0:0:0:
256,192,68064,1,0,0:0:0:0:
256,192,68231,1,8,0:0:0:0:
256,192,68314,1,8,0:0:0:0:
256,192,68398,1,8,0:0:0:0:
256,192,68564,1,0,0:0:0:0:
256,192,68731,1,8,0:0:0:0:
256,192,68814,1,0,0:0:0:0:
256,192,68898,1,8,0:0:0:0:
256,192,68981,1,0,0:0:0:0:
256,192,69064,1,8,0:0:0:0:
256,192,69148,1,8,0:0:0:0:
256,192,69231,1,0,0:0:0:0:
256,192,69314,1,0,0:0:0:0:
256,192,69398,1,8,0:0:0:0:
256,192,69564,1,0,0:0:0:0:
256,192,69648,1,0,0:0:0:0:
256,192,69731,1,8,0:0:0:0:
256,192,69898,1,0,0:0:0:0:
256,192,70064,1,8,0:0:0:0:
256,192,70148,1,8,0:0:0:0:
256,192,70231,1,0,0:0:0:0:
256,192,70314,1,0,0:0:0:0:
256,192,70398,1,8,0:0:0:0:
256,192,70564,1,0,0:0:0:0:
256,192,70731,1,8,0:0:0:0:
256,192,70814,1,0,0:0:0:0:
256,192,70898,1,8,0:0:0:0:
256,192,70981,1,8,0:0:0:0:
256,192,71064,1,0,0:0:0:0:
256,192,71231,1,8,0:0:0:0:
256,192,71398,1,0,0:0:0:0:
256,192,71564,1,8,0:0:0:0:
256,192,71648,1,8,0:0:0:0:
256,192,71731,1,0,0:0:0:0:
256,192,71898,1,0,0:0:0:0:
256,192,72064,1,8,0:0:0:0:
256,192,72148,1,8,0:0:0:0:
256,192,72231,1,0,0:0:0:0:
256,192,72314,1,0,0:0:0:0:
256,192,72398,1,8,0:0:0:0:
256,192,72564,1,0,0:0:0:0:
256,192,72731,1,8,0:0:0:0:
256,192,72814,1,0,0:0:0:0:
256,192,72898,1,8,0:0:0:0:
256,192,72981,1,8,0:0:0:0:
256,192,73064,1,0,0:0:0:0:
256,192,73231,1,8,0:0:0:0:
256,192,73398,1,0,0:0:0:0:
256,192,73564,1,8,0:0:0:0:
256,192,73648,1,8,0:0:0:0:
256,192,73731,1,8,0:0:0:0:
256,192,73898,1,0,0:0:0:0:
256,192,74064,1,8,0:0:0:0:
256,192,74148,1,8,0:0:0:0:
256,192,74231,1,8,0:0:0:0:
256,192,74314,1,0,0:0:0:0:
256,192,74398,1,8,0:0:0:0:
256,192,74481,1,8,0:0:0:0:
256,192,74564,1,0,0:0:0:0:
256,192,74648,1,0,0:0:0:0:
256,192,74731,1,12,0:0:0:0:
256,192,74898,1,0,0:0:0:0:
256,192,74981,1,0,0:0:0:0:
256,192,75064,1,0,0:0:0:0:
256,192,75231,1,8,0:0:0:0:
256,192,75398,1,0,0:0:0:0:
256,192,75481,1,8,0:0:0:0:
256,192,75564,1,0,0:0:0:0:
256,192,75731,1,8,0:0:0:0:
256,192,75898,1,8,0:0:0:0:
256,192,75981,1,8,0:0:0:0:
256,192,76064,1,0,0:0:0:0:
256,192,76231,1,8,0:0:0:0:
256,192,76398,1,0,0:0:0:0:
256,192,76481,1,0,0:0:0:0:
256,192,76564,1,8,0:0:0:0:
256,192,76648,1,0,0:0:0:0:
256,192,76731,1,8,0:0:0:0:
256,192,76814,1,8,0:0:0:0:
256,192,76898,1,0,0:0:0:0:
256,192,76981,1,0,0:0:0:0:
256,192,77064,1,8,0:0:0:0:
256,192,77231,1,0,0:0:0:0:
256,192,77398,1,8,0:0:0:0:
256,192,77564,1,0,0:0:0:0:
256,192,77648,1,0,0:0:0:0:
256,192,77731,1,8,0:0:0:0:
256,192,77898,1,8,0:0:0:0:
256,192,77981,1,0,0:0:0:0:
256,192,78064,1,8,0:0:0:0:
256,192,78148,1,8,0:0:0:0:
256,192,78231,1,0,0:0:0:0:
256,192,78314,1,0,0:0:0:0:
256,192,78398,1,8,0:0:0:0:
256,192,78564,1,0,0:0:0:0:
256,192,78731,1,8,0:0:0:0:
256,192,78814,1,8,0:0:0:0:
256,192,78898,1,8,0:0:0:0:
256,192,78981,1,8,0:0:0:0:
256,192,79064,1,0,0:0:0:0:
256,192,79148,1,8,0:0:0:0:
256,192,79231,1,0,0:0:0:0:
256,192,79398,1,0,0:0:0:0:
256,192,79481,1,8,0:0:0:0:
256,192,79564,1,0,0:0:0:0:
256,192,79648,1,0,0:0:0:0:
256,192,79731,1,8,0:0:0:0:
256,192,79898,1,0,0:0:0:0:
256,192,80064,1,8,0:0:0:0:
256,192,80231,1,0,0:0:0:0:
256,192,80314,1,0,0:0:0:0:
256,192,80398,1,0,0:0:0:0:
256,192,80564,1,8,0:0:0:0:
256,192,80731,1,0,0:0:0:0:
256,192,80814,1,8,0:0:0:0:
256,192,80898,1,0,0:0:0:0:
256,192,81064,1,8,0:0:0:0:
256,192,81231,1,8,0:0:0:0:
256,192,81314,1,8,0:0:0:0:
256,192,81398,1,0,0:0:0:0:
256,192,81564,1,8,0:0:0:0:
256,192,81731,1,0,0:0:0:0:
256,192,81814,1,8,0:0:0:0:
256,192,81898,1,0,0:0:0:0:
256,192,81981,1,0,0:0:0:0:
256,192,82064,1,8,0:0:0:0:
256,192,82148,1,0,0:0:0:0:
256,192,82231,1,8,0:0:0:0:
256,192,82314,1,8,0:0:0:0:
256,192,82398,1,0,0:0:0:0:
256,192,82564,1,8,0:0:0:0:
256,192,82731,1,0,0:0:0:0:
256,192,82898,1,0,0:0:0:0:
256,192,82981,1,0,0:0:0:0:
256,192,83064,1,8,0:0:0:0:
256,192,83231,1,0,0:0:0:0:
256,192,83398,1,8,0:0:0:0:
256,192,83481,1,0,0:0:0:0:
256,192,83564,1,8,0:0:0:0:
256,192,83648,1,8,0:0:0:0:
256,192,83731,1,0,0:0:0:0:
256,192,83898,1,8,0:0:0:0:
256,192,84064,1,0,0:0:0:0:
256,192,84148,1,0,0:0:0:0:
256,192,84231,1,8,0:0:0:0:
256,192,84314,1,0,0:0:0:0:
256,192,84398,1,8,0:0:0:0:
256,192,84481,1,8,0:0:0:0:
256,192,84564,1,0,0:0:0:0:
256,192,84648,1,0,0:0:0:0:
256,192,84731,1,8,0:0:0:0:
256,192,84814,1,8,0:0:0:0:
256,192,84898,1,0,0:0:0:0:
256,192,84981,1,0,0:0:0:0:
256,192,85064,1,8,0:0:0:0:
256,192,85148,1,8,0:0:0:0:
256,192,85231,1,8,0:0:0:0:
256,192,85314,1,8,0:0:0:0:
256,192,85398,1,4,0:0:0:0:
256,192,85731,1,8,0:0:0:0:
256,192,85898,1,0,0:0:0:0:
256,192,85981,1,0,0:0:0:0:
256,192,86064,1,0,0:0:0:0:
256,192,86231,1,0,0:0:0:0:
256,192,86398,1,8,0:0:0:0:
256,192,86564,1,8,0:0:0:0:
256,192,86731,1,0,0:0:0:0:
256,192,87064,1,8,0:0:0:0:
256,192,87231,1,0,0:0:0:0:
256,192,87314,1,8,0:0:0:0:
256,192,87398,1,0,0:0:0:0:
256,192,87564,1,0,0:0:0:0:
256,192,87731,1,8,0:0:0:0:
256,192,87898,1,8,0:0:0:0:
256,192,88064,1,0,0:0:0:0:
256,192,88398,1,8,0:0:0:0:
256,192,88564,1,8,0:0:0:0:
256,192,88648,1,8,0:0:0:0:
256,192,88731,1,0,0:0:0:0:
256,192,88814,1,0,0:0:0:0:
256,192,88898,1,8,0:0:0:0:
256,192,88981,1,0,0:0:0:0:
256,192,89064,1,8,0:0:0:0:
256,192,89231,1,0,0:0:0:0:
256,192,89398,1,8,0:0:0:0:
256,192,89564,1,8,0:0:0:0:
256,192,89648,1,8,0:0:0:0:
256,192,89731,1,0,0:0:0:0:
256,192,89898,1,8,0:0:0:0:
256,192,90064,1,0,0:0:0:0:
256,192,90148,1,8,0:0:0:0:
256,192,90231,1,0,0:0:0:0:
256,192,90314,1,0,0:0:0:0:
256,192,90398,1,8,0:0:0:0:
256,192,90481,1,0,0:0:0:0:
256,192,90564,1,8,0:0:0:0:
256,192,90648,1,8,0:0:0:0:
256,192,90731,1,0,0:0:0:0:
256,192,91064,1,8,0:0:0:0:
256,192,91231,1,0,0:0:0:0:
256,192,91314,1,0,0:0:0:0:
256,192,91398,1,0,0:0:0:0:
256,192,91564,1,0,0:0:0:0:
256,192,91731,1,8,0:0:0:0:
256,192,91898,1,8,0:0:0:0:
256,192,92064,1,0,0:0:0:0:
256,192,92398,1,8,0:0:0:0:
256,192,92564,1,0,0:0:0:0:
256,192,92648,1,8,0:0:0:0:
256,192,92731,1,0,0:0:0:0:
256,192,92898,1,0,0:0:0:0:
256,192,93064,1,8,0:0:0:0:
256,192,93231,1,8,0:0:0:0:
256,192,93398,1,0,0:0:0:0:
256,192,93731,1,8,0:0:0:0:
256,192,93898,1,8,0:0:0:0:
256,192,93981,1,8,0:0:0:0:
256,192,94064,1,0,0:0:0:0:
256,192,94231,1,0,0:0:0:0:
256,192,94398,1,8,0:0:0:0:
256,192,94564,1,0,0:0:0:0:
256,192,94731,1,8,0:0:0:0:
256,192,94814,1,8,0:0:0:0:
256,192,94898,1,8,0:0:0:0:
256,192,94981,1,0,0:0:0:0:
256,192,95064,1,8,0:0:0:0:
256,192,95148,1,8,0:0:0:0:
256,192,95231,1,0,0:0:0:0:
256,192,95398,1,8,0:0:0:0:
256,192,95481,1,8,0:0:0:0:
256,192,95564,1,0,0:0:0:0:
256,192,95648,1,0,0:0:0:0:
256,192,95731,1,8,0:0:0:0:
256,192,95814,1,0,0:0:0:0:
256,192,95898,1,8,0:0:0:0:
256,192,95981,1,8,0:0:0:0:
256,192,96064,1,0,0:0:0:0:
256,192,96398,1,8,0:0:0:0:
256,192,96564,1,0,0:0:0:0:
256,192,96648,1,0,0:0:0:0:
256,192,96731,1,0,0:0:0:0:
256,192,96898,1,0,0:0:0:0:
256,192,97064,1,8,0:0:0:0:
256,192,97231,1,8,0:0:0:0:
256,192,97398,1,0,0:0:0:0:
256,192,97731,1,8,0:0:0:0:
256,192,97898,1,0,0:0:0:0:
256,192,97981,1,8,0:0:0:0:
256,192,98064,1,0,0:0:0:0:
256,192,98231,1,0,0:0:0:0:
256,192,98398,1,8,0:0:0:0:
256,192,98564,1,8,0:0:0:0:
256,192,98731,1,0,0:0:0:0:
256,192,99064,1,8,0:0:0:0:
256,192,99231,1,8,0:0:0:0:
256,192,99314,1,8,0:0:0:0:
256,192,99398,1,0,0:0:0:0:
256,192,99564,1,0,0:0:0:0:
256,192,99731,1,8,0:0:0:0:
256,192,99898,1,0,0:0:0:0:
256,192,100064,1,8,0:0:0:0:
256,192,100231,1,8,0:0:0:0:
256,192,100314,1,8,0:0:0:0:
256,192,100398,1,0,0:0:0:0:
256,192,100481,1,8,0:0:0:0:
256,192,100564,1,0,0:0:0:0:
256,192,100731,1,8,0:0:0:0:
256,192,100898,1,0,0:0:0:0:
256,192,100981,1,0,0:0:0:0:
256,192,101064,1,8,0:0:0:0:
256,192,101148,1,0,0:0:0:0:
256,192,101231,1,0,0:0:0:0:
256,192,101398,1,8,0:0:0:0:
256,192,101731,1,8,0:0:0:0:
256,192,101898,1,0,0:0:0:0:
256,192,101981,1,0,0:0:0:0:
256,192,102064,1,0,0:0:0:0:
256,192,102231,1,0,0:0:0:0:
256,192,102398,1,8,0:0:0:0:
256,192,102564,1,0,0:0:0:0:
256,192,102731,1,8,0:0:0:0:
256,192,103064,1,8,0:0:0:0:
256,192,103231,1,0,0:0:0:0:
256,192,103314,1,8,0:0:0:0:
256,192,103398,1,0,0:0:0:0:
256,192,103564,1,0,0:0:0:0:
256,192,103731,1,8,0:0:0:0:
256,192,103898,1,8,0:0:0:0:
256,192,104064,1,0,0:0:0:0:
256,192,104398,1,8,0:0:0:0:
256,192,104564,1,0,0:0:0:0:
256,192,104648,1,0,0:0:0:0:
256,192,104731,1,8,0:0:0:0:
256,192,104898,1,0,0:0:0:0:
256,192,105064,1,8,0:0:0:0:
256,192,105231,1,0,0:0:0:0:
256,192,105398,1,8,0:0:0:0:
256,192,105481,1,8,0:0:0:0:
256,192,105564,1,0,0:0:0:0:
256,192,105648,1,8,0:0:0:0:
256,192,105731,1,0,0:0:0:0:
256,192,105814,1,0,0:0:0:0:
256,192,105898,1,8,0:0:0:0:
256,192,106064,1,0,0:0:0:0:
256,192,106148,1,0,0:0:0:0:
256,192,106231,1,8,0:0:0:0:
256,192,106314,1,0,0:0:0:0:
256,192,106398,1,8,0:0:0:0:
256,192,106481,1,8,0:0:0:0:
256,192,106564,1,0,0:0:0:0:
256,192,106648,1,0,0:0:0:0:
256,192,106731,1,12,0:0:0:0:
256,192,106898,1,0,0:0:0:0:
256,192,106981,1,0,0:0:0:0:
256,192,107064,1,8,0:0:0:0:
256,192,107231,1,0,0:0:0:0:
256,192,107398,1,8,0:0:0:0:
256,192,107481,1,8,0:0:0:0:
256,192,107564,1,0,0:0:0:0:
256,192,107648,1,0,0:0:0:0:
256,192,107731,1,8,0:0:0:0:
256,192,107898,1,0,0:0:0:0:
256,192,108064,1,8,0:0:0:0:
256,192,108148,1,0,0:0:0:0:
256,192,108231,1,8,0:0:0:0:
256,192,108314,1,8,0:0:0:0:
256,192,108398,1,0,0:0:0:0:
256,192,108481,1,0,0:0:0:0:
256,192,108564,1,8,0:0:0:0:
256,192,108648,1,8,0:0:0:0:
256,192,108731,1,0,0:0:0:0:
256,192,108898,1,8,0:0:0:0:
256,192,108981,1,0,0:0:0:0:
256,192,109064,1,8,0:0:0:0:
256,192,109148,1,8,0:0:0:0:
256,192,109231,1,0,0:0:0:0:
256,192,109398,1,8,0:0:0:0:
256,192,109564,1,0,0:0:0:0:
256,192,109648,1,0,0:0:0:0:
256,192,109731,1,8,0:0:0:0:
256,192,109898,1,0,0:0:0:0:
256,192,110064,1,8,0:0:0:0:
256,192,110148,1,0,0:0:0:0:
256,192,110231,1,8,0:0:0:0:
256,192,110314,1,8,0:0:0:0:
256,192,110398,1,0,0:0:0:0:
256,192,110481,1,0,0:0:0:0:
256,192,110564,1,8,0:0:0:0:
256,192,110648,1,8,0:0:0:0:
256,192,110731,1,0,0:0:0:0:
256,192,110898,1,8,0:0:0:0:
256,192,110981,1,8,0:0:0:0:
256,192,111064,1,8,0:0:0:0:
256,192,111148,1,0,0:0:0:0:
256,192,111231,1,8,0:0:0:0:
256,192,111314,1,0,0:0:0:0:
256,192,111398,1,8,0:0:0:0:
256,192,111481,1,8,0:0:0:0:
256,192,111564,1,0,0:0:0:0:
256,192,111648,1,0,0:0:0:0:
256,192,111731,1,8,0:0:0:0:
256,192,111814,1,8,0:0:0:0:
256,192,111898,1,0,0:0:0:0:
256,192,112064,1,8,0:0:0:0:
256,192,112231,1,0,0:0:0:0:
256,192,112314,1,0,0:0:0:0:
256,192,112398,1,8,0:0:0:0:
256,192,112564,1,0,0:0:0:0:
256,192,112731,1,8,0:0:0:0:
256,192,112814,1,8,0:0:0:0:
256,192,112898,1,0,0:0:0:0:
256,192,112981,1,0,0:0:0:0:
256,192,113064,1,8,0:0:0:0:
256,192,113148,1,0,0:0:0:0:
256,192,113231,1,0,0:0:0:0:
256,192,113398,1,8,0:0:0:0:
256,192,113481,1,0,0:0:0:0:
256,192,113564,1,8,0:0:0:0:
256,192,113648,1,8,0:0:0:0:
256,192,113731,1,0,0:0:0:0:
256,192,113814,1,0,0:0:0:0:
256,192,113898,1,8,0:0:0:0:
256,192,114064,1,0,0:0:0:0:
256,192,114231,1,8,0:0:0:0:
256,192,114314,1,8,0:0:0:0:
256,192,114398,1,8,0:0:0:0:
256,192,114481,1,0,0:0:0:0:
256,192,114564,1,8,0:0:0:0:
256,192,114648,1,0,0:0:0:0:
256,192,114731,1,8,0:0:0:0:
256,192,114814,1,8,0:0:0:0:
256,192,114898,1,0,0:0:0:0:
256,192,114981,1,0,0:0:0:0:
256,192,115064,1,8,0:0:0:0:
256,192,115231,1,0,0:0:0:0:
256,192,115398,1,8,0:0:0:0:
256,192,115481,1,0,0:0:0:0:
256,192,115564,1,8,0:0:0:0:
256,192,115648,1,8,0:0:0:0:
256,192,115731,1,0,0:0:0:0:
256,192,115814,1,0,0:0:0:0:
256,192,115898,1,8,0:0:0:0:
256,192,116064,1,0,0:0:0:0:
256,192,116231,1,8,0:0:0:0:
256,192,116314,1,8,0:0:0:0:
256,192,116398,1,8,0:0:0:0:
256,192,116564,1,8,0:0:0:0:
256,192,116731,1,0,0:0:0:0:
256,192,116898,1,8,0:0:0:0:
256,192,116981,1,0,0:0:0:0:
256,192,117064,1,8,0:0:0:0:
256,192,117148,1,8,0:0:0:0:
256,192,117231,1,0,0:0:0:0:
256,192,117314,1,0,0:0:0:0:
256,192,117398,1,8,0:0:0:0:
256,192,117564,1,0,0:0:0:0:
256,192,117648,1,8,0:0:0:0:
256,192,117731,1,0,0:0:0:0:
256,192,117814,1,0,0:0:0:0:
256,192,117898,1,8,0:0:0:0:
256,192,118064,1,0,0:0:0:0:
256,192,118148,1,8,0:0:0:0:
256,192,118231,1,8,0:0:0:0:
256,192,118314,1,0,0:0:0:0:
256,192,118398,1,8,0:0:0:0:
256,192,118564,1,8,0:0:0:0:
256,192,118648,1,8,0:0:0:0:
256,192,118731,1,0,0:0:0:0:
256,192,118814,1,0,0:0:0:0:
256,192,118898,1,8,0:0:0:0:
256,192,119064,1,0,0:0:0:0:
256,192,119148,1,0,0:0:0:0:
256,192,119231,1,8,0:0:0:0:
256,192,119314,1,0,0:0:0:0:
256,192,119398,1,8,0:0:0:0:
256,192,119481,1,0,0:0:0:0:
256,192,119564,1,8,0:0:0:0:
256,192,119648,1,8,0:0:0:0:
256,192,119731,1,0,0:0:0:0:
256,192,119898,1,0,0:0:0:0:
256,192,120064,1,8,0:0:0:0:
256,192,120231,1,0,0:0:0:0:
256,192,120314,1,0,0:0:0:0:
256,192,120398,1,8,0:0:0:0:
256,192,120564,1,0,0:0:0:0:
256,192,120731,1,8,0:0:0:0:
256,192,120814,1,0,0:0:0:0:
256,192,120898,1,8,0:0:0:0:
256,192,120981,1,8,0:0:0:0:
256,192,121064,1,0,0:0:0:0:
256,192,121231,1,8,0:0:0:0:
256,192,121398,1,0,0:0:0:0:
256,192,121564,1,0,0:0:0:0:
256,192,121648,1,0,0:0:0:0:
256,192,121731,1,8,0:0:0:0:
256,192,121898,1,0,0:0:0:0:
256,192,122064,1,8,0:0:0:0:
256,192,122148,1,8,0:0:0:0:
256,192,122231,1,0,0:0:0:0:
256,192,122314,1,0,0:0:0:0:
256,192,122398,1,8,0:0:0:0:
256,192,122481,1,8,0:0:0:0:
256,192,122564,1,8,0:0:0:0:
256,192,122648,1,0,0:0:0:0:
256,192,122731,1,8,0:0:0:0:
256,192,122898,1,0,0:0:0:0:
256,192,122981,1,8,0:0:0:0:
256,192,123064,1,0,0:0:0:0:
256,192,123148,1,0,0:0:0:0:
256,192,123231,1,8,0:0:0:0:
256,192,123398,1,8,0:0:0:0:
256,192,123481,1,8,0:0:0:0:
256,192,123564,1,0,0:0:0:0:
256,192,123648,1,0,0:0:0:0:
256,192,123731,1,8,0:0:0:0:
256,192,123898,1,8,0:0:0:0:
256,192,123981,1,8,0:0:0:0:
256,192,124064,1,8,0:0:0:0:
256,192,124148,1,0,0:0:0:0:
256,192,124231,1,8,0:0:0:0:
256,192,124398,1,0,0:0:0:0:
256,192,124481,1,8,0:0:0:0:
256,192,124564,1,0,0:0:0:0:
256,192,124648,1,0,0:0:0:0:
256,192,124731,1,8,0:0:0:0:
256,192,124814,1,0,0:0:0:0:
256,192,124898,1,8,0:0:0:0:
256,192,124981,1,8,0:0:0:0:
256,192,125064,1,0,0:0:0:0:
256,192,125231,1,0,0:0:0:0:
256,192,125398,1,8,0:0:0:0:
256,192,125564,1,0,0:0:0:0:
256,192,125648,1,0,0:0:0:0:
256,192,125731,1,8,0:0:0:0:
256,192,125898,1,0,0:0:0:0:
256,192,126064,1,8,0:0:0:0:
256,192,126148,1,0,0:0:0:0:
256,192,126231,1,8,0:0:0:0:
256,192,126314,1,8,0:0:0:0:
256,192,126398,1,0,0:0:0:0:
256,192,126564,1,8,0:0:0:0:
256,192,126731,1,0,0:0:0:0:
256,192,126898,1,8,0:0:0:0:
256,192,126981,1,8,0:0:0:0:
256,192,127064,1,8,0:0:0:0:
256,192,127231,1,8,0:0:0:0:
256,192,127398,1,0,0:0:0:0:
256,192,127564,1,8,0:0:0:0:
256,192,127648,1,0,0:0:0:0:
256,192,127731,1,8,0:0:0:0:
256,192,127814,1,8,0:0:0:0:
256,192,127898,1,0,0:0:0:0:
256,192,128064,1,8,0:0:0:0:
256,192,130731,1,0,0:0:0:0:
256,192,132731,1,0,0:0:0:0:
256,192,133064,1,0,0:0:0:0:
256,192,133398,1,8,0:0:0:0:
256,192,136064,1,0,0:0:0:0:
256,192,136731,1,0,0:0:0:0:
256,192,137064,1,8,0:0:0:0:
256,192,137564,1,0,0:0:0:0:
256,192,137731,1,0,0:0:0:0:
256,192,138064,1,0,0:0:0:0:
256,192,138231,1,0,0:0:0:0:
256,192,138398,1,8,0:0:0:0:
256,192,138564,1,0,0:0:0:0:
256,192,138731,1,4,0:0:0:0:
256,192,139064,1,8,0:0:0:0:
256,192,139231,1,0,0:0:0:0:
256,192,139398,1,8,0:0:0:0:
256,192,139564,1,8,0:0:0:0:
256,192,139731,1,0,0:0:0:0:
256,192,139898,1,8,0:0:0:0:
256,192,140231,1,8,0:0:0:0:
256,192,140398,1,0,0:0:0:0:
256,192,140731,1,8,0:0:0:0:
256,192,140898,1,0,0:0:0:0:
256,192,141064,1,8,0:0:0:0:
256,192,141231,1,8,0:0:0:0:
256,192,141398,1,0,0:0:0:0:
256,192,141564,1,0,0:0:0:0:
256,192,141731,1,8,0:0:0:0:
256,192,141898,1,8,0:0:0:0:
256,192,142064,1,0,0:0:0:0:
256,192,142231,1,0,0:0:0:0:
256,192,142398,1,8,0:0:0:0:
256,192,142564,1,8,0:0:0:0:
256,192,142731,1,0,0:0:0:0:
256,192,142898,1,8,0:0:0:0:
256,192,143064,1,8,0:0:0:0:
256,192,143231,1,8,0:0:0:0:
256,192,143398,1,0,0:0:0:0:
256,192,143564,1,8,0:0:0:0:
256,192,143731,1,8,0:0:0:0:
256,192,143898,1,8,0:0:0:0:
256,192,144064,1,0,0:0:0:0:
256,192,144398,1,8,0:0:0:0:
256,192,144564,1,0,0:0:0:0:
256,192,144731,1,8,0:0:0:0:
256,192,144898,1,8,0:0:0:0:
256,192,145064,1,0,0:0:0:0:
256,192,145231,1,8,0:0:0:0:
256,192,145398,1,0,0:0:0:0:
256,192,145564,1,8,0:0:0:0:
256,192,145731,1,8,0:0:0:0:
256,192,145898,1,0,0:0:0:0:
256,192,146064,1,8,0:0:0:0:
256,192,146231,1,8,0:0:0:0:
256,192,146398,1,0,0:0:0:0:
256,192,146731,1,8,0:0:0:0:
256,192,146898,1,0,0:0:0:0:
256,192,147064,1,8,0:0:0:0:
256,192,147231,1,8,0:0:0:0:
256,192,147398,1,0,0:0:0:0:
256,192,147564,1,0,0:0:0:0:
256,192,147731,1,8,0:0:0:0:
256,192,148064,1,0,0:0:0:0:
256,192,148231,1,0,0:0:0:0:
256,192,148398,1,8,0:0:0:0:
256,192,148564,1,0,0:0:0:0:
256,192,148731,1,8,0:0:0:0:
256,192,148898,1,0,0:0:0:0:
256,192,148981,1,0,0:0:0:0:
256,192,149064,1,8,0:0:0:0:
256,192,149231,1,8,0:0:0:0:
256,192,149398,1,4,0:0:0:0:
256,192,149564,1,0,0:0:0:0:
256,192,149648,1,0,0:0:0:0:
256,192,149731,1,8,0:0:0:0:
256,192,149898,1,0,0:0:0:0:
256,192,150064,1,8,0:0:0:0:
256,192,150148,1,0,0:0:0:0:
256,192,150231,1,8,0:0:0:0:
256,192,150314,1,8,0:0:0:0:
256,192,150398,1,0,0:0:0:0:
256,192,150564,1,8,0:0:0:0:
256,192,150648,1,8,0:0:0:0:
256,192,150731,1,0,0:0:0:0:
256,192,150814,1,0,0:0:0:0:
256,192,150898,1,8,0:0:0:0:
256,192,150981,1,0,0:0:0:0:
256,192,151064,1,8,0:0:0:0:
256,192,151148,1,8,0:0:0:0:
256,192,151231,1,0,0:0:0:0:
256,192,151398,1,8,0:0:0:0:
256,192,151481,1,8,0:0:0:0:
256,192,151564,1,8,0:0:0:0:
256,192,151648,1,0,0:0:0:0:
256,192,151731,1,8,0:0:0:0:
256,192,151814,1,8,0:0:0:0:
256,192,151898,1,0,0:0:0:0:
256,192,151981,1,0,0:0:0:0:
256,192,152064,1,8,0:0:0:0:
256,192,152148,1,0,0:0:0:0:
256,192,152231,1,8,0:0:0:0:
256,192,152314,1,8,0:0:0:0:
256,192,152398,1,0,0:0:0:0:
256,192,152564,1,8,0:0:0:0:
256,192,152731,1,0,0:0:0:0:
256,192,152814,1,0,0:0:0:0:
256,192,152898,1,8,0:0:0:0:
256,192,152981,1,8,0:0:0:0:
256,192,153064,1,0,0:0:0:0:
256,192,153231,1,8,0:0:0:0:
256,192,153398,1,8,0:0:0:0:
256,192,153481,1,0,0:0:0:0:
256,192,153564,1,8,0:0:0:0:
256,192,153648,1,8,0:0:0:0:
256,192,153731,1,0,0:0:0:0:
256,192,153898,1,8,0:0:0:0:
256,192,154064,1,0,0:0:0:0:
256,192,154148,1,0,0:0:0:0:
256,192,154231,1,8,0:0:0:0:
256,192,154314,1,8,0:0:0:0:
256,192,154398,1,0,0:0:0:0:
256,192,154481,1,0,0:0:0:0:
256,192,154564,1,8,0:0:0:0:
256,192,154731,1,0,0:0:0:0:
256,192,155064,1,8,0:0:0:0:
256,192,155231,1,0,0:0:0:0:
256,192,155314,1,0,0:0:0:0:
256,192,155398,1,8,0:0:0:0:
256,192,155481,1,0,0:0:0:0:
256,192,155564,1,8,0:0:0:0:
256,192,155648,1,8,0:0:0:0:
256,192,155731,1,0,0:0:0:0:
256,192,155898,1,8,0:0:0:0:
256,192,155981,1,8,0:0:0:0:
256,192,156064,1,0,0:0:0:0:
256,192,156148,1,0,0:0:0:0:
256,192,156231,1,8,0:0:0:0:
256,192,156314,1,0,0:0:0:0:
256,192,156398,1,8,0:0:0:0:
256,192,156564,1,0,0:0:0:0:
256,192,156648,1,0,0:0:0:0:
256,192,156731,1,8,0:0:0:0:
256,192,156814,1,8,0:0:0:0:
256,192,156898,1,0,0:0:0:0:
256,192,156981,1,0,0:0:0:0:
256,192,157064,1,8,0:0:0:0:
256,192,157231,1,0,0:0:0:0:
256,192,157398,1,8,0:0:0:0:
256,192,157481,1,8,0:0:0:0:
256,192,157564,1,0,0:0:0:0:
256,192,157648,1,0,0:0:0:0:
256,192,157731,1,8,0:0:0:0:
256,192,157814,1,8,0:0:0:0:
256,192,157898,1,8,0:0:0:0:
256,192,157981,1,0,0:0:0:0:
256,192,158064,1,8,0:0:0:0:
256,192,158148,1,8,0:0:0:0:
256,192,158231,1,0,0:0:0:0:
256,192,158314,1,0,0:0:0:0:
256,192,158398,1,8,0:0:0:0:
256,192,158564,1,8,0:0:0:0:
256,192,158648,1,8,0:0:0:0:
256,192,158731,1,0,0:0:0:0:
256,192,158898,1,0,0:0:0:0:
256,192,158981,1,0,0:0:0:0:
256,192,159064,1,8,0:0:0:0:
256,192,159148,1,0,0:0:0:0:
256,192,159231,1,8,0:0:0:0:
256,192,159314,1,8,0:0:0:0:
256,192,159398,1,0,0:0:0:0:
256,192,159481,1,0,0:0:0:0:
256,192,159564,1,8,0:0:0:0:
256,192,159648,1,0,0:0:0:0:
256,192,159731,1,8,0:0:0:0:
256,192,159898,1,0,0:0:0:0:
256,192,160064,1,12,0:0:0:0:
256,192,160231,1,0,0:0:0:0:
256,192,160314,1,8,0:0:0:0:
256,192,160398,1,8,0:0:0:0:
256,192,160564,1,0,0:0:0:0:
256,192,160731,1,8,0:0:0:0:
256,192,160814,1,0,0:0:0:0:
256,192,160898,1,8,0:0:0:0:
256,192,160981,1,8,0:0:0:0:
256,192,161064,1,0,0:0:0:0:
256,192,161231,1,8,0:0:0:0:
256,192,161314,1,8,0:0:0:0:
256,192,161398,1,8,0:0:0:0:
256,192,161481,1,0,0:0:0:0:
256,192,161564,1,8,0:0:0:0:
256,192,161648,1,0,0:0:0:0:
256,192,161731,1,8,0:0:0:0:
256,192,161814,1,8,0:0:0:0:
256,192,161898,1,0,0:0:0:0:
256,192,161981,1,0,0:0:0:0:
256,192,162064,1,8,0:0:0:0:
256,192,162148,1,0,0:0:0:0:
256,192,162231,1,0,0:0:0:0:
256,192,162314,1,0,0:0:0:0:
256,192,162398,1,8,0:0:0:0:
256,192,162564,1,0,0:0:0:0:
256,192,162731,1,8,0:0:0:0:
256,192,162898,1,0,0:0:0:0:
256,192,162981,1,8,0:0:0:0:
256,192,163064,1,8,0:0:0:0:
256,192,163231,1,0,0:0:0:0:
256,192,163398,1,8,0:0:0:0:
256,192,163481,1,0,0:0:0:0:
256,192,163564,1,8,0:0:0:0:
256,192,163648,1,8,0:0:0:0:
256,192,163731,1,0,0:0:0:0:
256,192,163898,1,8,0:0:0:0:
256,192,163981,1,8,0:0:0:0:
256,192,164064,1,0,0:0:0:0:
256,192,164148,1,0,0:0:0:0:
256,192,164231,1,8,0:0:0:0:
256,192,164314,1,0,0:0:0:0:
256,192,164398,1,8,0:0:0:0:
256,192,164481,1,8,0:0:0:0:
256,192,164564,1,0,0:0:0:0:
256,192,164648,1,0,0:0:0:0:
256,192,164731,1,8,0:0:0:0:
256,192,164814,1,8,0:0:0:0:
256,192,164898,1,8,0:0:0:0:
256,192,164981,1,0,0:0:0:0:
256,192,165064,1,8,0:0:0:0:
256,192,165148,1,8,0:0:0:0:
256,192,165231,1,8,0:0:0:0:
256,192,165314,1,8,0:0:0:0:
256,192,165398,1,0,0:0:0:0:
256,192,165564,1,0,0:0:0:0:
256,192,165648,1,0,0:0:0:0:
256,192,165731,1,8,0:0:0:0:
256,192,165898,1,0,0:0:0:0:
256,192,166064,1,8,0:0:0:0:
256,192,166148,1,8,0:0:0:0:
256,192,166231,1,0,0:0:0:0:
256,192,166314,1,0,0:0:0:0:
256,192,166398,1,8,0:0:0:0:
256,192,166564,1,0,0:0:0:0:
256,192,166731,1,8,0:0:0:0:
256,192,166898,1,8,0:0:0:0:
256,192,166981,1,8,0:0:0:0:
256,192,167064,1,0,0:0:0:0:
256,192,167231,1,8,0:0:0:0:
256,192,167398,1,0,0:0:0:0:
256,192,167481,1,8,0:0:0:0:
256,192,167564,1,0,0:0:0:0:
256,192,167648,1,0,0:0:0:0:
256,192,167731,1,8,0:0:0:0:
256,192,167898,1,8,0:0:0:0:
256,192,168064,1,4,0:0:0:0:
256,192,168231,12,0,170731,0:0:0:0:
256,192,190731,5,8,0:0:0:0:
256,192,190898,1,0,0:0:0:0:
256,192,191064,1,8,0:0:0:0:
256,192,191231,1,0,0:0:0:0:
256,192,191314,1,8,0:0:0:0:
256,192,191398,1,4,0:0:0:0:
256,192,191648,1,4,0:0:0:0:
256,192,191898,1,4,0:0:0:0:
256,192,192064,1,12,0:0:0:0:
256,192,192231,1,0,0:0:0:0:
256,192,192287,1,0,0:0:0:0:
256,192,192342,1,0,0:0:0:0:
256,192,192398,1,8,0:0:0:0:
256,192,192564,1,0,0:0:0:0:
256,192,192648,1,8,0:0:0:0:
256,192,192731,1,0,0:0:0:0:
256,192,192814,1,0,0:0:0:0:
256,192,192898,1,8,0:0:0:0:
256,192,192953,1,0,0:0:0:0:
256,192,193009,1,0,0:0:0:0:
256,192,193064,1,8,0:0:0:0:
256,192,193231,1,0,0:0:0:0:
256,192,193314,1,0,0:0:0:0:
256,192,193398,1,8,0:0:0:0:
256,192,193481,1,0,0:0:0:0:
256,192,193564,1,8,0:0:0:0:
256,192,193731,1,0,0:0:0:0:
256,192,193898,1,8,0:0:0:0:
256,192,193981,1,8,0:0:0:0:
256,192,194064,1,0,0:0:0:0:
256,192,194231,1,8,0:0:0:0:
256,192,194398,1,0,0:0:0:0:
256,192,194481,1,8,0:0:0:0:
256,192,194648,1,8,0:0:0:0:
256,192,194731,1,0,0:0:0:0:
256,192,194898,1,0,0:0:0:0:
256,192,195064,1,8,0:0:0:0:
256,192,195231,1,0,0:0:0:0:
256,192,195314,1,8,0:0:0:0:
256,192,195398,1,0,0:0:0:0:
256,192,195481,1,0,0:0:0:0:
256,192,195564,1,8,0:0:0:0:
256,192,195731,1,8,0:0:0:0:
256,192,195814,1,0,0:0:0:0:
256,192,195898,1,8,0:0:0:0:
256,192,195981,1,8,0:0:0:0:
256,192,196064,1,0,0:0:0:0:
256,192,196231,1,0,0:0:0:0:
256,192,196314,1,0,0:0:0:0:
256,192,196398,1,8,0:0:0:0:
256,192,196564,1,8,0:0:0:0:
256,192,196731,1,0,0:0:0:0:
256,192,196814,1,8,0:0:0:0:
256,192,196898,1,8,0:0:0:0:
256,192,197064,1,0,0:0:0:0:
256,192,197148,1,8,0:0:0:0:
256,192,197314,1,8,0:0:0:0:
256,192,197398,1,0,0:0:0:0:
256,192,197564,1,0,0:0:0:0:
256,192,197731,1,8,0:0:0:0:
256,192,197898,1,0,0:0:0:0:
256,192,197981,1,8,0:0:0:0:
256,192,198064,1,0,0:0:0:0:
256,192,198148,1,0,0:0:0:0:
256,192,198231,1,8,0:0:0:0:
256,192,198398,1,8,0:0:0:0:
256,192,198481,1,0,0:0:0:0:
256,192,198564,1,8,0:0:0:0:
256,192,198648,1,8,0:0:0:0:
256,192,198731,1,8,0:0:0:0:
256,192,198898,1,0,0:0:0:0:
256,192,199064,1,8,0:0:0:0:
256,192,199148,1,0,0:0:0:0:
256,192,199231,1,8,0:0:0:0:
256,192,199398,1,0,0:0:0:0:
256,192,199564,1,0,0:0:0:0:
256,192,199648,1,8,0:0:0:0:
256,192,199731,1,0,0:0:0:0:
256,192,199898,1,8,0:0:0:0:
256,192,200064,1,0,0:0:0:0:
256,192,200231,1,0,0:0:0:0:
256,192,200398,1,8,0:0:0:0:
256,192,200564,1,8,0:0:0:0:
256,192,200648,1,0,0:0:0:0:
256,192,200731,1,8,0:0:0:0:
256,192,200814,1,8,0:0:0:0:
256,192,200898,1,0,0:0:0:0:
256,192,201064,1,8,0:0:0:0:
256,192,201148,1,0,0:0:0:0:
256,192,201231,1,8,0:0:0:0:
256,192,201398,1,0,0:0:0:0:
256,192,201564,1,0,0:0:0:0:
256,192,201648,1,8,0:0:0:0:
256,192,201731,1,0,0:0:0:0:
256,192,201898,1,8,0:0:0:0:
256,192,202064,1,8,0:0:0:0:
256,192,202148,1,8,0:0:0:0:
256,192,202231,1,0,0:0:0:0:
256,192,202398,1,8,0:0:0:0:
256,192,202481,1,8,0:0:0:0:
256,192,202648,1,8,0:0:0:0:
256,192,202731,1,0,0:0:0:0:
256,192,202898,1,0,0:0:0:0:
256,192,203064,1,8,0:0:0:0:
256,192,203231,1,8,0:0:0:0:
256,192,203314,1,0,0:0:0:0:
256,192,203398,1,8,0:0:0:0:
256,192,203453,1,8,0:0:0:0:
256,192,203509,1,8,0:0:0:0:
256,192,203564,1,8,0:0:0:0:
256,192,203731,1,0,0:0:0:0:
256,192,203898,1,8,0:0:0:0:
256,192,204064,1,8,0:0:0:0:
256,192,204148,1,8,0:0:0:0:
256,192,204231,1,0,0:0:0:0:
256,192,204398,1,8,0:0:0:0:
256,192,204481,1,0,0:0:0:0:
256,192,204564,1,8,0:0:0:0:
256,192,204648,1,0,0:0:0:0:
256,192,204731,1,8,0:0:0:0:
256,192,204814,1,8,0:0:0:0:
256,192,204898,1,0,0:0:0:0:
256,192,205064,1,0,0:0:0:0:
256,192,205148,1,8,0:0:0:0:
256,192,205314,1,8,0:0:0:0:
256,192,205398,1,0,0:0:0:0:
256,192,205564,1,0,0:0:0:0:
256,192,205731,1,8,0:0:0:0:
256,192,205898,1,0,0:0:0:0:
256,192,205981,1,8,0:0:0:0:
256,192,206064,1,0,0:0:0:0:
256,192,206148,1,0,0:0:0:0:
256,192,206231,1,8,0:0:0:0:
256,192,206398,1,8,0:0:0:0:
256,192,206481,1,0,0:0:0:0:
256,192,206564,1,0,0:0:0:0:
256,192,206648,1,8,0:0:0:0:
256,192,206731,1,0,0:0:0:0:
256,192,206898,1,0,0:0:0:0:
256,192,206981,1,0,0:0:0:0:
256,192,207064,1,8,0:0:0:0:
256,192,207231,1,8,0:0:0:0:
256,192,207398,1,0,0:0:0:0:
256,192,207481,1,8,0:0:0:0:
256,192,207564,1,8,0:0:0:0:
256,192,207731,1,0,0:0:0:0:
256,192,207814,1,8,0:0:0:0:
256,192,207981,1,8,0:0:0:0:
256,192,208064,1,0,0:0:0:0:
256,192,208231,1,0,0:0:0:0:
256,192,208398,1,8,0:0:0:0:
256,192,208564,1,8,0:0:0:0:
256,192,208648,1,8,0:0:0:0:
256,192,208731,1,0,0:0:0:0:
256,192,208814,1,0,0:0:0:0:
256,192,208898,1,8,0:0:0:0:
256,192,209064,1,0,0:0:0:0:
256,192,209148,1,0,0:0:0:0:
256,192,209231,1,8,0:0:0:0:
256,192,209398,1,8,0:0:0:0:
256,192,209564,1,0,0:0:0:0:
256,192,209731,1,0,0:0:0:0:
256,192,209814,1,0,0:0:0:0:
256,192,209898,1,8,0:0:0:0:
256,192,210064,1,0,0:0:0:0:
256,192,210231,1,8,0:0:0:0:
256,192,210314,1,8,0:0:0:0:
256,192,210398,1,0,0:0:0:0:
256,192,210564,1,8,0:0:0:0:
256,192,210731,1,0,0:0:0:0:
256,192,210898,1,0,0:0:0:0:
256,192,211064,1,8,0:0:0:0:
256,192,211231,1,8,0:0:0:0:
256,192,211314,1,0,0:0:0:0:
256,192,211398,1,8,0:0:0:0:
256,192,211481,1,8,0:0:0:0:
256,192,211564,1,0,0:0:0:0:
256,192,211731,1,0,0:0:0:0:
256,192,211814,1,0,0:0:0:0:
256,192,211898,1,8,0:0:0:0:
256,192,212064,1,12,0:0:0:0:
256,192,212731,1,0,0:0:0:0:
256,192,212814,1,0,0:0:0:0:
256,192,212898,1,0,0:0:0:0:
256,192,212981,1,0,0:0:0:0:
256,192,213064,1,8,0:0:0:0:
256,192,213120,1,0,0:0:0:0:
256,192,213176,1,0,0:0:0:0:
256,192,213231,1,8,0:0:0:0:
256,192,213287,1,8,0:0:0:0:
256,192,213342,1,8,0:0:0:0:
256,192,213398,1,4,0:0:0:0:
256,192,213564,1,8,0:0:0:0:
256,192,213731,1,0,0:0:0:0:
256,192,213787,1,0,0:0:0:0:
256,192,213842,1,8,0:0:0:0:
256,192,213898,1,8,0:0:0:0:
256,192,214064,1,0,0:0:0:0:
256,192,214148,1,8,0:0:0:0:
256,192,214231,1,0,0:0:0:0:
256,192,214314,1,0,0:0:0:0:
256,192,214398,1,8,0:0:0:0:
256,192,214564,1,8,0:0:0:0:
256,192,214648,1,8,0:0:0:0:
256,192,214731,1,0,0:0:0:0:
256,192,214814,1,8,0:0:0:0:
256,192,214898,1,0,0:0:0:0:
256,192,215064,1,0,0:0:0:0:
256,192,215106,1,0,0:0:0:0:
256,192,215231,1,8,0:0:0:0:
256,192,215273,1,8,0:0:0:0:
256,192,215398,1,4,0:0:0:0:
256,192,215564,1,4,0:0:0:0:
256,192,215731,1,8,0:0:0:0:
256,192,215814,1,0,0:0:0:0:
256,192,215898,1,8,0:0:0:0:
256,192,215981,1,8,0:0:0:0:
256,192,216064,1,0,0:0:0:0:
256,192,216148,1,8,0:0:0:0:
256,192,216231,1,0,0:0:0:0:
256,192,216314,1,0,0:0:0:0:
256,192,216398,1,8,0:0:0:0:
256,192,216453,1,8,0:0:0:0:
256,192,216509,1,8,0:0:0:0:
256,192,216564,1,0,0:0:0:0:
256,192,216648,1,0,0:0:0:0:
256,192,216731,1,8,0:0:0:0:
256,192,216814,1,8,0:0:0:0:
256,192,216898,1,0,0:0:0:0:
256,192,216939,1,0,0:0:0:0:
256,192,217064,1,0,0:0:0:0:
256,192,217106,1,0,0:0:0:0:
256,192,217231,1,8,0:0:0:0:
256,192,217287,1,8,0:0:0:0:
256,192,217342,1,8,0:0:0:0:
256,192,217398,1,0,0:0:0:0:
256,192,217564,1,0,0:0:0:0:
256,192,217648,1,8,0:0:0:0:
256,192,217731,1,0,0:0:0:0:
256,192,217814,1,0,0:0:0:0:
256,192,217898,1,8,0:0:0:0:
256,192,217981,1,8,0:0:0:0:
256,192,218064,1,0,0:0:0:0:
256,192,218148,1,0,0:0:0:0:
256,192,218231,1,8,0:0:0:0:
256,192,218314,1,0,0:0:0:0:
256,192,218398,1,8,0:0:0:0:
256,192,218481,1,8,0:0:0:0:
256,192,218564,1,8,0:0:0:0:
256,192,218620,1,8,0:0:0:0:
256,192,218676,1,8,0:0:0:0:
256,192,218731,1,0,0:0:0:0:
256,192,218898,1,8,0:0:0:0:
256,192,219064,1,0,0:0:0:0:
256,192,219148,1,0,0:0:0:0:
256,192,219231,1,8,0:0:0:0:
256,192,219287,1,0,0:0:0:0:
256,192,219342,1,0,0:0:0:0:
256,192,219398,1,8,0:0:0:0:
256,192,219481,1,8,0:0:0:0:
256,192,219564,1,0,0:0:0:0:
256,192,219648,1,0,0:0:0:0:
256,192,219731,1,8,0:0:0:0:
256,192,219814,1,0,0:0:0:0:
256,192,219898,1,8,0:0:0:0:
256,192,219981,1,8,0:0:0:0:
256,192,220064,1,0,0:0:0:0:
256,192,220231,1,8,0:0:0:0:
256,192,220314,1,8,0:0:0:0:
256,192,220398,1,0,0:0:0:0:
256,192,220564,1,8,0:0:0:0:
256,192,220648,1,8,0:0:0:0:
256,192,220814,1,0,0:0:0:0:
256,192,220898,1,8,0:0:0:0:
256,192,221064,1,8,0:0:0:0:
256,192,221106,1,8,0:0:0:0:
256,192,221231,1,0,0:0:0:0:
256,192,221273,1,0,0:0:0:0:
256,192,221398,1,4,0:0:0:0:
256,192,221564,1,4,0:0:0:0:
256,192,221731,1,8,0:0:0:0:
256,192,221787,1,8,0:0:0:0:
256,192,221842,1,8,0:0:0:0:
256,192,221898,1,0,0:0:0:0:
256,192,222064,1,0,0:0:0:0:
256,192,222148,1,0,0:0:0:0:
256,192,222231,1,8,0:0:0:0:
256,192,222273,1,8,0:0:0:0:
256,192,222314,1,8,0:0:0:0:
256,192,222398,1,0,0:0:0:0:
256,192,222481,1,8,0:0:0:0:
256,192,222564,1,0,0:0:0:0:
256,192,222648,1,8,0:0:0:0:
256,192,222731,1,0,0:0:0:0:
256,192,222814,1,0,0:0:0:0:
256,192,222898,1,8,0:0:0:0:
256,192,222981,1,8,0:0:0:0:
256,192,223064,1,0,0:0:0:0:
256,192,223231,1,8,0:0:0:0:
256,192,223314,1,8,0:0:0:0:
256,192,223398,1,0,0:0:0:0:
256,192,223481,1,0,0:0:0:0:
256,192,223564,1,12,0:0:0:0:
256,192,223731,1,0,0:0:0:0:
256,192,223898,1,8,0:0:0:0:
256,192,223981,1,8,0:0:0:0:
256,192,224064,1,0,0:0:0:0:
256,192,224231,1,0,0:0:0:0:
256,192,224398,1,8,0:0:0:0:
256,192,224564,1,0,0:0:0:0:
256,192,224648,1,8,0:0:0:0:
256,192,224731,1,8,0:0:0:0:
256,192,224814,1,8,0:0:0:0:
256,192,224898,1,0,0:0:0:0:
256,192,224939,1,0,0:0:0:0:
256,192,225064,1,8,0:0:0:0:
256,192,225106,1,8,0:0:0:0:
256,192,225231,1,0,0:0:0:0:
256,192,225398,1,8,0:0:0:0:
256,192,225564,1,8,0:0:0:0:
256,192,225648,1,0,0:0:0:0:
256,192,225731,1,8,0:0:0:0:
256,192,225773,1,8,0:0:0:0:
256,192,225898,1,8,0:0:0:0:
256,192,225939,1,8,0:0:0:0:
256,192,226064,1,0,0:0:0:0:
256,192,226231,1,8,0:0:0:0:
256,192,226314,1,0,0:0:0:0:
256,192,226398,1,8,0:0:0:0:
256,192,226481,1,8,0:0:0:0:
256,192,226564,1,0,0:0:0:0:
256,192,226648,1,8,0:0:0:0:
256,192,226731,1,0,0:0:0:0:
256,192,226898,1,0,0:0:0:0:
256,192,227064,1,8,0:0:0:0:
256,192,227231,1,0,0:0:0:0:
256,192,227314,1,8,0:0:0:0:
256,192,227398,1,0,0:0:0:0:
256,192,227481,1,0,0:0:0:0:
256,192,227564,1,8,0:0:0:0:
256,192,227731,1,0,0:0:0:0:
256,192,227787,1,0,0:0:0:0:
256,192,227842,1,0,0:0:0:0:
256,192,227898,1,8,0:0:0:0:
256,192,227981,1,8,0:0:0:0:
256,192,228064,1,0,0:0:0:0:
256,192,228148,1,0,0:0:0:0:
256,192,228231,1,8,0:0:0:0:
256,192,228314,1,0,0:0:0:0:
256,192,228398,1,8,0:0:0:0:
256,192,228439,1,8,0:0:0:0:
256,192,228481,1,8,0:0:0:0:
256,192,228564,1,0,0:0:0:0:
256,192,228648,1,8,0:0:0:0:
256,192,228731,1,0,0:0:0:0:
256,192,228814,1,8,0:0:0:0:
256,192,228898,1,0,0:0:0:0:
256,192,228981,1,0,0:0:0:0:
256,192,229064,1,8,0:0:0:0:
256,192,229106,1,8,0:0:0:0:
256,192,229148,1,0,0:0:0:0:
256,192,229231,1,8,0:0:0:0:
256,192,229314,1,8,0:0:0:0:
256,192,229398,1,0,0:0:0:0:
256,192,229564,1,0,0:0:0:0:
256,192,229731,1,8,0:0:0:0:
256,192,229898,1,8,0:0:0:0:
256,192,229981,1,0,0:0:0:0:
256,192,230064,1,8,0:0:0:0:
256,192,230120,1,0,0:0:0:0:
256,192,230176,1,0,0:0:0:0:
256,192,230231,1,8,0:0:0:0:
256,192,230314,1,0,0:0:0:0:
256,192,230398,1,8,0:0:0:0:
256,192,230481,1,0,0:0:0:0:
256,192,230564,1,8,0:0:0:0:
256,192,230648,1,8,0:0:0:0:
256,192,230731,1,0,0:0:0:0:
256,192,230814,1,0,0:0:0:0:
256,192,230898,1,8,0:0:0:0:
256,192,230939,1,8,0:0:0:0:
256,192,230981,1,8,0:0:0:0:
256,192,231064,1,0,0:0:0:0:
256,192,231148,1,8,0:0:0:0:
256,192,231231,1,0,0:0:0:0:
256,192,231314,1,0,0:0:0:0:
256,192,231398,1,8,0:0:0:0:
256,192,231481,1,0,0:0:0:0:
256,192,231564,1,8,0:0:0:0:
256,192,231648,1,0,0:0:0:0:
256,192,231731,1,8,0:0:0:0:
256,192,231787,1,8,0:0:0:0:
256,192,231842,1,8,0:0:0:0:
256,192,231898,1,0,0:0:0:0:
256,192,231953,1,0,0:0:0:0:
256,192,232009,1,0,0:0:0:0:
256,192,232064,1,8,0:0:0:0:
256,192,232231,1,0,0:0:0:0:
256,192,232314,1,8,0:0:0:0:
256,192,232398,1,0,0:0:0:0:
256,192,232481,1,0,0:0:0:0:
256,192,232564,1,12,0:0:0:0:
256,192,232731,1,0,0:0:0:0:
256,192,232898,1,8,0:0:0:0:
256,192,232981,1,0,0:0:0:0:
256,192,233064,1,8,0:0:0:0:
256,192,233148,1,0,0:0:0:0:
256,192,233231,1,8,0:0:0:0:
256,192,233314,1,8,0:0:0:0:
256,192,233398,1,4,0:0:0:0:
256,192,233564,1,0,0:0:0:0:
256,192,233648,1,0,0:0:0:0:
256,192,233731,1,8,0:0:0:0:
256,192,233814,1,0,0:0:0:0:
256,192,233898,1,8,0:0:0:0:
256,192,233981,1,8,0:0:0:0:
256,192,234064,1,0,0:0:0:0:
256,192,234147,1,8,0:0:0:0:
256,192,234189,1,8,0:0:0:0:
256,192,234231,1,0,0:0:0:0:
256,192,234314,1,8,0:0:0:0:
256,192,234356,1,8,0:0:0:0:
256,192,234397,1,0,0:0:0:0:
256,192,234481,1,0,0:0:0:0:
256,192,234564,1,8,0:0:0:0:
256,192,234648,1,8,0:0:0:0:
256,192,234731,1,4,0:0:0:0:
256,192,234898,1,8,0:0:0:0:
256,192,235064,1,4,0:0:0:0:
256,192,235231,1,8,0:0:0:0:
256,192,235287,1,8,0:0:0:0:
256,192,235342,1,8,0:0:0:0:
256,192,235398,1,4,0:0:0:0:
256,192,235564,1,0,0:0:0:0:
256,192,235648,1,0,0:0:0:0:
256,192,235731,1,8,0:0:0:0:
256,192,235898,1,8,0:0:0:0:
256,192,235981,1,0,0:0:0:0:
256,192,236064,1,8,0:0:0:0:
256,192,236148,1,8,0:0:0:0:
256,192,236231,1,0,0:0:0:0:
256,192,236314,1,0,0:0:0:0:
256,192,236398,1,8,0:0:0:0:
256,192,236481,1,8,0:0:0:0:
256,192,236564,1,0,0:0:0:0:
256,192,236606,1,0,0:0:0:0:
256,192,236731,1,8,0:0:0:0:
256,192,236773,1,8,0:0:0:0:
256,192,236898,1,8,0:0:0:0:
256,192,236981,1,0,0:0:0:0:
256,192,237064,1,8,0:0:0:0:
256,192,237148,1,0,0:0:0:0:
256,192,237231,1,8,0:0:0:0:
256,192,237314,1,8,0:0:0:0:
256,192,237398,1,4,0:0:0:0:
256,192,237564,1,8,0:0:0:0:
256,192,237648,1,0,0:0:0:0:
256,192,237731,1,8,0:0:0:0:
256,192,237814,1,8,0:0:0:0:
256,192,237898,1,0,0:0:0:0:
256,192,237981,1,8,0:0:0:0:
256,192,238064,1,4,0:0:0:0:
256,192,238231,1,0,0:0:0:0:
256,192,238287,1,0,0:0:0:0:
256,192,238342,1,0,0:0:0:0:
256,192,238398,1,8,0:0:0:0:
256,192,238564,1,0,0:0:0:0:
256,192,238648,1,8,0:0:0:0:
256,192,238731,1,0,0:0:0:0:
256,192,238814,1,0,0:0:0:0:
256,192,238898,1,8,0:0:0:0:
256,192,238981,1,8,0:0:0:0:
256,192,239064,1,0,0:0:0:0:
256,192,239148,1,0,0:0:0:0:
256,192,239231,1,8,0:0:0:0:
256,192,239273,1,8,0:0:0:0:
256,192,239314,1,0,0:0:0:0:
256,192,239398,1,8,0:0:0:0:
256,192,239564,1,8,0:0:0:0:
256,192,239648,1,0,0:0:0:0:
256,192,239731,1,8,0:0:0:0:
256,192,239814,1,8,0:0:0:0:
256,192,239898,1,0,0:0:0:0:
256,192,239981,1,8,0:0:0:0:
256,192,240064,1,4,0:0:0:0:
256,192,240231,1,4,0:0:0:0:
256,192,240398,1,12,0:0:0:0:
256,192,240564,1,4,0:0:0:0:
256,192,240731,1,12,0:0:0:0:
256,192,240898,1,4,0:0:0:0:
256,192,241064,1,8,0:0:0:0:
256,192,241148,1,0,0:0:0:0:
256,192,241231,1,8,0:0:0:0:
256,192,241314,1,8,0:0:0:0:
256,192,241398,1,8,0:0:0:0:
256,192,241481,1,0,0:0:0:0:
256,192,241564,1,8,0:0:0:0:
256,192,241731,1,0,0:0:0:0:
256,192,241814,1,8,0:0:0:0:
256,192,241898,1,0,0:0:0:0:
256,192,241953,1,0,0:0:0:0:
256,192,242009,1,0,0:0:0:0:
256,192,242064,1,8,0:0:0:0:
256,192,242148,1,0,0:0:0:0:
256,192,242231,1,8,0:0:0:0:
256,192,242287,1,8,0:0:0:0:
256,192,242342,1,8,0:0:0:0:
256,192,242398,1,0,0:0:0:0:
256,192,242481,1,8,0:0:0:0:
256,192,242564,1,0,0:0:0:0:
256,192,242606,1,0,0:0:0:0:
256,192,242648,1,0,0:0:0:0:
256,192,242731,1,12,0:0:0:0:
256,192,242898,1,4,0:0:0:0:
256,192,243064,1,12,0:0:0:0:
256,192,243231,1,12,0:0:0:0:
256,192,243398,1,12,0:0:0:0:
256,192,243564,1,4,0:0:0:0:
256,192,243731,1,8,0:0:0:0:
256,192,243814,1,8,0:0:0:0:
256,192,243898,1,0,0:0:0:0:
256,192,243981,1,0,0:0:0:0:
256,192,244064,1,8,0:0:0:0:
256,192,244148,1,0,0:0:0:0:
256,192,244231,1,8,0:0:0:0:
256,192,244398,1,8,0:0:0:0:
256,192,244564,1,8,0:0:0:0:
256,192,244731,1,0,0:0:0:0:
256,192,244814,1,8,0:0:0:0:
256,192,244898,1,0,0:0:0:0:
256,192,244981,1,0,0:0:0:0:
256,192,245064,1,8,0:0:0:0:
256,192,245106,1,0,0:0:0:0:
256,192,245148,1,0,0:0:0:0:
256,192,245231,1,8,0:0:0:0:
256,192,245314,1,8,0:0:0:0:
256,192,245398,1,0,0:0:0:0:
256,192,245481,1,0,0:0:0:0:
256,192,245564,1,8,0:0:0:0:
256,192,245731,1,0,0:0:0:0:
256,192,245898,1,8,0:0:0:0:
256,192,245981,1,0,0:0:0:0:
256,192,246064,1,8,0:0:0:0:
256,192,246148,1,8,0:0:0:0:
256,192,246231,1,0,0:0:0:0:
256,192,246314,1,0,0:0:0:0:
256,192,246398,1,8,0:0:0:0:
256,192,246481,1,0,0:0:0:0:
256,192,246564,1,8,0:0:0:0:
256,192,246606,1,8,0:0:0:0:
256,192,246648,1,0,0:0:0:0:
256,192,246731,1,8,0:0:0:0:
256,192,246898,1,0,0:0:0:0:
256,192,247064,1,8,0:0:0:0:
256,192,247148,1,8,0:0:0:0:
256,192,247231,1,0,0:0:0:0:
256,192,247287,1,0,0:0:0:0:
256,192,247342,1,0,0:0:0:0:
256,192,247398,1,8,0:0:0:0:
256,192,247481,1,0,0:0:0:0:
256,192,247564,1,8,0:0:0:0:
256,192,247648,1,8,0:0:0:0:
256,192,247731,1,0,0:0:0:0:
256,192,247898,1,0,0:0:0:0:
256,192,248064,1,12,0:0:0:0:
256,192,248231,1,0,0:0:0:0:
256,192,248398,1,12,0:0:0:0:
256,192,248564,1,0,0:0:0:0:
256,192,248731,1,12,0:0:0:0:
256,192,248898,1,0,0:0:0:0:
256,192,249064,1,8,0:0:0:0:
256,192,249148,1,0,0:0:0:0:
256,192,249231,1,8,0:0:0:0:
256,192,249314,1,8,0:0:0:0:
256,192,249398,1,0,0:0:0:0:
256,192,249564,1,8,0:0:0:0:
256,192,249606,1,8,0:0:0:0:
256,192,249648,1,8,0:0:0:0:
256,192,249731,1,0,0:0:0:0:
256,192,249898,1,0,0:0:0:0:
256,192,249981,1,8,0:0:0:0:
256,192,250064,1,0,0:0:0:0:
256,192,250148,1,0,0:0:0:0:
256,192,250231,1,8,0:0:0:0:
256,192,250287,1,8,0:0:0:0:
256,192,250342,1,8,0:0:0:0:
256,192,250398,1,0,0:0:0:0:
256,192,250481,1,8,0:0:0:0:
256,192,250564,1,0,0:0:0:0:
256,192,250648,1,0,0:0:0:0:
256,192,250731,1,8,0:0:0:0:
256,192,250898,1,0,0:0:0:0:
256,192,251064,1,8,0:0:0:0:
256,192,251231,1,0,0:0:0:0:
256,192,251314,1,8,0:0:0:0:
256,192,251398,1,0,0:0:0:0:
256,192,251481,1,0,0:0:0:0:
256,192,251564,1,8,0:0:0:0:
256,192,251620,1,0,0:0:0:0:
256,192,251676,1,0,0:0:0:0:
256,192,251731,1,8,0:0:0:0:
256,192,251814,1,8,0:0:0:0:
256,192,251898,1,0,0:0:0:0:
256,192,251981,1,0,0:0:0:0:
256,192,252064,1,8,0:0:0:0:
256,192,252148,1,0,0:0:0:0:
256,192,252231,1,8,0:0:0:0:
256,192,252314,1,0,0:0:0:0:
256,192,252398,1,8,0:0:0:0:
256,192,252481,1,0,0:0:0:0:
256,192,252564,1,8,0:0:0:0:
256,192,252648,1,8,0:0:0:0:
256,192,252731,1,0,0:0:0:0:
256,192,252898,1,8,0:0:0:0:
256,192,252939,1,8,0:0:0:0:
256,192,252981,1,0,0:0:0:0:
256,192,253064,1,8,0:0:0:0:
256,192,253120,1,8,0:0:0:0:
256,192,253176,1,8,0:0:0:0:
256,192,253231,1,0,0:0:0:0:
256,192,253314,1,0,0:0:0:0:
256,192,253398,1,8,0:0:0:0:
256,192,253481,1,0,0:0:0:0:
256,192,253564,1,8,0:0:0:0:
256,192,253648,1,8,0:0:0:0:
256,192,253731,1,0,0:0:0:0:
256,192,253814,1,8,0:0:0:0:
256,192,253898,1,0,0:0:0:0:
256,192,253981,1,0,0:0:0:0:
256,192,254064,1,8,0:0:0:0:
256,192,254148,1,8,0:0:0:0:
256,192,254231,1,8,0:0:0:0:
256,192,254314,1,8,0:0:0:0:
256,192,254398,1,0,0:0:0:0:
256,192,254481,1,0,0:0:0:0:
256,192,254564,1,8,0:0:0:0:
256,192,254648,1,8,0:0:0:0:
256,192,254731,1,8,0:0:0:0:
256,192,254814,1,8,0:0:0:0:
256,192,254898,1,0,0:0:0:0:
256,192,254981,1,0,0:0:0:0:
256,192,255064,1,8,0:0:0:0:
256,192,255148,1,8,0:0:0:0:
256,192,255231,1,8,0:0:0:0:
256,192,255314,1,8,0:0:0:0:
256,192,255398,1,0,0:0:0:0:
256,192,255481,1,0,0:0:0:0:
256,192,255564,1,8,0:0:0:0:
256,192,255648,1,8,0:0:0:0:
256,192,255731,1,0,0:0:0:0:
256,192,255814,1,0,0:0:0:0:
256,192,255898,1,8,0:0:0:0:
256,192,255981,1,8,0:0:0:0:
256,192,256064,1,4,0:0:0:0:
256,192,277398,5,0,0:0:0:0:
256,192,277564,1,0,0:0:0:0:
256,192,277731,1,8,0:0:0:0:
256,192,278064,1,0,0:0:0:0:
256,192,278398,1,8,0:0:0:0:
256,192,278564,1,0,0:0:0:0:
256,192,278731,1,8,0:0:0:0:
256,192,278898,1,8,0:0:0:0:
256,192,279064,1,0,0:0:0:0:
256,192,279398,1,8,0:0:0:0:
256,192,279731,1,0,0:0:0:0:
256,192,280064,1,8,0:0:0:0:
256,192,280231,1,8,0:0:0:0:
256,192,280398,1,0,0:0:0:0:
256,192,280564,1,0,0:0:0:0:
256,192,280731,1,8,0:0:0:0:
256,192,281064,1,0,0:0:0:0:
256,192,281231,1,8,0:0:0:0:
256,192,281398,1,0,0:0:0:0:
256,192,281564,1,0,0:0:0:0:
256,192,281731,1,8,0:0:0:0:
256,192,281898,1,0,0:0:0:0:
256,192,282064,1,8,0:0:0:0:
256,192,282231,1,8,0:0:0:0:
256,192,282398,1,0,0:0:0:0:
256,192,282731,1,8,0:0:0:0:
256,192,283064,1,0,0:0:0:0:
256,192,283231,1,0,0:0:0:0:
256,192,283398,1,8,0:0:0:0:
256,192,283564,1,0,0:0:0:0:
256,192,283731,1,8,0:0:0:0:
256,192,283898,1,8,0:0:0:0:
256,192,284064,1,0,0:0:0:0:
256,192,284398,1,8,0:0:0:0:
256,192,284731,1,0,0:0:0:0:
256,192,284898,1,8,0:0:0:0:
256,192,285064,1,8,0:0:0:0:
256,192,285231,1,0,0:0:0:0:
256,192,285398,1,8,0:0:0:0:
256,192,285731,1,0,0:0:0:0:
256,192,286064,1,8,0:0:0:0:
256,192,286231,1,0,0:0:0:0:
256,192,286398,1,8,0:0:0:0:
256,192,286564,1,8,0:0:0:0:
256,192,286731,1,0,0:0:0:0:
256,192,286898,1,8,0:0:0:0:
256,192,287064,1,8,0:0:0:0:
256,192,287231,1,0,0:0:0:0:
256,192,287398,1,8,0:0:0:0:
256,192,287564,1,8,0:0:0:0:
256,192,287731,1,0,0:0:0:0:
256,192,287898,1,8,0:0:0:0:
256,192,288064,1,0,0:0:0:0:
256,192,288398,1,0,0:0:0:0:
256,192,288564,1,0,0:0:0:0:
256,192,288731,1,8,0:0:0:0:
256,192,288898,1,0,0:0:0:0:
256,192,289064,1,8,0:0:0:0:
256,192,289231,1,8,0:0:0:0:
256,192,289398,1,0,0:0:0:0:
256,192,289731,1,8,0:0:0:0:
256,192,289898,1,0,0:0:0:0:
256,192,290064,1,8,0:0:0:0:
256,192,290231,1,8,0:0:0:0:
256,192,290398,1,0,0:0:0:0:
256,192,290564,1,8,0:0:0:0:
256,192,290731,1,0,0:0:0:0:
256,192,291064,1,0,0:0:0:0:
256,192,291231,1,0,0:0:0:0:
256,192,291398,1,8,0:0:0:0:
256,192,291564,1,0,0:0:0:0:
256,192,291731,1,8,0:0:0:0:
256,192,291898,1,8,0:0:0:0:
256,192,292064,1,0,0:0:0:0:
256,192,292231,1,8,0:0:0:0:
256,192,292398,1,0,0:0:0:0:
256,192,292564,1,0,0:0:0:0:
256,192,292731,1,8,0:0:0:0:
256,192,292898,1,0,0:0:0:0:
256,192,293064,1,8,0:0:0:0:
256,192,293231,1,8,0:0:0:0:
256,192,293398,1,0,0:0:0:0:
256,192,293731,1,8,0:0:0:0:
256,192,293898,1,0,0:0:0:0:
256,192,294064,1,8,0:0:0:0:
256,192,294231,1,8,0:0:0:0:
256,192,294398,1,0,0:0:0:0:
256,192,294564,1,8,0:0:0:0:
256,192,294731,1,0,0:0:0:0:
256,192,295064,1,0,0:0:0:0:
256,192,295231,1,0,0:0:0:0:
256,192,295398,1,8,0:0:0:0:
256,192,295564,1,8,0:0:0:0:
256,192,295731,1,0,0:0:0:0:
256,192,295898,1,8,0:0:0:0:
256,192,296064,1,0,0:0:0:0:
256,192,296398,1,8,0:0:0:0:
256,192,296564,1,0,0:0:0:0:
256,192,296731,1,8,0:0:0:0:
256,192,296898,1,8,0:0:0:0:
256,192,297064,1,0,0:0:0:0:
256,192,297231,1,0,0:0:0:0:
256,192,297398,1,8,0:0:0:0:
256,192,297481,1,0,0:0:0:0:
256,192,297564,1,8,0:0:0:0:
256,192,297648,1,8,0:0:0:0:
256,192,297731,1,0,0:0:0:0:
256,192,297898,1,8,0:0:0:0:
256,192,297981,1,8,0:0:0:0:
256,192,298064,1,0,0:0:0:0:
256,192,298148,1,0,0:0:0:0:
256,192,298231,1,8,0:0:0:0:
256,192,298314,1,0,0:0:0:0:
256,192,298398,1,8,0:0:0:0:
256,192,298481,1,8,0:0:0:0:
256,192,298564,1,8,0:0:0:0:
256,192,298648,1,8,0:0:0:0:
256,192,298731,1,4,0:0:0:0:
256,192,298898,1,8,0:0:0:0:
256,192,298981,1,0,0:0:0:0:
256,192,299064,1,8,0:0:0:0:
256,192,299148,1,8,0:0:0:0:
256,192,299231,1,0,0:0:0:0:
256,192,299314,1,0,0:0:0:0:
256,192,299398,1,8,0:0:0:0:
256,192,299564,1,8,0:0:0:0:
256,192,299648,1,8,0:0:0:0:
256,192,299731,1,0,0:0:0:0:
256,192,299814,1,0,0:0:0:0:
256,192,299898,1,8,0:0:0:0:
256,192,299981,1,8,0:0:0:0:
256,192,300064,1,0,0:0:0:0:
256,192,300231,1,0,0:0:0:0:
256,192,300314,1,0,0:0:0:0:
256,192,300398,1,8,0:0:0:0:
256,192,300481,1,0,0:0:0:0:
256,192,300564,1,8,0:0:0:0:
256,192,300648,1,8,0:0:0:0:
256,192,300731,1,0,0:0:0:0:
256,192,300814,1,8,0:0:0:0:
256,192,300898,1,0,0:0:0:0:
256,192,300981,1,0,0:0:0:0:
256,192,301064,1,8,0:0:0:0:
256,192,301148,1,0,0:0:0:0:
256,192,301231,1,8,0:0:0:0:
256,192,301398,1,0,0:0:0:0:
256,192,301564,1,0,0:0:0:0:
256,192,301648,1,0,0:0:0:0:
256,192,301731,1,8,0:0:0:0:
256,192,301898,1,0,0:0:0:0:
256,192,302064,1,8,0:0:0:0:
256,192,302148,1,8,0:0:0:0:
256,192,302231,1,0,0:0:0:0:
256,192,302314,1,0,0:0:0:0:
256,192,302398,1,8,0:0:0:0:
256,192,302481,1,0,0:0:0:0:
256,192,302564,1,8,0:0:0:0:
256,192,302648,1,8,0:0:0:0:
256,192,302731,1,0,0:0:0:0:
256,192,302898,1,8,0:0:0:0:
256,192,302981,1,8,0:0:0:0:
256,192,303064,1,0,0:0:0:0:
256,192,303148,1,0,0:0:0:0:
256,192,303231,1,8,0:0:0:0:
256,192,303314,1,0,0:0:0:0:
256,192,303398,1,0,0:0:0:0:
256,192,303564,1,8,0:0:0:0:
256,192,303648,1,8,0:0:0:0:
256,192,303731,1,0,0:0:0:0:
256,192,303814,1,0,0:0:0:0:
256,192,303898,1,8,0:0:0:0:
256,192,303981,1,0,0:0:0:0:
256,192,304064,1,8,0:0:0:0:
256,192,304148,1,0,0:0:0:0:
256,192,304231,1,0,0:0:0:0:
256,192,304398,1,8,0:0:0:0:
256,192,304481,1,0,0:0:0:0:
256,192,304564,1,8,0:0:0:0:
256,192,304648,1,0,0:0:0:0:
256,192,304731,1,8,0:0:0:0:
256,192,304814,1,8,0:0:0:0:
256,192,304898,1,0,0:0:0:0:
256,192,304981,1,0,0:0:0:0:
256,192,305064,1,8,0:0:0:0:
256,192,305231,1,0,0:0:0:0:
256,192,305398,1,8,0:0:0:0:
256,192,305481,1,8,0:0:0:0:
256,192,305564,1,0,0:0:0:0:
256,192,305731,1,8,0:0:0:0:
256,192,305814,1,0,0:0:0:0:
256,192,305898,1,8,0:0:0:0:
256,192,305981,1,8,0:0:0:0:
256,192,306064,1,0,0:0:0:0:
256,192,306148,1,0,0:0:0:0:
256,192,306231,1,8,0:0:0:0:
256,192,306314,1,8,0:0:0:0:
256,192,306398,1,0,0:0:0:0:
256,192,306564,1,0,0:0:0:0:
256,192,306731,1,8,0:0:0:0:
256,192,306814,1,0,0:0:0:0:
256,192,306898,1,0,0:0:0:0:
256,192,307064,1,8,0:0:0:0:
256,192,307148,1,8,0:0:0:0:
256,192,307231,1,0,0:0:0:0:
256,192,307398,1,8,0:0:0:0:
256,192,307481,1,8,0:0:0:0:
256,192,307564,1,0,0:0:0:0:
256,192,307648,1,0,0:0:0:0:
256,192,307731,1,8,0:0:0:0:
256,192,307814,1,0,0:0:0:0:
256,192,307898,1,8,0:0:0:0:
256,192,307981,1,8,0:0:0:0:
256,192,308064,1,0,0:0:0:0:
256,192,308231,1,8,0:0:0:0:
256,192,308314,1,8,0:0:0:0:
256,192,308398,1,0,0:0:0:0:
256,192,308564,1,8,0:0:0:0:
256,192,308731,1,0,0:0:0:0:
256,192,308814,1,0,0:0:0:0:
256,192,308898,1,8,0:0:0:0:
256,192,308981,1,0,0:0:0:0:
256,192,309064,1,8,0:0:0:0:
256,192,309148,1,8,0:0:0:0:
256,192,309231,1,0,0:0:0:0:
256,192,309314,1,8,0:0:0:0:
256,192,309398,1,0,0:0:0:0:
256,192,309564,1,0,0:0:0:0:
256,192,309648,1,0,0:0:0:0:
256,192,309731,1,8,0:0:0:0:
256,192,309898,1,0,0:0:0:0:
256,192,310064,1,8,0:0:0:0:
256,192,310148,1,8,0:0:0:0:
256,192,310231,1,0,0:0:0:0:
256,192,310314,1,0,0:0:0:0:
256,192,310398,1,8,0:0:0:0:
256,192,310481,1,0,0:0:0:0:
256,192,310564,1,8,0:0:0:0:
256,192,310648,1,8,0:0:0:0:
256,192,310731,1,0,0:0:0:0:
256,192,310898,1,8,0:0:0:0:
256,192,310981,1,8,0:0:0:0:
256,192,311064,1,0,0:0:0:0:
256,192,311231,1,8,0:0:0:0:
256,192,311398,1,0,0:0:0:0:
256,192,311481,1,8,0:0:0:0:
256,192,311564,1,0,0:0:0:0:
256,192,311648,1,0,0:0:0:0:
256,192,311731,1,8,0:0:0:0:
256,192,311814,1,0,0:0:0:0:
256,192,311898,1,8,0:0:0:0:
256,192,311981,1,8,0:0:0:0:
256,192,312064,1,0,0:0:0:0:
256,192,312231,1,0,0:0:0:0:
256,192,312314,1,0,0:0:0:0:
256,192,312398,1,8,0:0:0:0:
256,192,312564,1,0,0:0:0:0:
256,192,312731,1,8,0:0:0:0:
256,192,312814,1,8,0:0:0:0:
256,192,312898,1,0,0:0:0:0:
256,192,312981,1,0,0:0:0:0:
256,192,313064,1,8,0:0:0:0:
256,192,313148,1,0,0:0:0:0:
256,192,313231,1,8,0:0:0:0:
256,192,313314,1,8,0:0:0:0:
256,192,313398,1,0,0:0:0:0:
256,192,313564,1,8,0:0:0:0:
256,192,313648,1,8,0:0:0:0:
256,192,313731,1,0,0:0:0:0:
256,192,313814,1,0,0:0:0:0:
256,192,313898,1,8,0:0:0:0:
256,192,313981,1,8,0:0:0:0:
256,192,314064,1,0,0:0:0:0:
256,192,314148,1,0,0:0:0:0:
256,192,314231,1,8,0:0:0:0:
256,192,314314,1,8,0:0:0:0:
256,192,314398,1,8,0:0:0:0:
256,192,314481,1,0,0:0:0:0:
256,192,314564,1,8,0:0:0:0:
256,192,314648,1,8,0:0:0:0:
256,192,314731,1,0,0:0:0:0:
256,192,314898,1,0,0:0:0:0:
256,192,314981,1,0,0:0:0:0:
256,192,315064,1,8,0:0:0:0:
256,192,315231,1,0,0:0:0:0:
256,192,315398,1,8,0:0:0:0:
256,192,315481,1,8,0:0:0:0:
256,192,315564,1,0,0:0:0:0:
256,192,315648,1,0,0:0:0:0:
256,192,315731,1,8,0:0:0:0:
256,192,315898,1,0,0:0:0:0:
256,192,316064,1,8,0:0:0:0:
256,192,316148,1,8,0:0:0:0:
256,192,316231,1,0,0:0:0:0:
256,192,316314,1,0,0:0:0:0:
256,192,316398,1,8,0:0:0:0:
256,192,316481,1,0,0:0:0:0:
256,192,316564,1,8,0:0:0:0:
256,192,316648,1,8,0:0:0:0:
256,192,316731,1,0,0:0:0:0:
256,192,316898,1,8,0:0:0:0:
256,192,316981,1,8,0:0:0:0:
256,192,317064,1,0,0:0:0:0:
256,192,317231,1,8,0:0:0:0:
256,192,317398,1,0,0:0:0:0:
256,192,317481,1,0,0:0:0:0:
256,192,317564,1,8,0:0:0:0:
256,192,317648,1,0,0:0:0:0:
256,192,317731,1,8,0:0:0:0:
256,192,317814,1,8,0:0:0:0:
256,192,317898,1,0,0:0:0:0:
256,192,317981,1,8,0:0:0:0:
256,192,318064,1,0,0:0:0:0:
256,192,318231,1,8,0:0:0:0:
256,192,318314,1,8,0:0:0:0:
256,192,318398,1,8,0:0:0:0:
256,192,318564,1,0,0:0:0:0:
256,192,318731,1,8,0:0:0:0:
256,192,318814,1,8,0:0:0:0:
256,192,318898,1,0,0:0:0:0:
256,192,318981,1,8,0:0:0:0:
256,192,319064,1,0,0:0:0:0:
256,192,319148,1,0,0:0:0:0:
256,192,319231,1,8,0:0:0:0:
256,192,319314,1,0,0:0:0:0:
256,192,319398,1,8,0:0:0:0:
256,192,319481,1,8,0:0:0:0:
256,192,319564,1,0,0:0:0:0:
256,192,319648,1,0,0:0:0:0:
256,192,319731,1,8,0:0:0:0:
256,192,319814,1,8,0:0:0:0:
256,192,319898,1,8,0:0:0:0:
256,192,319981,1,8,0:0:0:0:
256,192,320064,1,4,0:0:0:0:
256,192,320231,1,8,0:0:0:0:
256,192,320314,1,0,0:0:0:0:
256,192,320398,1,8,0:0:0:0:
256,192,320481,1,8,0:0:0:0:
256,192,320564,1,0,0:0:0:0:
256,192,320648,1,8,0:0:0:0:
256,192,320731,1,0,0:0:0:0:
256,192,320898,1,0,0:0:0:0:
256,192,320981,1,0,0:0:0:0:
256,192,321064,1,8,0:0:0:0:
256,192,321148,1,8,0:0:0:0:
256,192,321231,1,0,0:0:0:0:
256,192,321314,1,8,0:0:0:0:
256,192,321398,1,0,0:0:0:0:
256,192,321564,1,8,0:0:0:0:
256,192,321648,1,0,0:0:0:0:
256,192,321731,1,8,0:0:0:0:
256,192,321814,1,0,0:0:0:0:
256,192,321898,1,8,0:0:0:0:
256,192,321981,1,8,0:0:0:0:
256,192,322064,1,0,0:0:0:0:
256,192,322231,1,0,0:0:0:0:
256,192,322314,1,0,0:0:0:0:
256,192,322398,1,8,0:0:0:0:
256,192,322481,1,8,0:0:0:0:
256,192,322564,1,0,0:0:0:0:
256,192,322731,1,8,0:0:0:0:
256,192,322814,1,8,0:0:0:0:
256,192,322898,1,8,0:0:0:0:
256,192,322981,1,0,0:0:0:0:
256,192,323064,1,8,0:0:0:0:
256,192,323148,1,8,0:0:0:0:
256,192,323231,1,0,0:0:0:0:
256,192,323398,1,8,0:0:0:0:
256,192,323481,1,0,0:0:0:0:
256,192,323564,1,8,0:0:0:0:
256,192,323648,1,8,0:0:0:0:
256,192,323731,1,0,0:0:0:0:
256,192,323898,1,8,0:0:0:0:
256,192,323981,1,8,0:0:0:0:
256,192,324064,1,0,0:0:0:0:
256,192,324148,1,0,0:0:0:0:
256,192,324231,1,8,0:0:0:0:
256,192,324314,1,8,0:0:0:0:
256,192,324398,1,8,0:0:0:0:
256,192,324481,1,0,0:0:0:0:
256,192,324564,1,8,0:0:0:0:
256,192,324648,1,0,0:0:0:0:
256,192,324731,1,8,0:0:0:0:
256,192,324814,1,8,0:0:0:0:
256,192,324898,1,0,0:0:0:0:
256,192,324981,1,0,0:0:0:0:
256,192,325064,1,8,0:0:0:0:
256,192,325148,1,0,0:0:0:0:
256,192,325231,1,0,0:0:0:0:
256,192,325314,1,0,0:0:0:0:
256,192,325398,1,8,0:0:0:0:
256,192,325481,1,8,0:0:0:0:
256,192,325564,1,0,0:0:0:0:
256,192,325731,1,8,0:0:0:0:
256,192,325814,1,0,0:0:0:0:
256,192,325898,1,8,0:0:0:0:
256,192,325981,1,0,0:0:0:0:
256,192,326064,1,8,0:0:0:0:
256,192,326148,1,8,0:0:0:0:
256,192,326231,1,0,0:0:0:0:
256,192,326314,1,0,0:0:0:0:
256,192,326398,1,8,0:0:0:0:
256,192,326481,1,0,0:0:0:0:
256,192,326564,1,0,0:0:0:0:
256,192,326731,1,8,0:0:0:0:
256,192,326814,1,0,0:0:0:0:
256,192,326898,1,0,0:0:0:0:
256,192,327064,1,8,0:0:0:0:
256,192,327148,1,0,0:0:0:0:
256,192,327231,1,8,0:0:0:0:
256,192,327314,1,8,0:0:0:0:
256,192,327398,1,0,0:0:0:0:
256,192,327481,1,0,0:0:0:0:
256,192,327564,1,8,0:0:0:0:
256,192,327648,1,8,0:0:0:0:
256,192,327731,1,0,0:0:0:0:
256,192,327898,1,0,0:0:0:0:
256,192,328064,1,8,0:0:0:0:
256,192,328148,1,8,0:0:0:0:
256,192,328231,1,0,0:0:0:0:
256,192,328314,1,0,0:0:0:0:
256,192,328398,1,8,0:0:0:0:
256,192,328481,1,8,0:0:0:0:
256,192,328564,1,8,0:0:0:0:
256,192,328648,1,0,0:0:0:0:
256,192,328731,1,8,0:0:0:0:
256,192,328814,1,8,0:0:0:0:
256,192,328898,1,0,0:0:0:0:
256,192,328981,1,8,0:0:0:0:
256,192,329064,1,0,0:0:0:0:
256,192,329148,1,0,0:0:0:0:
256,192,329231,1,8,0:0:0:0:
256,192,329314,1,0,0:0:0:0:
256,192,329398,1,8,0:0:0:0:
256,192,329481,1,8,0:0:0:0:
256,192,329564,1,0,0:0:0:0:
256,192,329648,1,0,0:0:0:0:
256,192,329731,1,8,0:0:0:0:
256,192,329898,1,0,0:0:0:0:
256,192,330064,1,8,0:0:0:0:
256,192,330148,1,0,0:0:0:0:
256,192,330231,1,8,0:0:0:0:
256,192,330314,1,8,0:0:0:0:
256,192,330398,1,0,0:0:0:0:
256,192,330481,1,0,0:0:0:0:
256,192,330564,1,8,0:0:0:0:
256,192,330648,1,8,0:0:0:0:
256,192,330731,1,4,0:0:0:0:
256,192,330898,1,0,0:0:0:0:
256,192,330981,1,0,0:0:0:0:
256,192,331064,1,8,0:0:0:0:
256,192,331148,1,0,0:0:0:0:
256,192,331231,1,8,0:0:0:0:
256,192,331314,1,8,0:0:0:0:
256,192,331398,1,0,0:0:0:0:
256,192,331564,1,8,0:0:0:0:
256,192,331648,1,0,0:0:0:0:
256,192,331731,1,8,0:0:0:0:
256,192,331814,1,0,0:0:0:0:
256,192,331898,1,8,0:0:0:0:
256,192,331981,1,8,0:0:0:0:
256,192,332064,1,0,0:0:0:0:
256,192,332231,1,0,0:0:0:0:
256,192,332314,1,0,0:0:0:0:
256,192,332398,1,8,0:0:0:0:
256,192,332481,1,0,0:0:0:0:
256,192,332564,1,8,0:0:0:0:
256,192,332648,1,8,0:0:0:0:
256,192,332731,1,0,0:0:0:0:
256,192,332898,1,8,0:0:0:0:
256,192,332981,1,0,0:0:0:0:
256,192,333064,1,8,0:0:0:0:
256,192,333148,1,8,0:0:0:0:
256,192,333231,1,0,0:0:0:0:
256,192,333314,1,0,0:0:0:0:
256,192,333398,1,8,0:0:0:0:
256,192,333564,1,0,0:0:0:0:
256,192,333648,1,0,0:0:0:0:
256,192,333731,1,8,0:0:0:0:
256,192,333898,1,0,0:0:0:0:
256,192,334064,1,8,0:0:0:0:
256,192,334148,1,0,0:0:0:0:
256,192,334231,1,8,0:0:0:0:
256,192,334314,1,8,0:0:0:0:
256,192,334398,1,0,0:0:0:0:
256,192,334564,1,8,0:0:0:0:
256,192,334648,1,8,0:0:0:0:
256,192,334731,1,0,0:0:0:0:
256,192,334814,1,0,0:0:0:0:
256,192,334898,1,8,0:0:0:0:
256,192,334981,1,8,0:0:0:0:
256,192,335064,1,8,0:0:0:0:
256,192,335148,1,0,0:0:0:0:
256,192,335231,1,8,0:0:0:0:
256,192,335314,1,0,0:0:0:0:
256,192,335398,1,8,0:0:0:0:
256,192,335481,1,8,0:0:0:0:
256,192,335564,1,0,0:0:0:0:
256,192,335648,1,0,0:0:0:0:
256,192,335731,1,8,0:0:0:0:
256,192,335814,1,0,0:0:0:0:
256,192,335898,1,0,0:0:0:0:
256,192,336064,1,8,0:0:0:0:
256,192,336148,1,8,0:0:0:0:
256,192,336231,1,0,0:0:0:0:
256,192,336314,1,0,0:0:0:0:
256,192,336398,1,8,0:0:0:0:
256,192,336481,1,0,0:0:0:0:
256,192,336564,1,8,0:0:0:0:
256,192,336648,1,8,0:0:0:0:
256,192,336731,1,8,0:0:0:0:
256,192,336814,1,0,0:0:0:0:
256,192,336898,1,8,0:0:0:0:
256,192,337064,1,8,0:0:0:0:
256,192,337148,1,8,0:0:0:0:
256,192,337231,1,0,0:0:0:0:
256,192,337398,1,8,0:0:0:0:
256,192,337481,1,8,0:0:0:0:
256,192,337564,1,0,0:0:0:0:
256,192,337648,1,0,0:0:0:0:
256,192,337731,1,8,0:0:0:0:
256,192,337814,1,0,0:0:0:0:
256,192,337898,1,8,0:0:0:0:
256,192,337981,1,8,0:0:0:0:
256,192,338064,1,0,0:0:0:0:
256,192,338148,1,0,0:0:0:0:
256,192,338231,1,8,0:0:0:0:
256,192,338314,1,8,0:0:0:0:
256,192,338398,1,0,0:0:0:0:
256,192,338564,1,0,0:0:0:0:
256,192,338731,1,8,0:0:0:0:
256,192,338814,1,0,0:0:0:0:
256,192,338898,1,0,0:0:0:0:
256,192,338981,1,0,0:0:0:0:
256,192,339064,1,8,0:0:0:0:
256,192,339148,1,8,0:0:0:0:
256,192,339231,1,0,0:0:0:0:
256,192,339314,1,0,0:0:0:0:
256,192,339398,1,8,0:0:0:0:
256,192,339481,1,8,0:0:0:0:
256,192,339564,1,8,0:0:0:0:
256,192,339648,1,0,0:0:0:0:
256,192,339731,1,8,0:0:0:0:
256,192,339814,1,8,0:0:0:0:
256,192,339898,1,0,0:0:0:0:
256,192,339981,1,0,0:0:0:0:
256,192,340064,1,8,0:0:0:0:
256,192,340148,1,0,0:0:0:0:
256,192,340231,1,8,0:0:0:0:
256,192,340314,1,8,0:0:0:0:
256,192,340398,1,0,0:0:0:0:
256,192,340481,1,0,0:0:0:0:
256,192,340564,1,8,0:0:0:0:
256,192,340648,1,8,0:0:0:0:
256,192,340731,1,0,0:0:0:0:
256,192,340814,1,0,0:0:0:0:
256,192,340898,1,8,0:0:0:0:
256,192,340981,1,0,0:0:0:0:
256,192,341064,1,8,0:0:0:0:
256,192,341148,1,8,0:0:0:0:
256,192,341231,1,0,0:0:0:0:
256,192,341314,1,0,0:0:0:0:
256,192,341398,1,12,0:0:0:0:
256,192,354064,5,0,0:0:0:0:
256,192,354398,1,0,0:0:0:0:
256,192,354731,1,0,0:0:0:0:
256,192,355398,1,8,0:0:0:0:
256,192,356064,1,8,0:0:0:0:
256,192,356731,1,0,0:0:0:0:
256,192,357398,12,0,359398,0:0:0:0:
256,192,359731,5,0,0:0:0:0:
256,192,360064,12,0,361731,0:0:0:0:
256,192,362064,5,0,0:0:0:0:
256,192,362231,1,0,0:0:0:0:
256,192,362314,1,0,0:0:0:0:
256,192,362398,1,8,0:0:0:0:
256,192,362564,1,0,0:0:0:0:
256,192,362731,1,12,0:0:0:0:
256,192,362898,1,0,0:0:0:0:
256,192,362981,1,0,0:0:0:0:
256,192,363064,1,8,0:0:0:0:
256,192,363231,1,0,0:0:0:0:
256,192,363398,1,8,0:0:0:0:
256,192,363481,1,8,0:0:0:0:
256,192,363564,1,0,0:0:0:0:
256,192,363648,1,0,0:0:0:0:
256,192,363731,1,8,0:0:0:0:
256,192,363898,1,0,0:0:0:0:
256,192,364064,1,8,0:0:0:0:
256,192,364148,1,0,0:0:0:0:
256,192,364231,1,8,0:0:0:0:
256,192,364314,1,8,0:0:0:0:
256,192,364398,1,0,0:0:0:0:
256,192,364564,1,8,0:0:0:0:
256,192,364648,1,8,0:0:0:0:
256,192,364731,1,0,0:0:0:0:
256,192,364814,1,0,0:0:0:0:
256,192,364898,1,8,0:0:0:0:
256,192,364981,1,8,0:0:0:0:
256,192,365064,1,8,0:0:0:0:
256,192,365148,1,0,0:0:0:0:
256,192,365231,1,8,0:0:0:0:
256,192,365314,1,0,0:0:0:0:
256,192,365398,1,8,0:0:0:0:
256,192,365481,1,8,0:0:0:0:
256,192,365564,1,0,0:0:0:0:
256,192,365648,1,0,0:0:0:0:
256,192,365731,1,8,0:0:0:0:
256,192,365898,1,0,0:0:0:0:
256,192,365981,1,0,0:0:0:0:
256,192,366064,1,8,0:0:0:0:
256,192,366148,1,0,0:0:0:0:
256,192,366231,1,8,0:0:0:0:
256,192,366314,1,8,0:0:0:0:
256,192,366398,1,0,0:0:0:0:
256,192,366564,1,8,0:0:0:0:
256,192,366648,1,8,0:0:0:0:
256,192,366731,1,0,0:0:0:0:
256,192,366814,1,0,0:0:0:0:
256,192,366898,1,8,0:0:0:0:
256,192,366981,1,8,0:0:0:0:
256,192,367064,1,8,0:0:0:0:
256,192,367148,1,0,0:0:0:0:
256,192,367231,1,8,0:0:0:0:
256,192,367314,1,0,0:0:0:0:
256,192,367398,1,8,0:0:0:0:
256,192,367481,1,8,0:0:0:0:
256,192,367564,1,0,0:0:0:0:
256,192,367648,1,0,0:0:0:0:
256,192,367731,1,8,0:0:0:0:
256,192,367814,1,0,0:0:0:0:
256,192,367898,1,0,0:0:0:0:
256,192,368064,1,8,0:0:0:0:
256,192,368148,1,8,0:0:0:0:
256,192,368231,1,8,0:0:0:0:
256,192,368314,1,0,0:0:0:0:
256,192,368398,1,8,0:0:0:0:
256,192,368481,1,8,0:0:0:0:
256,192,368564,1,0,0:0:0:0:
256,192,368731,1,8,0:0:0:0:
256,192,368814,1,8,0:0:0:0:
256,192,368898,1,0,0:0:0:0:
256,192,368981,1,0,0:0:0:0:
256,192,369064,1,8,0:0:0:0:
256,192,369148,1,0,0:0:0:0:
256,192,369231,1,0,0:0:0:0:
256,192,369398,1,8,0:0:0:0:
256,192,369481,1,0,0:0:0:0:
256,192,369564,1,8,0:0:0:0:
256,192,369648,1,8,0:0:0:0:
256,192,369731,1,0,0:0:0:0:
256,192,369898,1,8,0:0:0:0:
256,192,369981,1,8,0:0:0:0:
256,192,370064,1,0,0:0:0:0:
256,192,370148,1,0,0:0:0:0:
256,192,370231,1,8,0:0:0:0:
256,192,370314,1,8,0:0:0:0:
256,192,370398,1,8,0:0:0:0:
256,192,370481,1,0,0:0:0:0:
256,192,370564,1,8,0:0:0:0:
256,192,370648,1,0,0:0:0:0:
256,192,370731,1,8,0:0:0:0:
256,192,370814,1,8,0:0:0:0:
256,192,370898,1,0,0:0:0:0:
256,192,370981,1,0,0:0:0:0:
256,192,371064,1,8,0:0:0:0:
256,192,371148,1,0,0:0:0:0:
256,192,371231,1,0,0:0:0:0:
256,192,371398,1,8,0:0:0:0:
256,192,371481,1,0,0:0:0:0:
256,192,371564,1,8,0:0:0:0:
256,192,371648,1,8,0:0:0:0:
256,192,371731,1,0,0:0:0:0:
256,192,371814,1,0,0:0:0:0:
256,192,371898,1,8,0:0:0:0:
256,192,371981,1,8,0:0:0:0:
256,192,372064,1,0,0:0:0:0:
256,192,372231,1,8,0:0:0:0:
256,192,372314,1,8,0:0:0:0:
256,192,372398,1,8,0:0:0:0:
256,192,372481,1,0,0:0:0:0:
256,192,372564,1,8,0:0:0:0:
256,192,372648,1,8,0:0:0:0:
256,192,372731,1,0,0:0:0:0:
256,192,372814,1,0,0:0:0:0:
256,192,372898,1,8,0:0:0:0:
256,192,372981,1,0,0:0:0:0:
256,192,373064,1,8,0:0:0:0:
256,192,373148,1,8,0:0:0:0:
256,192,373231,1,0,0:0:0:0:
256,192,373398,1,12,0:0:0:0:
256,192,373564,1,0,0:0:0:0:
256,192,373648,1,0,0:0:0:0:
256,192,373731,1,8,0:0:0:0:
256,192,373898,1,0,0:0:0:0:
256,192,374064,1,8,0:0:0:0:
256,192,374148,1,8,0:0:0:0:
256,192,374231,1,0,0:0:0:0:
256,192,374314,1,0,0:0:0:0:
256,192,374398,1,8,0:0:0:0:
256,192,374564,1,0,0:0:0:0:
256,192,374731,1,8,0:0:0:0:
256,192,374814,1,0,0:0:0:0:
256,192,374898,1,8,0:0:0:0:
256,192,374981,1,8,0:0:0:0:
256,192,375064,1,0,0:0:0:0:
256,192,375148,1,0,0:0:0:0:
256,192,375231,1,8,0:0:0:0:
256,192,375314,1,8,0:0:0:0:
256,192,375398,1,0,0:0:0:0:
256,192,375481,1,0,0:0:0:0:
256,192,375564,1,8,0:0:0:0:
256,192,375648,1,8,0:0:0:0:
256,192,375731,1,8,0:0:0:0:
256,192,375814,1,0,0:0:0:0:
256,192,375898,1,8,0:0:0:0:
256,192,375981,1,0,0:0:0:0:
256,192,376064,1,8,0:0:0:0:
256,192,376148,1,8,0:0:0:0:
256,192,376231,1,0,0:0:0:0:
256,192,376314,1,0,0:0:0:0:
256,192,376398,1,8,0:0:0:0:
256,192,376481,1,0,0:0:0:0:
256,192,376564,1,0,0:0:0:0:
256,192,376731,1,8,0:0:0:0:
256,192,376814,1,0,0:0:0:0:
256,192,376898,1,8,0:0:0:0:
256,192,376981,1,8,0:0:0:0:
256,192,377064,1,0,0:0:0:0:
256,192,377148,1,0,0:0:0:0:
256,192,377231,1,8,0:0:0:0:
256,192,377314,1,8,0:0:0:0:
256,192,377398,1,0,0:0:0:0:
256,192,377564,1,8,0:0:0:0:
256,192,377648,1,8,0:0:0:0:
256,192,377731,1,8,0:0:0:0:
256,192,377814,1,0,0:0:0:0:
256,192,377898,1,8,0:0:0:0:
256,192,377981,1,0,0:0:0:0:
256,192,378064,1,8,0:0:0:0:
256,192,378148,1,8,0:0:0:0:
256,192,378231,1,0,0:0:0:0:
256,192,378314,1,0,0:0:0:0:
256,192,378398,1,8,0:0:0:0:
256,192,378481,1,0,0:0:0:0:
256,192,378564,1,0,0:0:0:0:
256,192,378731,1,8,0:0:0:0:
256,192,378814,1,8,0:0:0:0:
256,192,378898,1,8,0:0:0:0:
256,192,378981,1,0,0:0:0:0:
256,192,379064,1,8,0:0:0:0:
256,192,379148,1,8,0:0:0:0:
256,192,379231,1,0,0:0:0:0:
256,192,379314,1,0,0:0:0:0:
256,192,379398,1,8,0:0:0:0:
256,192,379481,1,8,0:0:0:0:
256,192,379564,1,0,0:0:0:0:
256,192,379648,1,0,0:0:0:0:
256,192,379731,1,8,0:0:0:0:
256,192,379814,1,0,0:0:0:0:
256,192,379898,1,0,0:0:0:0:
256,192,380064,1,8,0:0:0:0:
256,192,380148,1,0,0:0:0:0:
256,192,380231,1,8,0:0:0:0:
256,192,380314,1,8,0:0:0:0:
256,192,380398,1,0,0:0:0:0:
256,192,380481,1,0,0:0:0:0:
256,192,380564,1,8,0:0:0:0:
256,192,380648,1,8,0:0:0:0:
256,192,380731,1,0,0:0:0:0:
256,192,380814,1,0,0:0:0:0:
256,192,380898,1,8,0:0:0:0:
256,192,380981,1,8,0:0:0:0:
256,192,381064,1,8,0:0:0:0:
256,192,381148,1,0,0:0:0:0:
256,192,381231,1,8,0:0:0:0:
256,192,381314,1,0,0:0:0:0:
256,192,381398,1,8,0:0:0:0:
256,192,381481,1,8,0:0:0:0:
256,192,381564,1,0,0:0:0:0:
256,192,381648,1,0,0:0:0:0:
256,192,381731,1,8,0:0:0:0:
256,192,381898,1,0,0:0:0:0:
256,192,382064,1,8,0:0:0:0:
256,192,382148,1,0,0:0:0:0:
256,192,382231,1,8,0:0:0:0:
256,192,382314,1,8,0:0:0:0:
256,192,382398,1,0,0:0:0:0:
256,192,382481,1,0,0:0:0:0:
256,192,382564,1,8,0:0:0:0:
256,192,382648,1,8,0:0:0:0:
256,192,382731,1,0,0:0:0:0:
256,192,382898,1,8,0:0:0:0:
256,192,382981,1,8,0:0:0:0:
256,192,383064,1,8,0:0:0:0:
256,192,383148,1,0,0:0:0:0:
256,192,383231,1,8,0:0:0:0:
256,192,383314,1,8,0:0:0:0:
256,192,383398,1,0,0:0:0:0:
256,192,383481,1,0,0:0:0:0:
256,192,383564,1,8,0:0:0:0:
256,192,383648,1,0,0:0:0:0:
256,192,383731,1,8,0:0:0:0:
256,192,383814,1,8,0:0:0:0:
256,192,383898,1,0,0:0:0:0:
256,192,383981,1,0,0:0:0:0:
256,192,384064,1,8,0:0:0:0:
256,192,384231,1,0,0:0:0:0:
256,192,384314,1,0,0:0:0:0:
256,192,384398,1,8,0:0:0:0:
256,192,384481,1,0,0:0:0:0:
256,192,384564,1,8,0:0:0:0:
256,192,384648,1,8,0:0:0:0:
256,192,384731,1,8,0:0:0:0:
256,192,384814,1,0,0:0:0:0:
256,192,384898,1,8,0:0:0:0:
256,192,384981,1,0,0:0:0:0:
256,192,385064,1,8,0:0:0:0:
256,192,385148,1,8,0:0:0:0:
256,192,385231,1,0,0:0:0:0:
256,192,385398,1,8,0:0:0:0:
256,192,385481,1,8,0:0:0:0:
256,192,385564,1,0,0:0:0:0:
256,192,385648,1,0,0:0:0:0:
256,192,385731,1,8,0:0:0:0:
256,192,385814,1,0,0:0:0:0:
256,192,385898,1,8,0:0:0:0:
256,192,385981,1,8,0:0:0:0:
256,192,386064,1,8,0:0:0:0:
256,192,386148,1,0,0:0:0:0:
256,192,386231,1,8,0:0:0:0:
256,192,386314,1,8,0:0:0:0:
256,192,386398,1,0,0:0:0:0:
256,192,386564,1,0,0:0:0:0:
256,192,386731,1,8,0:0:0:0:
256,192,386898,1,0,0:0:0:0:
256,192,386981,1,0,0:0:0:0:
256,192,387064,1,8,0:0:0:0:
256,192,387148,1,0,0:0:0:0:
256,192,387231,1,8,0:0:0:0:
256,192,387314,1,8,0:0:0:0:
256,192,387398,1,8,0:0:0:0:
256,192,387481,1,0,0:0:0:0:
256,192,387564,1,8,0:0:0:0:
256,192,387648,1,0,0:0:0:0:
256,192,387731,1,8,0:0:0:0:
256,192,387814,1,8,0:0:0:0:
256,192,387898,1,0,0:0:0:0:
256,192,388064,1,8,0:0:0:0:
256,192,388148,1,8,0:0:0:0:
256,192,388231,1,8,0:0:0:0:
256,192,388314,1,8,0:0:0:0:
256,192,388398,1,0,0:0:0:0:
256,192,388481,1,8,0:0:0:0:
256,192,388564,1,0,0:0:0:0:
256,192,388648,1,0,0:0:0:0:
256,192,388731,1,8,0:0:0:0:
256,192,388814,1,8,0:0:0:0:
256,192,388898,1,8,0:0:0:0:
256,192,388981,1,8,0:0:0:0:
256,192,389064,1,0,0:0:0:0:
256,192,389148,1,8,0:0:0:0:
256,192,389231,1,0,0:0:0:0:
256,192,389314,1,0,0:0:0:0:
256,192,389398,1,8,0:0:0:0:
256,192,389481,1,8,0:0:0:0:
256,192,389564,1,0,0:0:0:0:
256,192,389731,1,8,0:0:0:0:
256,192,389814,1,0,0:0:0:0:
256,192,389898,1,8,0:0:0:0:
256,192,389981,1,8,0:0:0:0:
256,192,390064,1,8,0:0:0:0:
256,192,390148,1,0,0:0:0:0:
256,192,390231,1,8,0:0:0:0:
256,192,390314,1,0,0:0:0:0:
256,192,390398,1,8,0:0:0:0:
256,192,390481,1,8,0:0:0:0:
256,192,390564,1,0,0:0:0:0:
256,192,390648,1,0,0:0:0:0:
256,192,390731,1,8,0:0:0:0:
256,192,390814,1,8,0:0:0:0:
256,192,390898,1,0,0:0:0:0:
256,192,391064,1,8,0:0:0:0:
256,192,391148,1,0,0:0:0:0:
256,192,391231,1,8,0:0:0:0:
256,192,391314,1,8,0:0:0:0:
256,192,391398,1,8,0:0:0:0:
256,192,391481,1,0,0:0:0:0:
256,192,391564,1,8,0:0:0:0:
256,192,391648,1,8,0:0:0:0:
256,192,391731,1,0,0:0:0:0:
256,192,391898,1,0,0:0:0:0:
256,192,392064,1,8,0:0:0:0:
256,192,392148,1,8,0:0:0:0:
256,192,392231,1,0,0:0:0:0:
256,192,392314,1,0,0:0:0:0:
256,192,392398,1,8,0:0:0:0:
256,192,392481,1,0,0:0:0:0:
256,192,392564,1,8,0:0:0:0:
256,192,392648,1,8,0:0:0:0:
256,192,392731,1,8,0:0:0:0:
256,192,392814,1,0,0:0:0:0:
256,192,392898,1,8,0:0:0:0:
256,192,392981,1,0,0:0:0:0:
256,192,393064,1,8,0:0:0:0:
256,192,393148,1,8,0:0:0:0:
256,192,393231,1,0,0:0:0:0:
256,192,393398,1,8,0:0:0:0:
256,192,393481,1,8,0:0:0:0:
256,192,393564,1,0,0:0:0:0:
256,192,393648,1,8,0:0:0:0:
256,192,393731,1,0,0:0:0:0:
256,192,393814,1,0,0:0:0:0:
256,192,393898,1,8,0:0:0:0:
256,192,393981,1,0,0:0:0:0:
256,192,394064,1,8,0:0:0:0:
256,192,394148,1,8,0:0:0:0:
256,192,394231,1,0,0:0:0:0:
256,192,394314,1,0,0:0:0:0:
256,192,394398,1,8,0:0:0:0:
256,192,394481,1,8,0:0:0:0:
256,192,394564,1,0,0:0:0:0:
256,192,394648,1,8,0:0:0:0:
256,192,394731,1,4,0:0:0:0:
256,192,394898,1,0,0:0:0:0:
256,192,394981,1,0,0:0:0:0:
256,192,395064,1,8,0:0:0:0:
256,192,395231,1,0,0:0:0:0:
256,192,395398,1,8,0:0:0:0:
256,192,395481,1,0,0:0:0:0:
256,192,395564,1,0,0:0:0:0:
256,192,395648,1,0,0:0:0:0:
256,192,395731,1,8,0:0:0:0:
256,192,395898,1,0,0:0:0:0:
256,192,396064,1,8,0:0:0:0:
256,192,396231,1,8,0:0:0:0:
256,192,396314,1,0,0:0:0:0:
256,192,396398,1,8,0:0:0:0:
256,192,396564,1,0,0:0:0:0:
256,192,396731,1,8,0:0:0:0:
256,192,396814,1,8,0:0:0:0:
256,192,396898,1,0,0:0:0:0:
256,192,396981,1,0,0:0:0:0:
256,192,397064,1,8,0:0:0:0:
256,192,397231,1,0,0:0:0:0:
256,192,397398,1,8,0:0:0:0:
256,192,397564,1,8,0:0:0:0:
256,192,397648,1,0,0:0:0:0:
256,192,397731,1,8,0:0:0:0:
256,192,397814,1,8,0:0:0:0:
256,192,397898,1,0,0:0:0:0:
256,192,397981,1,0,0:0:0:0:
256,192,398064,1,8,0:0:0:0:
256,192,398148,1,8,0:0:0:0:
256,192,398231,1,8,0:0:0:0:
256,192,398314,1,0,0:0:0:0:
256,192,398398,1,8,0:0:0:0:
256,192,398481,1,8,0:0:0:0:
256,192,398564,1,0,0:0:0:0:
256,192,398731,1,8,0:0:0:0:
256,192,398814,1,0,0:0:0:0:
256,192,398898,1,8,0:0:0:0:
256,192,398981,1,8,0:0:0:0:
256,192,399064,1,0,0:0:0:0:
256,192,399148,1,0,0:0:0:0:
256,192,399231,1,8,0:0:0:0:
256,192,399314,1,0,0:0:0:0:
256,192,399398,1,8,0:0:0:0:
256,192,399481,1,8,0:0:0:0:
256,192,399564,1,0,0:0:0:0:
256,192,399648,1,0,0:0:0:0:
256,192,399731,1,8,0:0:0:0:
256,192,399814,1,8,0:0:0:0:
256,192,399898,1,0,0:0:0:0:
256,192,399981,1,0,0:0:0:0:
256,192,400064,1,8,0:0:0:0:
256,192,400231,1,0,0:0:0:0:
256,192,400314,1,0,0:0:0:0:
256,192,400398,1,8,0:0:0:0:
256,192,400564,1,0,0:0:0:0:
256,192,400731,1,8,0:0:0:0:
256,192,400814,1,8,0:0:0:0:
256,192,400898,1,0,0:0:0:0:
256,192,400981,1,0,0:0:0:0:
256,192,401064,1,8,0:0:0:0:
256,192,401231,1,0,0:0:0:0:
256,192,401398,1,8,0:0:0:0:
256,192,401481,1,0,0:0:0:0:
256,192,401564,1,8,0:0:0:0:
256,192,401648,1,8,0:0:0:0:
256,192,401731,1,0,0:0:0:0:
256,192,401814,1,0,0:0:0:0:
256,192,401898,1,8,0:0:0:0:
256,192,401981,1,0,0:0:0:0:
256,192,402064,1,8,0:0:0:0:
256,192,402148,1,8,0:0:0:0:
256,192,402231,1,0,0:0:0:0:
256,192,402314,1,0,0:0:0:0:
256,192,402398,1,8,0:0:0:0:
256,192,402481,1,0,0:0:0:0:
256,192,402564,1,0,0:0:0:0:
256,192,402731,1,8,0:0:0:0:
256,192,402898,1,8,0:0:0:0:
256,192,402981,1,8,0:0:0:0:
256,192,403064,1,0,0:0:0:0:
256,192,403231,1,8,0:0:0:0:
256,192,403398,1,0,0:0:0:0:
256,192,403481,1,8,0:0:0:0:
256,192,403564,1,0,0:0:0:0:
256,192,403648,1,0,0:0:0:0:
256,192,403731,1,8,0:0:0:0:
256,192,403814,1,0,0:0:0:0:
256,192,403898,1,8,0:0:0:0:
256,192,403981,1,8,0:0:0:0:
256,192,404064,1,0,0:0:0:0:
256,192,404231,1,0,0:0:0:0:
256,192,404314,1,0,0:0:0:0:
256,192,404398,1,8,0:0:0:0:
256,192,404564,1,0,0:0:0:0:
256,192,404731,1,8,0:0:0:0:
256,192,404814,1,0,0:0:0:0:
256,192,404898,1,8,0:0:0:0:
256,192,404981,1,8,0:0:0:0:
256,192,405064,1,0,0:0:0:0:
256,192,405148,1,0,0:0:0:0:
256,192,405231,1,8,0:0:0:0:
256,192,405314,1,8,0:0:0:0:
256,192,405398,1,4,0:0:0:0:
256,192,406064,1,8,0:0:0:0:
256,192,406731,1,8,0:0:0:0:
256,192,407398,1,0,0:0:0:0:
256,192,408064,1,8,0:0:0:0:
256,192,408731,1,8,0:0:0:0:
256,192,409398,1,8,0:0:0:0:
256,192,409898,1,8,0:0:0:0:
256,192,409981,1,8,0:0:0:0:
256,192,410064,1,0,0:0:0:0:
256,192,410231,1,0,0:0:0:0:
256,192,410398,1,8,0:0:0:0:
256,192,410564,1,0,0:0:0:0:
256,192,410648,1,0,0:0:0:0:
256,192,410731,1,12,0:0:0:0:
256,192,410898,1,12,0:0:0:0:
256,192,411231,1,12,0:0:0:0:
256,192,411398,1,12,0:0:0:0:
256,192,411731,1,12,0:0:0:0:
256,192,411898,1,12,0:0:0:0:
256,192,412231,1,12,0:0:0:0:
256,192,412398,1,12,0:0:0:0:
256,192,412731,1,12,0:0:0:0:
256,192,413064,1,12,0:0:0:0:
256,192,413398,1,12,0:0:0:0:
256,192,413564,1,8,0:0:0:0:
256,192,413648,1,8,0:0:0:0:
256,192,413731,1,0,0:0:0:0:
256,192,413898,1,8,0:0:0:0:
256,192,414064,1,0,0:0:0:0:
256,192,414148,1,8,0:0:0:0:
256,192,414231,1,0,0:0:0:0:
256,192,414398,1,8,0:0:0:0:
256,192,414564,1,0,0:0:0:0:
256,192,414648,1,0,0:0:0:0:
256,192,414731,1,0,0:0:0:0:
256,192,414898,1,8,0:0:0:0:
256,192,415064,1,0,0:0:0:0:
256,192,415148,1,8,0:0:0:0:
256,192,415231,1,0,0:0:0:0:
256,192,415314,1,0,0:0:0:0:
256,192,415398,1,8,0:0:0:0:
256,192,415481,1,0,0:0:0:0:
256,192,415564,1,8,0:0:0:0:
256,192,415648,1,8,0:0:0:0:
256,192,415731,1,0,0:0:0:0:
256,192,415814,1,0,0:0:0:0:
256,192,415898,1,8,0:0:0:0:
256,192,415981,1,8,0:0:0:0:
256,192,416064,1,4,0:0:0:0:
256,192,416231,12,0,420064,0:0:0:0:
256,192,426731,5,0,0:0:0:0:
256,192,429398,1,0,0:0:0:0:
256,192,432064,1,0,0:0:0:0:
256,192,434731,1,8,0:0:0:0:
256,192,437398,1,8,0:0:0:0:
256,192,437564,1,0,0:0:0:0:
256,192,437898,1,0,0:0:0:0:
256,192,438064,1,8,0:0:0:0:
256,192,438231,1,0,0:0:0:0:
256,192,438564,1,0,0:0:0:0:
256,192,438731,1,8,0:0:0:0:
256,192,438898,1,8,0:0:0:0:
256,192,439231,1,8,0:0:0:0:
256,192,439398,1,0,0:0:0:0:
256,192,439564,1,0,0:0:0:0:
256,192,439731,1,8,0:0:0:0:
256,192,439898,1,0,0:0:0:0:
256,192,440064,1,8,0:0:0:0:
256,192,440231,1,0,0:0:0:0:
256,192,440564,1,0,0:0:0:0:
256,192,440731,1,8,0:0:0:0:
256,192,440898,1,0,0:0:0:0:
256,192,441231,1,8,0:0:0:0:
256,192,441398,1,8,0:0:0:0:
256,192,441564,1,8,0:0:0:0:
256,192,441898,1,0,0:0:0:0:
256,192,442064,1,8,0:0:0:0:
256,192,442231,1,0,0:0:0:0:
256,192,442398,1,8,0:0:0:0:
256,192,442564,1,0,0:0:0:0:
256,192,442731,1,8,0:0:0:0:
256,192,442898,1,0,0:0:0:0:
256,192,443231,1,0,0:0:0:0:
256,192,443398,1,8,0:0:0:0:
256,192,443564,1,0,0:0:0:0:
256,192,443898,1,8,0:0:0:0:
256,192,444064,1,8,0:0:0:0:
256,192,444231,1,0,0:0:0:0:
256,192,444564,1,0,0:0:0:0:
256,192,444731,1,8,0:0:0:0:
256,192,444898,1,0,0:0:0:0:
256,192,445064,1,8,0:0:0:0:
256,192,445231,1,8,0:0:0:0:
256,192,445398,1,8,0:0:0:0:
256,192,445564,1,0,0:0:0:0:
256,192,445898,1,0,0:0:0:0:
256,192,446064,1,8,0:0:0:0:
256,192,446231,1,0,0:0:0:0:
256,192,446564,1,8,0:0:0:0:
256,192,446731,1,8,0:0:0:0:
256,192,446898,1,0,0:0:0:0:
256,192,447231,1,0,0:0:0:0:
256,192,447398,1,8,0:0:0:0:
256,192,447564,1,0,0:0:0:0:
256,192,447648,1,0,0:0:0:0:
256,192,447731,1,8,0:0:0:0:
256,192,447898,1,0,0:0:0:0:
256,192,448064,1,8,0:0:0:0:
256,192,448231,1,0,0:0:0:0:
256,192,448564,1,0,0:0:0:0:
256,192,448731,1,8,0:0:0:0:
256,192,448898,1,0,0:0:0:0:
256,192,449231,1,8,0:0:0:0:
256,192,449398,1,8,0:0:0:0:
256,192,449564,1,0,0:0:0:0:
256,192,449898,1,0,0:0:0:0:
256,192,450064,1,8,0:0:0:0:
256,192,450231,1,0,0:0:0:0:
256,192,450398,1,8,0:0:0:0:
256,192,450564,1,0,0:0:0:0:
256,192,450731,1,8,0:0:0:0:
256,192,450898,1,0,0:0:0:0:
256,192,451231,1,0,0:0:0:0:
256,192,451398,1,8,0:0:0:0:
256,192,451564,1,0,0:0:0:0:
256,192,451898,1,8,0:0:0:0:
256,192,452064,1,8,0:0:0:0:
256,192,452231,1,0,0:0:0:0:
256,192,452564,1,8,0:0:0:0:
256,192,452731,1,8,0:0:0:0:
256,192,452898,1,0,0:0:0:0:
256,192,452981,1,0,0:0:0:0:
256,192,453064,1,8,0:0:0:0:
256,192,453231,1,0,0:0:0:0:
256,192,453398,1,8,0:0:0:0:
256,192,453564,1,0,0:0:0:0:
256,192,453898,1,0,0:0:0:0:
256,192,454064,1,8,0:0:0:0:
256,192,454231,1,0,0:0:0:0:
256,192,454564,1,8,0:0:0:0:
256,192,454731,1,8,0:0:0:0:
256,192,454898,1,0,0:0:0:0:
256,192,455231,1,0,0:0:0:0:
256,192,455398,1,8,0:0:0:0:
256,192,455564,1,8,0:0:0:0:
256,192,455648,1,8,0:0:0:0:
256,192,455731,1,0,0:0:0:0:
256,192,455898,1,0,0:0:0:0:
256,192,456064,1,8,0:0:0:0:
256,192,456231,1,0,0:0:0:0:
256,192,456564,1,0,0:0:0:0:
256,192,456731,1,8,0:0:0:0:
256,192,456898,1,0,0:0:0:0:
256,192,457231,1,8,0:0:0:0:
256,192,457398,1,8,0:0:0:0:
256,192,457564,1,0,0:0:0:0:
256,192,457648,1,0,0:0:0:0:
256,192,457731,1,8,0:0:0:0:
256,192,457898,1,0,0:0:0:0:
256,192,458064,1,8,0:0:0:0:
256,192,458176,1,0,0:0:0:0:
256,192,458287,1,0,0:0:0:0:
256,192,458398,1,8,0:0:0:0:
256,192,458564,1,8,0:0:0:0:
256,192,458731,1,4,0:0:0:0:
256,192,459064,1,8,0:0:0:0:
256,192,459176,1,0,0:0:0:0:
256,192,459287,1,0,0:0:0:0:
256,192,459398,1,8,0:0:0:0:
256,192,459731,1,0,0:0:0:0:
256,192,459842,1,0,0:0:0:0:
256,192,459953,1,0,0:0:0:0:
256,192,460064,1,8,0:0:0:0:
256,192,460398,1,8,0:0:0:0:
256,192,460731,1,0,0:0:0:0:
256,192,460842,1,0,0:0:0:0:
256,192,460953,1,0,0:0:0:0:
256,192,461064,1,8,0:0:0:0:
256,192,461398,1,8,0:0:0:0:
256,192,461731,1,8,0:0:0:0:
256,192,461842,1,0,0:0:0:0:
256,192,461953,1,0,0:0:0:0:
256,192,462064,1,8,0:0:0:0:
256,192,462398,1,0,0:0:0:0:
256,192,462509,1,0,0:0:0:0:
256,192,462620,1,0,0:0:0:0:
256,192,462731,1,8,0:0:0:0:
256,192,463064,1,8,0:0:0:0:
256,192,463398,1,0,0:0:0:0:
256,192,463509,1,8,0:0:0:0:
256,192,463620,1,0,0:0:0:0:
256,192,463731,1,8,0:0:0:0:
256,192,464064,1,12,0:0:0:0:
256,192,464398,1,8,0:0:0:0:
256,192,464509,1,0,0:0:0:0:
256,192,464620,1,0,0:0:0:0:
256,192,464731,1,8,0:0:0:0:
256,192,465064,1,0,0:0:0:0:
256,192,465176,1,0,0:0:0:0:
256,192,465287,1,0,0:0:0:0:
256,192,465398,1,8,0:0:0:0:
256,192,465731,1,8,0:0:0:0:
256,192,466064,1,0,0:0:0:0:
256,192,466176,1,0,0:0:0:0:
256,192,466287,1,0,0:0:0:0:
256,192,466398,1,8,0:0:0:0:
256,192,466731,1,8,0:0:0:0:
256,192,467064,1,8,0:0:0:0:
256,192,467176,1,0,0:0:0:0:
256,192,467287,1,0,0:0:0:0:
256,192,467398,1,8,0:0:0:0:
256,192,467731,1,0,0:0:0:0:
256,192,467842,1,0,0:0:0:0:
256,192,467953,1,0,0:0:0:0:
256,192,468064,1,8,0:0:0:0:
256,192,468398,1,8,0:0:0:0:
256,192,468731,1,0,0:0:0:0:
256,192,468842,1,8,0:0:0:0:
256,192,468953,1,0,0:0:0:0:
256,192,469064,1,8,0:0:0:0:
256,192,469176,1,8,0:0:0:0:
256,192,469287,1,0,0:0:0:0:
256,192,469398,1,12,0:0:0:0:
256,192,469731,1,8,0:0:0:0:
256,192,469842,1,0,0:0:0:0:
256,192,469953,1,0,0:0:0:0:
256,192,470064,1,8,0:0:0:0:
256,192,470398,1,0,0:0:0:0:
256,192,470509,1,0,0:0:0:0:
256,192,470620,1,0,0:0:0:0:
256,192,470731,1,8,0:0:0:0:
256,192,471064,1,8,0:0:0:0:
256,192,471398,1,0,0:0:0:0:
256,192,471509,1,0,0:0:0:0:
256,192,471620,1,0,0:0:0:0:
256,192,471731,1,8,0:0:0:0:
256,192,472064,1,8,0:0:0:0:
256,192,472398,1,8,0:0:0:0:
256,192,472509,1,0,0:0:0:0:
256,192,472620,1,0,0:0:0:0:
256,192,472731,1,8,0:0:0:0:
256,192,473064,1,0,0:0:0:0:
256,192,473176,1,0,0:0:0:0:
256,192,473287,1,0,0:0:0:0:
256,192,473398,1,8,0:0:0:0:
256,192,473731,1,8,0:0:0:0:
256,192,474064,1,0,0:0:0:0:
256,192,474176,1,8,0:0:0:0:
256,192,474287,1,0,0:0:0:0:
256,192,474398,1,8,0:0:0:0:
256,192,474731,1,12,0:0:0:0:
256,192,475064,1,8,0:0:0:0:
256,192,475176,1,0,0:0:0:0:
256,192,475287,1,0,0:0:0:0:
256,192,475398,1,8,0:0:0:0:
256,192,475731,1,0,0:0:0:0:
256,192,475842,1,0,0:0:0:0:
256,192,475953,1,0,0:0:0:0:
256,192,476064,1,8,0:0:0:0:
256,192,476398,1,8,0:0:0:0:
256,192,476731,1,0,0:0:0:0:
256,192,476842,1,0,0:0:0:0:
256,192,476953,1,0,0:0:0:0:
256,192,477064,1,8,0:0:0:0:
256,192,477398,1,8,0:0:0:0:
256,192,477731,1,8,0:0:0:0:
256,192,477842,1,0,0:0:0:0:
256,192,477953,1,0,0:0:0:0:
256,192,478064,1,8,0:0:0:0:
256,192,478398,1,0,0:0:0:0:
256,192,478509,1,0,0:0:0:0:
256,192,478620,1,0,0:0:0:0:
256,192,478731,1,8,0:0:0:0:
256,192,479064,1,8,0:0:0:0:
256,192,479398,1,0,0:0:0:0:
256,192,479509,1,8,0:0:0:0:
256,192,479620,1,0,0:0:0:0:
256,192,479731,1,8,0:0:0:0:
256,192,479842,1,8,0:0:0:0:
256,192,479953,1,0,0:0:0:0:
256,192,480064,1,12,0:0:0:0:
256,192,480287,1,0,0:0:0:0:
256,192,480398,1,8,0:0:0:0:
256,192,480509,1,0,0:0:0:0:
256,192,480620,1,0,0:0:0:0:
256,192,480731,1,8,0:0:0:0:
256,192,480953,1,8,0:0:0:0:
256,192,481064,1,8,0:0:0:0:
256,192,481176,1,0,0:0:0:0:
256,192,481287,1,0,0:0:0:0:
256,192,481398,1,12,0:0:0:0:
256,192,481620,1,0,0:0:0:0:
256,192,481731,1,8,0:0:0:0:
256,192,481953,1,8,0:0:0:0:
256,192,482064,1,0,0:0:0:0:
256,192,482176,1,0,0:0:0:0:
256,192,482287,1,0,0:0:0:0:
256,192,482398,1,8,0:0:0:0:
256,192,482620,1,0,0:0:0:0:
256,192,482731,1,8,0:0:0:0:
256,192,482953,1,0,0:0:0:0:
256,192,483064,1,8,0:0:0:0:
256,192,483176,1,0,0:0:0:0:
256,192,483287,1,0,0:0:0:0:
256,192,483398,1,8,0:0:0:0:
256,192,483620,1,8,0:0:0:0:
256,192,483731,1,8,0:0:0:0:
256,192,483842,1,0,0:0:0:0:
256,192,483953,1,0,0:0:0:0:
256,192,484064,1,8,0:0:0:0:
256,192,484287,1,0,0:0:0:0:
256,192,484398,1,8,0:0:0:0:
256,192,484620,1,0,0:0:0:0:
256,192,484731,1,8,0:0:0:0:
256,192,484842,1,0,0:0:0:0:
256,192,484953,1,0,0:0:0:0:
256,192,485064,1,8,0:0:0:0:
256,192,485287,1,0,0:0:0:0:
256,192,485398,1,12,0:0:0:0:
256,192,485620,1,0,0:0:0:0:
256,192,485731,1,8,0:0:0:0:
256,192,485842,1,0,0:0:0:0:
256,192,485953,1,0,0:0:0:0:
256,192,486064,1,8,0:0:0:0:
256,192,486287,1,8,0:0:0:0:
256,192,486398,1,8,0:0:0:0:
256,192,486509,1,0,0:0:0:0:
256,192,486620,1,0,0:0:0:0:
256,192,486731,1,12,0:0:0:0:
256,192,486953,1,0,0:0:0:0:
256,192,487064,1,8,0:0:0:0:
256,192,487287,1,8,0:0:0:0:
256,192,487398,1,0,0:0:0:0:
256,192,487509,1,0,0:0:0:0:
256,192,487620,1,0,0:0:0:0:
256,192,487731,1,8,0:0:0:0:
256,192,488064,1,8,0:0:0:0:
256,192,488287,1,0,0:0:0:0:
256,192,488398,1,8,0:0:0:0:
256,192,488509,1,0,0:0:0:0:
256,192,488620,1,0,0:0:0:0:
256,192,488731,1,8,0:0:0:0:
256,192,488953,1,8,0:0:0:0:
256,192,489064,1,8,0:0:0:0:
256,192,489176,1,0,0:0:0:0:
256,192,489287,1,0,0:0:0:0:
256,192,489398,1,8,0:0:0:0:
256,192,489620,1,0,0:0:0:0:
256,192,489731,1,8,0:0:0:0:
256,192,489953,1,8,0:0:0:0:
256,192,490064,1,0,0:0:0:0:
256,192,490176,1,0,0:0:0:0:
256,192,490287,1,0,0:0:0:0:
256,192,490398,1,8,0:0:0:0:
256,192,490731,1,12,0:0:0:0:
256,192,490953,1,0,0:0:0:0:
256,192,491064,1,8,0:0:0:0:
256,192,491176,1,0,0:0:0:0:
256,192,491287,1,0,0:0:0:0:
256,192,491398,1,8,0:0:0:0:
256,192,491620,1,8,0:0:0:0:
256,192,491731,1,8,0:0:0:0:
256,192,491842,1,0,0:0:0:0:
256,192,491953,1,0,0:0:0:0:
256,192,492064,1,8,0:0:0:0:
256,192,492287,1,0,0:0:0:0:
256,192,492398,1,8,0:0:0:0:
256,192,492620,1,8,0:0:0:0:
256,192,492731,1,8,0:0:0:0:
256,192,492842,1,0,0:0:0:0:
256,192,492953,1,0,0:0:0:0:
256,192,493064,1,8,0:0:0:0:
256,192,493398,1,0,0:0:0:0:
256,192,493620,1,0,0:0:0:0:
256,192,493731,1,8,0:0:0:0:
256,192,493842,1,0,0:0:0:0:
256,192,493953,1,0,0:0:0:0:
256,192,494064,1,8,0:0:0:0:
256,192,494287,1,8,0:0:0:0:
256,192,494398,1,8,0:0:0:0:
256,192,494509,1,0,0:0:0:0:
256,192,494620,1,0,0:0:0:0:
256,192,494731,1,8,0:0:0:0:
256,192,494953,1,0,0:0:0:0:
256,192,495064,1,8,0:0:0:0:
256,192,495287,1,8,0:0:0:0:
256,192,495398,1,0,0:0:0:0:
256,192,495509,1,0,0:0:0:0:
256,192,495620,1,0,0:0:0:0:
256,192,495731,1,8,0:0:0:0:
256,192,496064,1,12,0:0:0:0:
256,192,496287,1,8,0:0:0:0:
256,192,496398,1,8,0:0:0:0:
256,192,496509,1,0,0:0:0:0:
256,192,496620,1,0,0:0:0:0:
256,192,496731,1,8,0:0:0:0:
256,192,496953,1,0,0:0:0:0:
256,192,497064,1,8,0:0:0:0:
256,192,497176,1,0,0:0:0:0:
256,192,497287,1,0,0:0:0:0:
256,192,497398,1,8,0:0:0:0:
256,192,497731,1,8,0:0:0:0:
256,192,498064,1,0,0:0:0:0:
256,192,498176,1,0,0:0:0:0:
256,192,498287,1,0,0:0:0:0:
256,192,498398,1,8,0:0:0:0:
256,192,498731,1,8,0:0:0:0:
256,192,499064,1,0,0:0:0:0:
256,192,499176,1,0,0:0:0:0:
256,192,499287,1,0,0:0:0:0:
256,192,499398,1,8,0:0:0:0:
256,192,499731,1,8,0:0:0:0:
256,192,499842,1,0,0:0:0:0:
256,192,499953,1,0,0:0:0:0:
256,192,500064,1,8,0:0:0:0:
256,192,500398,1,8,0:0:0:0:
256,192,500731,1,0,0:0:0:0:
256,192,500842,1,0,0:0:0:0:
256,192,500953,1,0,0:0:0:0:
256,192,501064,1,8,0:0:0:0:
256,192,501176,1,0,0:0:0:0:
256,192,501287,1,0,0:0:0:0:
256,192,501398,1,12,0:0:0:0:
256,192,501731,1,8,0:0:0:0:
256,192,501842,1,0,0:0:0:0:
256,192,501953,1,0,0:0:0:0:
256,192,502064,1,8,0:0:0:0:
256,192,502398,1,0,0:0:0:0:
256,192,502509,1,0,0:0:0:0:
256,192,502620,1,0,0:0:0:0:
256,192,502731,1,8,0:0:0:0:
256,192,503064,1,8,0:0:0:0:
256,192,503398,1,0,0:0:0:0:
256,192,503509,1,0,0:0:0:0:
256,192,503620,1,0,0:0:0:0:
256,192,503731,1,8,0:0:0:0:
256,192,504064,1,8,0:0:0:0:
256,192,504398,1,0,0:0:0:0:
256,192,504620,1,0,0:0:0:0:
256,192,504731,1,8,0:0:0:0:
256,192,505064,1,8,0:0:0:0:
256,192,505287,1,0,0:0:0:0:
256,192,505398,1,8,0:0:0:0:
256,192,505731,1,8,0:0:0:0:
256,192,506064,1,0,0:0:0:0:
256,192,506287,1,0,0:0:0:0:
256,192,506398,1,8,0:0:0:0:
256,192,506731,1,8,0:0:0:0:
256,192,507064,1,0,0:0:0:0:
256,192,507398,1,8,0:0:0:0:
256,192,507731,1,0,0:0:0:0:
256,192,508064,1,8,0:0:0:0:
256,192,508564,1,8,0:0:0:0:
256,192,509064,1,8,0:0:0:0:
256,192,509398,1,0,0:0:0:0:
256,192,509731,1,0,0:0:0:0:
256,192,510064,1,8,0:0:0:0:
256,192,510398,1,0,0:0:0:0:
256,192,510731,1,8,0:0:0:0:
256,192,511231,1,0,0:0:0:0:
256,192,511731,1,8,0:0:0:0:
256,192,512064,1,4,0:0:0:0:
256,192,512231,12,0,522731,0:0:0:0:
