osu file format v14

[General]
AudioFilename: audio.mp3
AudioLeadIn: 0
PreviewTime: 64231
Countdown: 1
SampleSet: Normal
StackLeniency: 0.7
Mode: 1
LetterboxInBreaks: 0
WidescreenStoryboard: 0

[Editor]
DistanceSpacing: 1
BeatDivisor: 4
GridSize: 16
TimelineZoom: 2.900002

[Metadata]
Title:SAVE (Phantasmix)
TitleUnicode:SAVE (Phantasmix)
Artist:DM DOKURO
ArtistUnicode:DM DOKURO
Creator:Jaq
Version:But It Refused
Source:UNDERTALE
Tags:the untouched radio toby "radiation" fox hopes and dreams burn in despair! save the world his theme
BeatmapID:2050826
BeatmapSetID:979952

[Difficulty]
HPDrainRate:5
CircleSize:5
OverallDifficulty:6
ApproachRate:5
SliderMultiplier:1.4
SliderTickRate:1

[Events]
//Background and Video events
0,0,"mercy.jpg",0,0
//Break Periods
2,127931,137531
2,176264,180198
2,258931,276198
2,342931,361531
2,405598,409531
//Storyboard Layer 0 (Background)
//Storyboard Layer 1 (Fail)
//Storyboard Layer 2 (Pass)
//Storyboard Layer 3 (Foreground)
//Storyboard Layer 4 (Overlay)
//Storyboard Sound Samples

[TimingPoints]
65,333.333333333333,4,1,0,100,1,0
65,-133.333333333333,4,1,0,100,0,0
9287,-111.111111111111,4,1,0,100,0,0
11064,-133.333333333333,4,1,0,100,0,0
12398,-111.111111111111,4,1,0,100,0,0
13731,-133.333333333333,4,1,0,100,0,0
15112,-111.111111111111,4,1,0,100,0,0
16398,-133.333333333333,4,1,0,100,0,0
17842,-166.666666666667,4,1,0,100,0,0
19620,-100,4,1,0,100,0,0
20064,-76.9230769230769,4,1,0,100,0,0
20148,-80,4,1,0,100,0,0
20231,-83.3333333333333,4,1,0,100,0,0
20398,-71.4285714285714,4,1,0,100,0,0
20564,-76.9230769230769,4,1,0,100,0,0
20648,-78.125,4,1,0,100,0,0
20731,-79.3650793650794,4,1,0,100,0,0
20814,-80.6451612903226,4,1,0,100,0,0
20898,-81.9672131147541,4,1,0,100,0,0
20981,-83.3333333333333,4,1,0,100,0,0
21064,-84.7457627118644,4,1,0,100,0,0
21148,-86.2068965517241,4,1,0,100,0,0
21231,-90.9090909090909,4,1,0,100,0,1
30731,-86.9565217391304,4,1,0,100,0,1
33398,-90.9090909090909,4,1,0,100,0,1
39731,-86.9565217391304,4,1,0,100,0,1
40398,-90.9090909090909,4,1,0,100,0,1
42814,-100,4,1,0,100,0,1
42898,-142.857142857143,4,1,0,100,0,0
42981,-125,4,1,0,100,0,0
43148,-142.857142857143,4,1,0,100,0,0
43564,-117.647058823529,4,1,0,100,0,0
43648,-125,4,1,0,100,0,0
43731,-133.333333333333,4,1,0,100,0,0
43814,-142.857142857143,4,1,0,100,0,0
43981,-125,4,1,0,100,0,0
44148,-142.857142857143,4,1,0,100,0,0
44314,-125,4,1,0,100,0,0
44481,-142.857142857143,4,1,0,100,0,0
44898,-117.647058823529,4,1,0,100,0,0
44981,-125,4,1,0,100,0,0
45064,-133.333333333333,4,1,0,100,0,0
45148,-142.857142857143,4,1,0,100,0,0
45314,-125,4,1,0,100,0,0
45481,-142.857142857143,4,1,0,100,0,0
45814,-125,4,1,0,100,0,0
45981,-142.857142857143,4,1,0,100,0,0
46231,-117.647058823529,4,1,0,100,0,0
46314,-125,4,1,0,100,0,0
46398,-133.333333333333,4,1,0,100,0,0
46481,-125,4,1,0,100,0,0
46648,-142.857142857143,4,1,0,100,0,0
46814,-125,4,1,0,100,0,0
46960,-142.857142857143,4,1,0,100,0,0
46981,-125,4,1,0,100,0,0
47148,-142.857142857143,4,1,0,100,0,0
47564,-117.647058823529,4,1,0,100,0,0
47648,-125,4,1,0,100,0,0
47731,-133.333333333333,4,1,0,100,0,0
47814,-125,4,1,0,100,0,0
47981,-142.857142857143,4,1,0,100,0,0
48064,-133.333333333333,4,1,0,100,0,0
48148,-117.647058823529,4,1,0,100,0,0
48314,-133.333333333333,4,1,0,100,0,0
48481,-117.647058823529,4,1,0,100,0,0
48627,-133.333333333333,4,1,0,100,0,0
48648,-117.647058823529,4,1,0,100,0,0
48794,-133.333333333333,4,1,0,100,0,0
48898,-117.647058823529,4,1,0,100,0,0
48981,-117.647058823529,4,1,0,100,0,0
49064,-133.333333333333,4,1,0,100,0,0
49148,-117.647058823529,4,1,0,100,0,0
49314,-133.333333333333,4,1,0,100,0,0
49648,-117.647058823529,4,1,0,100,0,0
49814,-133.333333333333,4,1,0,100,0,0
49981,-117.647058823529,4,1,0,100,0,0
50148,-133.333333333333,4,1,0,100,0,0
50231,-117.647058823529,4,1,0,100,0,0
50314,-125,4,1,0,100,0,0
50398,-133.333333333333,4,1,0,100,0,0
50481,-133.333333333333,4,1,0,100,0,0
50648,-117.647058823529,4,1,0,100,0,0
50814,-133.333333333333,4,1,0,100,0,0
51148,-117.647058823529,4,1,0,100,0,0
51314,-117.647058823529,4,1,0,100,0,0
51414,-128.205128205128,4,1,0,100,0,0
51564,-117.647058823529,4,1,0,100,0,0
51648,-125,4,1,0,100,0,0
51731,-133.333333333333,4,1,0,100,0,0
51814,-113.636363636364,4,1,0,100,0,0
51981,-128.205128205128,4,1,0,100,0,0
52314,-113.636363636364,4,1,0,100,0,0
52439,-128.205128205128,4,1,0,100,0,0
52481,-113.636363636364,4,1,0,100,0,0
52648,-128.205128205128,4,1,0,100,0,0
52898,-117.647058823529,4,1,0,100,0,0
52981,-125,4,1,0,100,0,0
53064,-133.333333333333,4,1,0,100,0,0
53148,-113.636363636364,4,1,0,100,0,0
53273,-128.205128205128,4,1,0,100,0,0
53314,-113.636363636364,4,1,0,100,0,0
53481,-128.205128205128,4,1,0,100,0,0
53814,-113.636363636364,4,1,0,100,0,0
53981,-128.205128205128,4,1,0,100,0,0
54064,-113.636363636364,4,1,0,100,0,0
54231,-117.647058823529,4,1,0,100,0,0
54314,-125,4,1,0,100,0,0
54398,-133.333333333333,4,1,0,100,0,0
54564,-113.636363636364,4,1,0,100,0,0
54648,-128.205128205128,4,1,0,100,0,0
55064,-113.636363636364,4,1,0,100,0,0
55148,-128.205128205128,4,1,0,100,0,0
55231,-113.636363636364,4,1,0,100,0,0
55314,-128.205128205128,4,1,0,100,0,0
55564,-117.647058823529,4,1,0,100,0,0
55648,-125,4,1,0,100,0,0
55731,-133.333333333333,4,1,0,100,0,0
55814,-128.205128205128,4,1,0,100,0,0
56064,-113.636363636364,4,1,0,100,0,0
56314,-128.205128205128,4,1,0,100,0,0
56481,-113.636363636364,4,1,0,100,0,0
56648,-128.205128205128,4,1,0,100,0,0
56898,-117.647058823529,4,1,0,100,0,0
56981,-125,4,1,0,100,0,0
57064,-133.333333333333,4,1,0,100,0,0
57148,-128.205128205128,4,1,0,100,0,0
57314,-113.636363636364,4,1,0,100,0,0
57814,-128.205128205128,4,1,0,100,0,0
57981,-113.636363636364,4,1,0,100,0,0
58148,-128.205128205128,4,1,0,100,0,0
58231,-117.647058823529,4,1,0,100,0,0
58314,-125,4,1,0,100,0,0
58398,-133.333333333333,4,1,0,100,0,0
58481,-128.205128205128,4,1,0,100,0,0
58731,-113.636363636364,4,1,0,100,0,0
58814,-128.205128205128,4,1,0,100,0,0
58981,-113.636363636364,4,1,0,100,0,0
59314,-128.205128205128,4,1,0,100,0,0
59564,-117.647058823529,4,1,0,100,0,0
59648,-125,4,1,0,100,0,0
59731,-133.333333333333,4,1,0,100,0,0
59814,-128.205128205128,4,1,0,100,0,0
59981,-113.636363636364,4,1,0,100,0,0
60148,-128.205128205128,4,1,0,100,0,0
60648,-113.636363636364,4,1,0,100,0,0
60898,-117.647058823529,4,1,0,100,0,0
60981,-125,4,1,0,100,0,0
61064,-133.333333333333,4,1,0,100,0,0
61148,-128.205128205128,4,1,0,100,0,0
61314,-113.636363636364,4,1,0,100,0,0
61481,-128.205128205128,4,1,0,100,0,0
61814,-113.636363636364,4,1,0,100,0,0
62231,-117.647058823529,4,1,0,100,0,0
62314,-125,4,1,0,100,0,0
62398,-133.333333333333,4,1,0,100,0,0
62481,-128.205128205128,4,1,0,100,0,0
62731,-111.111111111111,4,1,0,100,0,0
63064,-105.263157894737,4,1,0,100,0,0
63398,-100,4,1,0,100,0,0
63481,-98.0392156862745,4,1,0,100,0,0
63564,-95.2380952380952,4,1,0,100,0,0
63648,-92.5925925925926,4,1,0,100,0,0
63731,-90.9090909090909,4,1,0,100,0,1
63814,-89.2857142857143,4,1,0,100,0,0
63898,-86.9565217391304,4,1,0,100,0,0
63981,-84.7457627118644,4,1,0,100,0,0
64064,-83.3333333333333,4,1,0,100,0,0
64148,-100,4,1,0,100,0,0
64231,-90.9090909090909,4,1,0,100,0,1
74731,-86.9565217391304,4,1,0,100,0,1
82564,-90.9090909090909,4,1,0,100,0,0
83148,-66.6666666666667,4,1,0,100,0,0
83481,-90.9090909090909,4,1,0,100,0,0
83648,-66.6666666666667,4,1,0,100,0,0
83981,-90.9090909090909,4,1,0,100,0,0
84231,-66.6666666666667,4,1,0,100,0,0
84287,-71.4285714285714,4,1,0,100,0,0
84342,-76.9230769230769,4,1,0,100,0,0
84398,-83.3333333333333,4,1,0,100,0,0
84564,-90.9090909090909,4,1,0,100,0,0
84731,-100,4,1,0,100,0,0
85398,-95.2380952380952,4,1,0,100,0,0
85842,-117.647058823529,4,1,0,100,0,0
86287,-95.2380952380952,4,1,0,100,0,0
86509,-117.647058823529,4,1,0,100,0,0
86620,-95.2380952380952,4,1,0,100,0,0
87064,-86.9565217391304,4,1,0,100,0,0
87148,-90.9090909090909,4,1,0,100,0,0
87231,-86.9565217391304,4,1,0,100,0,0
87314,-117.647058823529,4,1,0,100,0,0
87481,-95.2380952380952,4,1,0,100,0,0
87898,-86.9565217391304,4,1,0,100,0,0
87981,-90.9090909090909,4,1,0,100,0,0
88064,-86.9565217391304,4,1,0,100,0,0
88148,-95.2380952380952,4,1,0,100,0,0
88398,-86.9565217391304,4,1,0,100,0,0
88481,-90.9090909090909,4,1,0,100,0,0
88564,-86.9565217391304,4,1,0,100,0,0
88648,-117.647058823529,4,1,0,100,0,0
88814,-95.2380952380952,4,1,0,100,0,0
89148,-117.647058823529,4,1,0,100,0,0
89398,-200,4,1,0,100,0,0
89481,-142.857142857143,4,1,0,100,0,0
89564,-111.111111111111,4,1,0,100,0,0
89648,-90.9090909090908,4,1,0,100,0,0
89731,-76.9230769230769,4,1,0,100,0,0
89898,-66.6666666666667,4,1,0,100,0,0
90064,-76.9230769230769,4,1,0,100,0,0
90148,-90.9090909090909,4,1,0,100,0,0
90231,-117.647058823529,4,1,0,100,0,0
90314,-142.857142857143,4,1,0,100,0,0
90398,-200,4,1,0,100,0,0
90564,-117.647058823529,4,1,0,100,0,0
90648,-95.2380952380952,4,1,0,100,0,0
91314,-117.647058823529,4,1,0,100,0,0
91481,-95.2380952380952,4,1,0,100,0,0
91814,-117.647058823529,4,1,0,100,0,0
92398,-86.9565217391304,4,1,0,100,0,0
92481,-90.9090909090909,4,1,0,100,0,0
92564,-86.9565217391304,4,1,0,100,0,0
92648,-95.2380952380952,4,1,0,100,0,0
93064,-86.9565217391304,4,1,0,100,0,0
93148,-90.9090909090909,4,1,0,100,0,0
93231,-86.9565217391304,4,1,0,100,0,0
93398,-117.647058823529,4,1,0,100,0,0
93564,-86.9565217391304,4,1,0,100,0,0
93648,-90.9090909090909,4,1,0,100,0,0
93731,-86.9565217391304,4,1,0,100,0,0
93814,-117.647058823529,4,1,0,100,0,0
94064,-86.9565217391304,4,1,0,100,0,0
94148,-90.9090909090909,4,1,0,100,0,0
94231,-86.9565217391304,4,1,0,100,0,0
94314,-95.2380952380952,4,1,0,100,0,0
94481,-117.647058823529,4,1,0,100,0,0
94731,-200,4,1,0,100,0,0
94814,-142.857142857143,4,1,0,100,0,0
94898,-117.647058823529,4,1,0,100,0,0
94981,-90.9090909090909,4,1,0,100,0,0
95064,-76.9230769230769,4,1,0,100,0,0
95231,-66.6666666666667,4,1,0,100,0,0
95398,-76.9230769230769,4,1,0,100,0,0
95481,-90.9090909090909,4,1,0,100,0,0
95564,-117.647058823529,4,1,0,100,0,0
95648,-142.857142857143,4,1,0,100,0,0
95731,-200,4,1,0,100,0,0
95814,-95.2380952380952,4,1,0,100,0,0
96314,-117.647058823529,4,1,0,100,0,0
96814,-95.2380952380952,4,1,0,100,0,0
96981,-117.647058823529,4,1,0,100,0,0
97148,-95.2380952380952,4,1,0,100,0,0
97481,-117.647058823529,4,1,0,100,0,0
97648,-95.2380952380952,4,1,0,100,0,0
97898,-86.9565217391304,4,1,0,100,0,0
97981,-90.9090909090909,4,1,0,100,0,0
98064,-86.9565217391304,4,1,0,100,0,0
98314,-90.9090909090909,4,1,0,100,0,0
98398,-86.9565217391304,4,1,0,100,0,0
98648,-90.9090909090909,4,1,0,100,0,0
98731,-86.9565217391304,4,1,0,100,0,0
98814,-95.2380952380952,4,1,0,100,0,0
99064,-86.9565217391304,4,1,0,100,0,0
99148,-90.9090909090909,4,1,0,100,0,0
99231,-86.9565217391304,4,1,0,100,0,0
99314,-90.9090909090909,4,1,0,100,0,0
99398,-86.9565217391304,4,1,0,100,0,0
99564,-95.2380952380952,4,1,0,100,0,0
99731,-76.9230769230769,4,1,0,100,0,0
99814,-90.9090909090909,4,1,0,100,0,0
99898,-117.647058823529,4,1,0,100,0,0
99981,-142.857142857143,4,1,0,100,0,0
100064,-200,4,1,0,100,0,0
100231,-86.9565217391304,4,1,0,100,0,0
100314,-90.9090909090909,4,1,0,100,0,0
100398,-86.9565217391304,4,1,0,100,0,0
100648,-90.9090909090909,4,1,0,100,0,0
100731,-86.9565217391304,4,1,0,100,0,0
100814,-95.2380952380952,4,1,0,100,0,0
101148,-117.647058823529,4,1,0,100,0,0
101314,-95.2380952380952,4,1,0,100,0,0
101481,-117.647058823529,4,1,0,100,0,0
101814,-95.2380952380952,4,1,0,100,0,0
101981,-117.647058823529,4,1,0,100,0,0
102148,-95.2380952380952,4,1,0,100,0,0
102314,-117.647058823529,4,1,0,100,0,0
102648,-95.2380952380952,4,1,0,100,0,0
102981,-117.647058823529,4,1,0,100,0,0
103148,-95.2380952380952,4,1,0,100,0,0
103314,-117.647058823529,4,1,0,100,0,0
103564,-86.9565217391304,4,1,0,100,0,0
103648,-90.9090909090909,4,1,0,100,0,0
103731,-86.9565217391304,4,1,0,100,0,0
103898,-95.2380952380952,4,1,0,100,0,0
104064,-117.647058823529,4,1,0,100,0,0
104231,-86.9565217391304,4,1,0,100,0,0
104314,-90.9090909090909,4,1,0,100,0,0
104398,-86.9565217391304,4,1,0,100,0,0
104564,-117.647058823529,4,1,0,100,0,0
104898,-86.9565217391304,4,1,0,100,0,0
104981,-90.9090909090909,4,1,0,100,0,0
105064,-86.9565217391304,4,1,0,100,0,0
105148,-117.647058823529,4,1,0,100,0,0
105398,-142.857142857143,4,1,0,100,0,0
105481,-117.647058823529,4,1,0,100,0,0
105564,-90.9090909090909,4,1,0,100,0,0
105648,-76.9230769230769,4,1,0,100,0,0
105731,-66.6666666666667,4,1,0,100,0,0
105814,-76.9230769230769,4,1,0,100,0,0
105898,-90.9090909090909,4,1,0,100,0,0
105981,-117.647058823529,4,1,0,100,0,0
106064,-142.857142857143,4,1,0,100,0,0
106231,-86.9565217391304,4,1,0,100,0,0
106314,-90.9090909090909,4,1,0,100,0,0
106414,-86.9565217391304,4,1,0,100,0,0
106481,-95.2380952380952,4,1,0,100,0,0
106648,-117.647058823529,4,1,0,100,0,0
106731,-90.9090909090909,4,1,0,100,0,1
109398,-83.3333333333333,4,1,0,100,0,1
110731,-66.6666666666667,4,1,0,100,0,1
110787,-71.4285714285714,4,1,0,100,0,1
110842,-76.9230769230769,4,1,0,100,0,1
110898,-83.3333333333333,4,1,0,100,0,1
112064,-90.9090909090909,4,1,0,100,0,1
114814,-83.3333333333333,4,1,0,100,0,1
116231,-84.7457627118644,4,1,0,100,0,1
116398,-86.2068965517241,4,1,0,100,0,1
116564,-86.9565217391304,4,1,0,100,0,1
116731,-87.719298245614,4,1,0,100,0,1
116898,-88.4955752212389,4,1,0,100,0,1
116981,-89.2857142857143,4,1,0,100,0,1
117064,-90.0900900900901,4,1,0,100,0,1
117148,-90.9090909090909,4,1,0,100,0,1
120064,-90.0900900900901,4,1,0,100,0,1
120398,-89.2857142857143,4,1,0,100,0,1
120731,-88.4955752212389,4,1,0,100,0,1
120898,-87.719298245614,4,1,0,100,0,1
121231,-86.9565217391304,4,1,0,100,0,1
121564,-66.6666666666667,4,1,0,100,0,1
121620,-71.4285714285714,4,1,0,100,0,1
121676,-76.9230769230769,4,1,0,100,0,1
121731,-83.3333333333333,4,1,0,100,0,1
122064,-90.9090909090909,4,1,0,100,0,1
122398,-86.9565217391304,4,1,0,100,0,1
122731,-83.3333333333333,4,1,0,100,0,1
123064,-90.9090909090909,4,1,0,100,0,1
125398,-83.3333333333333,4,1,0,100,0,1
125731,-84.7457627118644,4,1,0,100,0,1
126064,-86.2068965517241,4,1,0,100,0,1
126231,-86.9565217391304,4,1,0,100,0,1
126564,-87.719298245614,4,1,0,100,0,1
126898,-88.4955752212389,4,1,0,100,0,1
127064,-89.2857142857143,4,1,0,100,0,1
127231,-90.0900900900901,4,1,0,100,0,1
127398,-90.9090909090909,4,1,0,100,0,1
127564,-91.743119266055,4,1,0,100,0,1
127731,-92.5925925925926,4,1,0,100,0,1
127752,-100,4,1,0,100,0,0
138731,-125,4,1,0,100,0,0
142648,-100,4,1,0,100,0,0
143731,-125,4,1,0,100,0,0
147648,-100,4,1,0,100,0,0
148648,-125,4,1,0,100,0,0
149314,-95.2380952380952,4,1,0,100,0,0
152231,-83.3333333333333,4,1,0,100,0,0
152564,-95.2380952380952,4,1,0,100,0,0
152898,-83.3333333333333,4,1,0,100,0,0
153231,-95.2380952380952,4,1,0,100,0,0
153564,-83.3333333333333,4,1,0,100,0,0
153898,-95.2380952380952,4,1,0,100,0,0
159731,-80,4,1,0,100,0,0
160314,-95.2380952380952,4,1,0,100,0,0
165323,-100,4,1,0,100,0,0
167314,-95.2380952380952,4,1,0,100,0,0
167898,-100,4,1,0,100,0,0
170731,-200,4,1,0,100,0,0
175898,-333.333333333333,4,1,0,100,0,0
176148,-100,4,1,0,100,0,0
181398,-133.333333333333,4,1,0,100,0,0
186648,-333.333333333333,4,1,0,100,0,0
186814,-100,4,1,0,100,0,0
190731,-40,4,1,0,100,0,0
190898,-50,4,1,0,100,0,0
191064,-44.4444444444445,4,1,0,100,0,0
191231,-43.4782608695652,4,1,0,100,0,0
191314,-45.4545454545455,4,1,0,100,0,0
191398,-47.6190476190476,4,1,0,100,0,0
191648,-40,4,1,0,100,0,0
192064,-40,4,1,0,100,0,1
192231,-50,4,1,0,100,0,1
192287,-52.6315789473684,4,1,0,100,0,1
192342,-55.5555555555556,4,1,0,100,0,1
192398,-58.8235294117647,4,1,0,100,0,1
192564,-83.3333333333333,4,1,0,100,0,1
192898,-66.6666666666667,4,1,0,100,0,1
192953,-71.4285714285714,4,1,0,100,0,1
193009,-76.9230769230769,4,1,0,100,0,1
193064,-83.3333333333333,4,1,0,100,0,1
193676,-76.9230769230769,4,1,0,100,0,1
194176,-83.3333333333333,4,1,0,100,0,1
196231,-66.6666666666667,4,1,0,100,0,1
196509,-83.3333333333333,4,1,0,100,0,1
196898,-40,4,1,0,100,0,1
197231,-40,4,1,0,100,0,1
197398,-25,4,1,0,100,0,1
197564,-83.3333333333333,4,1,0,100,0,1
198842,-66.6666666666667,4,1,0,100,0,1
199064,-76.9230769230769,4,1,0,100,0,1
199342,-71.4285714285714,4,1,0,100,0,1
199564,-62.5,4,1,0,100,0,1
199898,-83.3333333333333,4,1,0,100,0,1
201231,-76.9230769230769,4,1,0,100,0,1
201453,-83.3333333333333,4,1,0,100,0,1
202231,-40,4,1,0,100,0,1
202731,-83.3333333333333,4,1,0,100,0,1
203398,-58.8235294117647,4,1,0,100,0,1
203439,-62.5,4,1,0,100,0,1
203481,-66.6666666666667,4,1,0,100,0,1
203523,-71.4285714285714,4,1,0,100,0,1
203564,-76.9230769230769,4,1,0,100,0,1
203648,-83.3333333333333,4,1,0,100,0,1
206898,-76.9230769230769,4,1,0,100,0,1
207564,-40,4,1,0,100,0,1
208064,-25,4,1,0,100,0,1
208398,-83.3333333333333,4,1,0,100,0,1
209231,-66.6666666666667,4,1,0,100,0,1
209564,-83.3333333333333,4,1,0,100,0,1
209898,-66.6666666666667,4,1,0,100,0,1
210231,-83.3333333333333,4,1,0,100,0,1
212439,-1000,4,1,0,100,0,1
212564,-142.857142857143,4,1,0,100,0,1
212731,-52.6315789473684,4,1,0,100,0,1
212787,-54.054054054054,4,1,0,100,0,1
212842,-55.5555555555556,4,1,0,100,0,1
212898,-57.1428571428571,4,1,0,100,0,1
212953,-58.8235294117647,4,1,0,100,0,1
213009,-60.6060606060606,4,1,0,100,0,1
213064,-62.5,4,1,0,100,0,1
213106,-64.5161290322581,4,1,0,100,0,1
213148,-66.6666666666667,4,1,0,100,0,1
213189,-68.9655172413793,4,1,0,100,0,1
213231,-71.4285714285714,4,1,0,100,0,1
213273,-74.0740740740741,4,1,0,100,0,1
213314,-76.9230769230769,4,1,0,100,0,1
213356,-80,4,1,0,100,0,1
213398,-83.3333333333333,4,1,0,100,0,1
213564,-66.6666666666667,4,1,0,100,0,1
213731,-50,4,1,0,100,0,1
213787,-52.6315789473684,4,1,0,100,0,1
213842,-55.5555555555556,4,1,0,100,0,1
213898,-58.8235294117647,4,1,0,100,0,1
214064,-83.3333333333333,4,1,0,100,0,1
215064,-62.5,4,1,0,100,0,1
215731,-76.9230769230769,4,1,0,100,0,1
216398,-50,4,1,0,100,0,1
216453,-52.6315789473684,4,1,0,100,0,1
216509,-55.5555555555556,4,1,0,100,0,1
216564,-58.8235294117647,4,1,0,100,0,1
216648,-76.9230769230769,4,1,0,100,0,1
217064,-62.5,4,1,0,100,0,1
217398,-76.9230769230769,4,1,0,100,0,1
217731,-66.6666666666667,4,1,0,100,0,1
217787,-71.4285714285714,4,1,0,100,0,1
217842,-76.9230769230769,4,1,0,100,0,1
217898,-83.3333333333333,4,1,0,100,0,1
217981,-55.5555555555556,4,1,0,100,0,1
218064,-76.9230769230769,4,1,0,100,0,1
218120,-55.5555555555556,4,1,0,100,0,1
218231,-58.8235294117647,4,1,0,100,0,1
218287,-62.5,4,1,0,100,0,1
218453,-62.5,4,1,0,100,0,1
218553,-76.9230769230769,4,1,0,100,0,1
218731,-50,4,1,0,100,0,1
218814,-76.9230769230769,4,1,0,100,0,1
219231,-50,4,1,0,100,0,1
219287,-52.6315789473684,4,1,0,100,0,1
219342,-55.5555555555556,4,1,0,100,0,1
219398,-58.8235294117647,4,1,0,100,0,1
219453,-76.9230769230769,4,1,0,100,0,1
219564,-58.8235294117647,4,1,0,100,0,1
219620,-55.5555555555556,4,1,0,100,0,1
219676,-52.6315789473684,4,1,0,100,0,1
219731,-50,4,1,0,100,0,1
219814,-86.9565217391304,4,1,0,100,0,1
219898,-76.9230769230769,4,1,0,100,0,1
220064,-50,4,1,0,100,0,1
220148,-76.9230769230769,4,1,0,100,0,1
220231,-58.8235294117647,4,1,0,100,0,1
220287,-55.5555555555556,4,1,0,100,0,1
220342,-52.6315789473684,4,1,0,100,0,1
220398,-50,4,1,0,100,0,1
220481,-76.9230769230769,4,1,0,100,0,1
220564,-55.5555555555556,4,1,0,100,0,1
220648,-76.9230769230769,4,1,0,100,0,1
220731,-55.5555555555556,4,1,0,100,0,1
220898,-76.9230769230769,4,1,0,100,0,1
221064,-52.6315789473684,4,1,0,100,0,1
221106,-55.5555555555556,4,1,0,100,0,1
221148,-58.8235294117647,4,1,0,100,0,1
221189,-62.5,4,1,0,100,0,1
221231,-66.6666666666667,4,1,0,100,0,1
221273,-71.4285714285714,4,1,0,100,0,1
221314,-76.9230769230769,4,1,0,100,0,1
221356,-83.3333333333333,4,1,0,100,0,1
221398,-90.9090909090909,4,1,0,100,0,1
221564,-83.3333333333333,4,1,0,100,0,1
221731,-62.5,4,1,0,100,0,1
221773,-66.6666666666667,4,1,0,100,0,1
221814,-71.4285714285714,4,1,0,100,0,1
221856,-76.9230769230769,4,1,0,100,0,1
221898,-83.3333333333333,4,1,0,100,0,1
222231,-76.9230769230769,4,1,0,100,0,1
222523,-71.4285714285714,4,1,0,100,0,1
222814,-83.3333333333333,4,1,0,100,0,1
222898,-111.111111111111,4,1,0,100,0,1
222953,-100,4,1,0,100,0,1
223009,-90.9090909090909,4,1,0,100,0,1
223064,-83.3333333333333,4,1,0,100,0,1
223877,-25,4,1,0,100,0,1
223919,-76.9230769230769,4,1,0,100,0,1
224453,-71.4285714285714,4,1,0,100,0,1
224787,-83.3333333333333,4,1,0,100,0,1
224842,-71.4285714285714,4,1,0,100,0,1
225120,-76.9230769230769,4,1,0,100,0,1
225564,-71.4285714285714,4,1,0,100,0,1
225787,-83.3333333333333,4,1,0,100,0,1
225842,-71.4285714285714,4,1,0,100,0,1
226120,-76.9230769230769,4,1,0,100,0,1
227731,-66.6666666666667,4,1,0,100,0,1
227787,-62.5,4,1,0,100,0,1
227842,-58.8235294117647,4,1,0,100,0,1
227898,-55.5555555555556,4,1,0,100,0,1
227953,-58.8235294117647,4,1,0,100,0,1
228009,-62.5,4,1,0,100,0,1
228064,-66.6666666666667,4,1,0,100,0,1
228176,-125,4,1,0,100,0,1
228231,-111.111111111111,4,1,0,100,0,1
228287,-100,4,1,0,100,0,1
228342,-90.9090909090909,4,1,0,100,0,1
228398,-83.3333333333333,4,1,0,100,0,1
228453,-76.9230769230769,4,1,0,100,0,1
228509,-71.4285714285714,4,1,0,100,0,1
228564,-66.6666666666667,4,1,0,100,0,1
228606,-58.8235294117647,4,1,0,100,0,1
228939,-76.9230769230769,4,1,0,100,0,1
229023,-58.8235294117647,4,1,0,100,0,1
229120,-83.3333333333333,4,1,0,100,0,1
229398,-40,4,1,0,100,0,1
229453,-83.3333333333333,4,1,0,100,0,1
230064,-50,4,1,0,100,0,1
230120,-52.6315789473684,4,1,0,100,0,1
230176,-55.5555555555556,4,1,0,100,0,1
230231,-58.8235294117647,4,1,0,100,0,1
230287,-83.3333333333333,4,1,0,100,0,1
230398,-50,4,1,0,100,0,1
230564,-57.1428571428571,4,1,0,100,0,1
230731,-66.6666666666667,4,1,0,100,0,1
230898,-50,4,1,0,100,0,1
230939,-47.6190476190476,4,1,0,100,0,1
230981,-45.4545454545455,4,1,0,100,0,1
231023,-43.4782608695652,4,1,0,100,0,1
231064,-66.6666666666667,4,1,0,100,0,1
231273,-58.8235294117647,4,1,0,100,0,1
231398,-76.9230769230769,4,1,0,100,0,1
231523,-52.6315789473684,4,1,0,100,0,1
231648,-76.9230769230769,4,1,0,100,0,1
231689,-71.4285714285714,4,1,0,100,0,1
231731,-66.6666666666667,4,1,0,100,0,1
231773,-62.5,4,1,0,100,0,1
231814,-58.8235294117647,4,1,0,100,0,1
231856,-55.5555555555556,4,1,0,100,0,1
231898,-52.6315789473684,4,1,0,100,0,1
231939,-76.9230769230769,4,1,0,100,0,1
232856,-25,4,1,0,100,0,1
233023,-76.9230769230769,4,1,0,100,0,1
233398,-40,4,1,0,100,0,1
233731,-76.9230769230769,4,1,0,100,0,1
234064,-50,4,1,0,100,0,1
234120,-52.6315789473684,4,1,0,100,0,1
234176,-55.5555555555556,4,1,0,100,0,1
234231,-58.8235294117647,4,1,0,100,0,1
234287,-76.9230769230769,4,1,0,100,0,1
234398,-66.6666666666667,4,1,0,100,0,1
234564,-76.9230769230769,4,1,0,100,0,1
234731,-66.6666666666667,4,1,0,100,0,1
235064,-76.9230769230769,4,1,0,100,0,1
235231,-71.4285714285714,4,1,0,100,0,1
235453,-76.9230769230769,4,1,0,100,0,1
236564,-71.4285714285714,4,1,0,100,0,1
236606,-66.6666666666667,4,1,0,100,0,1
236648,-62.5,4,1,0,100,0,1
236689,-58.8235294117647,4,1,0,100,0,1
236731,-55.5555555555556,4,1,0,100,0,1
236773,-76.9230769230769,4,1,0,100,0,1
237398,-66.6666666666667,4,1,0,100,0,1
237481,-76.9230769230769,4,1,0,100,0,1
237564,-66.6666666666667,4,1,0,100,0,1
237731,-50,4,1,0,100,0,1
237773,-76.9230769230769,4,1,0,100,0,1
238231,-66.6666666666667,4,1,0,100,0,1
238273,-76.9230769230769,4,1,0,100,0,1
238314,-90.9090909090909,4,1,0,100,0,1
238356,-111.111111111111,4,1,0,100,0,1
238398,-166.666666666667,4,1,0,100,0,1
238439,-76.923076923077,4,1,0,100,0,1
238898,-55.5555555555556,4,1,0,100,0,1
239023,-62.5,4,1,0,100,0,1
239106,-76.9230769230769,4,1,0,100,0,1
239377,-25,4,1,0,100,0,1
239419,-83.3333333333333,4,1,0,100,0,1
239731,-76.9230769230769,4,1,0,100,0,1
239773,-80,4,1,0,100,0,1
239814,-83.3333333333333,4,1,0,100,0,1
239898,-76.9230769230769,4,1,0,100,0,1
239939,-80,4,1,0,100,0,1
239981,-83.3333333333333,4,1,0,100,0,1
240064,-111.111111111111,4,1,0,100,0,1
240231,-71.4285714285714,4,1,0,100,0,1
240398,-111.111111111111,4,1,0,100,0,1
240564,-71.4285714285714,4,1,0,100,0,1
240731,-111.111111111111,4,1,0,100,0,1
240898,-71.4285714285714,4,1,0,100,0,1
241064,-58.8235294117647,4,1,0,100,0,1
241898,-50,4,1,0,100,0,1
241953,-52.6315789473684,4,1,0,100,0,1
242009,-55.5555555555556,4,1,0,100,0,1
242064,-58.8235294117647,4,1,0,100,0,1
242231,-47.6190476190476,4,1,0,100,0,1
242273,-50,4,1,0,100,0,1
242314,-52.6315789473684,4,1,0,100,0,1
242356,-55.5555555555556,4,1,0,100,0,1
242398,-58.8235294117647,4,1,0,100,0,1
242481,-76.9230769230769,4,1,0,100,0,1
242564,-47.6190476190476,4,1,0,100,0,1
242606,-50,4,1,0,100,0,1
242648,-52.6315789473684,4,1,0,100,0,1
242689,-55.5555555555556,4,1,0,100,0,1
242731,-58.8235294117647,4,1,0,100,0,1
242898,-40,4,1,0,100,0,1
243064,-76.9230769230769,4,1,0,100,0,1
243398,-40,4,1,0,100,0,1
243564,-76.9230769230769,4,1,0,100,0,1
243898,-50,4,1,0,100,0,1
244023,-66.6666666666667,4,1,0,100,0,1
244148,-71.4285714285714,4,1,0,100,0,1
244189,-76.9230769230769,4,1,0,100,0,1
244231,-83.3333333333333,4,1,0,100,0,1
244398,-76.9230769230769,4,1,0,100,0,1
245231,-66.6666666666667,4,1,0,100,0,1
245314,-76.9230769230769,4,1,0,100,0,1
248064,-50,4,1,0,100,0,1
248120,-52.6315789473684,4,1,0,100,0,1
248176,-55.5555555555556,4,1,0,100,0,1
248231,-58.8235294117647,4,1,0,100,0,1
248287,-76.9230769230769,4,1,0,100,0,1
248398,-50,4,1,0,100,0,1
248453,-52.6315789473684,4,1,0,100,0,1
248509,-55.5555555555556,4,1,0,100,0,1
248564,-58.8235294117647,4,1,0,100,0,1
248620,-76.9230769230769,4,1,0,100,0,1
248731,-50,4,1,0,100,0,1
248787,-52.6315789473684,4,1,0,100,0,1
248842,-55.5555555555556,4,1,0,100,0,1
248898,-58.8235294117647,4,1,0,100,0,1
248953,-76.9230769230769,4,1,0,100,0,1
249231,-66.6666666666667,4,1,0,100,0,1
249342,-58.8235294117647,4,1,0,100,0,1
249564,-50,4,1,0,100,0,1
250009,-100,4,1,0,100,0,1
250064,-83.3333333333333,4,1,0,100,0,1
250120,-71.4285714285714,4,1,0,100,0,1
250176,-62.5,4,1,0,100,0,1
250231,-55.5555555555556,4,1,0,100,0,1
250287,-76.9230769230769,4,1,0,100,0,1
250398,-50,4,1,0,100,0,1
250564,-66.6666666666667,4,1,0,100,0,1
250648,-71.4285714285714,4,1,0,100,0,1
250731,-76.9230769230769,4,1,0,100,0,1
252564,-66.6666666666667,4,1,0,100,0,1
252731,-50,4,1,0,100,0,1
252898,-66.6666666666667,4,1,0,100,0,1
253064,-50,4,1,0,100,0,1
253231,-66.6666666666667,4,1,0,100,0,1
253398,-50,4,1,0,100,0,1
256023,-83.3333333333333,4,1,0,100,0,0
277398,-111.111111111111,4,1,0,100,0,0
288064,-100,4,1,0,100,0,0
297398,-50,4,1,0,100,0,0
297564,-90.9090909090909,4,1,0,100,0,0
297731,-66.6666666666667,4,1,0,100,0,0
297814,-68.9655172413793,4,1,0,100,0,0
297898,-71.4285714285714,4,1,0,100,0,0
297981,-74.0740740740741,4,1,0,100,0,0
298064,-76.9230769230769,4,1,0,100,0,0
298148,-80,4,1,0,100,0,0
298231,-83.3333333333333,4,1,0,100,0,0
298287,-84.7457627118644,4,1,0,100,0,0
298342,-86.2068965517241,4,1,0,100,0,0
298398,-87.719298245614,4,1,0,100,0,0
298481,-89.2857142857143,4,1,0,100,0,0
298564,-90.9090909090909,4,1,0,100,0,0
298731,-83.3333333333333,4,1,0,100,0,1
303564,-66.6666666666667,4,1,0,100,0,1
303620,-71.4285714285714,4,1,0,100,0,1
303676,-76.9230769230769,4,1,0,100,0,1
303731,-83.3333333333333,4,1,0,100,0,1
304064,-90.9090909090909,4,1,0,100,0,1
304509,-125,4,1,0,100,0,1
304898,-90.9090909090909,4,1,0,100,0,1
305064,-125,4,1,0,100,0,1
305398,-90.9090909090909,4,1,0,100,0,1
305564,-125,4,1,0,100,0,1
306064,-90.9090909090909,4,1,0,100,0,1
306120,-125,4,1,0,100,0,1
306231,-66.6666666666667,4,1,0,100,0,1
306287,-71.4285714285714,4,1,0,100,0,1
306342,-76.9230769230769,4,1,0,100,0,1
306398,-83.3333333333333,4,1,0,100,0,1
306564,-125,4,1,0,100,0,1
306731,-111.111111111111,4,1,0,100,0,1
306898,-100,4,1,0,100,0,1
307064,-90.9090909090909,4,1,0,100,0,1
307231,-83.3333333333333,4,1,0,100,0,1
307398,-76.9230769230769,4,1,0,100,0,1
307564,-71.4285714285714,4,1,0,100,0,1
307731,-66.6666666666667,4,1,0,100,0,1
307898,-83.3333333333333,4,1,0,100,0,1
307981,-86.9565217391304,4,1,0,100,0,1
308064,-90.9090909090909,4,1,0,100,0,1
308231,-50,4,1,0,100,0,1
308398,-83.3333333333333,4,1,0,100,0,1
308564,-50,4,1,0,100,0,1
308898,-83.3333333333333,4,1,0,100,0,1
308981,-86.9565217391304,4,1,0,100,0,1
309064,-90.9090909090909,4,1,0,100,0,1
309398,-83.3333333333333,4,1,0,100,0,1
314231,-66.6666666666667,4,1,0,100,0,1
314287,-71.4285714285714,4,1,0,100,0,1
314342,-76.9230769230769,4,1,0,100,0,1
314398,-83.3333333333333,4,1,0,100,0,1
314731,-90.9090909090909,4,1,0,100,0,1
315231,-125,4,1,0,100,0,1
315564,-90.9090909090909,4,1,0,100,0,1
315731,-125,4,1,0,100,0,1
316064,-90.9090909090909,4,1,0,100,0,1
316398,-125,4,1,0,100,0,1
316731,-90.9090909090909,4,1,0,100,0,1
316787,-125,4,1,0,100,0,1
316898,-66.6666666666667,4,1,0,100,0,1
316953,-71.4285714285714,4,1,0,100,0,1
317009,-76.9230769230769,4,1,0,100,0,1
317064,-83.3333333333333,4,1,0,100,0,1
317398,-111.111111111111,4,1,0,100,0,1
317731,-100,4,1,0,100,0,1
318064,-90.9090909090909,4,1,0,100,0,1
318398,-83.3333333333333,4,1,0,100,0,1
318731,-76.9230769230769,4,1,0,100,0,1
319398,-71.4285714285714,4,1,0,100,0,1
320064,-83.3333333333333,4,1,0,100,0,1
320148,-86.9565217391304,4,1,0,100,0,1
320231,-90.9090909090909,4,1,0,100,0,1
320314,-95.2380952380952,4,1,0,100,0,1
320398,-100,4,1,0,100,0,1
320564,-90.9090909090909,4,1,0,100,0,1
320731,-83.3333333333333,4,1,0,100,0,1
320814,-86.9565217391304,4,1,0,100,0,1
320898,-90.9090909090909,4,1,0,100,0,1
320981,-95.2380952380952,4,1,0,100,0,1
321064,-100,4,1,0,100,0,1
321231,-90.9090909090909,4,1,0,100,0,1
321398,-83.3333333333333,4,1,0,100,0,1
321481,-86.9565217391304,4,1,0,100,0,1
321564,-90.9090909090909,4,1,0,100,0,1
321648,-95.2380952380952,4,1,0,100,0,1
321731,-100,4,1,0,100,0,1
321898,-90.9090909090909,4,1,0,100,0,1
322064,-83.3333333333333,4,1,0,100,0,1
322148,-86.9565217391304,4,1,0,100,0,1
322231,-90.9090909090909,4,1,0,100,0,1
322314,-95.2380952380952,4,1,0,100,0,1
322398,-100,4,1,0,100,0,1
322564,-111.111111111111,4,1,0,100,0,1
323064,-90.9090909090909,4,1,0,100,0,1
324231,-66.6666666666667,4,1,0,100,0,1
324287,-71.4285714285714,4,1,0,100,0,1
324342,-76.9230769230769,4,1,0,100,0,1
324398,-83.3333333333333,4,1,0,100,0,1
325398,-125,4,1,0,100,0,1
325731,-90.9090909090909,4,1,0,100,0,1
326064,-125,4,1,0,100,0,1
326398,-90.9090909090909,4,1,0,100,0,1
326564,-125,4,1,0,100,0,1
327064,-90.9090909090909,4,1,0,100,0,1
327453,-125,4,1,0,100,0,1
327564,-66.6666666666667,4,1,0,100,0,1
327620,-71.4285714285714,4,1,0,100,0,1
327676,-76.9230769230769,4,1,0,100,0,1
327731,-83.3333333333333,4,1,0,100,0,1
328064,-125,4,1,0,100,0,1
328398,-111.111111111111,4,1,0,100,0,1
328731,-100,4,1,0,100,0,1
329064,-90.9090909090909,4,1,0,100,0,1
329398,-83.3333333333333,4,1,0,100,0,1
330064,-76.9230769230769,4,1,0,100,0,1
330731,-66.6666666666667,4,1,0,100,0,1
330814,-71.4285714285714,4,1,0,100,0,1
330898,-76.9230769230769,4,1,0,100,0,1
330981,-83.3333333333333,4,1,0,100,0,1
331064,-90.9090909090909,4,1,0,100,0,1
331231,-83.3333333333333,4,1,0,100,0,1
331398,-66.6666666666667,4,1,0,100,0,1
331481,-71.4285714285714,4,1,0,100,0,1
331564,-76.9230769230769,4,1,0,100,0,1
331648,-83.3333333333333,4,1,0,100,0,1
331731,-90.9090909090909,4,1,0,100,0,1
331898,-83.3333333333333,4,1,0,100,0,1
332064,-66.6666666666667,4,1,0,100,0,1
332148,-71.4285714285714,4,1,0,100,0,1
332231,-76.9230769230769,4,1,0,100,0,1
332314,-83.3333333333333,4,1,0,100,0,1
332398,-90.9090909090909,4,1,0,100,0,1
332564,-83.3333333333333,4,1,0,100,0,1
332731,-66.6666666666667,4,1,0,100,0,1
332814,-71.4285714285714,4,1,0,100,0,1
332898,-76.9230769230769,4,1,0,100,0,1
332981,-83.3333333333333,4,1,0,100,0,1
333064,-90.9090909090909,4,1,0,100,0,1
333398,-76.9230769230769,4,1,0,100,0,1
333731,-83.3333333333333,4,1,0,100,0,1
334898,-66.6666666666667,4,1,0,100,0,1
334953,-71.4285714285714,4,1,0,100,0,1
335009,-76.9230769230769,4,1,0,100,0,1
335064,-83.3333333333333,4,1,0,100,0,1
336064,-125,4,1,0,100,0,1
336231,-90.9090909090909,4,1,0,100,0,1
336564,-125,4,1,0,100,0,1
336898,-90.9090909090909,4,1,0,100,0,1
337064,-125,4,1,0,100,0,1
337231,-90.9090909090909,4,1,0,100,0,1
337564,-125,4,1,0,100,0,1
337898,-90.9090909090909,4,1,0,100,0,1
338148,-125,4,1,0,100,0,1
338231,-66.6666666666667,4,1,0,100,0,1
338287,-71.4285714285714,4,1,0,100,0,1
338342,-76.9230769230769,4,1,0,100,0,1
338398,-83.3333333333333,4,1,0,100,0,1
338731,-111.111111111111,4,1,0,100,0,1
339064,-100,4,1,0,100,0,1
339398,-90.9090909090909,4,1,0,100,0,1
339731,-83.3333333333333,4,1,0,100,0,1
340064,-76.9230769230769,4,1,0,100,0,1
340731,-71.4285714285714,4,1,0,100,0,1
341064,-100,4,1,0,100,0,0
362731,-83.3333333333333,4,1,0,100,0,1
364898,-66.6666666666667,4,1,0,100,0,1
364953,-71.4285714285714,4,1,0,100,0,1
365009,-76.9230769230769,4,1,0,100,0,1
365064,-83.3333333333333,4,1,0,100,0,1
365398,-71.4285714285714,4,1,0,100,0,1
365731,-66.6666666666667,4,1,0,100,0,1
366064,-62.5,4,1,0,100,0,1
366231,-83.3333333333333,4,1,0,100,0,1
366898,-66.6666666666667,4,1,0,100,0,1
366953,-71.4285714285714,4,1,0,100,0,1
367009,-76.9230769230769,4,1,0,100,0,1
367064,-83.3333333333333,4,1,0,100,0,1
368064,-50,4,1,0,100,0,1
368398,-83.3333333333333,4,1,0,100,0,1
370231,-66.6666666666667,4,1,0,100,0,1
370287,-71.4285714285714,4,1,0,100,0,1
370342,-76.9230769230769,4,1,0,100,0,1
370398,-83.3333333333333,4,1,0,100,0,1
370731,-71.4285714285714,4,1,0,100,0,1
371064,-76.9230769230769,4,1,0,100,0,1
371398,-66.6666666666667,4,1,0,100,0,1
371564,-68.9655172413793,4,1,0,100,0,1
371648,-71.4285714285714,4,1,0,100,0,1
371731,-74.0740740740741,4,1,0,100,0,1
371898,-76.9230769230769,4,1,0,100,0,1
372064,-80,4,1,0,100,0,1
372231,-83.3333333333333,4,1,0,100,0,1
372398,-84.7457627118644,4,1,0,100,0,1
372564,-86.2068965517241,4,1,0,100,0,1
372731,-87.719298245614,4,1,0,100,0,1
372898,-89.2857142857143,4,1,0,100,0,1
372981,-90.9090909090909,4,1,0,100,0,1
373064,-92.5925925925926,4,1,0,100,0,1
373231,-94.3396226415094,4,1,0,100,0,1
373398,-83.3333333333333,4,1,0,100,0,1
375564,-66.6666666666667,4,1,0,100,0,1
375620,-71.4285714285714,4,1,0,100,0,1
375676,-76.9230769230769,4,1,0,100,0,1
375731,-83.3333333333333,4,1,0,100,0,1
377564,-66.6666666666667,4,1,0,100,0,1
377620,-71.4285714285714,4,1,0,100,0,1
377676,-76.9230769230769,4,1,0,100,0,1
377731,-83.3333333333333,4,1,0,100,0,1
378398,-50,4,1,0,100,0,1
378731,-83.3333333333333,4,1,0,100,0,1
380898,-66.6666666666667,4,1,0,100,0,1
380953,-71.4285714285714,4,1,0,100,0,1
381009,-76.9230769230769,4,1,0,100,0,1
381064,-83.3333333333333,4,1,0,100,0,1
381398,-71.4285714285714,4,1,0,100,0,1
381731,-76.9230769230769,4,1,0,100,0,1
382064,-62.5,4,1,0,100,0,1
382231,-63.2911392405063,4,1,0,100,0,1
382398,-64.1025641025641,4,1,0,100,0,1
382564,-64.9350649350649,4,1,0,100,0,1
382731,-65.7894736842105,4,1,0,100,0,1
382898,-66.6666666666667,4,1,0,100,0,1
383064,-67.5675675675676,4,1,0,100,0,1
383231,-68.9655172413793,4,1,0,100,0,1
383398,-71.4285714285714,4,1,0,100,0,1
383564,-74.0740740740741,4,1,0,100,0,1
383648,-76.9230769230769,4,1,0,100,0,1
383731,-80,4,1,0,100,0,1
383814,-83.3333333333333,4,1,0,100,0,1
383898,-86.9565217391304,4,1,0,100,0,1
384064,-83.3333333333333,4,1,0,100,0,1
386231,-66.6666666666667,4,1,0,100,0,1
386287,-71.4285714285714,4,1,0,100,0,1
386342,-76.9230769230769,4,1,0,100,0,1
386398,-83.3333333333333,4,1,0,100,0,1
386731,-71.4285714285714,4,1,0,100,0,1
387064,-66.6666666666667,4,1,0,100,0,1
387398,-83.3333333333333,4,1,0,100,0,1
388231,-66.6666666666667,4,1,0,100,0,1
388287,-71.4285714285714,4,1,0,100,0,1
388342,-76.9230769230769,4,1,0,100,0,1
388398,-83.3333333333333,4,1,0,100,0,1
391564,-66.6666666666667,4,1,0,100,0,1
391620,-71.4285714285714,4,1,0,100,0,1
391676,-76.9230769230769,4,1,0,100,0,1
391731,-83.3333333333333,4,1,0,100,0,1
392064,-71.4285714285714,4,1,0,100,0,1
392398,-76.9230769230769,4,1,0,100,0,1
392731,-66.6666666666667,4,1,0,100,0,1
392898,-71.4285714285714,4,1,0,100,0,1
393064,-76.9230769230769,4,1,0,100,0,1
393231,-80,4,1,0,100,0,1
393398,-83.3333333333333,4,1,0,100,0,1
393564,-86.9565217391304,4,1,0,100,0,1
393731,-90.9090909090909,4,1,0,100,0,1
393898,-92.5925925925926,4,1,0,100,0,1
393981,-94.3396226415094,4,1,0,100,0,1
394064,-96.1538461538461,4,1,0,100,0,1
394231,-98.0392156862745,4,1,0,100,0,1
394398,-100,4,1,0,100,0,1
394731,-76.9230769230769,4,1,0,100,0,0
394898,-90.9090909090909,4,1,0,100,0,0
395231,-76.9230769230769,4,1,0,100,0,0
395398,-90.9090909090909,4,1,0,100,0,0
395731,-76.9230769230769,4,1,0,100,0,0
395898,-90.9090909090909,4,1,0,100,0,0
396064,-76.9230769230769,4,1,0,100,0,0
396398,-90.9090909090909,4,1,0,100,0,0
396564,-76.9230769230769,4,1,0,100,0,0
396898,-90.9090909090909,4,1,0,100,0,0
397064,-76.9230769230769,4,1,0,100,0,0
397398,-90.9090909090909,4,1,0,100,0,0
397564,-76.9230769230769,4,1,0,100,0,0
397731,-90.9090909090909,4,1,0,100,0,0
397898,-76.9230769230769,4,1,0,100,0,0
398231,-90.9090909090909,4,1,0,100,0,0
398398,-76.9230769230769,4,1,0,100,0,0
398898,-90.9090909090909,4,1,0,100,0,0
399064,-76.9230769230769,4,1,0,100,0,0
399398,-90.9090909090909,4,1,0,100,0,0
399731,-76.9230769230769,4,1,0,100,0,0
399898,-90.9090909090909,4,1,0,100,0,0
400231,-76.9230769230769,4,1,0,100,0,0
400398,-90.9090909090909,4,1,0,100,0,0
400564,-76.9230769230769,4,1,0,100,0,0
400731,-90.9090909090909,4,1,0,100,0,0
400898,-76.9230769230769,4,1,0,100,0,0
401064,-90.9090909090909,4,1,0,100,0,0
401398,-76.9230769230769,4,1,0,100,0,0
401564,-90.9090909090909,4,1,0,100,0,0
401731,-76.9230769230769,4,1,0,100,0,0
401898,-90.9090909090909,4,1,0,100,0,0
402231,-76.9230769230769,4,1,0,100,0,0
402398,-90.9090909090909,4,1,0,100,0,0
402564,-76.9230769230769,4,1,0,100,0,0
402731,-90.9090909090909,4,1,0,100,0,0
403064,-76.9230769230769,4,1,0,100,0,0
403231,-90.9090909090909,4,1,0,100,0,0
403564,-76.9230769230769,4,1,0,100,0,0
403898,-90.9090909090909,4,1,0,100,0,0
404064,-76.9230769230769,4,1,0,100,0,0
404231,-90.9090909090909,4,1,0,100,0,0
404731,-76.9230769230769,4,1,0,100,0,0
405064,-90.9090909090909,4,1,0,100,0,0
405231,-76.9230769230769,4,1,0,100,0,0
405398,-100,4,1,0,100,0,0
410731,-33.3333333333333,4,1,0,100,0,0
412731,-50,4,1,0,100,0,0
413398,-33.3333333333333,4,1,0,100,0,0
416231,-142.857142857143,4,1,0,100,0,0
418731,-125,4,1,0,100,0,0
419064,-142.857142857143,4,1,0,100,0,0
421398,-125,4,1,0,100,0,0
421731,-142.857142857143,4,1,0,100,0,0
424064,-125,4,1,0,100,0,0
424398,-142.857142857143,4,1,0,100,0,0
426731,-125,4,1,0,100,0,0
427064,-142.857142857143,4,1,0,100,0,0
429398,-125,4,1,0,100,0,0
429731,-142.857142857143,4,1,0,100,0,0
432064,-125,4,1,0,100,0,0
432398,-142.857142857143,4,1,0,100,0,0
434731,-125,4,1,0,100,0,0
435064,-142.857142857143,4,1,0,100,0,0
437398,-111.111111111111,4,1,0,100,0,0
437731,-125,4,1,0,100,0,0
440064,-111.111111111111,4,1,0,100,0,0
440398,-125,4,1,0,100,0,0
442731,-111.111111111111,4,1,0,100,0,0
443064,-125,4,1,0,100,0,0
445398,-111.111111111111,4,1,0,100,0,0
445731,-125,4,1,0,100,0,0
448064,-111.111111111111,4,1,0,100,0,0
448398,-125,4,1,0,100,0,0
450731,-111.111111111111,4,1,0,100,0,0
451064,-125,4,1,0,100,0,0
452731,-111.111111111111,4,1,0,100,0,0
453731,-125,4,1,0,100,0,0
456064,-111.111111111111,4,1,0,100,0,0
456398,-125,4,1,0,100,0,0
457731,-83.3333333333333,4,1,0,100,0,0
457814,-86.9565217391304,4,1,0,100,0,0
457898,-90.9090909090909,4,1,0,100,0,0
458731,-50,4,1,0,100,0,0
459064,-100,4,1,0,100,0,0
460398,-83.3333333333333,4,1,0,100,0,0
460731,-100,4,1,0,100,0,0
461398,-83.3333333333333,4,1,0,100,0,0
461731,-100,4,1,0,100,0,0
463064,-83.3333333333333,4,1,0,100,0,0
463398,-100,4,1,0,100,0,0
464064,-83.3333333333333,4,1,0,100,0,0
464398,-100,4,1,0,100,0,0
465731,-83.3333333333333,4,1,0,100,0,0
466064,-100,4,1,0,100,0,0
466731,-83.3333333333333,4,1,0,100,0,0
467064,-100,4,1,0,100,0,0
468398,-83.3333333333333,4,1,0,100,0,0
468731,-100,4,1,0,100,0,0
469398,-83.3333333333333,4,1,0,100,0,0
469731,-100,4,1,0,100,0,0
471064,-83.3333333333333,4,1,0,100,0,0
471398,-100,4,1,0,100,0,0
472064,-83.3333333333333,4,1,0,100,0,0
472398,-100,4,1,0,100,0,0
473731,-83.3333333333333,4,1,0,100,0,0
474064,-100,4,1,0,100,0,0
474731,-83.3333333333333,4,1,0,100,0,0
475064,-100,4,1,0,100,0,0
476398,-83.3333333333333,4,1,0,100,0,0
476731,-100,4,1,0,100,0,0
477398,-83.3333333333333,4,1,0,100,0,0
477731,-100,4,1,0,100,0,0
479064,-83.3333333333333,4,1,0,100,0,0
479398,-100,4,1,0,100,0,0
480064,-83.3333333333333,4,1,0,100,0,0
480398,-100,4,1,0,100,0,0
481731,-83.3333333333333,4,1,0,100,0,0
482064,-100,4,1,0,100,0,0
482731,-83.3333333333333,4,1,0,100,0,0
483064,-100,4,1,0,100,0,0
484398,-83.3333333333333,4,1,0,100,0,0
484731,-100,4,1,0,100,0,0
485398,-83.3333333333333,4,1,0,100,0,0
485731,-100,4,1,0,100,0,0
487064,-83.3333333333333,4,1,0,100,0,0
487398,-100,4,1,0,100,0,0
488064,-83.3333333333333,4,1,0,100,0,0
488398,-100,4,1,0,100,0,0
489731,-83.3333333333333,4,1,0,100,0,0
490064,-100,4,1,0,100,0,0
490731,-83.3333333333333,4,1,0,100,0,0
491064,-100,4,1,0,100,0,0
492398,-83.3333333333333,4,1,0,100,0,0
492731,-100,4,1,0,100,0,0
493398,-83.3333333333333,4,1,0,100,0,0
493731,-100,4,1,0,100,0,0
495064,-83.3333333333333,4,1,0,100,0,0
495398,-100,4,1,0,100,0,0
496064,-83.3333333333333,4,1,0,100,0,0
496398,-100,4,1,0,100,0,0
497731,-83.3333333333333,4,1,0,100,0,0
498064,-100,4,1,0,100,0,0
498731,-83.3333333333333,4,1,0,100,0,0
499064,-100,4,1,0,100,0,0
500398,-83.3333333333333,4,1,0,100,0,0
500731,-100,4,1,0,100,0,0
501398,-83.3333333333333,4,1,0,100,0,0
501731,-100,4,1,0,100,0,0
503064,-83.3333333333333,4,1,0,100,0,0
503398,-100,4,1,0,100,0,0
504064,-125,4,1,0,100,0,0

[HitObjects]
255,192,65,5,8,0:0:0:0:
255,192,731,1,0,0:0:0:0:
255,192,1398,1,8,0:0:0:0:
253,192,2731,1,0,0:0:0:0:
253,192,3398,1,8,0:0:0:0:
253,192,4064,1,0,0:0:0:0:
251,194,5398,1,0,0:0:0:0:
251,194,6064,1,8,0:0:0:0:
251,194,6731,1,8,0:0:0:0:
255,191,7731,1,8,0:0:0:0:
255,191,8064,1,0,0:0:0:0:
255,191,8731,1,0,0:0:0:0:
255,191,9398,1,0,0:0:0:0:
255,191,9564,1,8,0:0:0:0:
255,191,9731,1,8,0:0:0:0:
255,191,9898,1,0,0:0:0:0:
255,191,10064,1,8,0:0:0:0:
255,191,10231,1,0,0:0:0:0:
255,191,10398,1,0,0:0:0:0:
255,191,10564,1,8,0:0:0:0:
255,191,10731,1,0,0:0:0:0:
255,191,11231,1,0,0:0:0:0:
255,191,11398,1,8,0:0:0:0:
255,191,11564,1,8,0:0:0:0:
255,191,11898,1,0,0:0:0:0:
255,191,12064,1,0,0:0:0:0:
255,191,12231,1,8,0:0:0:0:
255,191,12564,1,0,0:0:0:0:
255,191,12731,1,8,0:0:0:0:
255,191,12898,1,8,0:0:0:0:
255,191,13064,1,0,0:0:0:0:
255,191,13231,1,0,0:0:0:0:
256,188,13398,1,8,0:0:0:0:
255,191,13564,1,0,0:0:0:0:
255,191,13898,1,0,0:0:0:0:
256,188,14064,1,8,0:0:0:0:
255,191,14231,1,0,0:0:0:0:
255,191,14564,1,8,0:0:0:0:
256,188,14731,1,0,0:0:0:0:
255,191,14898,1,8,0:0:0:0:
255,191,15231,1,8,0:0:0:0:
255,191,15398,1,0,0:0:0:0:
255,191,15564,1,0,0:0:0:0:
253,192,15731,1,8,0:0:0:0:
255,191,15898,1,0,0:0:0:0:
256,188,16064,1,8,0:0:0:0:
255,191,16231,1,8,0:0:0:0:
255,191,16564,1,8,0:0:0:0:
256,188,16731,1,0,0:0:0:0:
255,191,16898,1,8,0:0:0:0:
255,191,17231,1,8,0:0:0:0:
256,188,17398,1,8,0:0:0:0:
255,191,17564,1,0,0:0:0:0:
256,188,18398,1,8,0:0:0:0:
256,188,18731,1,0,0:0:0:0:
256,188,19398,1,0,0:0:0:0:
256,188,20064,1,0,0:0:0:0:
256,188,20148,1,8,0:0:0:0:
256,188,20231,1,8,0:0:0:0:
256,188,20398,1,0,0:0:0:0:
256,188,20564,1,0,0:0:0:0:
256,188,20648,1,8,0:0:0:0:
256,188,20731,1,8,0:0:0:0:
256,188,20814,1,8,0:0:0:0:
256,188,20898,1,0,0:0:0:0:
256,188,20981,1,0,0:0:0:0:
256,188,21064,1,8,0:0:0:0:
256,188,21148,1,8,0:0:0:0:
256,188,21231,1,0,0:0:0:0:
256,188,21398,1,0,0:0:0:0:
256,188,21564,1,0,0:0:0:0:
256,188,21648,1,0,0:0:0:0:
256,188,21731,1,8,0:0:0:0:
256,188,21898,1,0,0:0:0:0:
256,188,22064,1,0,0:0:0:0:
256,188,22148,1,8,0:0:0:0:
256,188,22231,1,8,0:0:0:0:
256,188,22314,1,0,0:0:0:0:
256,188,22398,1,8,0:0:0:0:
256,188,22564,1,0,0:0:0:0:
256,188,22731,1,0,0:0:0:0:
256,188,22898,1,8,0:0:0:0:
256,188,22981,1,0,0:0:0:0:
256,188,23064,1,8,0:0:0:0:
256,188,23231,1,0,0:0:0:0:
256,188,23398,1,8,0:0:0:0:
256,188,23481,1,8,0:0:0:0:
256,188,23564,1,0,0:0:0:0:
256,188,23648,1,8,0:0:0:0:
256,188,23731,1,0,0:0:0:0:
256,188,23814,1,0,0:0:0:0:
256,188,23898,1,8,0:0:0:0:
256,188,24064,1,0,0:0:0:0:
256,188,24231,1,0,0:0:0:0:
256,188,24398,1,8,0:0:0:0:
256,188,24481,1,0,0:0:0:0:
256,188,24564,1,0,0:0:0:0:
256,188,24648,1,8,0:0:0:0:
256,188,24731,1,8,0:0:0:0:
256,188,24898,1,0,0:0:0:0:
256,188,25064,1,8,0:0:0:0:
256,188,25230,1,8,0:0:0:0:
256,188,25314,1,0,0:0:0:0:
256,188,25397,1,0,0:0:0:0:
256,188,25480,1,0,0:0:0:0:
256,188,25564,1,8,0:0:0:0:
256,188,25730,1,0,0:0:0:0:
256,188,25898,1,0,0:0:0:0:
256,188,25981,1,0,0:0:0:0:
256,188,26064,1,0,0:0:0:0:
256,188,26231,1,8,0:0:0:0:
256,188,26314,1,8,0:0:0:0:
256,188,26398,1,0,0:0:0:0:
256,188,26564,1,8,0:0:0:0:
256,188,26731,1,8,0:0:0:0:
256,188,26814,1,0,0:0:0:0:
256,188,26898,1,0,0:0:0:0:
256,188,27064,1,8,0:0:0:0:
256,188,27231,1,0,0:0:0:0:
256,188,27398,1,0,0:0:0:0:
256,188,27481,1,8,0:0:0:0:
256,188,27564,1,0,0:0:0:0:
256,188,27731,1,0,0:0:0:0:
256,188,27898,1,8,0:0:0:0:
256,188,28065,1,8,0:0:0:0:
256,188,28148,1,8,0:0:0:0:
256,188,28232,1,8,0:0:0:0:
256,188,28397,1,8,0:0:0:0:
256,188,28481,1,8,0:0:0:0:
256,188,28564,1,0,0:0:0:0:
256,188,28647,1,8,0:0:0:0:
256,188,28731,1,0,0:0:0:0:
256,188,28898,1,0,0:0:0:0:
256,188,29064,1,8,0:0:0:0:
256,188,29148,1,0,0:0:0:0:
256,188,29231,1,8,0:0:0:0:
251,185,29314,1,0,0:0:0:0:
256,188,29398,1,8,0:0:0:0:
251,185,29564,1,0,0:0:0:0:
251,185,29648,1,8,0:0:0:0:
251,185,29731,1,8,0:0:0:0:
251,185,29898,1,0,0:0:0:0:
256,188,30064,1,8,0:0:0:0:
256,188,30148,1,0,0:0:0:0:
256,188,30231,1,8,0:0:0:0:
256,188,30398,1,0,0:0:0:0:
256,188,30564,1,8,0:0:0:0:
256,188,30731,1,8,0:0:0:0:
256,187,30814,1,0,0:0:0:0:
256,188,30898,1,8,0:0:0:0:
256,188,30981,1,0,0:0:0:0:
256,188,31064,1,8,0:0:0:0:
256,188,31231,1,0,0:0:0:0:
256,188,31314,1,0,0:0:0:0:
256,188,31398,1,8,0:0:0:0:
256,188,31564,1,0,0:0:0:0:
256,188,31731,1,8,0:0:0:0:
256,188,31814,1,8,0:0:0:0:
256,188,31898,1,8,0:0:0:0:
253,187,32064,1,0,0:0:0:0:
250,185,32231,1,8,0:0:0:0:
250,185,32314,1,0,0:0:0:0:
250,185,32398,1,8,0:0:0:0:
249,186,32564,1,8,0:0:0:0:
249,186,32648,1,8,0:0:0:0:
256,188,32731,1,0,0:0:0:0:
249,185,32898,1,0,0:0:0:0:
249,183,33064,1,0,0:0:0:0:
250,185,33231,1,0,0:0:0:0:
250,185,33314,1,8,0:0:0:0:
250,185,33398,1,0,0:0:0:0:
249,186,33564,1,0,0:0:0:0:
249,186,33648,1,0,0:0:0:0:
249,183,33731,1,8,0:0:0:0:
249,185,33814,1,8,0:0:0:0:
249,185,33898,1,0,0:0:0:0:
249,183,33981,1,8,0:0:0:0:
249,183,34064,1,0,0:0:0:0:
250,185,34231,1,0,0:0:0:0:
250,185,34398,1,8,0:0:0:0:
249,186,34481,1,8,0:0:0:0:
249,186,34564,1,0,0:0:0:0:
246,187,34731,1,8,0:0:0:0:
249,185,34898,1,0,0:0:0:0:
249,183,34981,1,8,0:0:0:0:
249,183,35064,1,0,0:0:0:0:
250,185,35231,1,8,0:0:0:0:
250,185,35314,1,8,0:0:0:0:
250,185,35398,1,0,0:0:0:0:
249,186,35481,1,8,0:0:0:0:
249,186,35564,1,8,0:0:0:0:
249,186,35648,1,0,0:0:0:0:
246,187,35731,1,8,0:0:0:0:
249,185,35898,1,0,0:0:0:0:
249,187,35981,1,0,0:0:0:0:
250,185,36064,1,0,0:0:0:0:
250,185,36231,1,0,0:0:0:0:
250,185,36398,1,0,0:0:0:0:
249,186,36481,1,0,0:0:0:0:
249,186,36564,1,8,0:0:0:0:
249,186,36648,1,0,0:0:0:0:
250,185,36731,1,8,0:0:0:0:
249,185,36898,1,0,0:0:0:0:
249,187,36981,1,8,0:0:0:0:
250,185,37064,1,0,0:0:0:0:
250,185,37231,1,0,0:0:0:0:
250,185,37398,1,0,0:0:0:0:
249,186,37481,1,0,0:0:0:0:
249,186,37564,1,0,0:0:0:0:
250,185,37731,1,0,0:0:0:0:
249,185,37814,1,8,0:0:0:0:
249,185,37898,1,8,0:0:0:0:
250,185,38064,1,0,0:0:0:0:
250,185,38148,1,8,0:0:0:0:
250,185,38231,1,8,0:0:0:0:
250,185,38314,1,0,0:0:0:0:
250,185,38398,1,8,0:0:0:0:
249,186,38564,1,8,0:0:0:0:
250,185,38648,1,0,0:0:0:0:
250,185,38731,1,8,0:0:0:0:
249,185,38898,1,8,0:0:0:0:
250,185,38981,1,8,0:0:0:0:
250,185,39064,1,8,0:0:0:0:
250,185,39148,1,0,0:0:0:0:
250,185,39231,1,8,0:0:0:0:
250,185,39314,1,8,0:0:0:0:
250,185,39398,1,0,0:0:0:0:
249,186,39564,1,8,0:0:0:0:
250,185,39731,1,0,0:0:0:0:
249,185,39898,1,8,0:0:0:0:
250,185,39981,1,0,0:0:0:0:
250,185,40064,1,0,0:0:0:0:
250,185,40231,1,8,0:0:0:0:
250,185,40398,1,0,0:0:0:0:
249,186,40564,1,0,0:0:0:0:
250,185,40648,1,0,0:0:0:0:
250,185,40731,1,8,0:0:0:0:
247,179,40814,1,8,0:0:0:0:
247,179,40898,1,0,0:0:0:0:
247,179,40981,1,8,0:0:0:0:
244,185,41064,1,0,0:0:0:0:
244,185,41148,1,0,0:0:0:0:
244,185,41231,1,8,0:0:0:0:
244,185,41314,1,8,0:0:0:0:
244,185,41398,1,0,0:0:0:0:
249,186,41564,1,8,0:0:0:0:
244,185,41731,1,8,0:0:0:0:
244,185,41814,1,0,0:0:0:0:
244,185,41898,1,8,0:0:0:0:
244,185,42064,1,8,0:0:0:0:
244,185,42148,1,8,0:0:0:0:
244,185,42231,1,8,0:0:0:0:
244,185,42314,1,0,0:0:0:0:
244,185,42398,1,0,0:0:0:0:
249,186,42481,1,0,0:0:0:0:
249,186,42564,1,8,0:0:0:0:
244,185,42648,1,0,0:0:0:0:
247,180,42731,1,4,0:0:0:0:
247,181,43064,1,8,0:0:0:0:
247,181,43398,1,0,0:0:0:0:
247,181,43564,1,0,0:0:0:0:
247,180,43647,1,0,0:0:0:0:
244,181,43730,1,0,0:0:0:0:
247,180,43898,1,0,0:0:0:0:
247,181,44064,1,8,0:0:0:0:
247,181,44398,1,8,0:0:0:0:
249,181,44731,1,0,0:0:0:0:
247,180,44898,1,0,0:0:0:0:
247,181,44981,1,0,0:0:0:0:
247,181,45065,1,0,0:0:0:0:
247,181,45231,1,0,0:0:0:0:
247,181,45398,1,8,0:0:0:0:
247,180,45731,1,0,0:0:0:0:
247,181,45898,1,8,0:0:0:0:
247,181,46064,1,0,0:0:0:0:
247,181,46231,1,0,0:0:0:0:
247,180,46314,1,0,0:0:0:0:
247,180,46397,1,0,0:0:0:0:
247,180,46564,1,8,0:0:0:0:
247,180,46731,1,0,0:0:0:0:
247,181,46898,1,8,0:0:0:0:
247,181,47064,1,8,0:0:0:0:
247,181,47231,1,0,0:0:0:0:
247,180,47398,1,0,0:0:0:0:
247,181,47564,1,0,0:0:0:0:
247,181,47647,1,0,0:0:0:0:
247,181,47731,1,0,0:0:0:0:
247,181,47897,1,8,0:0:0:0:
247,181,48064,1,0,0:0:0:0:
247,180,48230,1,8,0:0:0:0:
247,181,48398,1,0,0:0:0:0:
242,180,48564,1,8,0:0:0:0:
240,179,48731,1,8,0:0:0:0:
247,180,48898,1,0,0:0:0:0:
247,181,48981,1,0,0:0:0:0:
247,181,49065,1,0,0:0:0:0:
242,179,49231,1,8,0:0:0:0:
242,179,49398,1,0,0:0:0:0:
247,181,49564,1,0,0:0:0:0:
247,179,49731,1,8,0:0:0:0:
247,181,49898,1,0,0:0:0:0:
248,183,50064,1,8,0:0:0:0:
247,180,50231,1,0,0:0:0:0:
248,183,50314,1,0,0:0:0:0:
248,183,50398,1,0,0:0:0:0:
247,180,50564,1,0,0:0:0:0:
247,179,50731,1,8,0:0:0:0:
247,181,50898,1,0,0:0:0:0:
248,183,51064,1,0,0:0:0:0:
247,180,51231,1,8,0:0:0:0:
243,179,51398,1,0,0:0:0:0:
247,181,51564,1,0,0:0:0:0:
248,183,51648,1,0,0:0:0:0:
248,183,51731,1,0,0:0:0:0:
247,181,51898,1,8,0:0:0:0:
248,183,52064,1,0,0:0:0:0:
242,179,52231,1,0,0:0:0:0:
247,180,52398,1,8,0:0:0:0:
242,179,52564,1,8,0:0:0:0:
238,177,52731,1,0,0:0:0:0:
240,176,52898,1,0,0:0:0:0:
240,176,52981,1,0,0:0:0:0:
240,176,53064,1,0,0:0:0:0:
242,179,53231,1,8,0:0:0:0:
238,176,53398,1,8,0:0:0:0:
242,179,53564,1,0,0:0:0:0:
240,176,53731,1,0,0:0:0:0:
240,176,53898,1,8,0:0:0:0:
240,176,54064,1,8,0:0:0:0:
242,179,54231,1,0,0:0:0:0:
243,178,54314,1,0,0:0:0:0:
243,178,54398,1,0,0:0:0:0:
242,179,54564,1,8,0:0:0:0:
240,176,54731,1,0,0:0:0:0:
240,176,54898,1,0,0:0:0:0:
240,176,55064,1,8,0:0:0:0:
242,179,55231,1,8,0:0:0:0:
243,178,55398,1,0,0:0:0:0:
242,179,55564,1,0,0:0:0:0:
240,176,55648,1,0,0:0:0:0:
240,176,55731,1,0,0:0:0:0:
240,176,55898,1,0,0:0:0:0:
240,176,56064,1,8,0:0:0:0:
242,179,56231,1,8,0:0:0:0:
243,178,56398,1,0,0:0:0:0:
242,179,56564,1,8,0:0:0:0:
240,176,56731,1,0,0:0:0:0:
240,176,56898,1,0,0:0:0:0:
240,176,56981,1,0,0:0:0:0:
240,176,57064,1,0,0:0:0:0:
242,179,57231,1,0,0:0:0:0:
243,178,57398,1,8,0:0:0:0:
239,174,57564,1,8,0:0:0:0:
240,176,57731,1,8,0:0:0:0:
240,176,57898,1,0,0:0:0:0:
240,176,58064,1,8,0:0:0:0:
242,179,58231,1,0,0:0:0:0:
243,178,58314,1,0,0:0:0:0:
243,178,58398,1,0,0:0:0:0:
239,174,58564,1,0,0:0:0:0:
240,176,58731,1,8,0:0:0:0:
240,176,58898,1,0,0:0:0:0:
240,176,59064,1,8,0:0:0:0:
236,176,59231,1,8,0:0:0:0:
235,176,59398,1,0,0:0:0:0:
239,174,59564,1,0,0:0:0:0:
240,176,59648,1,0,0:0:0:0:
240,176,59731,1,0,0:0:0:0:
240,176,59898,1,0,0:0:0:0:
240,176,60064,1,8,0:0:0:0:
241,176,60231,1,0,0:0:0:0:
241,176,60398,1,0,0:0:0:0:
239,174,60564,1,0,0:0:0:0:
240,176,60731,1,8,0:0:0:0:
240,176,60898,1,0,0:0:0:0:
240,176,60981,1,0,0:0:0:0:
240,176,61064,1,0,0:0:0:0:
241,176,61231,1,0,0:0:0:0:
241,176,61398,1,8,0:0:0:0:
239,179,61564,1,0,0:0:0:0:
240,176,61731,1,0,0:0:0:0:
240,176,61898,1,8,0:0:0:0:
240,176,62064,1,8,0:0:0:0:
241,176,62231,1,0,0:0:0:0:
241,176,62314,1,8,0:0:0:0:
241,176,62398,1,8,0:0:0:0:
239,179,62564,1,0,0:0:0:0:
240,176,62731,1,4,0:0:0:0:
240,176,63064,1,12,0:0:0:0:
241,176,63398,1,0,0:0:0:0:
244,178,63481,1,0,0:0:0:0:
244,176,63564,1,8,0:0:0:0:
244,176,63648,1,8,0:0:0:0:
240,176,63731,1,0,0:0:0:0:
240,176,63814,1,8,0:0:0:0:
240,176,63898,1,0,0:0:0:0:
240,176,63981,1,0,0:0:0:0:
240,176,64064,1,12,0:0:0:0:
241,176,64231,1,8,0:0:0:0:
241,176,64398,1,8,0:0:0:0:
244,178,64481,1,8,0:0:0:0:
247,180,64564,1,0,0:0:0:0:
247,180,64648,1,8,0:0:0:0:
247,180,64731,1,0,0:0:0:0:
252,183,64898,1,0,0:0:0:0:
252,184,65064,1,8,0:0:0:0:
252,184,65148,1,8,0:0:0:0:
252,184,65231,1,8,0:0:0:0:
252,185,65398,1,0,0:0:0:0:
252,185,65564,1,0,0:0:0:0:
252,185,65648,1,0,0:0:0:0:
252,185,65731,1,8,0:0:0:0:
252,183,65898,1,0,0:0:0:0:
252,183,65981,1,8,0:0:0:0:
252,184,66064,1,0,0:0:0:0:
252,184,66148,1,0,0:0:0:0:
252,185,66231,1,8,0:0:0:0:
252,185,66287,1,8,0:0:0:0:
252,185,66342,1,8,0:0:0:0:
252,185,66398,1,0,0:0:0:0:
252,185,66564,1,8,0:0:0:0:
252,185,66731,1,0,0:0:0:0:
252,183,66814,1,8,0:0:0:0:
252,183,66898,1,0,0:0:0:0:
252,184,67064,1,0,0:0:0:0:
252,184,67148,1,8,0:0:0:0:
252,184,67231,1,8,0:0:0:0:
252,185,67314,1,0,0:0:0:0:
252,185,67398,1,0,0:0:0:0:
252,185,67564,1,8,0:0:0:0:
252,185,67731,1,8,0:0:0:0:
252,183,67814,1,8,0:0:0:0:
252,183,67898,1,0,0:0:0:0:
252,184,68064,1,0,0:0:0:0:
252,184,68148,1,0,0:0:0:0:
252,184,68231,1,8,0:0:0:0:
252,184,68287,1,0,0:0:0:0:
252,184,68343,1,0,0:0:0:0:
252,184,68398,1,8,0:0:0:0:
252,185,68481,1,0,0:0:0:0:
252,185,68564,1,0,0:0:0:0:
252,185,68648,1,8,0:0:0:0:
252,185,68731,1,0,0:0:0:0:
252,183,68898,1,0,0:0:0:0:
252,184,69064,1,0,0:0:0:0:
252,184,69231,1,8,0:0:0:0:
252,184,69314,1,0,0:0:0:0:
252,184,69398,1,8,0:0:0:0:
252,185,69481,1,0,0:0:0:0:
252,185,69564,1,0,0:0:0:0:
252,185,69731,1,0,0:0:0:0:
252,183,69898,1,8,0:0:0:0:
252,184,70064,1,0,0:0:0:0:
252,184,70148,1,8,0:0:0:0:
252,184,70231,1,8,0:0:0:0:
252,184,70398,1,0,0:0:0:0:
252,185,70481,1,0,0:0:0:0:
252,185,70564,1,8,0:0:0:0:
252,185,70731,1,0,0:0:0:0:
256,190,70898,1,0,0:0:0:0:
256,190,70981,1,8,0:0:0:0:
256,190,71064,1,0,0:0:0:0:
254,191,71231,1,8,0:0:0:0:
254,191,71398,1,0,0:0:0:0:
256,191,71481,1,8,0:0:0:0:
256,191,71564,1,0,0:0:0:0:
256,191,71620,1,0,0:0:0:0:
256,191,71675,1,8,0:0:0:0:
256,190,71731,1,8,0:0:0:0:
256,190,71898,1,8,0:0:0:0:
256,190,72064,1,0,0:0:0:0:
254,191,72231,1,0,0:0:0:0:
254,191,72314,1,0,0:0:0:0:
254,191,72398,1,8,0:0:0:0:
256,191,72564,1,8,0:0:0:0:
256,191,72731,1,0,0:0:0:0:
256,190,72814,1,8,0:0:0:0:
256,190,72898,1,8,0:0:0:0:
256,190,73064,1,0,0:0:0:0:
256,185,73231,1,0,0:0:0:0:
256,185,73314,1,0,0:0:0:0:
256,185,73398,1,8,0:0:0:0:
256,185,73481,1,0,0:0:0:0:
256,188,73564,1,8,0:0:0:0:
256,188,73620,1,8,0:0:0:0:
256,188,73676,1,8,0:0:0:0:
256,188,73731,1,0,0:0:0:0:
256,190,73814,1,8,0:0:0:0:
256,188,73898,1,0,0:0:0:0:
256,188,74064,1,0,0:0:0:0:
256,185,74231,1,8,0:0:0:0:
256,185,74398,1,0,0:0:0:0:
256,185,74481,1,8,0:0:0:0:
256,188,74564,1,8,0:0:0:0:
256,183,74731,1,8,0:0:0:0:
257,183,74898,1,8,0:0:0:0:
257,183,74981,1,0,0:0:0:0:
257,183,75064,1,8,0:0:0:0:
256,185,75148,1,8,0:0:0:0:
256,185,75231,1,0,0:0:0:0:
256,185,75314,1,0,0:0:0:0:
256,185,75398,1,8,0:0:0:0:
257,181,75564,1,8,0:0:0:0:
256,183,75648,1,8,0:0:0:0:
256,183,75731,1,8,0:0:0:0:
257,183,75898,1,0,0:0:0:0:
257,183,75981,1,8,0:0:0:0:
257,183,76064,1,0,0:0:0:0:
256,185,76231,1,0,0:0:0:0:
256,185,76398,1,8,0:0:0:0:
257,181,76481,1,8,0:0:0:0:
257,181,76564,1,0,0:0:0:0:
256,183,76731,1,8,0:0:0:0:
257,183,76814,1,0,0:0:0:0:
257,183,76898,1,8,0:0:0:0:
257,183,76953,1,8,0:0:0:0:
257,183,77009,1,0,0:0:0:0:
257,183,77064,1,0,0:0:0:0:
256,185,77148,1,0,0:0:0:0:
256,185,77231,1,8,0:0:0:0:
256,185,77398,1,0,0:0:0:0:
257,181,77564,1,0,0:0:0:0:
256,183,77731,1,8,0:0:0:0:
257,183,77814,1,8,0:0:0:0:
257,183,77898,1,0,0:0:0:0:
257,183,78064,1,0,0:0:0:0:
256,185,78148,1,0,0:0:0:0:
256,185,78231,1,8,0:0:0:0:
256,185,78314,1,8,0:0:0:0:
256,185,78398,1,0,0:0:0:0:
257,181,78564,1,8,0:0:0:0:
256,183,78731,1,8,0:0:0:0:
257,183,78814,1,8,0:0:0:0:
257,183,78898,1,0,0:0:0:0:
257,183,78953,1,8,0:0:0:0:
257,183,79009,1,8,0:0:0:0:
257,183,79064,1,0,0:0:0:0:
256,185,79148,1,8,0:0:0:0:
256,185,79231,1,0,0:0:0:0:
256,185,79398,1,0,0:0:0:0:
257,181,79564,1,0,0:0:0:0:
256,183,79731,1,8,0:0:0:0:
257,183,79814,1,8,0:0:0:0:
257,183,79898,1,0,0:0:0:0:
257,183,80064,1,8,0:0:0:0:
254,177,80231,1,0,0:0:0:0:
254,176,80398,1,8,0:0:0:0:
257,181,80481,1,8,0:0:0:0:
257,181,80564,1,0,0:0:0:0:
254,176,80648,1,8,0:0:0:0:
254,176,80731,1,8,0:0:0:0:
255,175,80898,1,0,0:0:0:0:
252,172,81064,1,0,0:0:0:0:
254,177,81148,1,8,0:0:0:0:
254,177,81231,1,8,0:0:0:0:
254,176,81398,1,0,0:0:0:0:
252,174,81564,1,8,0:0:0:0:
254,176,81648,1,8,0:0:0:0:
254,176,81731,1,8,0:0:0:0:
255,175,81898,1,8,0:0:0:0:
251,179,82064,1,0,0:0:0:0:
247,178,82148,1,0,0:0:0:0:
254,177,82231,1,8,0:0:0:0:
254,176,82285,1,8,0:0:0:0:
254,176,82342,1,8,0:0:0:0:
252,174,82397,1,0,0:0:0:0:
252,174,82564,1,0,0:0:0:0:
254,176,82731,1,0,0:0:0:0:
255,175,82898,1,0,0:0:0:0:
251,179,83064,1,0,0:0:0:0:
254,177,83231,1,8,0:0:0:0:
255,178,83398,1,8,0:0:0:0:
255,178,83564,1,0,0:0:0:0:
254,181,83731,1,8,0:0:0:0:
254,181,83898,1,8,0:0:0:0:
251,179,84064,1,0,0:0:0:0:
254,176,84231,1,8,0:0:0:0:
255,175,84287,1,8,0:0:0:0:
255,175,84342,1,8,0:0:0:0:
255,175,84398,1,0,0:0:0:0:
255,178,84564,1,0,0:0:0:0:
254,176,84731,1,4,0:0:0:0:
255,176,84898,1,8,0:0:0:0:
255,176,84981,1,8,0:0:0:0:
255,176,85064,1,0,0:0:0:0:
254,176,85231,1,0,0:0:0:0:
255,175,85398,1,0,0:0:0:0:
253,173,85564,1,0,0:0:0:0:
254,176,85731,1,0,0:0:0:0:
255,176,85898,1,8,0:0:0:0:
255,176,86064,1,8,0:0:0:0:
254,176,86231,1,8,0:0:0:0:
255,175,86398,1,0,0:0:0:0:
253,173,86564,1,8,0:0:0:0:
254,176,86731,1,0,0:0:0:0:
255,176,86898,1,0,0:0:0:0:
255,176,87064,1,0,0:0:0:0:
254,176,87148,1,0,0:0:0:0:
254,176,87231,1,0,0:0:0:0:
255,175,87398,1,8,0:0:0:0:
253,173,87564,1,0,0:0:0:0:
254,176,87731,1,0,0:0:0:0:
255,176,87898,1,0,0:0:0:0:
255,176,87981,1,8,0:0:0:0:
255,176,88064,1,8,0:0:0:0:
254,176,88231,1,0,0:0:0:0:
255,175,88398,1,8,0:0:0:0:
253,173,88481,1,8,0:0:0:0:
253,173,88564,1,8,0:0:0:0:
254,176,88731,1,8,0:0:0:0:
255,176,88898,1,0,0:0:0:0:
255,176,89064,1,0,0:0:0:0:
254,176,89231,1,8,0:0:0:0:
255,175,89398,1,8,0:0:0:0:
256,179,89481,1,8,0:0:0:0:
256,179,89564,1,0,0:0:0:0:
254,176,89648,1,8,0:0:0:0:
254,176,89731,1,0,0:0:0:0:
255,176,89898,1,0,0:0:0:0:
250,174,90064,1,8,0:0:0:0:
254,176,90148,1,0,0:0:0:0:
248,172,90231,1,8,0:0:0:0:
251,170,90314,1,8,0:0:0:0:
251,169,90398,1,0,0:0:0:0:
253,167,90564,1,8,0:0:0:0:
251,169,90731,1,0,0:0:0:0:
251,169,90898,1,0,0:0:0:0:
251,168,91064,1,0,0:0:0:0:
251,168,91231,1,0,0:0:0:0:
251,169,91398,1,8,0:0:0:0:
253,167,91564,1,0,0:0:0:0:
251,169,91731,1,0,0:0:0:0:
251,169,91898,1,8,0:0:0:0:
251,168,92064,1,8,0:0:0:0:
251,168,92231,1,8,0:0:0:0:
251,169,92398,1,0,0:0:0:0:
245,169,92481,1,0,0:0:0:0:
247,165,92564,1,0,0:0:0:0:
245,169,92731,1,0,0:0:0:0:
246,165,92898,1,0,0:0:0:0:
245,168,93064,1,8,0:0:0:0:
245,168,93148,1,0,0:0:0:0:
245,168,93231,1,0,0:0:0:0:
245,168,93398,1,8,0:0:0:0:
243,169,93564,1,8,0:0:0:0:
245,169,93648,1,0,0:0:0:0:
245,169,93731,1,8,0:0:0:0:
248,170,93898,1,8,0:0:0:0:
245,168,94064,1,8,0:0:0:0:
245,168,94148,1,8,0:0:0:0:
245,168,94231,1,0,0:0:0:0:
245,168,94398,1,0,0:0:0:0:
243,169,94564,1,8,0:0:0:0:
245,169,94731,1,8,0:0:0:0:
248,170,94814,1,8,0:0:0:0:
248,170,94898,1,0,0:0:0:0:
245,168,94981,1,8,0:0:0:0:
245,168,95064,1,0,0:0:0:0:
245,168,95231,1,8,0:0:0:0:
245,168,95398,1,0,0:0:0:0:
243,169,95481,1,8,0:0:0:0:
243,169,95564,1,0,0:0:0:0:
245,169,95648,1,8,0:0:0:0:
245,169,95731,1,8,0:0:0:0:
251,179,95898,1,0,0:0:0:0:
251,179,96064,1,0,0:0:0:0:
250,180,96231,1,0,0:0:0:0:
251,180,96398,1,8,0:0:0:0:
251,180,96564,1,8,0:0:0:0:
251,180,96731,1,8,0:0:0:0:
251,179,96898,1,0,0:0:0:0:
251,179,97064,1,8,0:0:0:0:
250,180,97231,1,0,0:0:0:0:
251,180,97398,1,0,0:0:0:0:
251,180,97564,1,8,0:0:0:0:
251,180,97731,1,0,0:0:0:0:
251,179,97898,1,8,0:0:0:0:
251,179,97981,1,8,0:0:0:0:
251,179,98064,1,8,0:0:0:0:
250,180,98231,1,0,0:0:0:0:
251,180,98314,1,0,0:0:0:0:
251,180,98398,1,8,0:0:0:0:
251,180,98564,1,8,0:0:0:0:
251,180,98648,1,0,0:0:0:0:
251,180,98731,1,8,0:0:0:0:
251,179,98898,1,0,0:0:0:0:
251,179,99064,1,0,0:0:0:0:
250,180,99148,1,8,0:0:0:0:
250,180,99231,1,8,0:0:0:0:
251,180,99314,1,0,0:0:0:0:
251,180,99398,1,8,0:0:0:0:
251,180,99564,1,0,0:0:0:0:
251,180,99731,1,8,0:0:0:0:
251,179,99814,1,0,0:0:0:0:
251,179,99898,1,8,0:0:0:0:
251,179,99981,1,8,0:0:0:0:
251,179,100064,1,0,0:0:0:0:
250,180,100231,1,8,0:0:0:0:
251,180,100314,1,0,0:0:0:0:
251,180,100398,1,0,0:0:0:0:
251,180,100564,1,0,0:0:0:0:
251,180,100648,1,8,0:0:0:0:
251,180,100731,1,0,0:0:0:0:
251,179,100898,1,0,0:0:0:0:
251,179,101064,1,0,0:0:0:0:
250,180,101231,1,8,0:0:0:0:
251,180,101398,1,0,0:0:0:0:
251,180,101564,1,8,0:0:0:0:
251,180,101731,1,8,0:0:0:0:
251,179,101898,1,0,0:0:0:0:
251,179,102064,1,8,0:0:0:0:
250,180,102231,1,0,0:0:0:0:
251,180,102398,1,8,0:0:0:0:
251,180,102564,1,8,0:0:0:0:
251,180,102731,1,0,0:0:0:0:
251,179,102898,1,0,0:0:0:0:
251,179,103064,1,8,0:0:0:0:
250,180,103231,1,0,0:0:0:0:
251,180,103398,1,8,0:0:0:0:
251,180,103564,1,0,0:0:0:0:
249,183,103648,1,0,0:0:0:0:
251,180,103731,1,0,0:0:0:0:
251,179,103898,1,0,0:0:0:0:
251,179,104064,1,8,0:0:0:0:
250,180,104231,1,8,0:0:0:0:
251,180,104314,1,8,0:0:0:0:
251,180,104398,1,0,0:0:0:0:
251,180,104564,1,8,0:0:0:0:
251,180,104731,1,8,0:0:0:0:
251,179,104898,1,8,0:0:0:0:
251,179,104981,1,0,0:0:0:0:
251,179,105064,1,8,0:0:0:0:
250,180,105231,1,8,0:0:0:0:
251,180,105398,1,0,0:0:0:0:
251,180,105481,1,8,0:0:0:0:
251,180,105564,1,8,0:0:0:0:
251,180,105648,1,0,0:0:0:0:
251,180,105731,1,0,0:0:0:0:
251,179,105814,1,8,0:0:0:0:
251,179,105898,1,0,0:0:0:0:
251,179,105981,1,8,0:0:0:0:
251,179,106064,1,8,0:0:0:0:
250,180,106231,1,0,0:0:0:0:
251,180,106314,1,0,0:0:0:0:
251,180,106398,1,0,0:0:0:0:
251,180,106564,1,0,0:0:0:0:
251,180,106731,1,8,0:0:0:0:
251,179,106898,1,0,0:0:0:0:
251,179,107064,1,8,0:0:0:0:
250,180,107231,1,0,0:0:0:0:
251,180,107314,1,0,0:0:0:0:
251,180,107398,1,8,0:0:0:0:
251,180,107564,1,8,0:0:0:0:
251,180,107731,1,8,0:0:0:0:
251,179,107814,1,0,0:0:0:0:
251,179,107898,1,0,0:0:0:0:
251,179,108064,1,8,0:0:0:0:
250,180,108148,1,0,0:0:0:0:
250,180,108231,1,8,0:0:0:0:
251,180,108314,1,0,0:0:0:0:
251,180,108398,1,0,0:0:0:0:
251,180,108481,1,0,0:0:0:0:
251,180,108564,1,8,0:0:0:0:
251,180,108648,1,8,0:0:0:0:
251,180,108731,1,0,0:0:0:0:
251,179,108814,1,8,0:0:0:0:
251,179,108898,1,8,0:0:0:0:
251,179,108953,1,8,0:0:0:0:
251,179,109009,1,0,0:0:0:0:
251,179,109064,1,0,0:0:0:0:
250,180,109231,1,0,0:0:0:0:
251,180,109398,1,0,0:0:0:0:
251,180,109481,1,0,0:0:0:0:
251,180,109564,1,8,0:0:0:0:
254,189,109648,1,8,0:0:0:0:
254,189,109731,1,0,0:0:0:0:
254,189,109814,1,8,0:0:0:0:
254,189,109898,1,0,0:0:0:0:
254,189,109981,1,0,0:0:0:0:
254,189,110064,1,0,0:0:0:0:
254,189,110148,1,8,0:0:0:0:
254,189,110231,1,0,0:0:0:0:
254,189,110314,1,8,0:0:0:0:
254,189,110398,1,8,0:0:0:0:
254,189,110481,1,8,0:0:0:0:
254,189,110564,1,0,0:0:0:0:
254,189,110648,1,8,0:0:0:0:
255,189,110731,1,0,0:0:0:0:
255,189,110787,1,0,0:0:0:0:
255,189,110842,1,8,0:0:0:0:
255,189,110898,1,0,0:0:0:0:
255,189,110981,1,0,0:0:0:0:
255,189,111064,1,0,0:0:0:0:
255,189,111148,1,8,0:0:0:0:
255,189,111231,1,8,0:0:0:0:
255,189,111314,1,0,0:0:0:0:
255,189,111398,1,8,0:0:0:0:
254,189,111564,1,0,0:0:0:0:
254,189,111648,1,8,0:0:0:0:
255,189,111731,1,0,0:0:0:0:
255,189,111898,1,0,0:0:0:0:
255,189,112064,1,0,0:0:0:0:
255,189,112231,1,8,0:0:0:0:
255,189,112398,1,0,0:0:0:0:
254,189,112564,1,8,0:0:0:0:
254,189,112648,1,0,0:0:0:0:
255,189,112731,1,0,0:0:0:0:
255,189,112898,1,8,0:0:0:0:
255,189,113064,1,8,0:0:0:0:
255,189,113148,1,0,0:0:0:0:
255,189,113231,1,0,0:0:0:0:
255,189,113398,1,0,0:0:0:0:
254,189,113481,1,8,0:0:0:0:
254,189,113564,1,8,0:0:0:0:
254,189,113648,1,0,0:0:0:0:
255,189,113731,1,8,0:0:0:0:
255,189,113814,1,8,0:0:0:0:
255,189,113898,1,0,0:0:0:0:
255,189,113981,1,8,0:0:0:0:
255,189,114064,1,8,0:0:0:0:
255,189,114148,1,0,0:0:0:0:
255,189,114231,1,8,0:0:0:0:
255,189,114287,1,0,0:0:0:0:
255,189,114342,1,0,0:0:0:0:
255,189,114398,1,0,0:0:0:0:
254,189,114481,1,8,0:0:0:0:
254,189,114564,1,0,0:0:0:0:
255,189,114648,1,8,0:0:0:0:
255,189,114731,1,8,0:0:0:0:
255,189,114898,1,0,0:0:0:0:
255,189,115064,1,8,0:0:0:0:
255,189,115231,1,8,0:0:0:0:
255,189,115314,1,8,0:0:0:0:
255,189,115398,1,0,0:0:0:0:
254,189,115481,1,8,0:0:0:0:
254,189,115564,1,8,0:0:0:0:
255,189,115648,1,8,0:0:0:0:
255,189,115731,1,0,0:0:0:0:
255,189,115814,1,0,0:0:0:0:
255,189,115898,1,0,0:0:0:0:
255,189,115981,1,8,0:0:0:0:
255,189,116064,1,0,0:0:0:0:
255,189,116231,1,8,0:0:0:0:
255,189,116398,1,8,0:0:0:0:
254,189,116564,1,0,0:0:0:0:
255,189,116731,1,0,0:0:0:0:
255,189,116898,1,0,0:0:0:0:
255,189,116981,1,8,0:0:0:0:
255,189,117064,1,0,0:0:0:0:
255,189,117231,1,0,0:0:0:0:
255,189,117398,1,8,0:0:0:0:
255,189,117564,1,0,0:0:0:0:
255,189,117731,1,8,0:0:0:0:
255,189,117898,1,8,0:0:0:0:
255,189,117981,1,8,0:0:0:0:
255,189,118064,1,0,0:0:0:0:
255,189,118231,1,0,0:0:0:0:
255,189,118398,1,8,0:0:0:0:
255,189,118564,1,0,0:0:0:0:
255,189,118648,1,0,0:0:0:0:
255,189,118731,1,0,0:0:0:0:
255,189,118898,1,8,0:0:0:0:
255,189,119064,1,0,0:0:0:0:
255,189,119148,1,0,0:0:0:0:
255,189,119231,1,8,0:0:0:0:
255,189,119398,1,8,0:0:0:0:
255,189,119481,1,0,0:0:0:0:
255,189,119564,1,8,0:0:0:0:
255,189,119620,1,0,0:0:0:0:
255,189,119676,1,0,0:0:0:0:
255,189,119731,1,8,0:0:0:0:
255,189,119814,1,0,0:0:0:0:
255,189,119898,1,8,0:0:0:0:
255,189,120064,1,0,0:0:0:0:
255,189,120398,1,0,0:0:0:0:
255,189,120731,1,8,0:0:0:0:
255,189,120898,1,8,0:0:0:0:
255,189,121231,1,8,0:0:0:0:
255,189,121564,1,8,0:0:0:0:
255,189,121620,1,8,0:0:0:0:
251,183,121676,1,8,0:0:0:0:
251,182,121731,1,0,0:0:0:0:
251,182,122064,1,0,0:0:0:0:
251,183,122398,1,8,0:0:0:0:
251,182,122731,1,8,0:0:0:0:
251,182,123064,1,0,0:0:0:0:
251,183,123398,1,8,0:0:0:0:
251,182,123731,1,0,0:0:0:0:
251,182,124064,1,8,0:0:0:0:
251,183,124231,1,0,0:0:0:0:
251,183,124564,1,8,0:0:0:0:
251,182,124898,1,0,0:0:0:0:
251,182,124953,1,0,0:0:0:0:
251,182,125009,1,0,0:0:0:0:
251,182,125064,1,8,0:0:0:0:
251,183,125398,1,0,0:0:0:0:
251,182,125731,1,0,0:0:0:0:
251,182,126064,1,8,0:0:0:0:
251,183,126231,1,8,0:0:0:0:
251,182,126564,1,0,0:0:0:0:
251,182,126898,1,8,0:0:0:0:
251,182,127064,1,0,0:0:0:0:
251,182,127231,1,0,0:0:0:0:
251,182,127398,1,8,0:0:0:0:
251,182,127564,1,8,0:0:0:0:
251,182,127731,1,0,0:0:0:0:
256,187,138731,5,4,0:0:0:0:
256,187,139064,1,8,0:0:0:0:
256,187,139398,1,8,0:0:0:0:
256,187,139564,1,0,0:0:0:0:
256,187,139731,1,0,0:0:0:0:
256,187,139898,1,8,0:0:0:0:
256,187,140064,1,8,0:0:0:0:
256,187,140231,1,0,0:0:0:0:
256,187,140398,1,8,0:0:0:0:
256,187,140564,1,0,0:0:0:0:
256,187,140731,1,8,0:0:0:0:
256,187,141064,1,8,0:0:0:0:
256,187,141398,1,0,0:0:0:0:
256,187,142064,1,0,0:0:0:0:
256,187,142398,1,8,0:0:0:0:
41,81,142731,2,0,L|344:74,1,280
256,187,143731,5,8,0:0:0:0:
256,187,144064,1,0,0:0:0:0:
255,186,144398,1,8,0:0:0:0:
255,186,144564,1,8,0:0:0:0:
255,186,144731,1,0,0:0:0:0:
255,186,144898,1,8,0:0:0:0:
255,186,145064,1,0,0:0:0:0:
255,186,145231,1,0,0:0:0:0:
255,186,145398,1,8,0:0:0:0:
255,186,145564,1,8,0:0:0:0:
255,186,145731,1,8,0:0:0:0:
255,186,145898,1,0,0:0:0:0:
255,186,146064,1,0,0:0:0:0:
255,186,146398,1,0,0:0:0:0:
255,186,146731,1,0,0:0:0:0:
255,186,147064,1,8,0:0:0:0:
255,186,147398,1,0,0:0:0:0:
61,87,147731,2,0,L|341:79,1,280
256,188,148731,1,0,0:0:0:0:
256,188,149064,1,4,0:0:0:0:
256,188,149398,1,8,0:0:0:0:
256,188,149564,1,8,0:0:0:0:
256,188,149731,1,0,0:0:0:0:
256,188,149898,1,0,0:0:0:0:
256,188,150064,1,8,0:0:0:0:
256,188,150231,1,0,0:0:0:0:
256,188,150398,1,8,0:0:0:0:
256,188,150564,1,8,0:0:0:0:
256,188,150731,1,0,0:0:0:0:
256,188,150814,1,8,0:0:0:0:
256,188,150898,1,0,0:0:0:0:
256,188,151064,1,0,0:0:0:0:
256,188,151231,1,8,0:0:0:0:
256,188,151314,1,8,0:0:0:0:
256,188,151398,1,0,0:0:0:0:
256,188,151564,1,8,0:0:0:0:
256,188,151731,1,0,0:0:0:0:
256,188,151898,1,8,0:0:0:0:
255,184,152064,1,0,0:0:0:0:
256,182,152231,1,8,0:0:0:0:
256,188,152398,1,8,0:0:0:0:
256,181,152564,1,0,0:0:0:0:
256,181,152731,1,0,0:0:0:0:
256,181,152898,1,8,0:0:0:0:
256,181,153064,1,8,0:0:0:0:
256,181,153231,1,0,0:0:0:0:
256,181,153398,1,0,0:0:0:0:
256,181,153564,1,8,0:0:0:0:
256,181,153731,1,8,0:0:0:0:
256,181,153898,1,0,0:0:0:0:
256,181,154064,1,0,0:0:0:0:
256,181,154148,1,8,0:0:0:0:
256,181,154231,1,0,0:0:0:0:
256,181,154314,1,0,0:0:0:0:
256,181,154398,1,8,0:0:0:0:
256,181,154564,1,4,0:0:0:0:
256,181,154731,1,0,0:0:0:0:
256,181,155064,1,8,0:0:0:0:
256,181,155231,1,8,0:0:0:0:
256,181,155398,1,0,0:0:0:0:
256,181,155564,1,8,0:0:0:0:
256,181,155731,1,0,0:0:0:0:
256,181,155898,1,0,0:0:0:0:
256,181,156064,1,8,0:0:0:0:
256,181,156231,1,0,0:0:0:0:
256,181,156398,1,8,0:0:0:0:
256,181,156481,1,0,0:0:0:0:
256,181,156564,1,0,0:0:0:0:
251,177,156731,1,0,0:0:0:0:
256,181,156898,1,0,0:0:0:0:
256,181,157064,1,0,0:0:0:0:
256,181,157231,1,8,0:0:0:0:
256,181,157398,1,8,0:0:0:0:
251,177,157731,1,0,0:0:0:0:
256,181,158064,1,8,0:0:0:0:
67,85,158398,2,0,L|371:82,1,280
255,191,159731,1,0,0:0:0:0:
255,191,159814,1,0,0:0:0:0:
255,191,159898,1,8,0:0:0:0:
255,191,159981,1,8,0:0:0:0:
255,191,160064,1,0,0:0:0:0:
255,191,160398,1,8,0:0:0:0:
255,191,160564,1,8,0:0:0:0:
255,191,160731,1,8,0:0:0:0:
255,191,160898,1,0,0:0:0:0:
255,191,161064,1,0,0:0:0:0:
255,191,161231,1,8,0:0:0:0:
255,191,161398,1,0,0:0:0:0:
255,191,161481,1,0,0:0:0:0:
255,191,161564,1,0,0:0:0:0:
255,191,161731,1,0,0:0:0:0:
255,191,161898,1,8,0:0:0:0:
255,191,162064,1,0,0:0:0:0:
255,191,162231,1,8,0:0:0:0:
255,191,162398,1,0,0:0:0:0:
255,191,162481,1,0,0:0:0:0:
255,191,162564,1,8,0:0:0:0:
255,191,162731,1,0,0:0:0:0:
255,191,163064,1,0,0:0:0:0:
255,191,163231,1,0,0:0:0:0:
255,191,163398,1,0,0:0:0:0:
255,191,163564,1,8,0:0:0:0:
255,191,163731,1,8,0:0:0:0:
255,191,163898,1,0,0:0:0:0:
255,191,163981,1,0,0:0:0:0:
255,191,164064,1,0,0:0:0:0:
255,191,164231,1,0,0:0:0:0:
255,191,164398,1,8,0:0:0:0:
255,191,164564,1,8,0:0:0:0:
255,191,164648,1,8,0:0:0:0:
255,191,164731,1,0,0:0:0:0:
255,191,164898,1,8,0:0:0:0:
255,191,165064,1,8,0:0:0:0:
58,50,165398,2,0,P|93:275|428:130,1,700
255,189,167398,1,8,0:0:0:0:
255,189,167731,1,0,0:0:0:0:
256,192,168064,12,0,170398,0:0:0:0:
254,190,170731,5,0,0:0:0:0:
254,190,171398,1,8,0:0:0:0:
254,190,172064,1,0,0:0:0:0:
255,190,176064,1,0,0:0:0:0:
254,191,181398,5,8,0:0:0:0:
254,191,182064,1,0,0:0:0:0:
254,191,182731,1,8,0:0:0:0:
253,191,186731,1,0,0:0:0:0:
255,192,190731,1,8,0:0:0:0:
255,192,190898,1,4,0:0:0:0:
255,192,191064,1,12,0:0:0:0:
255,192,191231,1,0,0:0:0:0:
255,192,191314,1,8,0:0:0:0:
255,192,191397,1,0,0:0:0:0:
255,192,191648,1,12,0:0:0:0:
255,192,191898,1,12,0:0:0:0:
255,192,192064,1,12,0:0:0:0:
255,192,192231,1,8,0:0:0:0:
255,192,192287,1,8,0:0:0:0:
255,192,192343,1,8,0:0:0:0:
255,192,192398,1,0,0:0:0:0:
255,192,192564,1,0,0:0:0:0:
255,192,192648,1,0,0:0:0:0:
255,192,192731,1,8,0:0:0:0:
255,192,192814,1,0,0:0:0:0:
255,192,192898,1,8,0:0:0:0:
255,192,192953,1,0,0:0:0:0:
255,192,193009,1,0,0:0:0:0:
255,192,193064,1,8,0:0:0:0:
255,192,193231,1,0,0:0:0:0:
255,192,193314,1,8,0:0:0:0:
255,192,193398,1,0,0:0:0:0:
255,192,193481,1,0,0:0:0:0:
255,192,193564,1,8,0:0:0:0:
255,192,193731,1,8,0:0:0:0:
255,192,193814,1,0,0:0:0:0:
255,192,193981,1,0,0:0:0:0:
255,192,194064,1,8,0:0:0:0:
255,192,194231,1,0,0:0:0:0:
255,192,194314,1,8,0:0:0:0:
255,192,194398,1,8,0:0:0:0:
255,192,194481,1,0,0:0:0:0:
255,192,194564,1,8,0:0:0:0:
255,192,194648,1,0,0:0:0:0:
255,192,194731,1,8,0:0:0:0:
255,192,194898,1,0,0:0:0:0:
255,192,194981,1,0,0:0:0:0:
255,192,195064,1,8,0:0:0:0:
255,192,195148,1,0,0:0:0:0:
255,192,195231,1,8,0:0:0:0:
255,192,195398,1,0,0:0:0:0:
255,192,195481,1,8,0:0:0:0:
255,192,195564,1,8,0:0:0:0:
255,192,195648,1,0,0:0:0:0:
255,192,195731,1,8,0:0:0:0:
255,192,195898,1,0,0:0:0:0:
255,192,195981,1,0,0:0:0:0:
255,192,196064,1,8,0:0:0:0:
255,192,196231,1,12,0:0:0:0:
255,192,196398,1,12,0:0:0:0:
255,192,196564,1,8,0:0:0:0:
255,192,196648,1,0,0:0:0:0:
255,192,196731,1,8,0:0:0:0:
256,191,196898,1,8,0:0:0:0:
256,191,196981,1,0,0:0:0:0:
256,191,197148,1,0,0:0:0:0:
256,191,197231,1,8,0:0:0:0:
255,192,197398,1,4,0:0:0:0:
255,192,197564,1,0,0:0:0:0:
255,192,197648,1,0,0:0:0:0:
255,192,197731,1,8,0:0:0:0:
256,191,197814,1,0,0:0:0:0:
256,191,197898,1,8,0:0:0:0:
256,191,197981,1,8,0:0:0:0:
256,191,198064,1,0,0:0:0:0:
256,191,198231,1,0,0:0:0:0:
255,192,198314,1,0,0:0:0:0:
255,192,198398,1,8,0:0:0:0:
255,192,198481,1,0,0:0:0:0:
255,192,198564,1,8,0:0:0:0:
255,192,198731,1,4,0:0:0:0:
256,191,198898,1,0,0:0:0:0:
256,191,198981,1,8,0:0:0:0:
256,191,199148,1,8,0:0:0:0:
256,191,199231,1,0,0:0:0:0:
255,192,199398,1,8,0:0:0:0:
255,192,199481,1,8,0:0:0:0:
255,192,199648,1,0,0:0:0:0:
255,192,199731,1,0,0:0:0:0:
256,191,199898,1,0,0:0:0:0:
256,191,199981,1,8,0:0:0:0:
256,191,200064,1,0,0:0:0:0:
256,191,200148,1,0,0:0:0:0:
256,191,200231,1,0,0:0:0:0:
255,192,200314,1,8,0:0:0:0:
255,192,200398,1,0,0:0:0:0:
255,192,200564,1,8,0:0:0:0:
255,192,200648,1,0,0:0:0:0:
256,191,200814,1,0,0:0:0:0:
256,191,200898,1,8,0:0:0:0:
256,191,200981,1,0,0:0:0:0:
256,191,201064,1,0,0:0:0:0:
256,191,201231,1,0,0:0:0:0:
255,192,201314,1,0,0:0:0:0:
255,192,201398,1,8,0:0:0:0:
255,192,201564,1,8,0:0:0:0:
256,191,201731,1,8,0:0:0:0:
256,191,201814,1,0,0:0:0:0:
256,191,201898,1,0,0:0:0:0:
256,191,201981,1,8,0:0:0:0:
256,191,202064,1,0,0:0:0:0:
256,191,202231,1,0,0:0:0:0:
255,192,202314,1,8,0:0:0:0:
254,186,202481,1,8,0:0:0:0:
254,186,202564,1,0,0:0:0:0:
256,191,202731,1,0,0:0:0:0:
256,191,202814,1,0,0:0:0:0:
256,191,202898,1,8,0:0:0:0:
256,191,202981,1,0,0:0:0:0:
256,191,203064,1,0,0:0:0:0:
256,191,203148,1,0,0:0:0:0:
256,191,203231,1,8,0:0:0:0:
255,192,203314,1,8,0:0:0:0:
258,190,203398,1,0,0:0:0:0:
258,190,203439,1,0,0:0:0:0:
258,190,203481,1,0,0:0:0:0:
258,190,203523,1,0,0:0:0:0:
258,190,203564,1,8,0:0:0:0:
256,191,203648,1,8,0:0:0:0:
261,189,203731,1,0,0:0:0:0:
256,191,203814,1,0,0:0:0:0:
256,191,203898,1,0,0:0:0:0:
256,191,203981,1,8,0:0:0:0:
256,191,204064,1,8,0:0:0:0:
256,191,204148,1,0,0:0:0:0:
256,191,204231,1,0,0:0:0:0:
255,192,204314,1,8,0:0:0:0:
258,190,204398,1,0,0:0:0:0:
258,190,204481,1,8,0:0:0:0:
258,190,204564,1,8,0:0:0:0:
256,191,204648,1,0,0:0:0:0:
257,192,204731,1,8,0:0:0:0:
256,191,204814,1,0,0:0:0:0:
256,191,204898,1,0,0:0:0:0:
256,191,204981,1,8,0:0:0:0:
256,191,205064,1,0,0:0:0:0:
256,191,205148,1,0,0:0:0:0:
256,191,205231,1,8,0:0:0:0:
259,188,205314,1,0,0:0:0:0:
258,190,205398,1,8,0:0:0:0:
258,190,205481,1,0,0:0:0:0:
258,190,205564,1,0,0:0:0:0:
256,191,205648,1,8,0:0:0:0:
257,192,205731,1,0,0:0:0:0:
256,191,205814,1,0,0:0:0:0:
256,191,205898,1,8,0:0:0:0:
256,191,205981,1,0,0:0:0:0:
256,191,206064,1,8,0:0:0:0:
256,191,206148,1,8,0:0:0:0:
256,191,206231,1,0,0:0:0:0:
259,188,206314,1,8,0:0:0:0:
258,190,206398,1,0,0:0:0:0:
258,190,206481,1,8,0:0:0:0:
258,190,206564,1,8,0:0:0:0:
256,191,206648,1,0,0:0:0:0:
256,190,206731,1,8,0:0:0:0:
256,191,206898,1,8,0:0:0:0:
256,191,207064,1,0,0:0:0:0:
256,191,207147,1,8,0:0:0:0:
256,191,207231,1,0,0:0:0:0:
255,192,207314,1,0,0:0:0:0:
258,190,207398,1,8,0:0:0:0:
258,190,207564,1,0,0:0:0:0:
256,191,207648,1,8,0:0:0:0:
256,191,207814,1,8,0:0:0:0:
256,191,207898,1,0,0:0:0:0:
256,192,208064,12,0,208314,0:0:0:0:
258,190,208398,5,0,0:0:0:0:
258,190,208481,1,8,0:0:0:0:
256,191,208648,1,8,0:0:0:0:
256,191,208731,1,0,0:0:0:0:
256,191,208814,1,8,0:0:0:0:
256,191,208898,1,8,0:0:0:0:
258,190,208981,1,0,0:0:0:0:
258,190,209064,1,8,0:0:0:0:
258,190,209231,1,4,0:0:0:0:
258,190,209398,1,4,0:0:0:0:
256,191,209564,1,8,0:0:0:0:
256,191,209648,1,8,0:0:0:0:
256,191,209731,1,0,0:0:0:0:
256,191,209898,1,4,0:0:0:0:
258,190,210064,1,12,0:0:0:0:
258,190,210231,1,0,0:0:0:0:
258,190,210314,1,0,0:0:0:0:
258,190,210398,1,0,0:0:0:0:
256,191,210564,1,8,0:0:0:0:
256,191,210648,1,0,0:0:0:0:
256,191,210731,1,8,0:0:0:0:
256,191,210898,1,0,0:0:0:0:
258,190,210981,1,0,0:0:0:0:
258,190,211064,1,8,0:0:0:0:
258,190,211148,1,0,0:0:0:0:
258,190,211231,1,8,0:0:0:0:
258,190,211314,1,8,0:0:0:0:
258,190,211398,1,0,0:0:0:0:
256,191,211564,1,8,0:0:0:0:
256,191,211731,1,4,0:0:0:0:
256,191,211898,1,8,0:0:0:0:
258,190,211981,1,8,0:0:0:0:
258,190,212064,1,0,0:0:0:0:
256,192,212085,12,0,212398,0:0:0:0:
256,191,212731,5,0,0:0:0:0:
253,195,212787,1,0,0:0:0:0:
258,190,212842,1,0,0:0:0:0:
256,191,212898,1,0,0:0:0:0:
258,190,212953,1,0,0:0:0:0:
256,191,213009,1,0,0:0:0:0:
255,192,213064,1,0,0:0:0:0:
255,192,213106,1,0,0:0:0:0:
255,192,213148,1,0,0:0:0:0:
255,192,213189,1,0,0:0:0:0:
255,192,213231,1,0,0:0:0:0:
255,192,213273,1,0,0:0:0:0:
255,192,213314,1,0,0:0:0:0:
255,192,213356,1,0,0:0:0:0:
255,192,213398,1,0,0:0:0:0:
256,191,213564,1,4,0:0:0:0:
258,190,213731,1,0,0:0:0:0:
256,191,213787,1,0,0:0:0:0:
258,190,213842,1,8,0:0:0:0:
256,191,213898,1,8,0:0:0:0:
255,192,214064,1,0,0:0:0:0:
255,192,214148,1,8,0:0:0:0:
255,192,214231,1,0,0:0:0:0:
255,192,214314,1,0,0:0:0:0:
256,191,214398,1,8,0:0:0:0:
256,191,214481,1,0,0:0:0:0:
258,190,214564,1,8,0:0:0:0:
258,190,214648,1,0,0:0:0:0:
258,190,214731,1,0,0:0:0:0:
256,191,214814,1,8,0:0:0:0:
255,192,214898,1,0,0:0:0:0:
255,192,215064,1,0,0:0:0:0:
255,192,215106,1,8,0:0:0:0:
255,192,215189,1,0,0:0:0:0:
255,192,215231,1,8,0:0:0:0:
258,190,215398,1,4,0:0:0:0:
258,190,215564,1,12,0:0:0:0:
256,191,215731,1,0,0:0:0:0:
255,192,215814,1,0,0:0:0:0:
255,192,215898,1,8,0:0:0:0:
255,192,215981,1,0,0:0:0:0:
255,192,216064,1,8,0:0:0:0:
255,192,216148,1,8,0:0:0:0:
258,190,216231,1,0,0:0:0:0:
258,190,216314,1,8,0:0:0:0:
258,190,216398,1,0,0:0:0:0:
258,190,216453,1,8,0:0:0:0:
256,191,216509,1,8,0:0:0:0:
256,191,216564,1,0,0:0:0:0:
256,191,216648,1,8,0:0:0:0:
255,192,216731,1,0,0:0:0:0:
255,192,216814,1,8,0:0:0:0:
258,186,216898,1,12,0:0:0:0:
255,192,217064,1,0,0:0:0:0:
258,190,217106,1,8,0:0:0:0:
258,190,217189,1,0,0:0:0:0:
258,190,217231,1,8,0:0:0:0:
256,191,217398,1,0,0:0:0:0:
256,191,217481,1,8,0:0:0:0:
256,191,217564,1,0,0:0:0:0:
255,192,217648,1,0,0:0:0:0:
255,192,217731,1,8,0:0:0:0:
254,191,217787,1,8,0:0:0:0:
255,192,217842,1,0,0:0:0:0:
255,192,217898,1,8,0:0:0:0:
255,192,217981,1,0,0:0:0:0:
255,192,218009,1,0,0:0:0:0:
258,190,218064,1,8,0:0:0:0:
258,190,218120,1,0,0:0:0:0:
255,194,218148,1,0,0:0:0:0:
256,191,218231,1,0,0:0:0:0:
256,191,218273,1,8,0:0:0:0:
256,191,218398,1,8,0:0:0:0:
256,191,218440,1,0,0:0:0:0:
255,192,218564,1,0,0:0:0:0:
255,192,218648,1,0,0:0:0:0:
255,192,218731,1,12,0:0:0:0:
255,192,218814,1,0,0:0:0:0:
255,192,218898,1,8,0:0:0:0:
258,190,218981,1,8,0:0:0:0:
258,190,219064,1,8,0:0:0:0:
256,191,219148,1,0,0:0:0:0:
256,191,219231,1,0,0:0:0:0:
256,191,219287,1,0,0:0:0:0:
256,191,219342,1,0,0:0:0:0:
255,192,219398,1,8,0:0:0:0:
255,192,219481,1,0,0:0:0:0:
255,192,219564,1,8,0:0:0:0:
255,192,219620,1,0,0:0:0:0:
255,192,219676,1,0,0:0:0:0:
255,192,219731,1,8,0:0:0:0:
255,192,219814,1,0,0:0:0:0:
258,190,219898,1,0,0:0:0:0:
253,193,219981,1,0,0:0:0:0:
256,191,220064,1,12,0:0:0:0:
256,191,220148,1,8,0:0:0:0:
255,192,220231,1,0,0:0:0:0:
255,192,220287,1,0,0:0:0:0:
255,192,220342,1,0,0:0:0:0:
255,192,220398,1,8,0:0:0:0:
255,192,220481,1,8,0:0:0:0:
255,192,220564,1,0,0:0:0:0:
255,192,220606,1,8,0:0:0:0:
252,190,220669,1,0,0:0:0:0:
258,190,220731,1,8,0:0:0:0:
258,190,220773,1,8,0:0:0:0:
256,191,220898,1,4,0:0:0:0:
255,192,221064,1,0,0:0:0:0:
255,192,221106,1,8,0:0:0:0:
255,192,221148,1,8,0:0:0:0:
255,192,221189,1,8,0:0:0:0:
255,192,221231,1,8,0:0:0:0:
255,192,221273,1,0,0:0:0:0:
255,192,221314,1,0,0:0:0:0:
255,192,221356,1,0,0:0:0:0:
255,192,221398,1,0,0:0:0:0:
254,194,221564,1,0,0:0:0:0:
256,191,221620,1,8,0:0:0:0:
256,191,221676,1,0,0:0:0:0:
255,192,221731,1,0,0:0:0:0:
255,192,221773,1,8,0:0:0:0:
255,192,221814,1,8,0:0:0:0:
255,192,221856,1,0,0:0:0:0:
255,192,221898,1,8,0:0:0:0:
255,192,221981,1,8,0:0:0:0:
255,192,222064,1,8,0:0:0:0:
255,192,222148,1,8,0:0:0:0:
257,189,222231,1,0,0:0:0:0:
257,189,222287,1,0,0:0:0:0:
257,189,222342,1,0,0:0:0:0:
256,191,222398,1,8,0:0:0:0:
254,194,222523,1,0,0:0:0:0:
254,194,222565,1,8,0:0:0:0:
256,191,222689,1,8,0:0:0:0:
256,191,222731,1,0,0:0:0:0:
255,192,222814,1,0,0:0:0:0:
257,189,222898,1,0,0:0:0:0:
257,189,222953,1,8,0:0:0:0:
257,189,223009,1,8,0:0:0:0:
257,189,223064,1,8,0:0:0:0:
255,192,223148,1,0,0:0:0:0:
257,189,223231,1,8,0:0:0:0:
257,189,223314,1,12,0:0:0:0:
256,191,223398,1,0,0:0:0:0:
254,194,223564,1,0,0:0:0:0:
256,191,223648,1,0,0:0:0:0:
256,191,223731,1,0,0:0:0:0:
256,191,223898,1,12,0:0:0:0:
257,189,224064,1,0,0:0:0:0:
255,192,224148,1,8,0:0:0:0:
257,189,224231,1,0,0:0:0:0:
257,189,224314,1,0,0:0:0:0:
256,191,224398,1,8,0:0:0:0:
254,194,224481,1,0,0:0:0:0:
254,194,224523,1,8,0:0:0:0:
256,191,224565,1,8,0:0:0:0:
256,191,224648,1,0,0:0:0:0:
256,191,224689,1,0,0:0:0:0:
256,191,224731,1,0,0:0:0:0:
256,191,224814,1,8,0:0:0:0:
256,191,224898,1,0,0:0:0:0:
257,189,224953,1,0,0:0:0:0:
257,189,225009,1,0,0:0:0:0:
257,189,225064,1,8,0:0:0:0:
255,192,225148,1,8,0:0:0:0:
257,189,225231,1,8,0:0:0:0:
257,189,225314,1,8,0:0:0:0:
256,187,225398,1,0,0:0:0:0:
254,187,225481,1,8,0:0:0:0:
256,191,225564,1,0,0:0:0:0:
256,191,225620,1,8,0:0:0:0:
256,191,225676,1,8,0:0:0:0:
256,191,225731,1,0,0:0:0:0:
256,191,225814,1,8,0:0:0:0:
256,184,225898,1,0,0:0:0:0:
257,189,225953,1,0,0:0:0:0:
257,189,226009,1,8,0:0:0:0:
257,189,226064,1,0,0:0:0:0:
255,192,226148,1,8,0:0:0:0:
257,189,226231,1,0,0:0:0:0:
257,189,226314,1,0,0:0:0:0:
256,187,226398,1,8,0:0:0:0:
254,187,226481,1,0,0:0:0:0:
256,191,226564,1,8,0:0:0:0:
256,191,226648,1,8,0:0:0:0:
256,191,226731,1,0,0:0:0:0:
256,191,226814,1,8,0:0:0:0:
257,189,226898,1,0,0:0:0:0:
257,189,227064,1,0,0:0:0:0:
255,192,227148,1,8,0:0:0:0:
257,189,227231,1,8,0:0:0:0:
257,189,227314,1,0,0:0:0:0:
256,187,227398,1,8,0:0:0:0:
256,191,227564,1,12,0:0:0:0:
256,192,227731,1,0,0:0:0:0:
256,192,227787,1,8,0:0:0:0:
256,192,227842,1,8,0:0:0:0:
256,192,227898,1,8,0:0:0:0:
256,192,227953,1,8,0:0:0:0:
256,192,228009,1,8,0:0:0:0:
256,192,228064,1,0,0:0:0:0:
256,192,228176,1,8,0:0:0:0:
256,192,228231,1,0,0:0:0:0:
256,192,228287,1,0,0:0:0:0:
256,192,228342,1,8,0:0:0:0:
256,192,228398,1,8,0:0:0:0:
256,192,228453,1,0,0:0:0:0:
256,192,228509,1,0,0:0:0:0:
256,192,228564,1,8,0:0:0:0:
256,192,228606,1,0,0:0:0:0:
256,192,228647,1,8,0:0:0:0:
256,192,228731,1,0,0:0:0:0:
256,192,228773,1,8,0:0:0:0:
256,192,228856,1,0,0:0:0:0:
256,192,228898,1,0,0:0:0:0:
256,192,228960,1,8,0:0:0:0:
256,192,229023,1,0,0:0:0:0:
256,192,229064,1,8,0:0:0:0:
256,192,229148,1,0,0:0:0:0:
256,192,229231,1,0,0:0:0:0:
256,192,229314,1,0,0:0:0:0:
256,192,229398,1,12,0:0:0:0:
256,192,229481,1,0,0:0:0:0:
256,192,229564,1,8,0:0:0:0:
256,192,229648,1,8,0:0:0:0:
256,192,229731,1,8,0:0:0:0:
256,192,229814,1,0,0:0:0:0:
256,192,229898,1,8,0:0:0:0:
256,192,229981,1,8,0:0:0:0:
256,192,230064,1,0,0:0:0:0:
256,192,230120,1,0,0:0:0:0:
256,192,230176,1,0,0:0:0:0:
256,192,230231,1,8,0:0:0:0:
256,192,230314,1,0,0:0:0:0:
256,192,230398,1,8,0:0:0:0:
256,192,230439,1,8,0:0:0:0:
256,192,230564,1,0,0:0:0:0:
256,192,230606,1,0,0:0:0:0:
256,192,230731,1,0,0:0:0:0:
256,192,230773,1,8,0:0:0:0:
256,192,230898,1,0,0:0:0:0:
256,192,230939,1,8,0:0:0:0:
256,192,230981,1,8,0:0:0:0:
256,192,231023,1,8,0:0:0:0:
256,192,231064,1,0,0:0:0:0:
256,192,231148,1,8,0:0:0:0:
256,192,231189,1,0,0:0:0:0:
256,192,231273,1,8,0:0:0:0:
256,192,231314,1,8,0:0:0:0:
256,192,231398,1,0,0:0:0:0:
256,192,231439,1,8,0:0:0:0:
256,192,231523,1,0,0:0:0:0:
256,192,231564,1,0,0:0:0:0:
256,192,231648,1,0,0:0:0:0:
256,192,231689,1,0,0:0:0:0:
256,192,231731,1,8,0:0:0:0:
256,192,231773,1,0,0:0:0:0:
256,192,231814,1,8,0:0:0:0:
256,192,231856,1,8,0:0:0:0:
256,192,231898,1,0,0:0:0:0:
256,192,231953,1,8,0:0:0:0:
256,192,232009,1,0,0:0:0:0:
256,192,232064,1,0,0:0:0:0:
256,192,232231,1,0,0:0:0:0:
256,192,232314,1,8,0:0:0:0:
256,192,232398,1,0,0:0:0:0:
256,192,232481,1,8,0:0:0:0:
256,192,232564,1,8,0:0:0:0:
256,192,232648,1,0,0:0:0:0:
256,192,232731,1,4,0:0:0:0:
256,192,232898,12,0,232981,0:0:0:0:
256,192,233064,5,0,0:0:0:0:
256,192,233398,1,4,0:0:0:0:
256,192,233564,1,4,0:0:0:0:
256,192,233731,1,0,0:0:0:0:
256,192,233814,1,8,0:0:0:0:
256,192,233898,1,8,0:0:0:0:
256,192,233981,1,0,0:0:0:0:
256,192,234064,1,0,0:0:0:0:
256,192,234120,1,8,0:0:0:0:
256,192,234176,1,0,0:0:0:0:
256,192,234231,1,8,0:0:0:0:
256,192,234315,1,8,0:0:0:0:
256,192,234398,1,0,0:0:0:0:
256,192,234481,1,0,0:0:0:0:
256,192,234565,1,8,0:0:0:0:
256,192,234648,1,8,0:0:0:0:
256,192,234731,1,0,0:0:0:0:
256,192,234814,1,0,0:0:0:0:
256,192,234898,1,0,0:0:0:0:
256,192,234981,1,0,0:0:0:0:
256,192,235064,1,8,0:0:0:0:
256,192,235148,1,8,0:0:0:0:
256,192,235231,1,0,0:0:0:0:
256,192,235287,1,0,0:0:0:0:
256,192,235342,1,0,0:0:0:0:
256,192,235398,1,8,0:0:0:0:
256,192,235481,1,0,0:0:0:0:
256,192,235564,1,8,0:0:0:0:
256,192,235648,1,8,0:0:0:0:
256,192,235731,1,0,0:0:0:0:
256,192,235814,1,0,0:0:0:0:
256,192,235898,1,8,0:0:0:0:
256,192,235981,1,8,0:0:0:0:
256,192,236064,1,8,0:0:0:0:
256,192,236148,1,8,0:0:0:0:
256,192,236231,1,0,0:0:0:0:
256,192,236314,1,8,0:0:0:0:
256,192,236398,1,0,0:0:0:0:
256,192,236481,1,0,0:0:0:0:
256,191,236564,1,8,0:0:0:0:
256,191,236606,1,0,0:0:0:0:
256,191,236648,1,0,0:0:0:0:
256,191,236689,1,8,0:0:0:0:
256,191,236731,1,8,0:0:0:0:
256,192,236814,1,0,0:0:0:0:
256,192,236898,1,8,0:0:0:0:
256,192,236981,1,8,0:0:0:0:
256,192,237064,1,8,0:0:0:0:
256,192,237148,1,0,0:0:0:0:
256,192,237231,1,0,0:0:0:0:
256,192,237314,1,0,0:0:0:0:
256,191,237398,1,8,0:0:0:0:
256,191,237439,1,8,0:0:0:0:
256,191,237502,1,0,0:0:0:0:
256,191,237564,1,8,0:0:0:0:
256,191,237606,1,0,0:0:0:0:
256,191,237731,1,12,0:0:0:0:
256,192,237814,1,0,0:0:0:0:
256,192,237898,1,0,0:0:0:0:
256,192,237981,1,8,0:0:0:0:
256,192,238064,1,8,0:0:0:0:
256,192,238148,1,8,0:0:0:0:
256,191,238231,1,0,0:0:0:0:
256,191,238273,1,0,0:0:0:0:
256,191,238314,1,0,0:0:0:0:
256,191,238356,1,0,0:0:0:0:
256,191,238398,1,8,0:0:0:0:
256,191,238481,1,0,0:0:0:0:
256,191,238564,1,0,0:0:0:0:
256,191,238648,1,8,0:0:0:0:
256,191,238731,1,0,0:0:0:0:
256,192,238814,1,0,0:0:0:0:
256,191,238898,1,8,0:0:0:0:
256,191,238939,1,0,0:0:0:0:
256,191,239023,1,0,0:0:0:0:
256,191,239064,1,8,0:0:0:0:
256,192,239148,1,0,0:0:0:0:
256,191,239231,1,8,0:0:0:0:
256,191,239314,1,8,0:0:0:0:
256,191,239398,1,12,0:0:0:0:
256,191,239564,1,0,0:0:0:0:
256,191,239648,1,8,0:0:0:0:
256,191,239731,1,0,0:0:0:0:
256,191,239773,1,0,0:0:0:0:
256,191,239814,1,8,0:0:0:0:
256,191,239898,1,0,0:0:0:0:
256,191,239939,1,8,0:0:0:0:
256,191,239981,1,0,0:0:0:0:
256,191,240064,1,0,0:0:0:0:
256,191,240106,1,8,0:0:0:0:
256,191,240231,1,8,0:0:0:0:
256,191,240273,1,0,0:0:0:0:
256,191,240398,1,8,0:0:0:0:
256,191,240439,1,8,0:0:0:0:
256,191,240564,1,0,0:0:0:0:
256,191,240606,1,0,0:0:0:0:
256,191,240731,1,8,0:0:0:0:
256,191,240773,1,0,0:0:0:0:
256,191,240898,1,0,0:0:0:0:
256,191,240939,1,8,0:0:0:0:
256,191,241064,1,4,0:0:0:0:
256,191,241231,1,4,0:0:0:0:
256,191,241398,1,4,0:0:0:0:
256,191,241564,1,4,0:0:0:0:
256,191,241731,1,4,0:0:0:0:
256,191,241898,1,0,0:0:0:0:
256,191,241953,1,8,0:0:0:0:
256,191,242009,1,8,0:0:0:0:
256,191,242064,1,0,0:0:0:0:
256,191,242231,1,0,0:0:0:0:
256,191,242273,1,0,0:0:0:0:
256,191,242314,1,0,0:0:0:0:
256,191,242356,1,0,0:0:0:0:
256,191,242398,1,8,0:0:0:0:
256,191,242481,1,8,0:0:0:0:
256,191,242564,1,8,0:0:0:0:
256,191,242606,1,0,0:0:0:0:
256,191,242648,1,0,0:0:0:0:
256,191,242689,1,8,0:0:0:0:
256,191,242731,1,0,0:0:0:0:
256,191,242898,1,4,0:0:0:0:
256,191,243064,1,8,0:0:0:0:
256,191,243148,1,8,0:0:0:0:
256,191,243231,1,8,0:0:0:0:
256,191,243398,1,4,0:0:0:0:
256,191,243564,1,8,0:0:0:0:
256,191,243648,1,8,0:0:0:0:
256,191,243731,1,8,0:0:0:0:
255,187,243898,1,8,0:0:0:0:
255,187,243939,1,0,0:0:0:0:
255,187,244023,1,8,0:0:0:0:
255,187,244064,1,8,0:0:0:0:
255,187,244148,1,0,0:0:0:0:
255,187,244189,1,8,0:0:0:0:
256,191,244231,1,0,0:0:0:0:
256,191,244398,1,0,0:0:0:0:
256,191,244481,1,8,0:0:0:0:
256,191,244564,1,8,0:0:0:0:
256,191,244648,1,0,0:0:0:0:
256,191,244731,1,8,0:0:0:0:
255,187,244814,1,0,0:0:0:0:
255,187,244898,1,0,0:0:0:0:
255,187,244981,1,8,0:0:0:0:
255,187,245064,1,0,0:0:0:0:
256,191,245231,1,0,0:0:0:0:
256,191,245273,1,8,0:0:0:0:
256,191,245398,1,0,0:0:0:0:
251,187,245481,1,0,0:0:0:0:
251,187,245564,1,8,0:0:0:0:
251,187,245648,1,0,0:0:0:0:
251,187,245731,1,8,0:0:0:0:
250,185,245814,1,0,0:0:0:0:
252,191,245898,1,0,0:0:0:0:
255,187,245981,1,0,0:0:0:0:
255,187,246064,1,8,0:0:0:0:
256,191,246148,1,8,0:0:0:0:
256,191,246231,1,0,0:0:0:0:
256,191,246314,1,8,0:0:0:0:
256,191,246398,1,8,0:0:0:0:
253,191,246481,1,8,0:0:0:0:
253,191,246564,1,0,0:0:0:0:
253,191,246648,1,8,0:0:0:0:
253,191,246731,1,0,0:0:0:0:
253,191,246814,1,0,0:0:0:0:
252,191,246898,1,8,0:0:0:0:
255,187,246981,1,0,0:0:0:0:
255,187,247064,1,8,0:0:0:0:
256,191,247148,1,8,0:0:0:0:
256,191,247231,1,0,0:0:0:0:
256,191,247314,1,0,0:0:0:0:
256,191,247398,1,8,0:0:0:0:
253,191,247481,1,0,0:0:0:0:
253,191,247564,1,8,0:0:0:0:
253,191,247648,1,8,0:0:0:0:
253,191,247731,1,0,0:0:0:0:
253,191,247814,1,0,0:0:0:0:
252,191,247898,1,8,0:0:0:0:
255,187,247981,1,0,0:0:0:0:
254,190,248065,1,8,0:0:0:0:
254,190,248121,1,8,0:0:0:0:
254,190,248176,1,8,0:0:0:0:
254,190,248232,1,0,0:0:0:0:
256,191,248314,1,0,0:0:0:0:
253,191,248397,1,8,0:0:0:0:
254,190,248453,1,8,0:0:0:0:
254,190,248509,1,8,0:0:0:0:
254,190,248564,1,0,0:0:0:0:
253,191,248648,1,8,0:0:0:0:
253,191,248731,1,8,0:0:0:0:
254,190,248787,1,8,0:0:0:0:
254,190,248842,1,8,0:0:0:0:
254,190,248898,1,0,0:0:0:0:
256,193,248981,1,0,0:0:0:0:
254,190,249064,1,8,0:0:0:0:
254,190,249148,1,0,0:0:0:0:
254,190,249231,1,0,0:0:0:0:
254,190,249273,1,8,0:0:0:0:
254,190,249356,1,8,0:0:0:0:
254,190,249398,1,0,0:0:0:0:
258,187,249564,1,4,0:0:0:0:
258,187,249731,1,4,0:0:0:0:
254,190,249898,1,0,0:0:0:0:
254,190,250009,1,8,0:0:0:0:
254,190,250064,1,8,0:0:0:0:
254,190,250120,1,8,0:0:0:0:
254,190,250176,1,0,0:0:0:0:
254,190,250231,1,0,0:0:0:0:
254,190,250314,1,8,0:0:0:0:
254,190,250398,1,12,0:0:0:0:
253,189,250564,1,0,0:0:0:0:
253,189,250648,1,0,0:0:0:0:
253,189,250731,1,8,0:0:0:0:
254,190,250898,1,8,0:0:0:0:
254,190,251064,1,8,0:0:0:0:
254,190,251148,1,0,0:0:0:0:
254,190,251231,1,8,0:0:0:0:
254,190,251314,1,0,0:0:0:0:
254,190,251398,1,8,0:0:0:0:
253,189,251564,1,0,0:0:0:0:
253,189,251648,1,8,0:0:0:0:
254,190,251731,1,8,0:0:0:0:
254,190,251898,1,0,0:0:0:0:
254,190,251981,1,0,0:0:0:0:
254,190,252064,1,8,0:0:0:0:
254,190,252148,1,0,0:0:0:0:
254,190,252231,1,8,0:0:0:0:
254,190,252314,1,8,0:0:0:0:
254,190,252398,1,0,0:0:0:0:
253,189,252564,1,0,0:0:0:0:
253,189,252606,1,8,0:0:0:0:
254,190,252731,1,4,0:0:0:0:
254,190,252898,1,0,0:0:0:0:
254,190,252939,1,8,0:0:0:0:
254,190,253064,1,4,0:0:0:0:
254,190,253231,1,0,0:0:0:0:
254,190,253273,1,8,0:0:0:0:
256,190,253398,5,0,0:0:0:0:
256,190,253481,1,0,0:0:0:0:
256,190,253564,1,0,0:0:0:0:
256,190,253648,1,0,0:0:0:0:
256,190,253731,1,0,0:0:0:0:
256,190,253814,1,0,0:0:0:0:
256,190,253898,1,0,0:0:0:0:
256,190,253981,1,0,0:0:0:0:
256,190,254064,1,0,0:0:0:0:
256,190,254148,1,0,0:0:0:0:
256,190,254231,1,0,0:0:0:0:
256,190,254314,1,0,0:0:0:0:
256,190,254398,1,0,0:0:0:0:
256,190,254481,1,0,0:0:0:0:
256,190,254564,1,0,0:0:0:0:
256,190,254648,1,0,0:0:0:0:
256,190,254731,1,0,0:0:0:0:
256,190,254814,1,0,0:0:0:0:
256,190,254898,1,0,0:0:0:0:
256,190,254981,1,0,0:0:0:0:
256,190,255064,1,0,0:0:0:0:
256,190,255148,1,0,0:0:0:0:
256,190,255231,1,0,0:0:0:0:
256,190,255314,1,0,0:0:0:0:
256,190,255398,1,0,0:0:0:0:
256,190,255481,1,0,0:0:0:0:
256,190,255564,1,0,0:0:0:0:
256,190,255648,1,0,0:0:0:0:
256,190,255731,1,0,0:0:0:0:
256,190,255814,1,0,0:0:0:0:
256,190,255898,1,0,0:0:0:0:
256,190,255981,1,0,0:0:0:0:
256,192,256064,12,0,258731,0:0:0:0:
255,190,277398,5,0,0:0:0:0:
255,190,277731,1,8,0:0:0:0:
255,190,278064,1,0,0:0:0:0:
255,190,278398,1,8,0:0:0:0:
255,190,278731,1,8,0:0:0:0:
255,190,279064,1,0,0:0:0:0:
255,190,279398,1,8,0:0:0:0:
255,190,279731,1,0,0:0:0:0:
255,190,280064,1,0,0:0:0:0:
255,190,280398,1,0,0:0:0:0:
255,190,280731,1,8,0:0:0:0:
255,190,281064,1,8,0:0:0:0:
255,190,281398,1,0,0:0:0:0:
255,190,281731,1,8,0:0:0:0:
255,190,282064,1,0,0:0:0:0:
255,190,282398,1,0,0:0:0:0:
255,190,282731,1,8,0:0:0:0:
255,190,283064,1,8,0:0:0:0:
255,190,283398,1,0,0:0:0:0:
255,190,283731,1,0,0:0:0:0:
255,190,284064,1,8,0:0:0:0:
255,190,284398,1,0,0:0:0:0:
255,190,284731,1,0,0:0:0:0:
255,190,285064,1,8,0:0:0:0:
255,190,285398,1,0,0:0:0:0:
244,186,285731,1,8,0:0:0:0:
244,186,286064,1,0,0:0:0:0:
255,190,286398,1,0,0:0:0:0:
253,191,286731,1,0,0:0:0:0:
253,191,287064,1,8,0:0:0:0:
255,190,287398,1,0,0:0:0:0:
258,191,287731,1,8,0:0:0:0:
258,191,288064,1,0,0:0:0:0:
255,190,288398,1,8,0:0:0:0:
258,191,288731,1,8,0:0:0:0:
258,191,289064,1,8,0:0:0:0:
255,190,289398,1,0,0:0:0:0:
258,191,289731,1,0,0:0:0:0:
258,191,290064,1,8,0:0:0:0:
255,190,290398,1,8,0:0:0:0:
258,191,290731,1,0,0:0:0:0:
258,191,291064,1,0,0:0:0:0:
255,190,291398,1,0,0:0:0:0:
258,191,291731,1,8,0:0:0:0:
258,191,292064,1,8,0:0:0:0:
255,190,292398,1,0,0:0:0:0:
258,191,292731,1,0,0:0:0:0:
258,191,293064,1,8,0:0:0:0:
258,193,293398,1,8,0:0:0:0:
258,191,293731,1,0,0:0:0:0:
258,191,294064,1,8,0:0:0:0:
258,193,294398,1,8,0:0:0:0:
258,191,294731,1,0,0:0:0:0:
258,191,295064,1,8,0:0:0:0:
258,193,295398,1,8,0:0:0:0:
258,191,295731,1,8,0:0:0:0:
258,191,296064,1,0,0:0:0:0:
258,193,296398,1,8,0:0:0:0:
258,191,296731,1,8,0:0:0:0:
258,191,297064,1,8,0:0:0:0:
258,193,297398,1,12,0:0:0:0:
258,191,297564,1,0,0:0:0:0:
258,191,297731,1,8,0:0:0:0:
258,191,297814,1,0,0:0:0:0:
258,191,297898,1,0,0:0:0:0:
258,191,297981,1,8,0:0:0:0:
258,193,298065,1,0,0:0:0:0:
258,191,298148,1,8,0:0:0:0:
258,191,298231,1,0,0:0:0:0:
258,191,298287,1,0,0:0:0:0:
258,191,298343,1,8,0:0:0:0:
258,191,298398,1,0,0:0:0:0:
258,191,298481,1,8,0:0:0:0:
258,191,298564,1,0,0:0:0:0:
258,191,298731,1,4,0:0:0:0:
258,191,298898,1,8,0:0:0:0:
258,191,298981,1,0,0:0:0:0:
258,191,299064,1,0,0:0:0:0:
258,191,299231,1,0,0:0:0:0:
258,191,299398,1,0,0:0:0:0:
258,191,299481,1,8,0:0:0:0:
258,191,299564,1,8,0:0:0:0:
258,191,299731,1,0,0:0:0:0:
258,191,299898,1,8,0:0:0:0:
258,191,299981,1,0,0:0:0:0:
258,191,300064,1,0,0:0:0:0:
258,191,300148,1,8,0:0:0:0:
258,191,300231,1,0,0:0:0:0:
258,191,300398,1,8,0:0:0:0:
258,191,300564,1,0,0:0:0:0:
258,191,300731,1,0,0:0:0:0:
258,191,300814,1,0,0:0:0:0:
258,191,300898,1,8,0:0:0:0:
258,191,300981,1,8,0:0:0:0:
258,191,301064,1,0,0:0:0:0:
258,191,301231,1,0,0:0:0:0:
258,191,301398,1,0,0:0:0:0:
258,191,301481,1,8,0:0:0:0:
258,191,301564,1,0,0:0:0:0:
258,191,301731,1,8,0:0:0:0:
258,191,301898,1,8,0:0:0:0:
258,191,301981,1,8,0:0:0:0:
258,191,302064,1,0,0:0:0:0:
258,191,302231,1,8,0:0:0:0:
258,191,302314,1,8,0:0:0:0:
258,191,302398,1,0,0:0:0:0:
258,191,302481,1,8,0:0:0:0:
258,191,302564,1,0,0:0:0:0:
258,191,302731,1,0,0:0:0:0:
258,191,302814,1,8,0:0:0:0:
258,191,302898,1,0,0:0:0:0:
258,191,303064,1,0,0:0:0:0:
258,191,303231,1,8,0:0:0:0:
258,191,303314,1,0,0:0:0:0:
258,191,303398,1,0,0:0:0:0:
258,191,303481,1,8,0:0:0:0:
258,191,303565,1,8,0:0:0:0:
258,191,303621,1,0,0:0:0:0:
258,191,303676,1,0,0:0:0:0:
258,191,303731,1,8,0:0:0:0:
258,191,304064,1,0,0:0:0:0:
258,191,304231,1,0,0:0:0:0:
258,191,304398,1,0,0:0:0:0:
258,191,304564,1,8,0:0:0:0:
258,191,304731,1,8,0:0:0:0:
258,191,304898,1,0,0:0:0:0:
258,191,305064,1,8,0:0:0:0:
258,191,305231,1,8,0:0:0:0:
258,191,305398,1,0,0:0:0:0:
258,191,305564,1,8,0:0:0:0:
258,191,305731,1,8,0:0:0:0:
258,191,305898,1,8,0:0:0:0:
258,191,306064,1,0,0:0:0:0:
258,191,306148,1,8,0:0:0:0:
258,191,306232,1,8,0:0:0:0:
258,191,306287,1,0,0:0:0:0:
258,191,306343,1,0,0:0:0:0:
258,191,306398,1,0,0:0:0:0:
258,191,306564,1,0,0:0:0:0:
258,191,306731,1,8,0:0:0:0:
258,191,306898,1,0,0:0:0:0:
258,191,307064,1,0,0:0:0:0:
258,191,307231,1,0,0:0:0:0:
258,191,307398,1,8,0:0:0:0:
258,191,307564,1,8,0:0:0:0:
258,191,307731,1,8,0:0:0:0:
258,191,307898,1,8,0:0:0:0:
258,191,307981,1,8,0:0:0:0:
258,191,308064,1,12,0:0:0:0:
258,191,308231,1,12,0:0:0:0:
258,191,308398,1,0,0:0:0:0:
258,191,308564,1,4,0:0:0:0:
258,191,308731,1,4,0:0:0:0:
258,191,308898,1,0,0:0:0:0:
258,191,308981,1,8,0:0:0:0:
258,191,309064,1,0,0:0:0:0:
258,191,309398,1,0,0:0:0:0:
258,191,309564,1,0,0:0:0:0:
258,191,309648,1,0,0:0:0:0:
258,191,309731,1,8,0:0:0:0:
258,191,309898,1,8,0:0:0:0:
258,191,309981,1,8,0:0:0:0:
258,191,310064,1,8,0:0:0:0:
258,191,310231,1,0,0:0:0:0:
258,191,310398,1,0,0:0:0:0:
258,191,310564,1,0,0:0:0:0:
258,191,310648,1,0,0:0:0:0:
258,191,310731,1,0,0:0:0:0:
258,191,310898,1,8,0:0:0:0:
258,191,311064,1,8,0:0:0:0:
258,191,311148,1,0,0:0:0:0:
258,191,311231,1,0,0:0:0:0:
258,191,311314,1,8,0:0:0:0:
258,191,311398,1,0,0:0:0:0:
258,191,311564,1,0,0:0:0:0:
258,191,311731,1,8,0:0:0:0:
258,191,311898,1,0,0:0:0:0:
258,191,312064,1,0,0:0:0:0:
258,191,312148,1,0,0:0:0:0:
258,191,312231,1,8,0:0:0:0:
258,191,312314,1,0,0:0:0:0:
258,191,312398,1,8,0:0:0:0:
258,191,312564,1,8,0:0:0:0:
258,191,312648,1,0,0:0:0:0:
258,191,312731,1,8,0:0:0:0:
258,191,312898,1,8,0:0:0:0:
258,191,313064,1,0,0:0:0:0:
258,191,313231,1,0,0:0:0:0:
258,191,313314,1,0,0:0:0:0:
258,191,313398,1,0,0:0:0:0:
258,191,313564,1,0,0:0:0:0:
258,191,313731,1,8,0:0:0:0:
258,191,313898,1,8,0:0:0:0:
258,191,313981,1,0,0:0:0:0:
258,191,314064,1,0,0:0:0:0:
258,191,314148,1,8,0:0:0:0:
258,191,314232,1,8,0:0:0:0:
258,191,314287,1,8,0:0:0:0:
258,191,314343,1,0,0:0:0:0:
258,191,314398,1,8,0:0:0:0:
258,191,314731,1,0,0:0:0:0:
258,191,314898,1,0,0:0:0:0:
258,191,315064,1,0,0:0:0:0:
258,191,315231,1,8,0:0:0:0:
258,191,315398,1,8,0:0:0:0:
258,191,315564,1,0,0:0:0:0:
258,191,315731,1,8,0:0:0:0:
258,191,315898,1,8,0:0:0:0:
258,191,316064,1,0,0:0:0:0:
258,191,316231,1,0,0:0:0:0:
258,191,316398,1,8,0:0:0:0:
258,191,316564,1,8,0:0:0:0:
258,191,316731,1,0,0:0:0:0:
258,191,316814,1,8,0:0:0:0:
258,191,316898,1,8,0:0:0:0:
258,191,316954,1,0,0:0:0:0:
258,191,317009,1,0,0:0:0:0:
258,191,317064,1,8,0:0:0:0:
258,191,317398,1,0,0:0:0:0:
258,191,317731,1,0,0:0:0:0:
258,191,318064,1,8,0:0:0:0:
258,191,318398,1,8,0:0:0:0:
258,191,318731,1,8,0:0:0:0:
258,191,319398,1,8,0:0:0:0:
258,191,320064,1,0,0:0:0:0:
258,191,320148,1,0,0:0:0:0:
258,191,320231,1,8,0:0:0:0:
258,191,320314,1,8,0:0:0:0:
258,191,320398,1,0,0:0:0:0:
258,191,320564,1,8,0:0:0:0:
258,191,320731,1,0,0:0:0:0:
258,191,320814,1,8,0:0:0:0:
258,191,320898,1,8,0:0:0:0:
258,191,320981,1,0,0:0:0:0:
258,191,321064,1,0,0:0:0:0:
258,191,321231,1,0,0:0:0:0:
258,191,321398,1,8,0:0:0:0:
258,191,321481,1,0,0:0:0:0:
258,191,321564,1,8,0:0:0:0:
258,191,321648,1,0,0:0:0:0:
258,191,321731,1,0,0:0:0:0:
258,191,321898,1,0,0:0:0:0:
258,191,322064,1,0,0:0:0:0:
258,191,322148,1,0,0:0:0:0:
258,191,322231,1,8,0:0:0:0:
258,191,322314,1,0,0:0:0:0:
258,191,322398,1,0,0:0:0:0:
258,191,322564,1,8,0:0:0:0:
258,191,322731,1,8,0:0:0:0:
258,191,323064,1,0,0:0:0:0:
258,191,323231,1,0,0:0:0:0:
258,191,323398,1,8,0:0:0:0:
258,191,323564,1,8,0:0:0:0:
258,191,323731,1,0,0:0:0:0:
262,199,323898,1,8,0:0:0:0:
262,199,323981,1,8,0:0:0:0:
262,199,324064,1,0,0:0:0:0:
258,191,324148,1,8,0:0:0:0:
258,191,324232,1,8,0:0:0:0:
258,191,324287,1,8,0:0:0:0:
258,191,324343,1,0,0:0:0:0:
256,186,324398,1,8,0:0:0:0:
258,191,324481,1,0,0:0:0:0:
258,191,324564,1,0,0:0:0:0:
262,199,324731,1,0,0:0:0:0:
258,191,325064,1,8,0:0:0:0:
258,191,325398,1,8,0:0:0:0:
258,191,325564,1,8,0:0:0:0:
258,192,325731,1,0,0:0:0:0:
258,191,325898,1,0,0:0:0:0:
258,191,326064,1,8,0:0:0:0:
258,191,326231,1,8,0:0:0:0:
258,191,326398,1,0,0:0:0:0:
258,191,326564,1,8,0:0:0:0:
258,192,326731,1,8,0:0:0:0:
258,191,326898,1,8,0:0:0:0:
258,191,327064,1,0,0:0:0:0:
258,191,327231,1,0,0:0:0:0:
258,191,327398,1,0,0:0:0:0:
258,191,327481,1,8,0:0:0:0:
258,192,327564,1,8,0:0:0:0:
258,192,327620,1,0,0:0:0:0:
258,192,327675,1,0,0:0:0:0:
258,192,327731,1,8,0:0:0:0:
258,191,328064,1,0,0:0:0:0:
258,191,328398,1,0,0:0:0:0:
258,192,328731,1,8,0:0:0:0:
258,191,329064,1,8,0:0:0:0:
258,191,329398,1,8,0:0:0:0:
258,191,330064,1,12,0:0:0:0:
258,191,330731,1,0,0:0:0:0:
258,191,330814,1,0,0:0:0:0:
258,191,330898,1,8,0:0:0:0:
258,191,330981,1,8,0:0:0:0:
258,191,331064,1,0,0:0:0:0:
258,191,331231,1,0,0:0:0:0:
258,191,331398,1,0,0:0:0:0:
258,191,331481,1,0,0:0:0:0:
258,191,331564,1,8,0:0:0:0:
258,191,331648,1,0,0:0:0:0:
258,191,331731,1,0,0:0:0:0:
258,191,331898,1,0,0:0:0:0:
258,191,332064,1,0,0:0:0:0:
258,191,332148,1,8,0:0:0:0:
258,191,332231,1,8,0:0:0:0:
258,191,332314,1,0,0:0:0:0:
258,191,332398,1,8,0:0:0:0:
258,191,332564,1,8,0:0:0:0:
258,191,332731,1,8,0:0:0:0:
258,191,332814,1,8,0:0:0:0:
258,191,332898,1,0,0:0:0:0:
258,191,332981,1,8,0:0:0:0:
258,191,333064,1,0,0:0:0:0:
258,191,333398,1,8,0:0:0:0:
258,191,333731,1,0,0:0:0:0:
258,191,334064,1,0,0:0:0:0:
258,191,334231,1,0,0:0:0:0:
258,191,334398,1,8,0:0:0:0:
258,191,334564,1,8,0:0:0:0:
258,191,334648,1,8,0:0:0:0:
258,191,334731,1,8,0:0:0:0:
258,191,334814,1,0,0:0:0:0:
258,191,334897,1,8,0:0:0:0:
258,191,334953,1,8,0:0:0:0:
258,191,335008,1,0,0:0:0:0:
258,191,335064,1,8,0:0:0:0:
258,191,335231,1,0,0:0:0:0:
258,191,335398,1,0,0:0:0:0:
258,191,335731,1,0,0:0:0:0:
258,191,336064,1,8,0:0:0:0:
258,191,336231,1,0,0:0:0:0:
258,191,336398,1,0,0:0:0:0:
258,191,336564,1,8,0:0:0:0:
258,191,336731,1,8,0:0:0:0:
258,191,336898,1,0,0:0:0:0:
258,191,337064,1,8,0:0:0:0:
258,191,337231,1,0,0:0:0:0:
258,191,337398,1,0,0:0:0:0:
258,191,337564,1,8,0:0:0:0:
258,191,337731,1,8,0:0:0:0:
258,191,337898,1,0,0:0:0:0:
258,191,338064,1,0,0:0:0:0:
258,191,338148,1,8,0:0:0:0:
258,191,338231,1,8,0:0:0:0:
258,191,338286,1,0,0:0:0:0:
258,191,338342,1,0,0:0:0:0:
258,191,338398,1,8,0:0:0:0:
258,191,338731,1,0,0:0:0:0:
258,191,339064,1,0,0:0:0:0:
258,191,339398,1,8,0:0:0:0:
258,191,339731,1,8,0:0:0:0:
258,191,340064,1,12,0:0:0:0:
258,191,340731,1,12,0:0:0:0:
256,192,341398,12,0,342731,0:0:0:0:
256,193,362731,5,8,0:0:0:0:
256,193,362898,1,0,0:0:0:0:
256,193,362981,1,0,0:0:0:0:
256,193,363064,1,8,0:0:0:0:
256,193,363231,1,0,0:0:0:0:
256,193,363398,1,0,0:0:0:0:
256,193,363564,1,0,0:0:0:0:
256,193,363648,1,8,0:0:0:0:
256,193,363731,1,8,0:0:0:0:
256,193,363898,1,0,0:0:0:0:
256,193,364064,1,8,0:0:0:0:
256,193,364148,1,8,0:0:0:0:
256,193,364231,1,8,0:0:0:0:
256,193,364398,1,8,0:0:0:0:
256,193,364564,1,0,0:0:0:0:
256,193,364731,1,8,0:0:0:0:
256,193,364814,1,0,0:0:0:0:
256,193,364898,1,8,0:0:0:0:
256,193,364953,1,8,0:0:0:0:
256,193,365009,1,0,0:0:0:0:
256,193,365064,1,0,0:0:0:0:
256,193,365148,1,8,0:0:0:0:
256,193,365231,1,8,0:0:0:0:
256,193,365398,1,0,0:0:0:0:
256,193,365731,1,0,0:0:0:0:
256,192,366064,1,8,0:0:0:0:
256,193,366231,1,0,0:0:0:0:
256,193,366314,1,0,0:0:0:0:
256,193,366398,1,8,0:0:0:0:
256,193,366481,1,8,0:0:0:0:
256,193,366564,1,0,0:0:0:0:
256,193,366731,1,0,0:0:0:0:
256,192,366898,1,8,0:0:0:0:
256,192,366953,1,8,0:0:0:0:
256,192,367009,1,0,0:0:0:0:
256,192,367064,1,0,0:0:0:0:
256,192,367231,1,0,0:0:0:0:
256,192,367398,1,8,0:0:0:0:
256,193,367731,1,0,0:0:0:0:
256,192,368064,1,12,0:0:0:0:
256,192,368398,1,0,0:0:0:0:
256,193,368564,1,0,0:0:0:0:
256,193,368648,1,0,0:0:0:0:
256,193,368731,1,0,0:0:0:0:
256,192,368898,1,8,0:0:0:0:
256,192,368981,1,8,0:0:0:0:
256,192,369064,1,0,0:0:0:0:
256,192,369231,1,0,0:0:0:0:
256,192,369398,1,8,0:0:0:0:
256,193,369564,1,0,0:0:0:0:
256,193,369731,1,8,0:0:0:0:
256,193,369814,1,0,0:0:0:0:
256,192,369898,1,8,0:0:0:0:
256,192,370064,1,0,0:0:0:0:
256,192,370231,1,8,0:0:0:0:
256,192,370287,1,8,0:0:0:0:
256,192,370342,1,8,0:0:0:0:
256,192,370398,1,0,0:0:0:0:
256,193,370731,1,8,0:0:0:0:
256,192,371064,1,0,0:0:0:0:
256,192,371398,1,8,0:0:0:0:
256,193,371564,1,8,0:0:0:0:
256,193,371648,1,0,0:0:0:0:
256,192,371731,1,0,0:0:0:0:
256,192,371898,1,8,0:0:0:0:
256,192,372064,1,8,0:0:0:0:
256,192,372231,1,0,0:0:0:0:
256,192,372398,1,8,0:0:0:0:
256,193,372564,1,0,0:0:0:0:
256,192,372731,1,0,0:0:0:0:
260,190,372898,1,0,0:0:0:0:
260,190,372981,1,0,0:0:0:0:
260,190,373064,1,0,0:0:0:0:
260,190,373231,1,8,0:0:0:0:
260,190,373398,1,12,0:0:0:0:
260,189,373564,1,0,0:0:0:0:
260,189,373648,1,8,0:0:0:0:
260,190,373731,1,0,0:0:0:0:
260,190,373898,1,0,0:0:0:0:
260,190,374064,1,8,0:0:0:0:
263,193,374231,1,0,0:0:0:0:
263,193,374314,1,0,0:0:0:0:
260,190,374398,1,8,0:0:0:0:
260,189,374564,1,0,0:0:0:0:
260,190,374731,1,8,0:0:0:0:
260,190,374814,1,0,0:0:0:0:
260,190,374898,1,8,0:0:0:0:
260,182,375064,1,8,0:0:0:0:
260,187,375231,1,0,0:0:0:0:
260,187,375314,1,0,0:0:0:0:
260,190,375398,1,0,0:0:0:0:
260,188,375564,1,8,0:0:0:0:
260,188,375620,1,8,0:0:0:0:
260,188,375675,1,8,0:0:0:0:
260,190,375731,1,0,0:0:0:0:
260,182,376064,1,0,0:0:0:0:
260,184,376398,1,8,0:0:0:0:
260,179,376564,1,0,0:0:0:0:
260,179,376648,1,8,0:0:0:0:
260,184,376731,1,0,0:0:0:0:
260,184,376897,1,8,0:0:0:0:
260,182,377064,1,8,0:0:0:0:
260,184,377231,1,8,0:0:0:0:
260,184,377314,1,0,0:0:0:0:
260,184,377398,1,8,0:0:0:0:
260,184,377564,1,8,0:0:0:0:
260,184,377620,1,8,0:0:0:0:
260,184,377676,1,8,0:0:0:0:
260,184,377731,1,0,0:0:0:0:
260,184,377898,1,0,0:0:0:0:
260,187,378064,1,0,0:0:0:0:
260,184,378398,1,12,0:0:0:0:
260,184,378731,1,8,0:0:0:0:
259,181,378898,1,8,0:0:0:0:
260,184,378982,1,0,0:0:0:0:
260,184,379065,1,8,0:0:0:0:
260,184,379231,1,0,0:0:0:0:
260,184,379398,1,0,0:0:0:0:
260,184,379481,1,0,0:0:0:0:
260,184,379564,1,8,0:0:0:0:
260,184,379731,1,8,0:0:0:0:
260,184,379814,1,8,0:0:0:0:
260,184,379898,1,0,0:0:0:0:
259,181,380064,1,0,0:0:0:0:
260,184,380231,1,8,0:0:0:0:
260,184,380398,1,8,0:0:0:0:
260,184,380481,1,0,0:0:0:0:
260,184,380564,1,0,0:0:0:0:
260,184,380731,1,0,0:0:0:0:
260,184,380898,1,8,0:0:0:0:
259,181,380953,1,8,0:0:0:0:
259,181,381009,1,8,0:0:0:0:
259,181,381064,1,0,0:0:0:0:
259,177,381398,1,8,0:0:0:0:
260,175,381731,1,0,0:0:0:0:
260,175,382064,1,8,0:0:0:0:
259,177,382231,1,8,0:0:0:0:
259,177,382398,1,0,0:0:0:0:
260,175,382564,1,8,0:0:0:0:
260,175,382731,1,0,0:0:0:0:
260,175,382898,1,0,0:0:0:0:
260,175,383064,1,8,0:0:0:0:
259,177,383231,1,8,0:0:0:0:
259,177,383398,1,0,0:0:0:0:
260,175,383564,1,8,0:0:0:0:
260,175,383648,1,0,0:0:0:0:
260,175,383731,1,8,0:0:0:0:
260,175,383814,1,0,0:0:0:0:
260,175,383898,1,0,0:0:0:0:
259,177,384064,1,8,0:0:0:0:
259,177,384232,1,8,0:0:0:0:
260,175,384315,1,8,0:0:0:0:
260,175,384398,1,0,0:0:0:0:
260,175,384564,1,0,0:0:0:0:
260,175,384731,1,8,0:0:0:0:
260,175,384898,1,0,0:0:0:0:
260,175,384981,1,0,0:0:0:0:
260,175,385064,1,0,0:0:0:0:
252,172,385231,1,0,0:0:0:0:
252,172,385398,1,0,0:0:0:0:
252,172,385564,1,8,0:0:0:0:
256,186,385648,1,0,0:0:0:0:
256,186,385731,1,0,0:0:0:0:
256,186,385898,1,8,0:0:0:0:
256,186,386064,1,0,0:0:0:0:
256,187,386231,1,8,0:0:0:0:
256,187,386287,1,8,0:0:0:0:
256,187,386342,1,8,0:0:0:0:
256,187,386398,1,0,0:0:0:0:
256,186,386731,1,0,0:0:0:0:
256,186,387064,1,0,0:0:0:0:
256,187,387398,1,8,0:0:0:0:
256,186,387564,1,8,0:0:0:0:
256,186,387731,1,8,0:0:0:0:
256,186,387898,1,0,0:0:0:0:
256,186,387981,1,0,0:0:0:0:
256,186,388064,1,8,0:0:0:0:
256,187,388231,1,8,0:0:0:0:
256,187,388287,1,8,0:0:0:0:
256,187,388342,1,8,0:0:0:0:
256,187,388398,1,0,0:0:0:0:
256,186,388564,1,8,0:0:0:0:
256,186,388731,1,0,0:0:0:0:
256,186,388898,1,8,0:0:0:0:
256,186,389064,1,0,0:0:0:0:
256,187,389148,1,0,0:0:0:0:
256,187,389231,1,0,0:0:0:0:
256,187,389398,1,12,0:0:0:0:
256,186,389564,1,0,0:0:0:0:
256,186,389731,1,0,0:0:0:0:
256,186,389814,1,8,0:0:0:0:
256,186,389898,1,8,0:0:0:0:
256,186,390064,1,0,0:0:0:0:
256,187,390231,1,8,0:0:0:0:
256,187,390314,1,8,0:0:0:0:
256,187,390398,1,8,0:0:0:0:
256,186,390564,1,8,0:0:0:0:
256,186,390731,1,0,0:0:0:0:
256,186,390814,1,8,0:0:0:0:
256,186,390898,1,0,0:0:0:0:
256,186,391064,1,0,0:0:0:0:
256,187,391231,1,8,0:0:0:0:
256,187,391314,1,0,0:0:0:0:
256,187,391398,1,0,0:0:0:0:
256,186,391564,1,8,0:0:0:0:
256,186,391620,1,8,0:0:0:0:
256,186,391676,1,8,0:0:0:0:
256,186,391731,1,0,0:0:0:0:
256,186,392064,1,8,0:0:0:0:
256,187,392398,1,0,0:0:0:0:
256,186,392731,1,8,0:0:0:0:
256,186,392898,1,8,0:0:0:0:
256,186,393064,1,0,0:0:0:0:
256,187,393231,1,8,0:0:0:0:
256,187,393398,1,0,0:0:0:0:
256,186,393564,1,0,0:0:0:0:
256,186,393731,1,8,0:0:0:0:
256,186,393898,1,0,0:0:0:0:
256,186,393981,1,8,0:0:0:0:
256,186,394064,1,0,0:0:0:0:
256,187,394231,1,0,0:0:0:0:
256,187,394398,1,0,0:0:0:0:
256,186,394731,1,8,0:0:0:0:
256,186,394898,1,0,0:0:0:0:
256,186,395064,1,0,0:0:0:0:
256,187,395231,1,8,0:0:0:0:
256,187,395398,1,0,0:0:0:0:
256,186,395564,1,0,0:0:0:0:
256,186,395731,1,8,0:0:0:0:
256,186,395898,1,0,0:0:0:0:
256,186,396064,1,8,0:0:0:0:
256,187,396231,1,8,0:0:0:0:
256,187,396398,1,0,0:0:0:0:
256,186,396564,1,8,0:0:0:0:
256,186,396731,1,8,0:0:0:0:
256,186,396898,1,0,0:0:0:0:
256,186,397064,1,8,0:0:0:0:
256,187,397231,1,8,0:0:0:0:
256,187,397398,1,0,0:0:0:0:
256,186,397564,1,8,0:0:0:0:
256,186,397731,1,0,0:0:0:0:
256,186,397898,1,8,0:0:0:0:
256,186,398064,1,8,0:0:0:0:
256,187,398231,1,0,0:0:0:0:
256,187,398398,1,8,0:0:0:0:
256,186,398564,1,8,0:0:0:0:
256,186,398731,1,8,0:0:0:0:
256,186,398898,1,0,0:0:0:0:
256,186,399064,1,8,0:0:0:0:
256,187,399231,1,8,0:0:0:0:
256,187,399398,1,0,0:0:0:0:
256,186,399564,1,0,0:0:0:0:
256,186,399731,1,8,0:0:0:0:
256,186,399898,1,0,0:0:0:0:
256,186,400064,1,0,0:0:0:0:
256,187,400231,1,8,0:0:0:0:
256,187,400398,1,0,0:0:0:0:
256,186,400564,1,8,0:0:0:0:
256,186,400731,1,0,0:0:0:0:
256,186,400898,1,8,0:0:0:0:
256,186,401064,1,0,0:0:0:0:
256,187,401231,1,0,0:0:0:0:
256,187,401398,1,8,0:0:0:0:
256,186,401564,1,0,0:0:0:0:
256,186,401731,1,8,0:0:0:0:
256,186,401898,1,0,0:0:0:0:
256,186,402064,1,0,0:0:0:0:
256,187,402231,1,8,0:0:0:0:
256,187,402398,1,0,0:0:0:0:
256,186,402564,1,8,0:0:0:0:
256,186,402731,1,0,0:0:0:0:
256,186,402898,1,0,0:0:0:0:
256,186,403064,1,8,0:0:0:0:
256,187,403231,1,0,0:0:0:0:
256,187,403398,1,0,0:0:0:0:
256,186,403564,1,8,0:0:0:0:
256,186,403731,1,8,0:0:0:0:
256,186,403898,1,0,0:0:0:0:
256,186,404064,1,8,0:0:0:0:
256,187,404231,5,0,0:0:0:0:
256,187,404398,1,0,0:0:0:0:
256,186,404564,1,0,0:0:0:0:
256,186,404731,1,8,0:0:0:0:
256,186,404898,1,8,0:0:0:0:
256,186,405064,1,0,0:0:0:0:
256,187,405231,1,8,0:0:0:0:
256,190,405398,5,0,0:0:0:0:
256,190,410731,5,4,0:0:0:0:
256,190,410898,1,4,0:0:0:0:
256,190,411231,1,4,0:0:0:0:
256,190,411398,1,4,0:0:0:0:
256,190,411731,1,4,0:0:0:0:
256,190,411898,1,4,0:0:0:0:
256,190,412231,1,4,0:0:0:0:
256,190,412398,1,4,0:0:0:0:
256,190,412731,1,0,0:0:0:0:
256,190,413064,1,0,0:0:0:0:
256,190,413398,1,4,0:0:0:0:
256,190,413564,1,12,0:0:0:0:
256,190,413898,1,12,0:0:0:0:
256,190,414064,1,12,0:0:0:0:
256,190,414398,1,12,0:0:0:0:
256,190,414564,1,12,0:0:0:0:
256,190,414898,1,12,0:0:0:0:
256,190,415064,1,12,0:0:0:0:
256,190,415398,1,8,0:0:0:0:
256,190,415731,1,8,0:0:0:0:
256,190,416064,1,4,0:0:0:0:
256,190,416398,5,8,0:0:0:0:
256,190,416731,1,8,0:0:0:0:
256,190,417064,1,0,0:0:0:0:
256,190,417398,1,8,0:0:0:0:
256,190,417898,1,8,0:0:0:0:
256,190,418398,1,8,0:0:0:0:
256,190,418731,1,0,0:0:0:0:
256,190,419064,1,0,0:0:0:0:
256,190,419398,1,8,0:0:0:0:
256,190,419731,1,0,0:0:0:0:
256,190,420064,1,8,0:0:0:0:
256,190,420564,1,8,0:0:0:0:
256,190,421064,1,8,0:0:0:0:
256,190,421398,1,0,0:0:0:0:
256,190,421731,1,8,0:0:0:0:
256,190,422064,1,8,0:0:0:0:
256,190,422398,1,0,0:0:0:0:
256,190,422731,1,8,0:0:0:0:
256,190,423231,1,8,0:0:0:0:
256,190,423731,1,8,0:0:0:0:
256,190,424064,1,8,0:0:0:0:
256,190,424398,1,0,0:0:0:0:
256,190,424731,1,8,0:0:0:0:
256,190,425064,1,8,0:0:0:0:
256,190,425398,1,8,0:0:0:0:
256,190,425898,1,0,0:0:0:0:
256,190,426398,1,8,0:0:0:0:
256,190,426731,1,0,0:0:0:0:
256,190,427064,1,0,0:0:0:0:
256,190,427398,1,8,0:0:0:0:
256,190,427731,1,0,0:0:0:0:
256,190,428064,1,8,0:0:0:0:
256,190,428564,1,8,0:0:0:0:
256,190,429064,1,8,0:0:0:0:
256,190,429398,1,0,0:0:0:0:
256,190,429731,1,0,0:0:0:0:
256,190,430064,1,8,0:0:0:0:
256,190,430398,1,0,0:0:0:0:
256,190,430731,1,8,0:0:0:0:
256,190,431231,1,8,0:0:0:0:
256,190,431731,1,8,0:0:0:0:
256,190,432064,1,0,0:0:0:0:
256,190,432398,1,8,0:0:0:0:
256,190,432731,1,8,0:0:0:0:
256,190,433064,1,0,0:0:0:0:
256,190,433398,1,8,0:0:0:0:
256,190,433898,1,8,0:0:0:0:
256,190,434398,1,8,0:0:0:0:
256,190,434731,1,8,0:0:0:0:
256,190,435064,1,0,0:0:0:0:
256,190,435398,1,8,0:0:0:0:
256,190,435731,1,8,0:0:0:0:
256,190,436064,1,0,0:0:0:0:
256,190,436564,1,0,0:0:0:0:
256,190,437064,1,8,0:0:0:0:
256,190,437398,1,0,0:0:0:0:
256,190,437731,1,0,0:0:0:0:
256,190,438064,1,8,0:0:0:0:
256,190,438398,1,0,0:0:0:0:
256,190,438731,1,8,0:0:0:0:
256,190,439231,1,8,0:0:0:0:
256,190,439731,1,8,0:0:0:0:
256,190,440064,1,8,0:0:0:0:
256,190,440398,1,0,0:0:0:0:
256,190,440731,1,8,0:0:0:0:
256,190,441064,1,0,0:0:0:0:
256,190,441398,1,8,0:0:0:0:
256,190,441898,1,8,0:0:0:0:
256,190,442398,1,8,0:0:0:0:
256,190,442731,1,0,0:0:0:0:
256,190,443064,1,8,0:0:0:0:
256,190,443398,1,0,0:0:0:0:
256,190,443731,1,0,0:0:0:0:
256,190,444064,1,8,0:0:0:0:
256,190,444564,1,8,0:0:0:0:
256,190,445064,1,8,0:0:0:0:
256,190,445398,1,0,0:0:0:0:
256,190,445731,1,0,0:0:0:0:
256,190,446064,1,8,0:0:0:0:
256,190,446398,1,8,0:0:0:0:
256,190,446731,1,8,0:0:0:0:
256,190,447231,1,8,0:0:0:0:
256,190,447731,1,8,0:0:0:0:
256,190,448064,1,0,0:0:0:0:
256,190,448398,1,8,0:0:0:0:
256,190,448731,1,8,0:0:0:0:
256,190,449064,1,0,0:0:0:0:
256,190,449398,1,8,0:0:0:0:
256,190,449898,1,8,0:0:0:0:
256,190,450398,1,8,0:0:0:0:
256,190,450731,1,8,0:0:0:0:
256,190,451064,1,0,0:0:0:0:
256,190,451398,1,8,0:0:0:0:
256,190,451731,1,0,0:0:0:0:
256,190,452064,1,8,0:0:0:0:
256,190,452564,1,8,0:0:0:0:
256,190,452731,1,8,0:0:0:0:
256,190,453064,1,8,0:0:0:0:
256,190,453398,1,8,0:0:0:0:
256,190,453731,1,8,0:0:0:0:
256,190,454064,1,0,0:0:0:0:
256,190,454398,1,0,0:0:0:0:
256,190,454731,1,8,0:0:0:0:
256,190,455231,1,8,0:0:0:0:
256,190,455731,1,8,0:0:0:0:
256,190,456064,1,0,0:0:0:0:
245,197,456398,1,8,0:0:0:0:
244,197,456731,1,8,0:0:0:0:
244,197,457064,1,0,0:0:0:0:
245,197,457398,1,8,0:0:0:0:
244,197,457731,1,8,0:0:0:0:
249,199,457814,1,8,0:0:0:0:
249,199,457898,1,8,0:0:0:0:
251,202,458064,1,8,0:0:0:0:
251,202,458176,1,0,0:0:0:0:
251,202,458287,1,0,0:0:0:0:
245,197,458398,1,8,0:0:0:0:
256,192,458731,5,4,0:0:0:0:
256,197,459064,1,8,0:0:0:0:
256,197,459176,1,8,0:0:0:0:
256,194,459287,1,0,0:0:0:0:
256,194,459398,1,0,0:0:0:0:
256,192,459731,1,8,0:0:0:0:
256,197,459842,1,0,0:0:0:0:
256,197,459953,1,0,0:0:0:0:
256,197,460064,1,8,0:0:0:0:
256,194,460398,1,0,0:0:0:0:
256,199,460731,1,8,0:0:0:0:
256,197,460842,1,8,0:0:0:0:
256,197,460953,1,0,0:0:0:0:
256,197,461064,1,0,0:0:0:0:
256,199,461398,1,0,0:0:0:0:
256,199,461731,1,8,0:0:0:0:
256,197,461842,1,8,0:0:0:0:
256,197,461953,1,0,0:0:0:0:
256,202,462064,1,0,0:0:0:0:
256,199,462398,1,8,0:0:0:0:
256,199,462509,1,0,0:0:0:0:
256,199,462620,1,0,0:0:0:0:
256,199,462731,1,8,0:0:0:0:
253,197,463064,1,0,0:0:0:0:
256,199,463398,1,8,0:0:0:0:
256,199,463509,1,8,0:0:0:0:
256,199,463620,1,0,0:0:0:0:
256,199,463731,1,8,0:0:0:0:
257,199,464064,1,12,0:0:0:0:
256,199,464398,1,8,0:0:0:0:
256,199,464509,1,0,0:0:0:0:
256,199,464620,1,0,0:0:0:0:
256,199,464731,1,8,0:0:0:0:
257,199,465064,1,8,0:0:0:0:
256,199,465176,1,8,0:0:0:0:
256,199,465287,1,0,0:0:0:0:
256,199,465398,1,0,0:0:0:0:
256,199,465731,1,0,0:0:0:0:
257,199,466064,1,8,0:0:0:0:
256,199,466176,1,0,0:0:0:0:
256,199,466287,1,0,0:0:0:0:
256,199,466398,1,8,0:0:0:0:
256,199,466731,1,0,0:0:0:0:
257,199,467064,1,8,0:0:0:0:
256,199,467176,1,8,0:0:0:0:
256,199,467287,1,0,0:0:0:0:
256,199,467398,1,8,0:0:0:0:
256,199,467731,1,8,0:0:0:0:
257,199,467842,1,0,0:0:0:0:
257,199,467953,1,0,0:0:0:0:
257,199,468064,1,8,0:0:0:0:
256,199,468398,1,8,0:0:0:0:
256,199,468731,1,8,0:0:0:0:
257,199,468842,1,8,0:0:0:0:
257,199,468953,1,0,0:0:0:0:
257,199,469064,1,8,0:0:0:0:
256,199,469398,1,12,0:0:0:0:
256,199,469731,1,8,0:0:0:0:
257,199,469842,1,0,0:0:0:0:
257,199,469953,1,0,0:0:0:0:
257,199,470064,1,8,0:0:0:0:
256,199,470398,1,8,0:0:0:0:
256,199,470509,1,8,0:0:0:0:
256,199,470620,1,0,0:0:0:0:
256,199,470731,1,0,0:0:0:0:
257,199,471064,1,0,0:0:0:0:
256,199,471398,1,8,0:0:0:0:
256,199,471509,1,0,0:0:0:0:
256,199,471620,1,0,0:0:0:0:
256,199,471731,1,8,0:0:0:0:
257,199,472064,1,0,0:0:0:0:
256,199,472398,1,8,0:0:0:0:
256,199,472509,1,8,0:0:0:0:
256,199,472620,1,0,0:0:0:0:
256,199,472731,1,0,0:0:0:0:
257,199,473064,1,8,0:0:0:0:
256,199,473176,1,0,0:0:0:0:
256,199,473287,1,0,0:0:0:0:
256,199,473398,1,8,0:0:0:0:
256,199,473731,1,0,0:0:0:0:
257,199,474064,1,8,0:0:0:0:
256,199,474176,1,8,0:0:0:0:
256,199,474287,1,0,0:0:0:0:
256,199,474398,1,8,0:0:0:0:
256,199,474731,1,12,0:0:0:0:
257,199,475064,1,8,0:0:0:0:
256,199,475176,1,8,0:0:0:0:
256,199,475287,1,0,0:0:0:0:
256,199,475398,1,0,0:0:0:0:
256,199,475731,1,8,0:0:0:0:
257,199,475842,1,0,0:0:0:0:
257,199,475953,1,0,0:0:0:0:
257,199,476064,1,8,0:0:0:0:
256,199,476398,1,0,0:0:0:0:
256,199,476731,1,8,0:0:0:0:
257,199,476842,1,8,0:0:0:0:
257,199,476953,1,0,0:0:0:0:
257,199,477064,1,0,0:0:0:0:
259,202,477398,1,0,0:0:0:0:
259,202,477731,1,8,0:0:0:0:
257,199,477842,1,0,0:0:0:0:
257,199,477953,1,0,0:0:0:0:
257,199,478064,1,8,0:0:0:0:
259,202,478398,1,8,0:0:0:0:
259,202,478509,1,8,0:0:0:0:
259,202,478620,1,0,0:0:0:0:
259,202,478731,1,0,0:0:0:0:
257,199,479064,1,0,0:0:0:0:
259,202,479398,1,8,0:0:0:0:
259,202,479509,1,8,0:0:0:0:
259,202,479620,1,0,0:0:0:0:
259,202,479731,1,8,0:0:0:0:
259,203,480064,1,12,0:0:0:0:
259,202,480398,1,8,0:0:0:0:
259,202,480509,1,8,0:0:0:0:
259,202,480620,1,0,0:0:0:0:
259,202,480731,1,0,0:0:0:0:
259,203,481064,1,8,0:0:0:0:
259,202,481176,1,0,0:0:0:0:
259,202,481287,1,0,0:0:0:0:
259,202,481398,1,8,0:0:0:0:
259,202,481731,1,0,0:0:0:0:
259,203,482064,1,8,0:0:0:0:
259,202,482176,1,8,0:0:0:0:
259,202,482287,1,0,0:0:0:0:
259,202,482398,1,0,0:0:0:0:
259,202,482731,1,0,0:0:0:0:
259,203,483064,1,8,0:0:0:0:
259,202,483176,1,0,0:0:0:0:
253,201,483287,1,0,0:0:0:0:
253,201,483398,1,8,0:0:0:0:
253,201,483731,1,8,0:0:0:0:
253,201,483842,1,8,0:0:0:0:
253,201,483953,1,0,0:0:0:0:
253,201,484064,1,0,0:0:0:0:
249,196,484398,1,0,0:0:0:0:
249,196,484731,1,8,0:0:0:0:
249,196,484842,1,8,0:0:0:0:
249,196,484953,1,0,0:0:0:0:
249,196,485064,1,8,0:0:0:0:
249,196,485398,1,12,0:0:0:0:
256,199,485731,1,8,0:0:0:0:
256,199,485842,1,8,0:0:0:0:
256,199,485953,1,0,0:0:0:0:
256,199,486064,1,0,0:0:0:0:
256,199,486398,1,8,0:0:0:0:
256,199,486509,1,0,0:0:0:0:
256,199,486620,1,0,0:0:0:0:
256,199,486731,1,8,0:0:0:0:
256,199,487064,1,0,0:0:0:0:
256,199,487398,1,8,0:0:0:0:
256,199,487509,1,0,0:0:0:0:
256,199,487620,1,0,0:0:0:0:
256,199,487731,1,8,0:0:0:0:
256,199,488064,1,0,0:0:0:0:
256,199,488398,1,8,0:0:0:0:
256,199,488509,1,8,0:0:0:0:
256,199,488620,1,0,0:0:0:0:
256,199,488731,1,0,0:0:0:0:
256,199,489064,1,8,0:0:0:0:
256,199,489176,1,0,0:0:0:0:
256,199,489287,1,0,0:0:0:0:
256,199,489398,1,8,0:0:0:0:
256,199,489731,1,0,0:0:0:0:
256,199,490064,1,8,0:0:0:0:
256,199,490176,1,8,0:0:0:0:
256,199,490287,1,0,0:0:0:0:
256,199,490398,1,8,0:0:0:0:
256,199,490731,1,12,0:0:0:0:
256,199,491064,1,8,0:0:0:0:
256,199,491176,1,0,0:0:0:0:
256,199,491287,1,0,0:0:0:0:
256,199,491398,1,8,0:0:0:0:
256,199,491731,1,8,0:0:0:0:
256,199,491842,1,8,0:0:0:0:
256,199,491953,1,0,0:0:0:0:
256,199,492064,1,0,0:0:0:0:
256,199,492398,1,0,0:0:0:0:
256,199,492731,1,8,0:0:0:0:
256,199,492842,1,0,0:0:0:0:
256,199,492953,1,0,0:0:0:0:
256,199,493064,1,8,0:0:0:0:
256,199,493398,1,0,0:0:0:0:
256,199,493731,1,8,0:0:0:0:
256,199,493842,1,8,0:0:0:0:
256,199,493953,1,0,0:0:0:0:
256,199,494064,1,0,0:0:0:0:
256,199,494398,1,8,0:0:0:0:
256,199,494509,1,0,0:0:0:0:
256,199,494620,1,0,0:0:0:0:
256,199,494731,1,8,0:0:0:0:
256,199,495064,1,0,0:0:0:0:
256,199,495398,1,8,0:0:0:0:
256,199,495509,1,8,0:0:0:0:
256,199,495620,1,0,0:0:0:0:
256,199,495731,1,8,0:0:0:0:
256,199,496064,1,12,0:0:0:0:
256,199,496398,1,8,0:0:0:0:
256,199,496509,1,8,0:0:0:0:
256,199,496620,1,0,0:0:0:0:
256,199,496731,1,0,0:0:0:0:
256,199,497064,1,8,0:0:0:0:
256,199,497176,1,0,0:0:0:0:
256,199,497287,1,0,0:0:0:0:
256,199,497398,1,8,0:0:0:0:
256,199,497731,1,0,0:0:0:0:
256,199,498064,1,8,0:0:0:0:
256,199,498176,1,8,0:0:0:0:
256,199,498287,1,0,0:0:0:0:
256,199,498398,1,0,0:0:0:0:
256,199,498731,1,0,0:0:0:0:
256,199,499064,1,8,0:0:0:0:
256,199,499176,1,0,0:0:0:0:
256,199,499287,1,0,0:0:0:0:
256,199,499398,1,8,0:0:0:0:
256,199,499731,1,8,0:0:0:0:
256,199,499842,1,8,0:0:0:0:
256,199,499953,1,0,0:0:0:0:
256,199,500064,1,0,0:0:0:0:
256,199,500398,1,0,0:0:0:0:
256,199,500731,1,8,0:0:0:0:
256,199,500842,1,8,0:0:0:0:
256,199,500953,1,0,0:0:0:0:
256,199,501064,1,8,0:0:0:0:
256,199,501398,1,12,0:0:0:0:
256,199,501731,1,8,0:0:0:0:
256,199,501842,1,0,0:0:0:0:
256,199,501953,1,0,0:0:0:0:
256,199,502064,1,8,0:0:0:0:
256,199,502398,1,8,0:0:0:0:
256,199,502509,1,8,0:0:0:0:
256,199,502620,1,0,0:0:0:0:
256,199,502731,1,0,0:0:0:0:
256,199,503064,5,0,0:0:0:0:
254,193,503398,1,8,0:0:0:0:
254,193,503509,1,0,0:0:0:0:
254,193,503620,1,0,0:0:0:0:
254,193,503731,1,8,0:0:0:0:
256,192,504064,12,0,506731,0:0:0:0:
