osu file format v14

[General]
AudioFilename: audio.mp3
AudioLeadIn: 0
PreviewTime:68437
Countdown: 0
SampleSet: Soft
StackLeniency: 0.5
Mode: 0
LetterboxInBreaks: 0
WidescreenStoryboard: 1

[Editor]
DistanceSpacing: 0.7
BeatDivisor: 4
GridSize: 4
TimelineZoom: 1.9

[Metadata]
Title:SAVE (Encore)
TitleUnicode:SAVE (Encore)
Artist:DM DOKURO
ArtistUnicode:DM DOKURO
Creator:browiec
Version:browiec & Kuki's Insane
Source:UNDERTALE
Tags:deltarune remix radiation original soundtrack The Underground Radio toby fox drum n and bass chiptune sans ost electronic video game instrumental square last goodbye determination Reform Kujinn Fatfan Kolek kuki1537
BeatmapID:2969237
BeatmapSetID:1440767

[Difficulty]
HPDrainRate:5
CircleSize:3.8
OverallDifficulty:8
ApproachRate:9
SliderMultiplier:1.7
SliderTickRate:1

[Events]
//Background and Video events
0,0,"undrtal.jpg",0,0
//Break Periods
2,46009,67742
2,100636,105003
//Storyboard Layer 0 (Background)
//Storyboard Layer 1 (Fail)
//Storyboard Layer 2 (Pass)
//Storyboard Layer 3 (Foreground)
//Storyboard Layer 4 (Overlay)
//Storyboard Sound Samples

[TimingPoints]
476,333.333333333333,4,2,1,20,1,0
476,-166.666666666667,4,2,1,20,0,0
809,-166.666666666667,4,2,1,25,0,0
1142,-142.857142857143,4,2,1,30,0,0
1475,-142.857142857143,4,2,1,35,0,0
1809,-125,4,2,1,40,0,0
2142,-125,4,2,1,45,0,0
2475,-111.111111111111,4,2,1,50,0,0
2809,-111.111111111111,4,2,1,55,0,0
3142,-100,4,2,2,70,0,0
3309,-100,4,2,1,70,0,0
13809,-100,4,2,2,70,0,0
13975,-100,4,2,1,70,0,0
19142,-100,4,2,1,80,0,0
22975,-100,4,2,1,70,0,0
24475,-100,4,2,2,70,0,0
24642,-100,4,2,1,70,0,0
35142,-100,4,2,2,70,0,0
35309,-100,4,2,1,70,0,0
44475,-100,4,2,1,80,0,0
45809,720.720720720721,4,2,3,70,1,0
46529,738.461538461538,4,2,1,70,1,0
47233,714.285714285714,4,2,1,70,1,0
47940,714.285714285714,4,2,1,70,1,0
48661,692.84064665127,4,2,1,70,1,0
49363,707.964601769912,4,2,1,70,1,0
50079,689.655172413793,4,2,1,70,1,0
50768,745.341614906832,4,2,1,70,1,0
51497,666.666666666667,4,2,1,70,1,0
52193,689.655172413793,4,2,1,70,1,0
52903,681.818181818182,4,2,1,70,1,0
53609,685.714285714286,4,2,1,70,1,0
54320,683.760683760684,4,2,1,70,1,0
55014,716.417910447761,4,2,1,70,1,0
55730,689.655172413793,4,2,1,70,1,0
56419,716.845878136201,4,2,1,70,1,0
57145,678.733031674208,4,2,1,70,1,0
57844,722.89156626506,4,2,1,70,1,0
58205,952.380952380952,4,2,1,70,1,0
58556,692.84064665127,4,2,1,70,1,0
59259,702.576112412178,4,2,1,70,1,0
59977,681.044267877412,4,2,1,70,1,0
60668,722.89156626506,4,2,1,70,1,0
61390,685.714285714286,4,2,1,70,1,0
62075,722.89156626506,4,2,1,70,1,0
62814,659.340659340659,4,2,1,70,1,0
63490,705.882352941176,4,2,1,70,1,0
64226,650.054171180932,4,2,1,70,1,0
64911,694.444444444444,4,2,1,70,1,0
65258,708.382526564345,4,2,1,70,1,0
65620,697.674418604651,4,2,1,70,1,0
66323,710.059171597633,4,2,1,70,1,0
67037,705.052878965922,4,2,1,70,1,0
67742,695.652173913044,4,2,1,70,1,0
68437,333.333333333333,4,2,2,70,1,0
68603,-100,4,2,1,70,0,0
79103,-100,4,2,2,70,0,0
79270,-100,4,2,1,70,0,0
89770,-100,4,2,2,80,0,0
89936,-100,4,2,1,80,0,0
100436,-100,4,2,3,80,0,0
101103,-100,4,2,1,65,0,0
105603,-100,4,2,1,80,0,0
111103,342.857142857143,4,2,3,80,1,0
111188,-100,4,2,3,30,0,0
111617,377.358490566038,4,2,1,30,1,0
112183,413.793103448276,4,2,1,30,1,0
112803,468.75,4,2,1,30,1,0
113506,521.739130434783,4,2,1,30,1,0
114027,535.714285714286,4,2,1,30,1,0
114562,1149.42528735632,4,2,1,30,1,0
116860,1151.63147792706,4,2,1,30,1,0
118875,-100,4,2,1,5,0,0
119163,1144.6012972148,4,2,1,30,1,0
120307,1153.84615384615,4,2,1,30,1,0
121460,1186.94362017804,4,2,1,30,1,0
123833,987.654320987654,4,2,1,5,1,0
124326,1167.31517509728,4,2,1,50,1,0
126368,-100,4,2,1,5,0,0
126660,1234.56790123457,4,2,1,50,1,0
127894,1242.23602484472,4,2,1,50,1,0
128515,1348.31460674157,4,2,1,50,1,0
128852,-100,4,2,1,5,0,0
129189,1354.40180586907,4,2,1,50,1,0
129866,1466.99266503667,4,2,1,50,1,0
130599,1587.30158730159,4,2,1,50,1,0
131392,1744.18604651164,4,2,1,50,1,0
132264,2000,4,2,1,50,1,0
134014,-100,4,2,1,20,0,0

[Colours]
Combo1 : 255,30,221
Combo2 : 255,30,30
Combo3 : 242,115,0
Combo4 : 255,255,15
Combo5 : 108,255,38
Combo6 : 36,146,255
Combo7 : 13,49,255
Combo8 : 131,30,255

[HitObjects]
34,215,476,6,0,L|25:165,1,50.9999984436036,2|0,0:0|0:0,0:0:0:0:
100,119,809,2,0,L|109:169,1,50.9999984436036,2|0,0:0|0:0,0:0:0:0:
181,286,1142,6,0,L|192:221,1,59.4999981842042,2|0,0:0|0:0,0:0:0:0:
278,205,1475,2,0,L|268:263,1,59.4999981842042,2|0,0:0|0:0,0:0:0:0:
214,137,1809,6,0,L|201:68,1,68,2|0,0:0|0:0,0:0:0:0:
280,14,2142,2,0,L|292:80,1,68,2|0,0:0|0:0,0:0:0:0:
371,172,2475,6,0,L|383:96,1,76.4999976654053,2|0,0:0|0:0,0:0:0:0:
479,79,2809,2,0,L|466:154,1,76.4999976654053,2|2,0:0|0:0,0:0:0:0:
503,340,3142,6,0,B|436:333|436:333|407:350|407:350|338:343,1,170,6|8,3:2|0:0,0:0:0:0:
243,308,3642,1,0,0:0:0:0:
371,172,3809,2,0,P|386:218|374:280,1,85,2|0,0:0|3:2,0:0:0:0:
281,120,4142,2,0,P|313:84|373:63,1,85,10|0,0:0|0:0,0:0:0:0:
280,223,4475,6,0,L|190:210,1,85,2|0,3:2|0:0,0:0:0:0:
59,313,4809,2,0,L|149:300,1,85,10|0,0:0|0:0,0:0:0:0:
195,210,5142,1,2,0:0:0:0:
70,128,5309,2,0,L|85:213,1,85,2|8,3:2|0:0,0:0:0:0:
161,81,5642,1,2,0:0:0:0:
161,81,5809,6,0,P|114:36|1:51,1,170,0|8,3:2|0:0,0:0:0:0:
162,172,6309,1,0,0:0:0:0:
253,31,6475,2,0,B|263:94|263:94|247:131|247:131|258:209,1,170,2|8,0:0|0:0,0:0:0:0:
392,266,6975,1,2,0:0:0:0:
392,266,7059,1,2,0:0:0:0:
392,266,7142,6,0,B|302:240|318:312|227:285,2,170,6|8|4,3:2|0:0|0:0,0:0:0:0:
485,180,7975,1,0,3:2:0:0:
365,80,8142,2,0,L|377:166,1,85,8|0,0:2|0:2,0:0:0:0:
502,327,8475,6,0,B|462:377|462:377|339:343,1,170,6|8,3:2|0:0,0:0:0:0:
208,324,8975,1,0,0:0:0:0:
294,179,9142,2,0,P|301:233|287:268,1,85,2|0,0:0|3:2,0:0:0:0:
136,252,9475,2,0,P|129:198|143:163,1,85,10|0,0:0|0:0,0:0:0:0:
304,93,9809,6,0,L|216:106,1,85,2|0,3:2|0:0,0:0:0:0:
87,0,10142,2,0,L|175:13,1,85,10|0,0:0|0:0,0:0:0:0:
215,214,10475,1,2,0:0:0:0:
111,90,10642,2,0,L|23:103,1,85,2|8,3:2|0:0,0:0:0:0:
50,275,10975,1,2,0:0:0:0:
50,275,11142,6,0,B|93:277|129:246|129:246|148:288|192:301,1,170,2|8,3:2|0:0,0:0:0:0:
308,245,11642,1,0,0:0:0:0:
227,129,11809,2,0,L|214:215,1,85,2|0,0:0|3:2,0:0:0:0:
293,61,12142,2,0,P|251:37|194:43,1,85,8|0,0:0|0:0,0:0:0:0:
322,153,12475,6,0,L|419:139,1,85,6|0,3:2|0:0,0:0:0:0:
484,255,12809,2,0,P|435:240|388:251,1,85,10|0,0:0|0:0,0:0:0:0:
258,310,13142,2,0,P|295:275|309:228,1,85,6|0,0:0|0:2,0:0:0:0:
198,138,13475,2,0,L|213:230,1,85,10|0,0:2|0:0,0:0:0:0:
60,382,13809,6,0,B|9:341|9:341|54:230,1,170,6|8,3:2|0:0,0:0:0:0:
103,143,14309,1,0,0:0:0:0:
203,308,14475,2,0,P|158:324|113:318,1,85,2|0,0:0|3:2,0:0:0:0:
215,155,14809,2,0,P|257:152|296:167,1,85,10|0,0:0|0:0,0:0:0:0:
314,355,15142,6,0,L|300:263,1,85,2|0,3:2|0:0,0:0:0:0:
400,136,15475,2,0,L|386:228,1,85,10|0,0:0|0:0,0:0:0:0:
492,307,15809,1,2,0:0:0:0:
506,159,15975,2,0,L|493:74,1,85,2|8,3:2|0:0,0:0:0:0:
387,220,16309,1,2,0:0:0:0:
387,220,16475,6,0,B|325:209|325:209|288:231|288:231|209:218,1,170,0|8,3:2|0:0,0:0:0:0:
88,265,16975,1,0,0:0:0:0:
117,105,17142,2,0,P|162:81|264:148,1,170,2|8,0:0|0:0,0:0:0:0:
202,335,17642,1,2,0:0:0:0:
202,335,17725,1,2,0:0:0:0:
202,335,17809,6,0,L|178:163,2,170,6|8|4,3:2|0:0|0:0,0:0:0:0:
287,242,18642,1,0,3:2:0:0:
344,351,18809,2,0,P|387:366|441:360,1,85,8|0,0:2|0:2,0:0:0:0:
415,191,19142,6,0,B|374:158|374:158|398:284,1,170,6|8,3:2|0:0,0:0:0:0:
512,219,19642,1,0,0:0:0:0:
422,83,19809,2,0,P|373:70|327:83,1,85,2|0,0:0|3:2,0:0:0:0:
202,165,20142,2,0,P|243:171|283:158,1,85,10|0,0:0|0:0,0:0:0:0:
248,0,20475,6,0,L|237:86,1,85,2|0,3:2|0:0,0:0:0:0:
108,153,20809,2,0,L|97:68,1,85,10|0,0:0|0:0,0:0:0:0:
283,158,21142,1,2,0:0:0:0:
141,241,21309,2,0,P|91:246|46:228,1,85,2|8,3:2|0:0,0:0:0:0:
228,326,21642,1,2,0:0:0:0:
228,326,21809,6,0,L|241:234,1,85,0|0,3:2|0:0,0:0:0:0:
370,159,22142,2,0,L|381:243,1,85,10|0,0:0|0:0,0:0:0:0:
323,328,22475,1,2,0:0:0:0:
483,222,22642,2,0,L|471:306,1,85,2|8,3:2|0:0,0:0:0:0:
300,229,22975,1,2,0:0:0:0:
300,229,23142,6,0,P|342:226|381:242,1,85,4|0,3:2|0:0,0:0:0:0:
467,121,23475,2,0,P|427:136|385:134,1,85,10|0,0:0|0:0,0:0:0:0:
309,39,23809,1,6,3:2:0:0:
294,135,23975,1,2,0:0:0:0:
213,24,24142,1,10,0:0:0:0:
197,120,24309,1,2,0:0:0:0:
71,0,24475,6,0,B|11:42|11:42|51:147,1,170,6|8,3:2|0:0,0:0:0:0:
94,244,24975,1,0,0:0:0:0:
197,120,25142,2,0,P|247:106|290:114,1,85,2|0,0:0|3:2,0:0:0:0:
294,245,25475,2,0,P|253:258|211:254,1,85,8|0,0:0|0:0,0:0:0:0:
369,162,25809,6,0,L|380:249,1,85,2|0,3:2|3:2,0:0:0:0:
488,379,26142,2,0,P|420:332|341:356,1,170,8|0,0:0|0:0,0:0:0:0:
193,384,26642,1,0,3:2:0:0:
247,227,26809,2,0,L|258:314,1,85,10|0,0:0|0:0,0:0:0:0:
206,142,27142,6,0,B|300:116|278:182|376:161,1,170,6|8,3:2|0:0,0:0:0:0:
503,112,27642,1,0,0:0:0:0:
397,0,27809,2,0,P|349:-9|296:11,1,85,2|0,0:0|3:2,0:0:0:0:
221,162,28142,1,10,0:0:0:0:
358,78,28309,6,0,L|369:164,1,85,2|0,0:0|3:2,0:0:0:0:
483,284,28642,2,0,L|494:198,1,85,2|8,3:2|0:0,0:0:0:0:
354,262,28975,2,0,L|365:348,1,85,2|0,0:0|0:0,0:0:0:0:
376,170,29309,1,2,3:2:0:0:
376,170,29392,1,2,0:0:0:0:
376,170,29475,2,0,P|329:167|288:187,1,85,10|0,0:0|3:2,0:0:0:0:
197,291,29809,6,0,L|209:202,1,85,6|0,3:2|0:0,0:0:0:0:
61,64,30142,1,10,0:0:0:0:
222,124,30309,1,2,0:0:0:0:
87,236,30475,2,0,L|75:147,1,85,2|0,0:0|3:2,0:0:0:0:
158,0,30809,2,0,L|146:84,1,85,10|0,0:0|0:0,0:0:0:0:
260,222,31142,6,0,P|222:213|161:224,1,85,2|0,3:2|3:2,0:0:0:0:
41,376,31475,1,10,0:0:0:0:
188,307,31642,1,2,0:0:0:0:
4,191,31809,2,0,P|-5:229|6:290,1,85,2|2,0:0|3:2,0:0:0:0:
15,291,32059,1,2,0:0:0:0:
15,291,32142,2,0,L|102:277,1,85,10|0,0:0|0:0,0:0:0:0:
207,110,32475,6,0,P|168:95|117:101,1,85,6|0,3:2|0:0,0:0:0:0:
111,191,32809,2,0,P|150:206|192:203,1,85,10|0,0:0|0:0,0:0:0:0:
343,19,33142,6,0,P|300:15|261:31,1,85,2|0,0:0|3:2,0:0:0:0:
283,172,33475,2,0,P|325:175|364:159,1,85,10|0,0:0|0:0,0:0:0:0:
486,33,33809,6,0,B|431:70|431:70|468:173,1,170,6|8,3:2|0:0,0:0:0:0:
457,310,34309,1,0,0:0:0:0:
364,159,34475,2,0,L|351:243,1,85,6|0,3:2|0:0,0:0:0:0:
261,359,34809,2,0,L|248:274,1,85,10|2,0:0|0:0,0:0:0:0:
100,89,35142,5,4,3:2:0:0:
266,184,35309,1,2,0:0:0:0:
197,8,35475,1,10,0:0:0:0:
131,181,35642,2,0,P|86:187|42:172,1,85,2|0,0:0|0:0,0:0:0:0:
197,101,35975,5,2,3:2:0:0:
248,274,36142,1,10,0:0:0:0:
335,119,36309,2,0,P|380:113|424:128,1,85,2|0,0:0|3:2,0:0:0:0:
488,275,36642,5,2,3:2:0:0:
323,204,36809,1,10,0:0:0:0:
501,92,36975,2,0,P|507:137|492:181,1,85,2|0,0:0|0:0,0:0:0:0:
371,301,37309,5,2,3:2:0:0:
335,119,37475,1,10,0:0:0:0:
473,258,37642,1,2,0:0:0:0:
280,284,37809,6,0,L|191:274,1,85,6|0,3:2|0:0,0:0:0:0:
218,102,38142,2,0,P|239:150|236:192,1,85,10|0,0:0|0:0,0:0:0:0:
122,324,38475,1,2,0:0:0:0:
55,169,38642,2,0,L|145:158,1,85,2|8,3:2|0:0,0:0:0:0:
298,52,38975,6,0,P|248:15|134:56,1,170,2|2,0:0|3:2,0:0:0:0:
134,60,39392,1,2,0:0:0:0:
134,60,39475,2,0,P|151:103|149:146,1,85,8|0,0:0|0:0,0:0:0:0:
105,287,39809,2,0,P|133:250|171:231,1,85,2|0,0:0|3:2,0:0:0:0:
317,199,40142,2,0,P|271:192|235:168,1,85,10|0,0:0|3:2,0:0:0:0:
381,116,40475,6,0,B|437:158|437:158|405:270,1,170,6|10,3:2|0:0,0:0:0:0:
376,369,40975,1,2,0:0:0:0:
317,199,41142,2,0,L|304:287,1,85,2|0,0:0|3:2,0:0:0:0:
214,384,41475,2,0,L|201:299,1,85,10|0,0:0|0:0,0:0:0:0:
140,134,41809,6,0,P|184:122|243:138,1,85,2|0,3:2|3:2,0:0:0:0:
105,245,42142,1,10,0:0:0:0:
42,86,42309,1,2,0:0:0:0:
189,215,42475,2,0,L|201:302,1,85,2|2,0:0|3:2,0:0:0:0:
217,317,42725,1,2,0:0:0:0:
217,317,42808,2,0,P|268:332|310:323,1,85,10|0,0:0|0:0,0:0:0:0:
481,292,43142,6,0,P|437:280|378:296,1,85,6|0,3:2|0:0,0:0:0:0:
278,189,43475,2,0,P|322:177|381:193,1,85,10|0,0:0|0:0,0:0:0:0:
476,97,43809,2,0,L|464:188,1,85,2|0,0:0|3:2,0:0:0:0:
305,0,44142,2,0,L|317:91,1,85,10|0,0:0|3:2,0:0:0:0:
275,280,44475,5,6,3:2:0:0:
205,153,44642,1,10,0:0:0:0:
168,295,44809,1,10,0:0:0:0:
289,178,44975,5,6,0:0:0:0:
230,352,45142,1,10,0:0:0:0:
132,200,45309,1,10,0:0:0:0:
291,293,45475,6,0,P|336:297|379:282,1,85,6|8,0:0|0:0,0:0:0:0:
360,121,45809,1,6,0:0:0:0:
96,136,68437,6,0,L|179:125,1,85,6|0,3:2|0:0,0:0:0:0:
288,256,68770,2,0,L|204:245,1,85,10|0,0:0|0:0,0:0:0:0:
288,76,69103,2,0,P|276:120|288:163,1,85,2|0,0:0|3:2,0:0:0:0:
444,248,69437,2,0,P|411:215|368:204,1,85,10|0,0:0|0:0,0:0:0:0:
216,296,69770,5,2,3:2:0:0:
356,384,69937,2,0,L|366:300,1,85,2|8,0:0|0:0,0:0:0:0:
276,144,70270,2,0,L|286:228,1,85,2|0,0:0|0:0,0:0:0:0:
205,380,70603,1,2,3:2:0:0:
205,380,70687,1,2,0:0:0:0:
205,380,70770,2,0,L|215:296,1,85,10|0,0:0|0:0,0:0:0:0:
164,128,71103,6,0,B|72:100|92:172|2:154,2,170,2|10|2,3:2|0:0|0:0,0:0:0:0:
180,284,71937,2,0,P|147:251|136:208,1,85,2|8,3:2|0:0,0:0:0:0:
212,48,72270,6,0,B|255:46|291:77|291:77|310:35|354:22,1,170,2|2,0:0|0:0,0:0:0:0:
396,28,72687,1,2,0:0:0:0:
396,28,72770,2,0,P|423:59|433:100,1,85,8|0,0:0|0:0,0:0:0:0:
328,244,73103,1,2,0:0:0:0:
496,192,73270,1,0,3:2:0:0:
344,100,73437,2,0,P|300:88|257:100,1,85,10|0,0:0|0:0,0:0:0:0:
152,272,73770,6,0,L|141:189,1,85,6|0,3:2|0:0,0:0:0:0:
328,244,74103,2,0,L|317:327,1,85,10|0,0:0|0:0,0:0:0:0:
160,368,74437,2,0,P|200:355|229:324,1,85,2|0,0:0|3:2,0:0:0:0:
336,156,74770,2,0,P|376:168|405:199,1,85,10|0,0:0|0:0,0:0:0:0:
316,328,75103,5,2,3:2:0:0:
232,144,75270,2,0,L|243:227,1,85,2|8,0:0|0:0,0:0:0:0:
160,368,75603,2,0,P|116:380|73:368,1,85,2|0,0:0|0:0,0:0:0:0:
12,192,75936,1,2,3:2:0:0:
12,192,76020,1,2,0:0:0:0:
12,192,76103,2,0,P|56:180|99:192,1,85,10|0,0:0|0:0,0:0:0:0:
312,272,76436,6,0,B|245:265|245:265|216:282|216:282|147:275,2,170,2|10|2,3:2|0:0|0:0,0:0:0:0:
208,104,77270,2,0,L|197:187,1,85,2|8,3:2|0:0,0:0:0:0:
392,220,77603,6,0,P|359:187|316:176,1,85,2|0,0:0|3:2,0:0:0:0:
236,356,77936,1,2,0:0:0:0:
412,312,78103,1,10,0:0:0:0:
236,180,78270,2,0,L|247:263,1,85,2|0,0:0|3:2,0:0:0:0:
444,208,78603,1,2,3:2:0:0:
276,100,78770,2,0,P|231:88|188:100,1,85,10|2,0:0|0:0,0:0:0:0:
76,288,79103,6,0,L|159:299,1,85,6|0,3:2|0:0,0:0:0:0:
300,384,79436,2,0,P|267:351|256:307,1,85,10|0,0:0|0:0,0:0:0:0:
388,184,79770,2,0,L|377:267,1,85,2|0,0:0|3:2,0:0:0:0:
232,116,80103,2,0,L|243:199,1,85,10|0,0:0|0:0,0:0:0:0:
152,360,80436,5,2,3:2:0:0:
80,204,80603,2,0,P|112:171|156:160,1,85,2|8,0:0|0:0,0:0:0:0:
240,292,80936,2,0,P|195:279|163:247,1,85,2|0,0:0|0:0,0:0:0:0:
254,116,81270,1,2,3:2:0:0:
254,116,81353,1,2,0:0:0:0:
254,116,81436,2,0,L|243:199,1,85,8|0,0:0|0:0,0:0:0:0:
336,376,81770,6,0,B|428:400|408:328|498:350,2,170,2|10|2,3:2|0:0|0:0,0:0:0:0:
364,204,82603,2,0,P|376:249|364:292,1,85,2|8,3:2|0:0,0:0:0:0:
224,384,82936,2,0,L|213:301,1,85,2|0,0:0|3:2,0:0:0:0:
52,252,83270,1,2,0:0:0:0:
52,252,83353,1,2,0:0:0:0:
52,252,83436,2,0,P|83:279|124:289,1,85,8|0,0:0|0:0,0:0:0:0:
204,92,83770,1,2,0:0:0:0:
36,156,83936,1,0,3:2:0:0:
216,272,84103,2,0,L|205:189,1,85,8|0,0:0|0:0,0:0:0:0:
384,24,84436,6,0,P|396:69|384:112,1,85,6|0,3:2|0:0,0:0:0:0:
304,244,84770,2,0,P|336:211|380:200,1,85,10|0,0:0|0:0,0:0:0:0:
380,376,85103,2,0,P|335:363|303:332,1,85,2|0,0:0|3:2,0:0:0:0:
457,245,85436,2,0,P|469:290|457:333,1,85,10|0,0:0|0:0,0:0:0:0:
364,180,85770,5,2,3:2:0:0:
307,338,85936,2,0,L|224:327,1,85,2|8,0:0|0:0,0:0:0:0:
104,244,86270,2,0,L|187:233,1,85,2|0,0:0|0:0,0:0:0:0:
272,72,86603,1,2,3:2:0:0:
272,72,86686,1,2,0:0:0:0:
272,72,86770,2,0,P|244:103|234:144,1,85,8|0,0:0|0:0,0:0:0:0:
332,304,87103,6,0,B|368:204|368:204|324:140,2,170,2|10|2,3:2|0:0|0:0,0:0:0:0:
184,384,87936,2,0,L|173:301,1,85,2|8,3:2|0:0,0:0:0:0:
236,136,88270,2,0,P|222:175|192:204,1,85,2|0,0:0|3:2,0:0:0:0:
40,64,88603,1,2,0:0:0:0:
240,48,88770,1,10,0:0:0:0:
100,212,88936,2,0,L|111:129,1,85,2|0,0:0|3:2,0:0:0:0:
300,208,89270,1,2,3:2:0:0:
144,292,89436,2,0,P|103:302|62:292,1,85,10|2,0:0|0:0,0:0:0:0:
204,88,89770,6,0,L|215:172,1,85,6|0,3:2|0:0,0:0:0:0:
380,288,90103,2,0,L|391:203,1,85,10|0,0:0|0:0,0:0:0:0:
288,32,90436,2,0,L|299:116,1,85,2|0,0:0|3:2,0:0:0:0:
480,220,90770,2,0,L|491:135,1,85,10|0,0:0|0:0,0:0:0:0:
288,212,91103,5,2,3:2:0:0:
288,212,91270,1,0,0:0:0:0:
416,52,91436,2,0,L|404:136,1,85,10|0,0:0|0:0,0:0:0:0:
356,292,91770,1,2,0:0:0:0:
356,292,91937,1,0,3:2:0:0:
276,127,92103,2,0,L|287:211,1,85,10|0,0:0|0:0,0:0:0:0:
224,376,92436,5,2,3:2:0:0:
164,208,92603,1,0,0:0:0:0:
96,372,92770,2,0,P|55:382|14:372,1,85,10|0,0:0|0:0,0:0:0:0:
92,160,93103,1,2,0:0:0:0:
164,316,93270,1,0,3:2:0:0:
236,160,93437,2,0,P|277:150|318:160,1,85,10|0,0:0|0:0,0:0:0:0:
280,344,93770,5,2,3:2:0:0:
164,208,93936,1,0,0:0:0:0:
296,360,94103,2,0,P|337:370|378:360,1,85,10|0,0:0|0:0,0:0:0:0:
320,128,94436,1,2,0:0:0:0:
212,292,94603,1,2,3:2:0:0:
400,252,94770,2,0,P|410:211|400:170,1,85,8|2,0:0|0:0,0:0:0:0:
292,24,95103,5,6,3:2:0:0:
292,24,95270,1,0,0:0:0:0:
260,200,95436,2,0,L|176:189,1,85,10|0,0:0|0:0,0:0:0:0:
72,52,95770,2,0,P|101:82|112:122,1,85,2|0,0:0|3:2,0:0:0:0:
48,284,96103,2,0,P|59:243|88:213,1,85,10|0,0:0|0:0,0:0:0:0:
204,360,96436,5,2,3:2:0:0:
204,360,96603,1,0,0:0:0:0:
196,176,96770,2,0,L|185:260,1,85,10|0,0:0|0:0,0:0:0:0:
344,364,97103,2,0,L|333:280,1,85,2|0,0:0|3:2,0:0:0:0:
296,120,97436,2,0,L|285:204,1,85,10|0,0:0|0:0,0:0:0:0:
204,360,97770,6,0,P|163:370|122:360,1,85,2|0,3:2|0:0,0:0:0:0:
0,220,98103,2,0,P|41:230|82:220,1,85,10|0,0:0|0:0,0:0:0:0:
228,64,98436,1,2,0:0:0:0:
40,140,98603,1,2,3:2:0:0:
216,240,98770,2,0,L|205:156,1,85,8|2,0:0|0:0,0:0:0:0:
336,8,99103,6,0,P|377:-2|418:8,1,85,0|2,3:2|0:0,0:0:0:0:
484,176,99436,2,0,P|443:186|402:176,1,85,10|0,0:0|0:0,0:0:0:0:
258,63,99770,2,0,P|217:53|176:63,1,85,2|0,3:2|0:0,0:0:0:0:
126,209,100103,2,0,P|167:219|208:209,1,85,10|2,0:0|0:0,0:0:0:0:
315,141,100436,5,6,0:0:0:0:
92,252,105603,5,10,3:2:0:0:
92,252,105686,1,2,0:0:0:0:
92,252,105770,5,10,0:0:0:0:
156,180,105936,2,0,P|196:170|237:180,1,85,10|0,0:0|0:0,0:0:0:0:
316,336,106270,5,10,0:0:0:0:
316,336,106436,2,0,P|287:306|275:265,1,85,10|0,0:0|0:0,0:0:0:0:
371,120,106770,5,10,0:0:0:0:
371,120,106936,2,0,P|359:159|330:190,1,85,10|0,0:0|0:0,0:0:0:0:
244,36,107270,5,10,0:0:0:0:
244,36,107436,2,0,P|284:26|325:35,1,85,10|0,0:0|0:0,0:0:0:0:
235,188,107770,2,0,P|206:158|194:117,1,85,10|0,0:0|0:0,0:0:0:0:
371,120,108103,2,0,P|359:159|330:190,1,85,10|0,0:0|0:0,0:0:0:0:
184,324,108436,6,0,L|173:241,1,85,14|10,0:0|0:0,0:0:0:0:
104,64,108770,1,2,0:0:0:0:
16,240,108936,2,0,P|45:268|86:280,1,85,14|10,0:0|0:0,0:0:0:0:
284,256,109270,1,2,0:0:0:0:
160,144,109436,2,0,P|120:155|89:184,1,85,14|10,0:0|0:0,0:0:0:0:
196,352,109770,5,2,0:0:0:0:
248,168,109936,2,0,L|259:85,1,85,14|10,0:0|0:0,0:0:0:0:
72,200,110270,1,2,0:0:0:0:
252,264,110436,2,0,P|290:252|321:223,1,85,14|2,0:0|0:0,0:0:0:0:
168,64,110770,1,14,0:0:0:0:
156,280,110936,1,10,0:0:0:0:
332,132,111103,5,14,0:0:0:0:
