osu file format v14

[General]
AudioFilename: audio.mp3
AudioLeadIn: 0
PreviewTime:68437
Countdown: 0
SampleSet: Soft
StackLeniency: 0.7
Mode: 0
LetterboxInBreaks: 0
WidescreenStoryboard: 1

[Editor]
DistanceSpacing: 0.7
BeatDivisor: 4
GridSize: 32
TimelineZoom: 1.4

[Metadata]
Title:SAVE (Encore)
TitleUnicode:SAVE (Encore)
Artist:DM DOKURO
ArtistUnicode:DM DOKURO
Creator:browiec
Version:Reform's Extra
Source:UNDERTALE
Tags:deltarune remix radiation original soundtrack The Underground Radio toby fox drum n and bass chiptune sans ost electronic video game instrumental square last goodbye determination Reform Kujinn Fatfan Kolek kuki1537
BeatmapID:2964222
BeatmapSetID:1440767

[Difficulty]
HPDrainRate:5.4
CircleSize:3.5
OverallDifficulty:8.8
ApproachRate:9.2
SliderMultiplier:1.8
SliderTickRate:1

[Events]
//Background and Video events
0,0,"undrtal.jpg",0,0
//Break Periods
2,47233,67742
//Storyboard Layer 0 (Background)
//Storyboard Layer 1 (Fail)
//Storyboard Layer 2 (Pass)
//Storyboard Layer 3 (Foreground)
//Storyboard Layer 4 (Overlay)
//Storyboard Sound Samples

[TimingPoints]
476,333.333333333333,4,2,1,20,1,0
476,-250.000000000001,4,2,1,20,0,0
809,-250,4,2,1,25,0,0
1129,-166.666666666667,4,2,1,25,0,0
1142,-166.666666666667,4,2,1,30,0,0
1475,-166.666666666667,4,2,1,35,0,0
1796,-125,4,2,1,35,0,0
1809,-125,4,2,1,40,0,0
2142,-125,4,2,1,45,0,0
2462,-100,4,2,1,45,0,0
2475,-100,4,2,1,50,0,0
2809,-100,4,2,1,55,0,0
3138,-100,4,2,1,55,0,0
3142,-100,4,2,2,70,0,0
3309,-100,4,2,1,70,0,0
13809,-100,4,2,2,70,0,0
13975,-100,4,2,1,70,0,0
19137,-100,4,2,1,70,0,0
19142,-100,4,2,1,80,0,0
19804,-86.9565217391304,4,2,1,80,0,0
21304,-100,4,2,1,80,0,0
22975,-100,4,2,1,70,0,0
23137,-100,4,2,1,70,0,0
24475,-100,4,2,2,70,0,0
24642,-100,4,2,1,70,0,0
35142,-100,4,2,2,70,0,0
35309,-100,4,2,1,70,0,0
44471,-100,4,2,1,70,0,0
44475,-100,4,2,1,80,0,0
44479,-100,4,2,1,80,0,0
45809,720.720720720721,4,2,3,70,1,0
46529,738.461538461538,4,2,1,70,1,0
47233,714.285714285714,4,2,1,70,1,0
47940,714.285714285714,4,2,1,70,1,0
48661,692.84064665127,4,2,1,70,1,0
49363,707.964601769912,4,2,1,70,1,0
50079,689.655172413793,4,2,1,70,1,0
50768,745.341614906832,4,2,1,70,1,0
51497,666.666666666667,4,2,1,70,1,0
52193,689.655172413793,4,2,1,70,1,0
52903,681.818181818182,4,2,1,70,1,0
53609,685.714285714286,4,2,1,70,1,0
54320,683.760683760684,4,2,1,70,1,0
55014,716.417910447761,4,2,1,70,1,0
55730,689.655172413793,4,2,1,70,1,0
56419,716.845878136201,4,2,1,70,1,0
57145,678.733031674208,4,2,1,70,1,0
57844,722.89156626506,4,2,1,70,1,0
58205,952.380952380952,4,2,1,70,1,0
58556,692.84064665127,4,2,1,70,1,0
59259,702.576112412178,4,2,1,70,1,0
59977,681.044267877412,4,2,1,70,1,0
60668,722.89156626506,4,2,1,70,1,0
61390,685.714285714286,4,2,1,70,1,0
62075,722.89156626506,4,2,1,70,1,0
62814,659.340659340659,4,2,1,70,1,0
63490,705.882352941176,4,2,1,70,1,0
64226,650.054171180932,4,2,1,70,1,0
64911,694.444444444444,4,2,1,70,1,0
65258,708.382526564345,4,2,1,70,1,0
65620,697.674418604651,4,2,1,70,1,0
66323,710.059171597633,4,2,1,70,1,0
67037,705.052878965922,4,2,1,70,1,0
67742,695.652173913044,4,2,1,70,1,0
68437,333.333333333333,4,2,2,70,1,0
68437,-100,4,2,2,70,0,0
68603,-100,4,2,1,70,0,0
79103,-100,4,2,2,70,0,0
79270,-100,4,2,1,70,0,0
89770,-100,4,2,2,80,0,0
89936,-100,4,2,1,80,0,0
90095,-100,4,2,1,80,0,0
90103,-100,4,2,1,80,0,0
100428,-222.222222222222,4,2,1,80,0,0
100436,-222.222222222222,4,2,3,80,0,0
101103,-222.222222222222,4,2,1,65,0,0
105595,-90.9090909090909,4,2,1,65,0,0
105603,-90.9090909090909,4,2,1,80,0,0
108428,-90.9090909090909,4,2,1,80,0,0
108436,-90.9090909090909,4,2,1,80,0,0
110679,-125,4,2,1,80,0,0
111003,-151.515151515152,4,2,1,80,0,0
111095,-151.515151515152,4,2,1,80,0,0
111103,342.857142857143,4,2,3,80,1,0
111103,-151.515151515152,4,2,3,80,0,0
111188,-151.515151515152,4,2,3,30,0,0
111617,377.358490566038,4,2,1,30,1,0
112183,413.793103448276,4,2,1,30,1,0
112803,468.75,4,2,1,30,1,0
113506,521.739130434783,4,2,1,30,1,0
114027,535.714285714286,4,2,1,30,1,0
114562,1149.42528735632,4,2,1,30,1,0
116860,1151.63147792706,4,2,1,30,1,0
118875,-100,4,2,1,5,0,0
119163,1144.6012972148,4,2,1,30,1,0
120307,1153.84615384615,4,2,1,30,1,0
121460,1186.94362017804,4,2,1,30,1,0
123833,987.654320987654,4,2,1,5,1,0
124326,1167.31517509728,4,2,1,50,1,0
126368,-100,4,2,1,5,0,0
126660,1234.56790123457,4,2,1,50,1,0
127894,1242.23602484472,4,2,1,50,1,0
128515,1348.31460674157,4,2,1,50,1,0
128852,-100,4,2,1,5,0,0
129189,1354.40180586907,4,2,1,50,1,0
129866,1466.99266503667,4,2,1,50,1,0
130599,1587.30158730159,4,2,1,50,1,0
131392,1744.18604651164,4,2,1,50,1,0
132264,2000,4,2,1,50,1,0
134014,-100,4,2,1,20,0,0

[Colours]
Combo1 : 255,30,221
Combo2 : 255,30,30
Combo3 : 242,115,0
Combo4 : 255,255,15
Combo5 : 108,255,38
Combo6 : 36,146,255
Combo7 : 13,49,255
Combo8 : 131,30,255

[HitObjects]
12,308,476,6,0,P|18:275|21:259,1,36,2|0,0:0|0:0,0:0:0:0:
89,322,809,2,0,P|95:289|98:273,1,36,2|0,0:0|0:0,0:0:0:0:
135,152,1142,6,0,P|139:178|144:205,1,53.9999983520508,2|0,0:0|0:0,0:0:0:0:
215,139,1475,2,0,P|219:165|224:192,1,53.9999983520508,2|0,0:0|0:0,0:0:0:0:
277,334,1809,6,0,P|283:298|289:263,1,72,2|0,0:0|0:0,0:0:0:0:
357,350,2142,2,0,P|363:314|369:279,1,72,2|0,0:0|0:0,0:0:0:0:
418,104,2475,6,0,P|427:155|436:207,1,90,2|0,0:0|0:0,0:0:0:0:
497,87,2809,2,0,P|506:138|515:190,1,90,2|2,0:0|0:0,0:0:0:0:
290,42,3142,6,0,B|242:18|197:53|217:56|171:92|116:56,1,180,6|8,3:2|0:0,0:0:0:0:
251,135,3642,1,0,0:0:0:0:
65,0,3809,2,0,P|40:43|44:84,1,90,2|0,0:0|3:2,0:0:0:0:
229,216,4142,2,0,P|254:173|250:132,1,90,10|0,0:0|0:0,0:0:0:0:
96,244,4475,6,0,P|153:229|231:320,2,180,2|10|2,3:2|0:0|0:0,0:0:0:0:
37,363,5309,2,0,P|86:347|131:336,1,90,2|8,3:2|0:0,0:0:0:0:
11,233,5642,1,2,0:0:0:0:
212,116,5809,6,0,B|171:89|113:112|151:137|84:162|36:127,1,180,0|8,3:2|0:0,0:0:0:0:
181,212,6309,1,0,0:0:0:0:
308,67,6475,2,0,P|371:59|448:161,1,180,2|8,0:0|0:0,0:0:0:0:
355,240,6975,5,2,0:0:0:0:
355,240,7059,1,2,0:0:0:0:
355,240,7142,2,0,P|350:188|342:144,1,90,6|0,3:2|0:0,0:0:0:0:
159,33,7475,2,0,P|151:77|147:122,1,90,8|0,0:0|0:0,0:0:0:0:
301,61,7809,1,4,0:0:0:0:
207,222,7975,1,0,3:2:0:0:
116,68,8142,2,0,P|72:48|25:54,1,90,8|0,0:2|0:2,0:0:0:0:
305,171,8475,6,0,P|362:167|392:43,2,180,6|8|2,3:2|0:0|0:0,0:0:0:0:
217,71,9309,1,0,3:2:0:0:
295,267,9475,2,0,P|348:254|405:248,1,90,10|0,0:0|0:0,0:0:0:0:
181,149,9809,6,0,P|128:136|71:130,1,90,2|0,3:2|0:0,0:0:0:0:
301,17,10142,2,0,P|312:61|297:115,1,90,10|0,0:0|0:0,0:0:0:0:
235,227,10475,1,2,0:0:0:0:
95,44,10642,2,0,P|84:88|99:142,1,90,2|8,3:2|0:0,0:0:0:0:
190,260,10975,1,2,0:0:0:0:
325,126,11142,6,0,B|377:107|422:139|400:147|450:185|504:159,1,180,2|8,3:2|0:0,0:0:0:0:
351,213,11642,1,0,0:0:0:0:
470,85,11809,2,0,P|476:32|481:-19,1,90,2|0,0:0|3:2,0:0:0:0:
334,215,12142,2,0,P|328:162|323:111,1,90,8|0,0:0|0:0,0:0:0:0:
450,313,12475,6,0,P|413:340|367:341,1,90,6|0,3:2|0:0,0:0:0:0:
225,147,12809,2,0,P|269:149|304:175,1,90,10|0,0:0|0:0,0:0:0:0:
241,345,13142,2,0,P|229:286|215:239,1,90,6|0,0:0|0:2,0:0:0:0:
422,151,13475,2,0,P|410:194|401:238,1,90,10|0,0:2|0:0,0:0:0:0:
229,66,13809,6,0,P|187:70|154:200,1,180,6|8,3:2|0:0,0:0:0:0:
22,98,14309,1,0,0:0:0:0:
83,253,14475,2,0,P|123:277|182:268,1,90,2|0,0:0|3:2,0:0:0:0:
337,137,14809,2,0,P|292:136|254:159,1,90,10|0,0:0|0:0,0:0:0:0:
308,319,15142,6,0,P|315:266|326:219,1,90,2|0,3:2|0:0,0:0:0:0:
128,94,15475,2,0,P|137:137|142:182,1,90,10|0,0:0|0:0,0:0:0:0:
311,79,15809,1,2,0:0:0:0:
223,280,15975,2,0,P|182:305|138:303,1,90,2|8,3:2|0:0,0:0:0:0:
214,118,16309,1,2,0:0:0:0:
325,339,16475,6,0,B|382:361|428:329|396:313|453:283|504:304,1,180,0|8,3:2|0:0,0:0:0:0:
326,204,16975,1,0,0:0:0:0:
484,99,17142,2,0,P|470:161|459:286,1,180,2|8,0:0|0:0,0:0:0:0:
329,54,17642,5,2,0:0:0:0:
329,54,17725,1,2,0:0:0:0:
329,54,17809,2,0,P|290:28|231:38,1,90,6|0,3:2|0:0,0:0:0:0:
153,226,18142,2,0,P|197:226|233:201,1,90,8|0,0:0|0:0,0:0:0:0:
133,26,18475,1,4,0:0:0:0:
66,173,18642,1,0,3:2:0:0:
257,119,18809,2,0,P|250:61|247:15,1,90,8|0,0:2|0:2,0:0:0:0:
43,160,19142,6,0,P|39:228|24:356,1,180,6|8,3:2|0:0,0:0:0:0:
153,166,19642,1,0,0:0:0:0:
231,332,19809,2,0,P|278:363|332:359,1,103.500001974106,2|0,0:0|3:2,0:0:0:0:
406,165,20142,2,0,P|355:165|313:195,1,103.500001974106,10|0,0:0|0:0,0:0:0:0:
420,356,20475,6,0,P|430:293|442:251,1,103.500001974106,2|0,3:2|0:0,0:0:0:0:
202,152,20809,2,0,P|215:201|222:253,1,103.500001974106,10|0,0:0|0:0,0:0:0:0:
355,120,21142,1,2,0:0:0:0:
300,306,21309,2,0,P|256:334|203:330,1,90,2|8,3:2|0:0,0:0:0:0:
457,78,21642,6,0,P|446:136|428:278,1,180,2|0,0:0|0:0,0:0:0:0:
308,52,22142,2,0,P|319:108|326:171,1,90,10|0,0:0|0:0,0:0:0:0:
250,251,22475,1,2,0:0:0:0:
174,21,22642,2,0,P|163:77|156:140,1,90,2|8,3:2|0:0,0:0:0:0:
62,233,22975,1,2,0:0:0:0:
0,60,23142,6,0,P|40:38|98:44,1,90,4|0,3:2|0:0,0:0:0:0:
232,226,23475,2,0,P|187:226|148:204,1,90,10|0,0:0|0:0,0:0:0:0:
295,67,23809,1,6,3:2:0:0:
295,67,23975,1,2,0:0:0:0:
423,226,24142,2,0,P|431:181|442:138,1,90,10|2,0:0|0:0,0:0:0:0:
223,253,24475,6,0,P|259:297|381:296,1,180,6|8,3:2|0:0,0:0:0:0:
308,150,24975,1,0,0:0:0:0:
148,322,25142,2,0,P|141:256|117:142,1,180,2|8,0:0|0:0,0:0:0:0:
271,251,25642,1,0,0:0:0:0:
188,82,25809,5,2,3:2:0:0:
102,206,25975,1,0,3:2:0:0:
282,124,26142,2,0,P|292:74|273:35,1,90,8|2,0:0|0:0,0:0:0:0:
98,108,26475,1,0,0:0:0:0:
231,211,26642,1,0,3:2:0:0:
152,34,26809,2,0,P|107:16|59:31,1,90,10|0,0:0|0:0,0:0:0:0:
258,242,27142,6,0,P|326:225|468:193,1,180,6|8,3:2|0:0,0:0:0:0:
256,146,27642,1,0,0:0:0:0:
353,298,27809,2,0,P|398:308|453:321,1,90,2|0,0:0|3:2,0:0:0:0:
249,362,28142,1,10,0:0:0:0:
368,200,28309,6,0,P|385:148|364:102,1,90,2|0,0:0|3:2,0:0:0:0:
174,203,28642,2,0,P|157:255|178:301,1,90,2|8,3:2|0:0,0:0:0:0:
285,58,28975,2,0,B|193:41|225:129|110:101,1,180,2|2,0:0|3:2,0:0:0:0:
95,98,29392,1,2,0:0:0:0:
95,98,29475,1,10,0:0:0:0:
249,180,29642,1,0,3:2:0:0:
143,24,29809,6,0,P|99:6|5:92,1,180,6|10,3:2|0:0,0:0:0:0:
114,207,30309,1,2,0:0:0:0:
243,110,30475,2,0,P|252:58|261:12,1,90,2|0,0:0|3:2,0:0:0:0:
376,131,30809,2,0,P|384:175|392:219,1,90,10|0,0:0|0:0,0:0:0:0:
165,309,31142,6,0,P|225:296|309:383,1,180,2|10,3:2|0:0,0:0:0:0:
392,219,31642,1,2,0:0:0:0:
243,282,31809,1,2,0:0:0:0:
419,358,31975,1,2,3:2:0:0:
419,358,32059,1,2,0:0:0:0:
419,358,32142,2,0,P|428:302|438:240,1,90,10|0,0:0|0:0,0:0:0:0:
316,94,32475,6,0,P|266:84|227:63,1,90,6|0,3:2|0:0,0:0:0:0:
133,254,32809,2,0,P|173:234|217:226,1,90,10|0,0:0|0:0,0:0:0:0:
136,63,33142,2,0,P|116:105|121:154,1,90,2|0,0:0|3:2,0:0:0:0:
306,246,33475,2,0,P|308:201|288:161,1,90,10|0,0:0|0:0,0:0:0:0:
116,328,33809,6,0,B|166:309|212:344|190:350|227:391|291:365,1,180,6|8,3:2|0:0,0:0:0:0:
388,266,34309,1,0,0:0:0:0:
288,161,34475,2,0,B|238:142|192:177|214:183|177:224|113:198,2,180,6|10|4,3:2|0:0|3:2,0:0:0:0:
468,228,35309,5,2,0:0:0:0:
367,54,35475,1,10,0:0:0:0:
259,255,35642,2,0,P|303:277|350:269,1,90,2|0,0:0|0:0,0:0:0:0:
449,85,35975,1,2,3:2:0:0:
268,167,36142,1,10,0:0:0:0:
467,300,36309,2,0,P|476:242|483:202,1,90,2|0,0:0|3:2,0:0:0:0:
294,78,36642,5,2,3:2:0:0:
374,278,36809,1,10,0:0:0:0:
512,98,36975,2,0,P|470:78|406:102,1,90,2|0,0:0|0:0,0:0:0:0:
279,280,37309,1,2,3:2:0:0:
475,197,37475,1,10,0:0:0:0:
291,88,37642,1,2,0:0:0:0:
389,343,37809,6,0,P|399:289|412:233,1,90,6|0,3:2|0:0,0:0:0:0:
167,155,38142,2,0,P|176:198|184:243,1,90,10|0,0:0|0:0,0:0:0:0:
350,129,38475,1,2,0:0:0:0:
270,327,38642,2,0,P|228:349|165:338,1,90,2|8,3:2|0:0,0:0:0:0:
413,220,38975,6,0,P|457:220|508:337,1,180,2|2,0:0|3:2,0:0:0:0:
480,359,39392,1,2,0:0:0:0:
480,359,39475,2,0,P|435:359|396:338,1,90,8|0,0:0|0:0,0:0:0:0:
280,176,39809,2,0,P|294:225|303:280,1,90,2|0,0:0|3:2,0:0:0:0:
478,91,40142,2,0,P|464:140|455:195,1,90,10|0,0:0|3:2,0:0:0:0:
296,18,40475,6,0,B|200:6|241:93|123:67,1,180,6|10,3:2|0:0,0:0:0:0:
272,139,40975,1,2,0:0:0:0:
77,8,41142,2,0,P|49:50|54:97,1,90,2|0,0:0|3:2,0:0:0:0:
245,218,41475,2,0,P|273:176|268:129,1,90,10|0,0:0|0:0,0:0:0:0:
78,191,41809,6,0,P|94:252|117:378,1,180,2|10,3:2|0:0,0:0:0:0:
180,138,42309,1,2,0:0:0:0:
3,228,42475,1,2,0:0:0:0:
193,290,42642,1,2,3:2:0:0:
193,290,42725,1,2,0:0:0:0:
193,290,42809,2,0,P|239:273|291:263,1,90,10|0,0:0|0:0,0:0:0:0:
433,97,43142,6,0,P|421:142|407:213,1,90,6|0,3:2|0:0,0:0:0:0:
286,88,43475,2,0,P|276:44|264:0,1,90,10|0,0:0|0:0,0:0:0:0:
384,280,43809,2,0,P|426:269|471:258,1,90,2|0,0:0|3:2,0:0:0:0:
373,110,44142,2,0,P|329:97|285:87,1,90,10|0,0:0|3:2,0:0:0:0:
146,279,44475,5,6,3:2:0:0:
327,186,44642,1,10,0:0:0:0:
147,86,44809,1,10,0:0:0:0:
243,287,44975,5,6,0:0:0:0:
306,78,45142,1,10,0:0:0:0:
111,174,45309,1,10,0:0:0:0:
375,254,45475,5,6,0:0:0:0:
104,357,45809,5,6,0:0:0:0:
125,71,68437,6,0,P|188:65|240:138,1,135,6|0,3:2|0:0,0:0:0:0:
249,152,68770,2,0,P|236:197|229:258,1,90,10|0,0:0|0:0,0:0:0:0:
90,345,69103,2,0,P|83:300|70:257,1,90,2|0,0:0|3:2,0:0:0:0:
291,296,69437,2,0,P|250:324|195:323,1,90,10|0,0:0|0:0,0:0:0:0:
128,161,69770,5,2,3:2:0:0:
249,34,69937,2,0,P|293:38|329:65,1,90,2|8,0:0|0:0,0:0:0:0:
277,221,70270,2,0,P|267:169|254:122,1,90,2|0,0:0|0:0,0:0:0:0:
456,30,70603,1,2,3:2:0:0:
456,30,70687,1,2,0:0:0:0:
456,30,70770,2,0,P|444:73|436:117,1,90,10|0,0:0|0:0,0:0:0:0:
235,22,71103,6,0,P|194:0|135:5,1,90,2|0,3:2|0:0,0:0:0:0:
54,223,71437,2,0,P|98:222|137:200,1,90,10|0,0:0|0:0,0:0:0:0:
85,80,71770,1,2,0:0:0:0:
245,222,71937,2,0,P|251:153|265:96,1,90,2|8,3:2|0:0,0:0:0:0:
35,20,72270,6,0,P|42:64|45:109,1,90,2|0,0:0|3:2,0:0:0:0:
255,37,72603,1,2,0:0:0:0:
255,37,72687,1,2,0:0:0:0:
255,37,72770,2,0,P|207:8|162:16,1,90,8|0,0:0|0:0,0:0:0:0:
88,209,73103,1,2,0:0:0:0:
224,152,73270,1,0,3:2:0:0:
88,64,73437,2,0,P|43:64|7:90,1,90,10|0,0:0|0:0,0:0:0:0:
275,341,73770,6,0,P|304:288|269:202,1,135,6|0,3:2|0:0,0:0:0:0:
280,184,74103,2,0,P|317:163|375:177,1,90,10|0,0:0|0:0,0:0:0:0:
209,279,74437,2,0,P|165:285|126:263,1,90,2|0,0:0|3:2,0:0:0:0:
391,282,74770,2,0,P|377:332|368:377,1,90,10|0,0:0|0:0,0:0:0:0:
279,235,75103,5,2,3:2:0:0:
383,97,75270,2,0,P|397:147|406:192,1,90,2|8,0:0|0:0,0:0:0:0:
220,0,75603,2,0,P|206:50|197:95,1,90,2|0,0:0|0:0,0:0:0:0:
366,9,75936,1,2,3:2:0:0:
366,9,76020,1,2,0:0:0:0:
366,9,76103,2,0,P|416:23|469:29,1,90,10|0,0:0|0:0,0:0:0:0:
271,159,76436,6,0,P|226:165|183:178,1,90,2|0,3:2|0:0,0:0:0:0:
374,288,76770,2,0,P|418:294|461:307,1,90,10|0,0:0|0:0,0:0:0:0:
352,123,77103,1,2,0:0:0:0:
246,333,77270,2,0,P|201:326|158:313,1,90,2|8,3:2|0:0,0:0:0:0:
366,156,77603,2,0,P|409:143|453:136,1,90,2|0,0:0|3:2,0:0:0:0:
348,309,77936,5,2,0:0:0:0:
252,136,78103,1,10,0:0:0:0:
139,299,78270,2,0,P|118:257|125:195,1,90,2|0,0:0|3:2,0:0:0:0:
241,43,78603,1,2,3:2:0:0:
308,224,78770,1,10,0:0:0:0:
138,138,78936,1,2,0:0:0:0:
421,8,79103,6,0,P|443:58|415:150,1,135,6|0,3:2|0:0,0:0:0:0:
409,163,79436,2,0,P|362:163|315:126,1,90,10|0,0:0|0:0,0:0:0:0:
155,295,79770,2,0,P|193:272|237:273,1,90,2|0,0:0|3:2,0:0:0:0:
399,370,80103,2,0,P|405:312|421:253,1,90,10|0,0:0|0:0,0:0:0:0:
209,357,80436,5,2,3:2:0:0:
298,208,80603,2,0,P|292:150|276:91,1,90,2|8,0:0|0:0,0:0:0:0:
108,39,80936,2,0,P|98:83|94:127,1,90,2|0,0:0|0:0,0:0:0:0:
315,38,81270,1,2,3:2:0:0:
315,38,81353,1,2,0:0:0:0:
315,38,81436,2,0,P|266:30|217:14,1,90,8|0,0:0|0:0,0:0:0:0:
91,245,81770,6,0,P|134:232|178:225,1,90,2|0,3:2|0:0,0:0:0:0:
286,371,82103,2,0,P|241:363|198:350,1,90,10|0,0:0|0:0,0:0:0:0:
331,213,82436,1,2,0:0:0:0:
427,377,82603,2,0,P|436:320|448:269,1,90,2|8,3:2|0:0,0:0:0:0:
192,179,82936,6,0,P|201:223|207:267,1,90,2|0,0:0|3:2,0:0:0:0:
398,83,83270,1,2,0:0:0:0:
398,83,83353,1,2,0:0:0:0:
398,83,83436,2,0,P|354:61|288:75,1,90,8|0,0:0|0:0,0:0:0:0:
318,290,83770,2,0,P|362:290|401:269,1,90,2|0,0:0|3:2,0:0:0:0:
210,152,84103,2,0,P|200:196|194:240,1,90,8|0,0:0|0:0,0:0:0:0:
39,158,84436,6,0,P|22:61|13:17,1,135,6|0,3:2|0:0,0:0:0:0:
41,11,84770,2,0,P|87:32|147:20,1,90,10|0,0:0|0:0,0:0:0:0:
277,120,85103,2,0,P|232:118|192:138,1,90,2|0,0:0|3:2,0:0:0:0:
44,283,85436,2,0,P|83:302|128:301,1,90,10|0,0:0|0:0,0:0:0:0:
227,229,85770,5,2,3:2:0:0:
117,101,85936,2,0,P|104:163|96:230,1,90,2|8,0:0|0:0,0:0:0:0:
342,265,86270,2,0,P|334:220|325:176,1,90,2|0,0:0|0:0,0:0:0:0:
193,367,86603,1,2,3:2:0:0:
193,367,86686,1,2,0:0:0:0:
193,367,86770,2,0,P|232:347|277:348,1,90,8|0,0:0|0:0,0:0:0:0:
495,224,87103,6,0,P|450:225|410:205,1,90,2|0,3:2|0:0,0:0:0:0:
268,40,87436,2,0,P|282:97|294:160,1,90,10|0,0:0|0:0,0:0:0:0:
463,14,87770,1,2,0:0:0:0:
401,182,87936,2,0,P|387:239|375:302,1,90,2|8,3:2|0:0,0:0:0:0:
120,130,88270,6,0,P|112:70|136:28,1,90,2|0,0:0|3:2,0:0:0:0:
300,181,88603,1,2,0:0:0:0:
151,250,88770,1,10,0:0:0:0:
268,64,88936,2,0,P|311:75|354:88,1,90,2|0,0:0|3:2,0:0:0:0:
258,278,89270,1,2,3:2:0:0:
126,125,89436,2,0,P|82:136|39:149,1,90,10|2,0:0|0:0,0:0:0:0:
162,322,89770,5,6,3:2:0:0:
244,160,89936,1,0,0:0:0:0:
351,348,90103,2,0,P|405:361|456:378,1,90,10|0,0:0|0:0,0:0:0:0:
328,121,90436,1,2,0:0:0:0:
227,301,90603,1,0,3:2:0:0:
152,71,90770,1,10,0:0:0:0:
295,244,90936,1,0,0:0:0:0:
261,30,91103,5,2,3:2:0:0:
157,221,91270,1,0,0:0:0:0:
44,86,91436,2,0,P|36:30|65:-21,1,90,10|0,0:0|0:0,0:0:0:0:
247,140,91770,1,2,0:0:0:0:
55,252,91936,1,0,3:2:0:0:
146,82,92103,1,10,0:0:0:0:
248,273,92270,1,0,0:0:0:0:
67,168,92436,5,2,3:2:0:0:
283,97,92603,1,0,0:0:0:0:
139,323,92770,2,0,P|84:323|36:279,1,90,10|0,0:0|0:0,0:0:0:0:
193,94,93103,1,2,0:0:0:0:
320,283,93270,1,0,3:2:0:0:
300,57,93436,1,10,0:0:0:0:
158,245,93603,1,0,0:0:0:0:
232,11,93770,5,2,3:2:0:0:
338,216,93936,1,0,0:0:0:0:
481,25,94103,2,0,P|443:1|379:7,1,90,10|0,0:0|0:0,0:0:0:0:
233,144,94436,1,2,0:0:0:0:
425,231,94603,1,2,3:2:0:0:
214,131,94770,1,8,0:0:0:0:
423,50,94936,1,2,0:0:0:0:
309,270,95103,5,6,3:2:0:0:
231,39,95270,1,0,0:0:0:0:
155,271,95436,1,10,0:0:0:0:
294,96,95603,1,0,0:0:0:0:
344,319,95770,1,2,0:0:0:0:
211,130,95936,1,0,3:2:0:0:
117,341,96103,2,0,P|64:356|5:340,1,90,10|0,0:0|0:0,0:0:0:0:
125,83,96436,5,2,3:2:0:0:
229,282,96603,1,0,0:0:0:0:
344,51,96770,1,10,0:0:0:0:
132,193,96936,1,0,0:0:0:0:
392,273,97103,1,2,0:0:0:0:
257,81,97270,1,0,3:2:0:0:
305,362,97436,2,0,P|358:377|417:361,1,90,10|0,0:0|0:0,0:0:0:0:
343,40,97770,5,2,3:2:0:0:
252,248,97936,1,0,0:0:0:0:
157,32,98103,1,10,0:0:0:0:
387,123,98270,1,0,0:0:0:0:
145,264,98436,1,2,0:0:0:0:
261,80,98603,1,2,3:2:0:0:
336,318,98770,1,8,0:0:0:0:
145,172,98936,1,2,0:0:0:0:
341,172,99103,6,0,P|389:187|442:198,1,90,0|2,3:2|0:0,0:0:0:0:
228,315,99436,2,0,P|180:330|127:341,1,90,10|0,0:0|0:0,0:0:0:0:
200,114,99770,2,0,P|216:157|229:214,1,90,2|0,3:2|0:0,0:0:0:0:
344,355,100103,2,0,P|354:311|370:269,1,90,10|2,0:0|0:0,0:0:0:0:
408,21,100436,6,0,P|322:19|270:87,1,161.999995056153,6|2,0:0|0:0,0:0:0:0:
50,242,101770,6,0,P|136:240|188:308,1,161.999995056153,2|2,0:0|0:0,0:0:0:0:
472,173,103103,6,0,L|449:349,1,161.999995056153,2|2,0:0|0:0,0:0:0:0:
113,69,104436,6,0,L|136:245,1,161.999995056153,2|2,0:0|0:0,0:0:0:0:
454,90,105603,5,10,3:2:0:0:
454,90,105686,1,2,0:0:0:0:
454,90,105770,1,10,0:0:0:0:
304,272,105936,2,0,P|245:258|184:248,1,99.0000030212403,10|0,0:0|0:0,0:0:0:0:
491,276,106270,5,10,0:0:0:0:
319,45,106436,2,0,P|270:53|222:65,1,99.0000030212403,10|0,0:0|0:0,0:0:0:0:
281,317,106770,5,10,0:0:0:0:
458,101,106936,2,0,P|468:40|480:-10,1,99.0000030212403,10|0,0:0|0:0,0:0:0:0:
446,358,107270,5,10,0:0:0:0:
240,162,107436,2,0,P|230:101|218:51,1,99.0000030212403,10|0,0:0|0:0,0:0:0:0:
170,343,107770,5,10,0:0:0:0:
303,36,108103,1,10,0:0:0:0:
303,36,108436,5,14,0:0:0:0:
214,270,108603,1,10,0:0:0:0:
122,43,108770,1,2,0:0:0:0:
337,265,108936,5,14,0:0:0:0:
218,24,109103,1,10,0:0:0:0:
113,254,109270,1,2,0:0:0:0:
341,60,109436,5,14,0:0:0:0:
68,161,109603,1,10,0:0:0:0:
314,318,109770,1,2,0:0:0:0:
170,42,109936,5,14,0:0:0:0:
151,324,110103,1,10,0:0:0:0:
399,150,110270,1,2,0:0:0:0:
80,152,110436,5,14,0:0:0:0:
394,287,110603,1,2,0:0:0:0:
43,340,110770,5,14,0:0:0:0:
333,216,110936,1,10,0:0:0:0:
33,67,111103,5,14,0:0:0:0:
