osu file format v14

[General]
AudioFilename: audio.mp3
AudioLeadIn: 0
PreviewTime:68437
Countdown: 0
SampleSet: Soft
StackLeniency: 0.5
Mode: 0
LetterboxInBreaks: 0
WidescreenStoryboard: 1

[Editor]
DistanceSpacing: 0.7
BeatDivisor: 4
GridSize: 4
TimelineZoom: 1.9

[Metadata]
Title:SAVE (Encore)
TitleUnicode:SAVE (Encore)
Artist:DM DOKURO
ArtistUnicode:DM DOKURO
Creator:browiec
Version:Normal
Source:UNDERTALE
Tags:deltarune remix radiation original soundtrack The Underground Radio toby fox drum n and bass chiptune sans ost electronic video game instrumental square last goodbye determination Reform Kujinn Fatfan Kolek kuki1537
BeatmapID:2966995
BeatmapSetID:1440767

[Difficulty]
HPDrainRate:3
CircleSize:3.5
OverallDifficulty:4.5
ApproachRate:5.2
SliderMultiplier:0.999999999999999
SliderTickRate:1

[Events]
//Background and Video events
0,0,"undrtal.jpg",0,0
//Break Periods
2,46009,67267
2,100636,104600
//Storyboard Layer 0 (Background)
//Storyboard Layer 1 (Fail)
//Storyboard Layer 2 (Pass)
//Storyboard Layer 3 (Foreground)
//Storyboard Layer 4 (Overlay)
//Storyboard Sound Samples

[TimingPoints]
476,333.333333333333,4,2,1,20,1,0
809,-100,4,2,1,25,0,0
1142,-100,4,2,1,30,0,0
1475,-100,4,2,1,35,0,0
1809,-100,4,2,1,40,0,0
2142,-100,4,2,1,45,0,0
2475,-100,4,2,1,50,0,0
2809,-100,4,2,1,55,0,0
3142,-100,4,2,2,70,0,0
3309,-100,4,2,1,70,0,0
13809,-100,4,2,2,70,0,0
13975,-100,4,2,1,70,0,0
19142,-100,4,2,1,80,0,0
22975,-100,4,2,1,70,0,0
24475,-100,4,2,2,70,0,0
24642,-100,4,2,1,70,0,0
35142,-100,4,2,2,70,0,0
35309,-100,4,2,1,70,0,0
44475,-100,4,2,1,80,0,0
45809,720.720720720721,4,2,3,70,1,0
46529,738.461538461538,4,2,1,70,1,0
47233,714.285714285714,4,2,1,70,1,0
47940,714.285714285714,4,2,1,70,1,0
48661,692.84064665127,4,2,1,70,1,0
49363,707.964601769912,4,2,1,70,1,0
50079,689.655172413793,4,2,1,70,1,0
50768,745.341614906832,4,2,1,70,1,0
51497,666.666666666667,4,2,1,70,1,0
52193,689.655172413793,4,2,1,70,1,0
52903,681.818181818182,4,2,1,70,1,0
53609,685.714285714286,4,2,1,70,1,0
54320,683.760683760684,4,2,1,70,1,0
55014,716.417910447761,4,2,1,70,1,0
55730,689.655172413793,4,2,1,70,1,0
56419,716.845878136201,4,2,1,70,1,0
57145,678.733031674208,4,2,1,70,1,0
57844,722.89156626506,4,2,1,70,1,0
58205,952.380952380952,4,2,1,70,1,0
58556,692.84064665127,4,2,1,70,1,0
59259,702.576112412178,4,2,1,70,1,0
59977,681.044267877412,4,2,1,70,1,0
60668,722.89156626506,4,2,1,70,1,0
61390,685.714285714286,4,2,1,70,1,0
62075,722.89156626506,4,2,1,70,1,0
62814,659.340659340659,4,2,1,70,1,0
63490,705.882352941176,4,2,1,70,1,0
64226,650.054171180932,4,2,1,70,1,0
64911,694.444444444444,4,2,1,70,1,0
65258,708.382526564345,4,2,1,70,1,0
65620,697.674418604651,4,2,1,70,1,0
66323,710.059171597633,4,2,1,70,1,0
67037,705.052878965922,4,2,1,70,1,0
67742,695.652173913044,4,2,1,70,1,0
68437,333.333333333333,4,2,2,70,1,0
68603,-100,4,2,1,70,0,0
79103,-100,4,2,2,70,0,0
79270,-100,4,2,1,70,0,0
89770,-100,4,2,2,80,0,0
89936,-100,4,2,1,80,0,0
100436,-100,4,2,3,80,0,0
101103,-100,4,2,1,65,0,0
105603,-100,4,2,1,80,0,0
111103,342.857142857143,4,2,3,80,1,0
111188,-100,4,2,3,30,0,0
111617,377.358490566038,4,2,1,30,1,0
112183,413.793103448276,4,2,1,30,1,0
112803,468.75,4,2,1,30,1,0
113506,521.739130434783,4,2,1,30,1,0
114027,535.714285714286,4,2,1,30,1,0
114562,1149.42528735632,4,2,1,30,1,0
116860,1151.63147792706,4,2,1,30,1,0
118875,-100,4,2,1,5,0,0
119163,1144.6012972148,4,2,1,30,1,0
120307,1153.84615384615,4,2,1,30,1,0
121460,1186.94362017804,4,2,1,30,1,0
123833,987.654320987654,4,2,1,5,1,0
124326,1167.31517509728,4,2,1,50,1,0
126368,-100,4,2,1,5,0,0
126660,1234.56790123457,4,2,1,50,1,0
127894,1242.23602484472,4,2,1,50,1,0
128515,1348.31460674157,4,2,1,50,1,0
128852,-100,4,2,1,5,0,0
129189,1354.40180586907,4,2,1,50,1,0
129866,1466.99266503667,4,2,1,50,1,0
130599,1587.30158730159,4,2,1,50,1,0
131392,1744.18604651164,4,2,1,50,1,0
132264,2000,4,2,1,50,1,0
134014,-100,4,2,1,20,0,0

[Colours]
Combo1 : 255,30,221
Combo2 : 255,30,30
Combo3 : 242,115,0
Combo4 : 255,255,15
Combo5 : 108,255,38
Combo6 : 36,146,255
Combo7 : 13,49,255
Combo8 : 131,30,255

[HitObjects]
48,60,3142,6,0,L|147:72,1,99.9999999999999,6|8,3:2|0:0,0:0:0:0:
200,88,3642,1,0,0:0:0:0:
200,88,3809,2,0,P|212:135|201:183,1,99.9999999999999,2|10,0:0|0:0,0:0:0:0:
124,248,4475,2,0,P|111:295|122:343,1,99.9999999999999,2|10,3:2|0:0,0:0:0:0:
224,372,5142,1,2,0:0:0:0:
224,372,5309,2,0,L|323:359,1,99.9999999999999,2|2,3:2|0:0,0:0:0:0:
372,348,5809,5,0,3:2:0:0:
432,268,6142,1,8,0:0:0:0:
372,188,6475,2,0,B|276:160|276:160|220:192,1,150,2|2,0:0|0:0,0:0:0:0:
200,220,7142,2,0,L|212:319,1,99.9999999999999,6|8,3:2|0:0,0:0:0:0:
132,380,7809,2,0,L|80:373,1,50,4|0,0:0|3:2,0:0:0:0:
32,364,8142,1,8,0:2:0:0:
8,268,8475,6,0,L|20:168,1,99.9999999999999,6|8,3:2|0:0,0:0:0:0:
48,128,8975,1,0,0:0:0:0:
48,128,9142,2,0,P|95:115|143:126,1,99.9999999999999,2|10,0:0|0:0,0:0:0:0:
208,204,9809,2,0,P|255:216|303:205,1,99.9999999999999,2|10,3:2|0:0,0:0:0:0:
360,124,10475,1,2,0:0:0:0:
360,124,10642,2,0,P|347:76|313:40,1,99.9999999999999,2|2,3:2|0:0,0:0:0:0:
264,28,11142,5,2,3:2:0:0:
192,96,11475,1,8,0:0:0:0:
100,56,11809,2,0,L|48:62,1,50,2|0,0:0|3:2,0:0:0:0:
0,72,12142,1,8,0:0:0:0:
24,168,12475,2,0,P|71:180|119:169,1,99.9999999999999,6|10,3:2|0:0,0:0:0:0:
192,96,13142,2,0,P|239:83|287:94,1,99.9999999999999,6|10,0:0|0:2,0:0:0:0:
340,180,13809,6,0,L|327:279,1,99.9999999999999,6|8,3:2|0:0,0:0:0:0:
348,332,14309,1,0,0:0:0:0:
348,332,14475,2,0,B|400:344|400:344|448:332,1,99.9999999999999,2|10,0:0|0:0,0:0:0:0:
496,244,15142,2,0,L|483:144,1,99.9999999999999,2|10,3:2|0:0,0:0:0:0:
420,68,15809,2,0,L|426:16,2,50,2|2|8,0:0|3:2|0:0,0:0:0:0:
392,108,16309,1,2,0:0:0:0:
392,108,16475,6,0,B|340:120|340:120|292:108,1,99.9999999999999,0|8,3:2|0:0,0:0:0:0:
224,40,17142,2,0,B|172:28|172:28|124:40,1,99.9999999999999,2|8,0:0|0:0,0:0:0:0:
92,76,17642,1,2,0:0:0:0:
92,76,17809,2,0,L|79:175,1,99.9999999999999,6|8,3:2|0:0,0:0:0:0:
136,256,18475,2,0,L|142:308,1,50,4|0,0:0|3:2,0:0:0:0:
152,356,18808,1,8,0:2:0:0:
252,360,19142,6,0,B|263:314|263:314|251:262,1,99.9999999999999,6|8,3:2|0:0,0:0:0:0:
228,224,19642,1,0,0:0:0:0:
228,224,19809,2,0,B|216:178|216:178|228:126,1,99.9999999999999,2|10,0:0|0:0,0:0:0:0:
304,60,20475,2,0,L|403:73,1,99.9999999999999,2|10,3:2|0:0,0:0:0:0:
488,132,21142,1,2,0:0:0:0:
488,132,21309,2,0,L|482:184,1,50,2|8,3:2|0:0,0:0:0:0:
452,220,21642,6,0,B|396:213|396:213|365:233|365:233|306:226,1,150,2|10,0:0|0:0,0:0:0:0:
236,164,22475,1,2,0:0:0:0:
236,164,22642,2,0,L|184:170,1,50,2|8,3:2|0:0,0:0:0:0:
148,204,22975,2,0,B|136:256|136:256|147:301,1,99.9999999999999,2|0,0:0|0:0,0:0:0:0:
172,344,23475,1,10,0:0:0:0:
264,380,23809,1,6,3:2:0:0:
348,324,24142,1,10,0:0:0:0:
344,224,24475,6,0,L|331:125,1,99.9999999999999,6|8,3:2|0:0,0:0:0:0:
304,88,24975,1,0,0:0:0:0:
304,88,25142,2,0,P|257:75|209:86,1,99.9999999999999,2|8,0:0|0:0,0:0:0:0:
160,176,25809,2,0,L|147:275,1,99.9999999999999,2|8,3:2|0:0,0:0:0:0:
208,352,26475,2,0,L|260:346,1,50,0|0,0:0|3:2,0:0:0:0:
308,336,26808,1,10,0:0:0:0:
360,252,27142,6,0,P|373:205|362:157,1,99.9999999999999,6|8,3:2|0:0,0:0:0:0:
320,136,27642,1,0,0:0:0:0:
320,136,27809,2,0,P|307:89|318:41,1,99.9999999999999,2|10,0:0|0:0,0:0:0:0:
356,8,28309,1,2,0:0:0:0:
456,8,28642,1,2,3:2:0:0:
504,96,28975,1,2,0:0:0:0:
456,188,29309,1,2,3:2:0:0:
456,188,29476,2,0,L|404:182,1,50,10|0,0:0|3:2,0:0:0:0:
368,148,29809,6,0,L|269:161,1,99.9999999999999,6|10,3:2|0:0,0:0:0:0:
236,200,30309,1,2,0:0:0:0:
236,200,30475,2,0,L|137:187,1,99.9999999999999,2|10,0:0|0:0,0:0:0:0:
52,240,31142,2,0,P|40:288|53:335,1,99.9999999999999,2|10,3:2|0:0,0:0:0:0:
100,364,31642,1,2,0:0:0:0:
100,364,31809,2,0,L|152:358,1,50,2|2,0:0|3:2,0:0:0:0:
200,348,32142,1,10,0:0:0:0:
296,316,32475,6,0,P|309:268|297:220,1,99.9999999999999,6|10,3:2|0:0,0:0:0:0:
224,152,33142,1,2,0:0:0:0:
140,208,33475,1,10,0:0:0:0:
60,148,33809,2,0,P|46:100|58:52,1,99.9999999999999,6|8,3:2|0:0,0:0:0:0:
96,20,34309,1,0,0:0:0:0:
96,20,34475,2,0,P|143:6|191:18,1,99.9999999999999,6|10,3:2|0:0,0:0:0:0:
276,84,35142,5,4,3:2:0:0:
276,84,35309,2,0,L|328:78,2,50,2|10|2,0:0|0:0|0:0,0:0:0:0:
192,140,35975,2,0,L|140:134,2,50,2|10|2,3:2|0:0|0:0,0:0:0:0:
284,184,36642,2,0,L|336:178,2,50,2|10|2,3:2|0:0|0:0,0:0:0:0:
200,240,37309,2,0,L|148:234,2,50,2|10|2,3:2|0:0|0:0,0:0:0:0:
236,276,37809,6,0,L|335:289,1,99.9999999999999,6|10,3:2|0:0,0:0:0:0:
440,296,38475,1,2,0:0:0:0:
440,296,38642,2,0,L|446:244,1,50,2|8,3:2|0:0,0:0:0:0:
484,216,38975,2,0,P|497:168|485:120,1,99.9999999999999,2|2,0:0|3:2,0:0:0:0:
452,84,39475,1,8,0:0:0:0:
380,16,39809,1,2,0:0:0:0:
284,44,40142,2,0,L|278:96,1,50,10|0,0:0|3:2,0:0:0:0:
240,124,40475,6,0,P|228:172|241:219,1,99.9999999999999,6|10,3:2|0:0,0:0:0:0:
288,248,40975,1,2,0:0:0:0:
288,248,41142,2,0,P|299:296|286:343,1,99.9999999999999,2|10,0:0|0:0,0:0:0:0:
192,380,41809,6,0,L|93:367,1,99.9999999999999,2|10,3:2|0:0,0:0:0:0:
56,340,42309,1,2,0:0:0:0:
56,340,42475,2,0,L|43:241,1,99.9999999999999,2|10,0:0|0:0,0:0:0:0:
83,149,43142,6,0,P|131:137|178:150,1,99.9999999999999,6|10,3:2|0:0,0:0:0:0:
260,210,43809,1,2,0:0:0:0:
351,169,44142,1,10,0:0:0:0:
437,219,44475,6,0,P|448:267|435:314,1,99.9999999999999,6|10,3:2|0:0,0:0:0:0:
398,348,44975,2,0,L|346:342,1,50,6|10,0:0|0:0,0:0:0:0:
302,338,45309,1,10,0:0:0:0:
302,338,45475,1,6,0:0:0:0:
222,282,45809,5,6,0:0:0:0:
178,33,68437,6,0,L|190:132,1,99.9999999999999,6|10,3:2|0:0,0:0:0:0:
270,191,69103,2,0,L|258:290,1,99.9999999999999,2|10,0:0|0:0,0:0:0:0:
186,360,69770,1,2,3:2:0:0:
186,360,69937,2,0,L|134:354,1,50,2|8,0:0|0:0,0:0:0:0:
96,324,70270,2,0,P|84:275|97:228,1,99.9999999999999,2|2,0:0|3:2,0:0:0:0:
133,193,70770,1,10,0:0:0:0:
219,243,71103,6,0,P|266:256|314:244,1,99.9999999999999,2|10,3:2|0:0,0:0:0:0:
389,177,71770,1,2,0:0:0:0:
389,177,71937,2,0,L|395:125,1,50,2|8,3:2|0:0,0:0:0:0:
383,78,72270,2,0,P|347:43|299:31,1,99.9999999999999,2|2,0:0|0:0,0:0:0:0:
249,28,72770,1,8,0:0:0:0:
161,76,73103,1,2,0:0:0:0:
155,176,73437,1,10,0:0:0:0:
240,227,73770,6,0,L|339:215,1,99.9999999999999,6|10,3:2|0:0,0:0:0:0:
439,220,74437,2,0,P|450:268|437:315,1,99.9999999999999,2|10,0:0|0:0,0:0:0:0:
356,372,75103,1,2,3:2:0:0:
356,372,75270,2,0,L|304:366,1,50,2|8,0:0|0:0,0:0:0:0:
269,332,75603,2,0,L|170:320,1,99.9999999999999,2|2,0:0|3:2,0:0:0:0:
120,310,76103,1,10,0:0:0:0:
45,242,76436,6,0,P|31:194|43:146,1,99.9999999999999,2|10,3:2|0:0,0:0:0:0:
120,81,77103,1,2,0:0:0:0:
120,81,77270,1,2,3:2:0:0:
210,123,77603,2,0,L|309:111,1,99.9999999999999,2|2,0:0|0:0,0:0:0:0:
339,72,78103,1,10,0:0:0:0:
339,72,78270,2,0,L|438:84,1,99.9999999999999,2|2,0:0|3:2,0:0:0:0:
487,91,78770,1,10,0:0:0:0:
501,189,79103,6,0,L|489:288,1,99.9999999999999,6|10,3:2|0:0,0:0:0:0:
423,364,79770,2,0,B|378:375|378:375|326:363,1,99.9999999999999,2|10,0:0|0:0,0:0:0:0:
251,304,80436,1,2,3:2:0:0:
251,304,80603,2,0,L|257:252,1,50,2|8,0:0|0:0,0:0:0:0:
294,221,80936,2,0,B|306:169|306:169|295:124,1,99.9999999999999,2|2,0:0|3:2,0:0:0:0:
268,81,81436,1,8,0:0:0:0:
189,18,81770,6,0,L|90:30,1,99.9999999999999,2|10,3:2|0:0,0:0:0:0:
33,113,82436,1,2,0:0:0:0:
33,113,82603,2,0,L|39:165,1,50,2|8,3:2|0:0,0:0:0:0:
63,206,82936,2,0,B|115:218|115:218|160:207,1,99.9999999999999,2|2,0:0|0:0,0:0:0:0:
193,169,83436,1,8,0:0:0:0:
267,101,83770,1,2,0:0:0:0:
361,132,84103,1,8,0:0:0:0:
378,230,84436,6,0,L|366:329,1,99.9999999999999,6|10,3:2|0:0,0:0:0:0:
278,377,85103,2,0,L|179:365,1,99.9999999999999,2|10,0:0|0:0,0:0:0:0:
111,297,85770,1,2,3:2:0:0:
111,297,85937,2,0,L|105:245,1,50,2|8,0:0|0:0,0:0:0:0:
68,214,86270,2,0,B|56:162|56:162|67:117,1,99.9999999999999,2|2,0:0|3:2,0:0:0:0:
94,74,86770,1,8,0:0:0:0:
180,24,87103,6,0,L|279:36,1,99.9999999999999,2|10,3:2|0:0,0:0:0:0:
359,104,87770,1,2,0:0:0:0:
359,104,87936,1,2,3:2:0:0:
285,172,88270,2,0,B|274:217|274:217|286:269,1,99.9999999999999,2|2,0:0|0:0,0:0:0:0:
326,307,88770,1,10,0:0:0:0:
326,307,88936,2,0,B|371:318|371:318|423:306,1,99.9999999999999,2|2,0:0|3:2,0:0:0:0:
460,271,89436,1,10,0:0:0:0:
507,183,89770,6,0,L|495:84,1,99.9999999999999,6|10,3:2|0:0,0:0:0:0:
413,25,90436,2,0,L|361:31,1,50,2|0,0:0|3:2,0:0:0:0:
317,51,90770,1,10,0:0:0:0:
291,147,91103,2,0,L|279:246,1,99.9999999999999,2|10,3:2|0:0,0:0:0:0:
197,305,91769,2,0,L|145:299,1,50,2|0,0:0|3:2,0:0:0:0:
101,279,92103,1,10,0:0:0:0:
36,202,92436,6,0,P|22:154|34:106,1,99.9999999999999,2|10,3:2|0:0,0:0:0:0:
114,45,93103,2,0,L|166:51,1,50,2|0,0:0|3:2,0:0:0:0:
210,71,93437,1,10,0:0:0:0:
281,140,93770,2,0,P|294:187|282:235,1,99.9999999999999,2|10,3:2|0:0,0:0:0:0:
249,273,94270,1,0,0:0:0:0:
249,273,94437,2,0,L|197:279,1,50,2|2,0:0|3:2,0:0:0:0:
150,288,94770,1,8,0:0:0:0:
74,222,95103,6,0,L|62:123,1,99.9999999999999,6|10,3:2|0:0,0:0:0:0:
85,80,95603,1,0,0:0:0:0:
85,80,95770,2,0,P|132:67|180:79,1,99.9999999999999,2|10,0:0|0:0,0:0:0:0:
228,167,96436,2,0,L|216:266,1,99.9999999999999,2|10,3:2|0:0,0:0:0:0:
239,309,96936,1,0,0:0:0:0:
239,309,97103,2,0,P|286:322|334:310,1,99.9999999999999,2|10,0:0|0:0,0:0:0:0:
398,232,97770,6,0,L|386:133,1,99.9999999999999,2|10,3:2|0:0,0:0:0:0:
359,96,98270,1,0,0:0:0:0:
359,96,98436,2,0,L|307:90,1,50,2|2,0:0|3:2,0:0:0:0:
260,77,98770,1,8,0:0:0:0:
171,31,99103,2,0,P|158:78|171:126,1,99.9999999999999,0|10,3:2|0:0,0:0:0:0:
257,177,99770,2,0,P|269:224|256:272,1,99.9999999999999,2|10,3:2|0:0,0:0:0:0:
183,340,100436,5,6,0:0:0:0:
183,340,105770,5,10,0:0:0:0:
183,340,105936,2,0,L|282:328,1,99.9999999999999,10|10,0:0|0:0,0:0:0:0:
331,317,106436,1,10,0:0:0:0:
428,285,106770,1,10,0:0:0:0:
428,285,106936,2,0,P|440:237|427:189,1,99.9999999999999,10|10,0:0|0:0,0:0:0:0:
395,151,107436,1,10,0:0:0:0:
313,92,107770,1,10,0:0:0:0:
225,140,108103,1,10,0:0:0:0:
234,239,108436,6,0,P|246:286|233:334,1,99.9999999999999,14|2,0:0|0:0,0:0:0:0:
193,364,108936,2,0,P|145:376|97:363,1,99.9999999999999,14|2,0:0|0:0,0:0:0:0:
61,328,109436,1,14,0:0:0:0:
29,237,109770,1,2,0:0:0:0:
29,237,109936,2,0,L|41:138,1,99.9999999999999,14|2,0:0|0:0,0:0:0:0:
55,89,110436,1,14,0:0:0:0:
148,53,110770,2,0,L|200:59,1,50,14|10,0:0|0:0,0:0:0:0:
245,65,111103,5,14,0:0:0:0:
