osu file format v14

[General]
AudioFilename: audio.mp3
AudioLeadIn: 0
PreviewTime:68437
Countdown: 0
SampleSet: Soft
StackLeniency: 0.5
Mode: 0
LetterboxInBreaks: 0
WidescreenStoryboard: 1

[Editor]
DistanceSpacing: 0.7
BeatDivisor: 4
GridSize: 4
TimelineZoom: 1.350004

[Metadata]
Title:SAVE (Encore)
TitleUnicode:SAVE (Encore)
Artist:DM DOKURO
ArtistUnicode:DM DOKURO
Creator:browiec
Version:Extreme
Source:UNDERTALE
Tags:deltarune remix radiation original soundtrack The Underground Radio toby fox drum n and bass chiptune sans ost electronic video game instrumental square last goodbye determination Reform Kujinn Fatfan Kolek kuki1537
BeatmapID:2964230
BeatmapSetID:1440767

[Difficulty]
HPDrainRate:5.6
CircleSize:4
OverallDifficulty:9.2
ApproachRate:9.3
SliderMultiplier:1.8
SliderTickRate:1

[Events]
//Background and Video events
0,0,"undrtal.jpg",0,0
//Break Periods
2,47233,67742
2,100636,105049
//Storyboard Layer 0 (Background)
//Storyboard Layer 1 (Fail)
//Storyboard Layer 2 (Pass)
//Storyboard Layer 3 (Foreground)
//Storyboard Layer 4 (Overlay)
//Storyboard Sound Samples

[TimingPoints]
476,333.333333333333,4,2,1,20,1,0
476,-250,4,2,1,20,0,0
809,-250,4,2,1,25,0,0
1129,-200,4,2,1,25,0,0
1142,-200,4,2,1,30,0,0
1475,-200,4,2,1,35,0,0
1796,-166.666666666667,4,2,1,35,0,0
1809,-166.666666666667,4,2,1,40,0,0
2142,-166.666666666667,4,2,1,45,0,0
2462,-142.857142857143,4,2,1,45,0,0
2475,-142.857142857143,4,2,1,50,0,0
2809,-142.857142857143,4,2,1,55,0,0
3142,-100,4,2,2,70,0,0
3309,-100,4,2,1,70,0,0
13809,-100,4,2,2,70,0,0
13975,-100,4,2,1,70,0,0
19142,-100,4,2,1,80,0,0
22975,-100,4,2,1,70,0,0
24475,-100,4,2,2,70,0,0
24642,-100,4,2,1,70,0,0
35142,-100,4,2,2,70,0,0
35309,-100,4,2,1,70,0,0
44475,-100,4,2,1,80,0,0
45809,720.720720720721,4,2,3,70,1,0
46529,738.461538461538,4,2,1,70,1,0
47233,714.285714285714,4,2,1,70,1,0
47940,714.285714285714,4,2,1,70,1,0
48661,692.84064665127,4,2,1,70,1,0
49363,707.964601769912,4,2,1,70,1,0
50079,689.655172413793,4,2,1,70,1,0
50768,745.341614906832,4,2,1,70,1,0
51497,666.666666666667,4,2,1,70,1,0
52193,689.655172413793,4,2,1,70,1,0
52903,681.818181818182,4,2,1,70,1,0
53609,685.714285714286,4,2,1,70,1,0
54320,683.760683760684,4,2,1,70,1,0
55014,716.417910447761,4,2,1,70,1,0
55730,689.655172413793,4,2,1,70,1,0
56419,716.845878136201,4,2,1,70,1,0
57145,678.733031674208,4,2,1,70,1,0
57844,722.89156626506,4,2,1,70,1,0
58205,952.380952380952,4,2,1,70,1,0
58556,692.84064665127,4,2,1,70,1,0
59259,702.576112412178,4,2,1,70,1,0
59977,681.044267877412,4,2,1,70,1,0
60668,722.89156626506,4,2,1,70,1,0
61390,685.714285714286,4,2,1,70,1,0
62075,722.89156626506,4,2,1,70,1,0
62814,659.340659340659,4,2,1,70,1,0
63490,705.882352941176,4,2,1,70,1,0
64226,650.054171180932,4,2,1,70,1,0
64911,694.444444444444,4,2,1,70,1,0
65258,708.382526564345,4,2,1,70,1,0
65620,697.674418604651,4,2,1,70,1,0
66323,710.059171597633,4,2,1,70,1,0
67037,705.052878965922,4,2,1,70,1,0
67742,695.652173913044,4,2,1,70,1,0
67742,-133.333333333333,4,2,1,70,0,0
68437,333.333333333333,4,2,2,70,1,0
68437,-100,4,2,2,70,0,0
68603,-100,4,2,1,70,0,0
79103,-100,4,2,2,70,0,0
79270,-100,4,2,1,70,0,0
89770,-100,4,2,2,80,0,0
89936,-100,4,2,1,80,0,0
100436,-100,4,2,3,80,0,0
101095,-333.333333333333,4,2,3,80,0,0
101103,-333.333333333333,4,2,1,65,0,0
105603,-333.333333333333,4,2,1,80,0,0
105762,-100,4,2,1,80,0,0
111103,342.857142857143,4,2,3,80,1,0
111103,-142.857142857143,4,2,3,80,0,0
111188,-142.857142857143,4,2,3,30,0,0
111445,-142.857142857143,4,2,3,30,0,0
111617,377.358490566038,4,2,1,30,1,0
111617,-133.333333333333,4,2,1,30,0,0
112183,413.793103448276,4,2,1,30,1,0
112183,-133.333333333333,4,2,1,30,0,0
112803,468.75,4,2,1,30,1,0
112803,-111.111111111111,4,2,1,30,0,0
113506,521.739130434783,4,2,1,30,1,0
113506,-100,4,2,1,30,0,0
114027,535.714285714286,4,2,1,30,1,0
114027,-100,4,2,1,30,0,0
114562,1149.42528735632,4,2,1,30,1,0
114562,-66.6666666666667,4,2,1,30,0,0
115711,-66.6666666666667,4,2,1,30,0,0
116860,1151.63147792706,4,2,1,30,1,0
116860,-66.6666666666667,4,2,1,30,0,0
118875,-66.6666666666667,4,2,1,5,0,0
119163,1144.6012972148,4,2,1,30,1,0
119163,-66.6666666666667,4,2,1,30,0,0
120307,1153.84615384615,4,2,1,30,1,0
120307,-66.6666666666667,4,2,1,30,0,0
121460,1186.94362017804,4,2,1,30,1,0
121460,-62.5,4,2,1,30,0,0
123833,987.654320987654,4,2,1,5,1,0
123833,-100,4,2,1,5,0,0
124326,1167.31517509728,4,2,1,50,1,0
124326,-76.9230769230769,4,2,1,50,0,0
126368,-76.9230769230769,4,2,1,5,0,0
126660,1234.56790123457,4,2,1,50,1,0
126660,-70.97232079489,4,2,1,50,0,0
127894,1242.23602484472,4,2,1,50,1,0
128515,1348.31460674157,4,2,1,50,1,0
128852,-100,4,2,1,5,0,0
129189,1354.40180586907,4,2,1,50,1,0
129189,-68.73,4,2,1,50,0,0
129866,1466.99266503667,4,2,1,50,1,0
130599,1587.30158730159,4,2,1,50,1,0
131392,1744.18604651164,4,2,1,50,1,0
132264,2000,4,2,1,50,1,0
134014,-100,4,2,1,20,0,0

[Colours]
Combo1 : 255,30,221
Combo2 : 255,30,30
Combo3 : 242,115,0
Combo4 : 255,255,15
Combo5 : 108,255,38
Combo6 : 36,146,255
Combo7 : 13,49,255
Combo8 : 131,30,255

[HitObjects]
392,52,476,6,0,L|397:87,1,36,2|0,0:0|0:0,0:0:0:0:
317,103,809,2,0,L|312:68,1,36,2|0,0:0|0:0,0:0:0:0:
156,136,1142,6,0,L|150:180,1,45,2|0,0:0|0:0,0:0:0:0:
230,191,1475,2,0,L|236:147,1,45,2|0,0:0|0:0,0:0:0:0:
416,208,1809,6,0,L|423:261,1,53.9999983520508,2|0,0:0|0:0,0:0:0:0:
340,272,2142,2,0,L|333:219,1,53.9999983520508,2|0,0:0|0:0,0:0:0:0:
144,280,2475,6,0,L|136:342,1,62.9999980773926,2|0,0:0|0:0,0:0:0:0:
220,360,2808,2,0,L|228:298,1,62.9999980773926,2|2,0:0|0:0,0:0:0:0:
280,140,3142,6,0,B|347:132|347:132|386:151|386:151|458:142,1,180,6|8,3:2|0:0,0:0:0:0:
348,32,3642,1,0,0:0:0:0:
320,236,3809,2,0,L|309:327,1,90,2|0,0:0|3:2,0:0:0:0:
152,184,4142,2,0,L|141:93,1,90,10|0,0:0|0:0,0:0:0:0:
376,16,4475,6,0,P|425:7|468:21,1,90,2|0,3:2|0:0,0:0:0:0:
512,240,4809,2,0,P|463:249|420:235,1,90,10|0,0:0|0:0,0:0:0:0:
248,96,5142,1,2,0:0:0:0:
309,325,5309,2,0,L|320:236,1,90,2|8,3:2|0:0,0:0:0:0:
272,8,5642,1,2,0:0:0:0:
184,216,5809,6,0,B|76:248|76:248|12:216,1,180,0|8,3:2|0:0,0:0:0:0:
136,12,6309,1,0,0:0:0:0:
264,176,6475,2,0,P|273:225|259:268,1,90,2|0,0:0|3:2,0:0:0:0:
12,192,6809,1,8,0:0:0:0:
228,72,6975,1,2,0:0:0:0:
228,72,7059,1,2,0:0:0:0:
228,72,7142,6,0,L|319:83,1,90,6|0,3:2|0:0,0:0:0:0:
160,276,7475,2,0,L|69:287,1,90,8|0,0:0|0:0,0:0:0:0:
132,32,7809,1,4,0:0:0:0:
252,228,7975,1,0,3:2:0:0:
332,8,8142,2,0,L|436:16,1,90,8|0,0:2|0:2,0:0:0:0:
504,272,8475,6,0,B|414:235|422:315|331:281,1,180,6|8,3:2|0:0,0:0:0:0:
220,132,8975,1,0,0:0:0:0:
148,368,9142,2,0,P|197:377|240:363,1,90,2|0,0:0|3:2,0:0:0:0:
132,192,9475,2,0,P|100:229|90:274,1,90,10|0,0:0|0:0,0:0:0:0:
328,248,9809,6,0,L|339:157,1,90,2|0,3:2|0:0,0:0:0:0:
120,12,10142,2,0,L|131:103,1,90,10|0,0:0|0:0,0:0:0:0:
216,312,10475,1,2,0:0:0:0:
288,88,10642,1,2,3:2:0:0:
88,208,10809,1,8,0:0:0:0:
320,288,10975,1,2,0:0:0:0:
192,60,11142,6,0,B|144:104|144:104|184:216,1,180,2|8,3:2|0:0,0:0:0:0:
260,384,11642,1,0,0:0:0:0:
336,160,11809,1,2,0:0:0:0:
424,376,11975,1,0,3:2:0:0:
500,164,12142,2,0,L|489:255,1,90,8|0,0:0|0:0,0:0:0:0:
244,368,12475,6,0,P|195:377|152:363,1,90,6|0,3:2|0:0,0:0:0:0:
8,224,12809,2,0,P|57:233|100:219,1,90,10|0,0:0|0:0,0:0:0:0:
292,84,13142,1,6,0:0:0:0:
204,292,13309,1,0,0:2:0:0:
92,96,13475,2,0,L|103:7,1,90,10|0,0:2|0:0,0:0:0:0:
376,40,13809,6,0,B|384:107|384:107|365:146|365:146|374:218,1,180,6|8,3:2|0:0,0:0:0:0:
288,384,14309,1,0,0:0:0:0:
212,176,14475,2,0,B|168:164|168:164|124:176,1,90,2|0,0:0|3:2,0:0:0:0:
160,384,14809,2,0,L|171:295,1,90,10|0,0:0|0:0,0:0:0:0:
300,84,15142,2,0,B|344:72|344:72|388:84,1,90,2|0,3:2|0:0,0:0:0:0:
356,280,15476,2,0,L|345:191,1,90,10|0,0:0|0:0,0:0:0:0:
248,4,15809,1,2,0:0:0:0:
168,224,15975,2,0,P|217:233|260:219,1,90,2|8,3:2|0:0,0:0:0:0:
432,112,16309,1,2,0:0:0:0:
232,20,16475,6,0,B|182:7|152:45|152:45|121:7|72:19,1,180,0|8,3:2|0:0,0:0:0:0:
68,256,16975,1,0,0:0:0:0:
228,108,17142,2,0,P|277:99|320:113,1,90,2|0,0:0|3:2,0:0:0:0:
256,336,17475,1,8,0:0:0:0:
144,148,17642,1,2,0:0:0:0:
144,148,17725,1,2,0:0:0:0:
144,148,17809,6,0,P|135:99|149:56,1,90,6|0,3:2|0:0,0:0:0:0:
400,28,18142,2,0,P|409:77|395:120,1,90,8|0,0:0|0:0,0:0:0:0:
216,256,18475,1,4,0:0:0:0:
320,64,18642,1,0,3:2:0:0:
408,288,18809,2,0,L|319:277,1,90,8|0,0:2|0:2,0:0:0:0:
88,124,19142,6,0,B|178:87|170:167|261:133,1,180,6|8,3:2|0:0,0:0:0:0:
288,376,19642,1,0,0:0:0:0:
128,204,19809,2,0,L|139:293,1,90,2|0,0:0|3:2,0:0:0:0:
376,384,20142,2,0,L|387:295,1,90,10|0,0:0|0:0,0:0:0:0:
216,100,20475,6,0,L|227:189,1,90,2|0,3:2|0:0,0:0:0:0:
480,272,20808,2,0,L|491:183,1,90,10|0,0:0|0:0,0:0:0:0:
226,189,21142,1,2,0:0:0:0:
416,340,21309,1,2,3:2:0:0:
368,96,21475,1,8,0:0:0:0:
264,312,21642,1,2,0:0:0:0:
204,68,21809,6,0,P|152:48|76:144,1,180,0|10,3:2|0:0,0:0:0:0:
176,324,22309,1,0,0:0:0:0:
276,128,22475,1,2,0:0:0:0:
68,232,22642,2,0,L|79:321,1,90,2|8,3:2|0:0,0:0:0:0:
288,384,22975,1,2,0:0:0:0:
180,140,23142,6,0,L|191:229,1,90,4|0,3:2|0:0,0:0:0:0:
376,352,23475,2,0,L|387:263,1,90,10|0,0:0|0:0,0:0:0:0:
292,28,23809,1,6,3:2:0:0:
208,244,23975,1,2,0:0:0:0:
424,152,24142,1,10,0:0:0:0:
196,52,24309,1,2,0:0:0:0:
386,262,24475,6,0,P|429:272|473:261,1,90,6|0,3:2|0:0,0:0:0:0:
384,24,24809,1,8,0:0:0:0:
300,240,24975,1,0,0:0:0:0:
216,16,25142,6,0,L|227:105,1,90,2|0,0:0|3:2,0:0:0:0:
296,336,25475,1,8,0:0:0:0:
376,136,25642,1,0,0:0:0:0:
208,296,25809,6,0,P|165:306|121:295,1,90,2|0,3:2|3:2,0:0:0:0:
16,92,26142,2,0,B|106:55|98:135|189:101,1,180,8|0,0:0|0:0,0:0:0:0:
328,260,26642,1,0,3:2:0:0:
296,24,26809,2,0,L|285:113,1,90,10|0,0:0|0:0,0:0:0:0:
328,352,27142,6,0,B|429:370|429:370|459:338|447:298,1,180,6|8,3:2|0:0,0:0:0:0:
304,104,27642,1,0,0:0:0:0:
236,320,27809,2,0,P|193:330|149:319,1,90,2|0,0:0|3:2,0:0:0:0:
80,96,28142,1,10,0:0:0:0:
296,228,28309,6,0,L|385:217,1,90,2|0,0:0|3:2,0:0:0:0:
252,20,28642,2,0,L|163:9,1,90,2|8,3:2|0:0,0:0:0:0:
48,236,28975,2,0,L|137:225,1,90,2|0,0:0|0:0,0:0:0:0:
360,120,29309,1,2,3:2:0:0:
360,120,29392,1,2,0:0:0:0:
360,120,29475,2,0,L|271:109,1,90,10|0,0:0|3:2,0:0:0:0:
329,335,29809,6,0,B|373:347|373:347|417:335,1,90,6|0,3:2|0:0,0:0:0:0:
496,116,30142,1,10,0:0:0:0:
415,335,30309,1,2,0:0:0:0:
296,136,30475,2,0,L|307:47,1,90,2|0,0:0|3:2,0:0:0:0:
488,208,30809,2,0,L|499:297,1,90,10|0,0:0|0:0,0:0:0:0:
236,368,31142,6,0,B|192:380|192:380|148:368,1,90,2|0,3:2|3:2,0:0:0:0:
44,144,31475,1,10,0:0:0:0:
264,280,31642,1,2,0:0:0:0:
28,128,31809,1,2,0:0:0:0:
160,376,31975,1,2,3:2:0:0:
160,376,32059,1,2,0:0:0:0:
160,376,32142,2,0,L|272:364,1,90,10|0,0:0|0:0,0:0:0:0:
214,104,32475,6,0,P|203:147|213:191,1,90,6|0,3:2|0:0,0:0:0:0:
408,320,32809,2,0,P|376:289|334:276,1,90,10|0,0:0|0:0,0:0:0:0:
100,263,33142,1,2,0:0:0:0:
314,136,33309,1,0,3:2:0:0:
203,364,33475,2,0,P|160:374|116:363,1,90,10|0,0:0|0:0,0:0:0:0:
8,136,33809,6,0,B|124:104|124:104|188:152,1,180,6|8,3:2|0:0,0:0:0:0:
312,324,34309,1,0,0:0:0:0:
289,76,34475,2,0,L|278:165,1,90,6|0,3:2|0:0,0:0:0:0:
118,316,34809,2,0,L|107:227,1,90,10|2,0:0|0:0,0:0:0:0:
304,60,35142,5,4,3:2:0:0:
42,135,35309,1,2,0:0:0:0:
304,236,35475,1,10,0:0:0:0:
151,0,35642,2,0,L|162:89,1,90,2|0,0:0|0:0,0:0:0:0:
404,172,35975,5,2,3:2:0:0:
142,273,36142,1,10,0:0:0:0:
295,37,36309,2,0,L|284:126,1,90,2|0,0:0|3:2,0:0:0:0:
42,209,36642,5,2,3:2:0:0:
308,300,36809,1,10,0:0:0:0:
151,74,36975,2,0,L|162:163,1,90,2|0,0:0|0:0,0:0:0:0:
404,256,37309,5,2,3:2:0:0:
142,347,37475,1,10,0:0:0:0:
272,108,37642,1,2,0:0:0:0:
352,376,37809,6,0,P|309:386|265:375,1,90,6|0,3:2|0:0,0:0:0:0:
76,244,38142,2,0,P|119:254|163:243,1,90,10|0,0:0|0:0,0:0:0:0:
372,136,38475,1,2,0:0:0:0:
104,76,38642,2,0,L|115:165,1,90,2|8,3:2|0:0,0:0:0:0:
312,360,38975,6,0,L|323:271,1,90,2|0,0:0|3:2,0:0:0:0:
208,56,39309,1,2,3:2:0:0:
208,56,39392,1,2,0:0:0:0:
208,56,39475,2,0,L|219:145,1,90,8|0,0:0|0:0,0:0:0:0:
416,280,39809,2,0,P|459:290|503:279,1,90,2|0,0:0|3:2,0:0:0:0:
392,72,40142,2,0,P|349:62|305:73,1,90,10|0,0:0|3:2,0:0:0:0:
184,312,40475,6,0,B|140:324|140:324|96:312,1,90,6|0,3:2|0:0,0:0:0:0:
36,60,40809,1,10,0:0:0:0:
236,228,40975,1,2,0:0:0:0:
52,44,41142,2,0,L|63:133,1,90,2|0,0:0|3:2,0:0:0:0:
252,0,41475,2,0,L|241:89,1,90,10|0,0:0|0:0,0:0:0:0:
344,300,41809,6,0,B|388:312|388:312|432:300,1,90,2|0,3:2|3:2,0:0:0:0:
484,64,42142,1,10,0:0:0:0:
284,224,42309,1,2,0:0:0:0:
476,44,42475,1,2,0:0:0:0:
436,308,42642,1,2,3:2:0:0:
436,308,42725,1,2,0:0:0:0:
436,308,42809,2,0,L|428:208,1,90,10|0,0:0|0:0,0:0:0:0:
296,20,43142,6,0,P|253:10|209:21,1,90,6|0,3:2|0:0,0:0:0:0:
24,160,43475,2,0,P|67:150|111:161,1,90,10|0,0:0|0:0,0:0:0:0:
264,376,43809,1,2,0:0:0:0:
64,248,43975,1,0,3:2:0:0:
320,192,44142,2,0,L|312:292,1,90,10|0,0:0|3:2,0:0:0:0:
124,112,44475,5,6,3:2:0:0:
264,376,44642,1,10,0:0:0:0:
368,104,44809,1,10,0:0:0:0:
88,344,44975,5,6,0:0:0:0:
396,268,45142,1,10,0:0:0:0:
108,128,45309,1,10,0:0:0:0:
264,376,45475,2,0,L|256:276,1,90,6|8,0:0|0:0,0:0:0:0:
240,108,45809,5,6,0:0:0:0:
300,84,68437,6,0,L|292:184,1,90,6|0,3:2|0:0,0:0:0:0:
136,348,68770,2,0,L|128:244,1,90,10|0,0:0|0:0,0:0:0:0:
136,0,69103,1,2,0:0:0:0:
276,188,69270,1,0,3:2:0:0:
24,92,69437,2,0,P|67:82|111:93,1,90,10|0,0:0|0:0,0:0:0:0:
288,296,69770,5,2,3:2:0:0:
215,46,69937,2,0,L|207:146,1,90,2|8,0:0|0:0,0:0:0:0:
396,296,70270,2,0,L|388:196,1,90,2|0,0:0|0:0,0:0:0:0:
166,216,70603,1,2,3:2:0:0:
166,216,70687,1,2,0:0:0:0:
166,216,70770,2,0,P|209:226|253:215,1,90,10|0,0:0|0:0,0:0:0:0:
456,24,71103,5,2,3:2:0:0:
208,136,71270,1,0,0:0:0:0:
472,8,71437,2,0,L|464:108,1,90,10|0,0:0|0:0,0:0:0:0:
396,336,71770,1,2,0:0:0:0:
294,134,71937,2,0,P|251:124|207:135,1,90,2|8,3:2|0:0,0:0:0:0:
76,356,72270,6,0,B|143:348|143:348|182:367|182:367|254:358,1,180,2|2,0:0|0:0,0:0:0:0:
316,308,72687,1,2,0:0:0:0:
316,308,72770,2,0,B|328:265|328:265|316:221,1,90,8|0,0:0|0:0,0:0:0:0:
112,20,73103,1,2,0:0:0:0:
200,236,73270,1,0,3:2:0:0:
304,32,73437,2,0,L|404:24,1,90,10|0,0:0|0:0,0:0:0:0:
504,308,73770,6,0,P|461:318|417:307,1,90,6|0,3:2|0:0,0:0:0:0:
273,145,74103,2,0,P|303:178|315:221,1,90,10|0,0:0|0:0,0:0:0:0:
96,348,74437,1,2,0:0:0:0:
172,124,74603,1,0,3:2:0:0:
288,348,74770,2,0,P|331:358|375:347,1,90,10|0,0:0|0:0,0:0:0:0:
392,100,75103,5,2,3:2:0:0:
208,264,75270,2,0,L|116:252,1,90,2|8,0:0|0:0,0:0:0:0:
20,56,75603,2,0,L|112:44,1,90,2|0,0:0|0:0,0:0:0:0:
296,180,75936,1,2,3:2:0:0:
296,180,76020,1,2,0:0:0:0:
296,180,76103,2,0,L|204:168,1,90,10|0,0:0|0:0,0:0:0:0:
88,376,76436,5,2,3:2:0:0:
336,276,76603,1,0,0:0:0:0:
100,156,76770,2,0,P|89:199|99:243,1,90,10|0,0:0|0:0,0:0:0:0:
384,204,77103,1,2,0:0:0:0:
180,40,77270,2,0,L|192:132,1,90,2|8,3:2|0:0,0:0:0:0:
324,365,77603,6,0,L|336:273,1,90,2|0,0:0|3:2,0:0:0:0:
448,28,77936,1,2,0:0:0:0:
496,296,78103,1,10,0:0:0:0:
278,130,78270,2,0,P|235:119|191:129,1,90,2|0,0:0|3:2,0:0:0:0:
120,372,78603,1,2,3:2:0:0:
344,256,78770,1,10,0:0:0:0:
88,172,78936,1,2,0:0:0:0:
324,365,79103,6,0,B|367:377|367:377|411:365,1,90,6|0,3:2|0:0,0:0:0:0:
512,152,79436,2,0,B|469:140|469:140|425:152,1,90,10|0,0:0|0:0,0:0:0:0:
236,320,79770,1,2,0:0:0:0:
292,76,79936,1,0,3:2:0:0:
422,275,80103,2,0,L|410:364,1,90,10|0,0:0|0:0,0:0:0:0:
252,160,80436,5,2,3:2:0:0:
160,376,80603,2,0,P|117:387|73:377,1,90,2|8,0:0|0:0,0:0:0:0:
0,149,80936,2,0,P|43:138|87:148,1,90,2|0,0:0|0:0,0:0:0:0:
256,320,81270,1,2,3:2:0:0:
256,320,81353,1,2,0:0:0:0:
256,320,81436,2,0,P|299:331|343:321,1,90,8|0,0:0|0:0,0:0:0:0:
500,108,81770,5,2,3:2:0:0:
300,244,81936,1,0,0:0:0:0:
372,0,82103,2,0,L|384:89,1,90,10|0,0:0|0:0,0:0:0:0:
342,321,82436,1,2,0:0:0:0:
240,76,82603,2,0,L|228:165,1,90,2|8,3:2|0:0,0:0:0:0:
92,368,82936,6,0,B|36:328|36:328|68:216,1,180,2|2,0:0|0:0,0:0:0:0:
21,146,83353,1,2,0:0:0:0:
21,146,83436,2,0,P|64:135|108:145,1,90,8|0,0:0|0:0,0:0:0:0:
248,336,83770,1,2,0:0:0:0:
276,96,83936,1,0,3:2:0:0:
66,221,84103,2,0,P|55:264|65:308,1,90,8|0,0:0|0:0,0:0:0:0:
352,248,84436,6,0,L|263:236,1,90,6|0,3:2|0:0,0:0:0:0:
104,56,84770,2,0,L|193:44,1,90,10|0,0:0|0:0,0:0:0:0:
472,112,85103,1,2,0:0:0:0:
262,236,85270,1,0,3:2:0:0:
380,0,85436,2,0,P|391:43|381:87,1,90,10|0,0:0|0:0,0:0:0:0:
288,328,85770,5,2,3:2:0:0:
184,80,85936,2,0,L|172:169,1,90,2|8,0:0|0:0,0:0:0:0:
408,300,86270,2,0,L|396:211,1,90,2|0,0:0|0:0,0:0:0:0:
132,248,86603,1,2,3:2:0:0:
132,248,86686,1,2,0:0:0:0:
132,248,86770,2,0,P|175:258|219:247,1,90,8|0,0:0|0:0,0:0:0:0:
408,96,87103,5,2,3:2:0:0:
288,328,87270,1,0,0:0:0:0:
196,92,87436,2,0,L|208:3,1,90,10|0,0:0|0:0,0:0:0:0:
448,196,87770,5,2,0:0:0:0:
176,288,87936,2,0,P|133:298|89:287,1,90,2|8,3:2|0:0,0:0:0:0:
8,24,88270,2,0,P|51:14|95:25,1,90,2|0,0:0|3:2,0:0:0:0:
276,252,88603,1,2,0:0:0:0:
236,0,88770,1,10,0:0:0:0:
77,197,88936,2,0,L|89:286,1,90,2|0,0:0|3:2,0:0:0:0:
352,200,89270,1,2,3:2:0:0:
120,116,89436,2,0,P|77:105|33:116,1,90,10|2,0:0|0:0,0:0:0:0:
208,384,89770,5,6,3:2:0:0:
288,136,89936,1,0,0:0:0:0:
72,264,90103,1,10,0:0:0:0:
340,344,90270,1,0,0:0:0:0:
208,128,90436,1,2,0:0:0:0:
108,364,90603,1,0,3:2:0:0:
356,252,90770,1,10,0:0:0:0:
96,160,90936,1,0,0:0:0:0:
260,384,91103,5,2,3:2:0:0:
324,112,91270,1,0,0:0:0:0:
191,337,91436,1,10,0:0:0:0:
144,80,91603,1,0,0:0:0:0:
264,299,91770,1,2,0:0:0:0:
328,24,91936,1,0,3:2:0:0:
200,252,92103,1,10,0:0:0:0:
120,0,92270,1,0,0:0:0:0:
344,252,92436,5,2,3:2:0:0:
56,160,92603,1,0,0:0:0:0:
344,40,92770,1,10,0:0:0:0:
184,284,92936,1,0,0:0:0:0:
120,0,93103,1,2,0:0:0:0:
376,168,93270,1,0,3:2:0:0:
88,256,93436,1,10,0:0:0:0:
248,0,93603,1,0,0:0:0:0:
312,312,93770,5,2,3:2:0:0:
180,56,93936,1,0,0:0:0:0:
232,360,94103,1,10,0:0:0:0:
344,80,94270,1,0,0:0:0:0:
88,256,94436,5,2,0:0:0:0:
432,200,94603,1,2,3:2:0:0:
96,120,94770,1,8,0:0:0:0:
369,295,94936,1,2,0:0:0:0:
248,12,95103,6,0,L|236:101,1,90,6|0,3:2|0:0,0:0:0:0:
132,368,95436,1,10,0:0:0:0:
8,136,95603,1,0,0:0:0:0:
276,236,95770,1,2,0:0:0:0:
20,344,95936,1,0,3:2:0:0:
112,80,96103,1,10,0:0:0:0:
224,336,96270,1,0,0:0:0:0:
272,32,96436,6,0,L|284:121,1,90,2|0,3:2|0:0,0:0:0:0:
396,368,96770,1,10,0:0:0:0:
484,112,96936,1,0,0:0:0:0:
228,224,97103,1,2,0:0:0:0:
496,324,97270,1,0,3:2:0:0:
384,72,97436,1,10,0:0:0:0:
296,336,97603,1,0,0:0:0:0:
188,80,97770,6,0,B|145:68|145:68|101:80,1,90,2|0,3:2|0:0,0:0:0:0:
32,336,98103,2,0,B|75:348|75:348|119:336,1,90,10|0,0:0|0:0,0:0:0:0:
308,108,98436,1,2,0:0:0:0:
212,364,98603,1,2,3:2:0:0:
88,100,98770,1,8,0:0:0:0:
320,296,98936,1,2,0:0:0:0:
176,16,99103,5,0,3:2:0:0:
128,312,99270,1,2,0:0:0:0:
260,32,99436,1,10,0:0:0:0:
340,316,99603,1,0,0:0:0:0:
176,104,99770,1,2,3:2:0:0:
260,352,99936,1,0,0:0:0:0:
348,84,100103,1,10,0:0:0:0:
212,276,100270,1,2,0:0:0:0:
124,0,100436,5,6,0:0:0:0:
320,228,105603,5,10,3:2:0:0:
320,228,105686,1,2,0:0:0:0:
320,228,105770,1,10,0:0:0:0:
184,26,105936,2,0,P|141:15|97:24,1,90,10|0,0:0|0:0,0:0:0:0:
152,272,106270,1,10,0:0:0:0:
280,64,106436,2,0,P|323:54|367:65,1,90,10|0,0:0|0:0,0:0:0:0:
352,328,106770,5,10,0:0:0:0:
196,124,106936,2,0,P|153:114|109:125,1,90,10|0,0:0|0:0,0:0:0:0:
168,376,107270,1,10,0:0:0:0:
292,168,107436,2,0,P|335:158|379:169,1,90,10|0,0:0|0:0,0:0:0:0:
264,360,107770,2,0,P|234:327|222:284,1,90,10|0,0:0|0:0,0:0:0:0:
445,289,108103,2,0,P|432:332|401:363,1,90,10|0,0:0|0:0,0:0:0:0:
168,84,108436,5,14,0:0:0:0:
428,184,108603,1,10,0:0:0:0:
160,272,108770,1,2,0:0:0:0:
452,60,108936,5,14,0:0:0:0:
324,320,109103,1,10,0:0:0:0:
244,32,109270,1,2,0:0:0:0:
432,312,109436,5,14,0:0:0:0:
160,180,109603,1,10,0:0:0:0:
440,84,109770,1,2,0:0:0:0:
196,344,109936,5,14,0:0:0:0:
328,72,110103,1,10,0:0:0:0:
372,372,110270,1,2,0:0:0:0:
192,52,110436,5,14,0:0:0:0:
288,328,110603,1,2,0:0:0:0:
424,68,110770,5,14,0:0:0:0:
304,312,110936,1,10,0:0:0:0:
176,36,111103,5,14,0:0:0:0:
256,192,111188,12,0,114027,0:0:0:0:
492,68,114562,6,0,B|425:41|372:100|372:100|328:40|250:64,1,270.000010299683,2|2,0:0|0:0,0:0:0:0:
15,94,116860,6,0,B|100:31|195:94|148:139|248:211|331:134|331:134|307:65|244:63,1,472.500018024445,2|0,0:0|0:0,0:0:0:0:
80,172,119163,6,0,B|16:260|88:332|88:332|140:308|132:252,1,270.000010299683,2|2,0:0|0:0,0:0:0:0:
388,16,121460,6,0,B|463:51|464:170|357:212|284:161|276:96|276:96|239:119|192:116|156:89|156:89|121:63|76:67|44:95,1,576,2|0,0:0|0:0,0:0:0:0:
164,312,124326,6,0,B|145:336|110:345|70:326|60:280|88:244|88:244|126:201|202:190|265:245|264:315,1,409.499981254578,2|0,0:0|0:0,0:0:0:0:
497,291,126660,6,0,B|480:376|383:365|383:365|336:283|391:206|432:262|487:190|440:108,1,450.225000686989,2|0,0:0|0:0,0:0:0:0:
229,235,129189,6,0,B|208:275|218:320|218:320|153:124|2:305|-90:63|55:-50|148:24|168:57|168:57|181:20|239:-74|419:53|312:132|273:180,1,933.075012813835,2|0,0:0|0:0,0:0:0:0:
