osu file format v14

[General]
AudioFilename: DM DOKURO - SAVE (Encore).mp3
AudioLeadIn: 2000
PreviewTime: 2316
Countdown: 0
SampleSet: Soft
StackLeniency: 0.6
Mode: 0
LetterboxInBreaks: 0
EpilepsyWarning: 1
WidescreenStoryboard: 1

[Editor]
DistanceSpacing: 1.4
BeatDivisor: 4
GridSize: 4
TimelineZoom: 1

[Metadata]
Title:SAVE (Encore)
TitleUnicode:SAVE (Encore)
Artist:DM DOKURO
ArtistUnicode:DM DOKURO
Creator:Kaitjuh
Version:Hard
Source:UNDERTALE
Tags:toby fox Last Goodbye SAVE the World Hopes and Dreams undertale underground radio koopa712 bladesofsteel -Harpuia- ChronoNig
BeatmapID:918456
BeatmapSetID:419963

[Difficulty]
HPDrainRate:6
CircleSize:4
OverallDifficulty:6
ApproachRate:8
SliderMultiplier:1.4
SliderTickRate:1

[Events]
//Background and Video events
0,0,"bg.png",0,0
//Break Periods
2,111296,113804
2,121677,123611
//Storyboard Layer 0 (Background)
//Storyboard Layer 1 (Fail)
//Storyboard Layer 2 (Pass)
//Storyboard Layer 3 (Foreground)
//Storyboard Sound Samples

[TimingPoints]
-2183,333.333333333333,4,2,0,20,1,0
3149,-125,4,1,0,50,0,0
45816,706.713780918728,4,2,2,30,1,0
68430,333.333333333333,4,1,0,50,1,0
68430,-125,4,1,0,60,0,1
100429,-200,4,2,0,40,0,0
105596,-125,4,1,0,60,0,0
111096,517.241379310345,4,2,0,40,1,0
111096,-200,4,2,0,40,0,0
112906,545.454545454546,4,2,0,30,1,0
114554,576.923076923077,4,2,2,20,1,0
114554,-200,4,2,2,20,0,0
134169,-100,4,2,2,5,0,0

[Colours]
Combo1 : 253,234,0
Combo2 : 0,141,166
Combo3 : 174,0,0
Combo4 : 29,139,1

[HitObjects]
256,192,483,12,0,2816,0:0:0:0:
92,120,3150,6,2,P|140:84|212:80,1,112,6|8,0:0|0:0,0:0:0:0:
268,72,3650,1,0,0:0:0:0:
348,72,3816,2,0,L|420:72,1,56,0|0,0:0|0:0,0:0:0:0:
380,148,4150,2,0,L|445:178,1,56,8|0,0:0|0:0,0:0:0:0:
380,232,4483,6,0,L|426:287,1,56,2|0,0:0|0:0,0:0:0:0:
356,328,4816,2,0,L|309:272,1,56,8|0,0:0|0:0,0:0:0:0:
244,256,5150,1,0,0:0:0:0:
304,208,5316,1,0,0:0:0:0:
232,180,5483,1,8,0:0:0:0:
172,232,5650,6,2,P|128:240|64:196,1,112,2|0,0:0|0:0,0:0:0:0:
132,60,6150,1,8,0:0:0:0:
108,136,6316,1,0,0:0:0:0:
184,116,6483,2,2,P|268:108|312:176,1,168
320,208,7066,1,0,0:0:0:0:
308,244,7150,6,0,L|240:280,1,56,2|0,0:0|0:0,0:0:0:0:
204,324,7483,2,0,L|136:360,1,56,8|0,0:0|0:0,0:0:0:0:
184,248,7816,2,0,L|116:284,1,56,0|0,0:0|0:0,0:0:0:0:
240,192,8150,1,8,0:0:0:0:
180,140,8316,1,0,0:0:0:0:
180,140,8400,1,0,0:0:0:0:
180,140,8483,6,2,P|216:116|300:144,1,112,2|8,0:0|0:0,0:0:0:0:
348,164,8983,1,0,0:0:0:0:
384,236,9150,2,0,L|460:240,1,56,0|0,0:0|0:0,0:0:0:0:
412,312,9483,2,0,L|488:316,1,56,8|0,0:0|0:0,0:0:0:0:
332,300,9816,6,0,L|256:296,1,56,2|0,0:0|0:0,0:0:0:0:
304,224,10149,2,0,L|228:220,1,56,8|0,0:0|0:0,0:0:0:0:
200,284,10483,2,0,L|148:344,2,56,0|0|8,0:0|0:0|0:0,0:0:0:0:
140,236,10983,1,0,0:0:0:0:
140,236,11150,6,0,L|84:189,1,56,2|0,0:0|0:0,0:0:0:0:
161,156,11483,2,0,L|130:90,1,56,8|0,0:0|0:0,0:0:0:0:
212,88,11816,2,0,L|212:16,1,56,0|0,0:0|0:0,0:0:0:0:
288,12,12150,2,0,L|288:84,1,56,8|0,0:0|0:0,0:0:0:0:
276,148,12483,6,0,P|256:180|256:212,2,56,2|0|8,0:0|0:0|0:0,0:0:0:0:
348,120,12983,1,0,0:0:0:0:
420,88,13150,2,0,P|440:56|440:24,2,56,0|0|8,0:0|0:0|0:0,0:0:0:0:
416,168,13650,1,0,0:0:0:0:
416,168,13733,1,0,0:0:0:0:
416,168,13816,6,2,B|416:204|416:204|384:232|372:288,1,112,6|8,0:0|0:0,0:0:0:0:
316,320,14316,1,0,0:0:0:0:
236,312,14483,2,0,L|164:312,1,56,0|0,0:0|0:0,0:0:0:0:
172,232,14816,2,0,L|106:201,1,56,8|0,0:0|0:0,0:0:0:0:
148,132,15150,6,0,L|101:76,1,56,2|0,0:0|0:0,0:0:0:0:
172,36,15483,2,0,L|207:78,1,56,8|0,0:0|0:0,0:0:0:0:
228,156,15816,1,0,0:0:0:0:
284,100,15983,1,0,0:0:0:0:
304,176,16150,1,8,0:0:0:0:
364,124,16316,1,0,0:0:0:0:
364,124,16483,6,0,P|380:159|377:195,1,56,2|0,0:0|0:0,0:0:0:0:
321,227,16816,2,0,P|304:191|307:155,1,56,8|0,0:0|0:0,0:0:0:0:
392,252,17150,2,2,P|352:300|256:268,1,168
232,248,17733,1,0,0:0:0:0:
208,220,17816,6,0,P|174:195|138:187,1,56,2|0,0:0|0:0,0:0:0:0:
196,120,18150,2,0,P|154:112|119:119,1,56,8|0,0:0|0:0,0:0:0:0:
140,36,18483,2,0,P|99:46|70:68,1,56
64,128,18816,1,8,0:0:0:0:
64,208,18983,1,0,0:0:0:0:
64,208,19066,1,0,0:0:0:0:
64,208,19150,6,2,P|72:264|120:300,1,112,2|8,0:0|0:0,0:0:0:0:
140,224,19650,1,0,0:0:0:0:
140,224,19816,2,0,L|216:196,1,56,0|0,0:0|0:0,0:0:0:0:
244,264,20150,2,0,L|168:292,1,56,8|0,0:0|0:0,0:0:0:0:
268,192,20483,6,0,P|256:160|224:136,2,56,2|0|8,0:0|0:0|0:0,0:0:0:0:
324,252,20983,1,0,0:0:0:0:
384,308,21150,2,0,P|396:340|428:364,2,56,0|0|8,0:0|0:0|0:0,0:0:0:0:
400,232,21650,1,0,0:0:0:0:
472,200,21816,6,0,P|480:176|472:140,1,56,2|0,0:0|0:0,0:0:0:0:
400,120,22150,1,8,0:0:0:0:
464,68,22316,1,0,0:0:0:0:
464,68,22483,2,0,P|492:36|500:12,2,56,0|0|8,0:0|0:0|0:0,0:0:0:0:
400,120,22983,2,2,P|348:128|280:124,1,112,2|0,0:0|0:0,0:0:0:0:
212,124,23483,6,0,L|152:164,1,56,8|0,0:0|0:0,0:0:0:0:
220,212,23816,2,0,L|205:282,1,56,0|0,0:0|0:0,0:0:0:0:
136,292,24150,2,0,P|160:328|184:344,1,56,8|0,0:0|0:0,0:0:0:0:
248,348,24483,6,2,B|292:336|292:336|336:348|376:328|392:288,1,168,6|0,0:0|0:0,0:0:0:0:
464,200,25150,2,0,B|420:212|420:212|376:200|336:220|320:260,1,168
240,264,25816,6,0,L|176:232,1,56,2|0,0:0|0:0,0:0:0:0:
260,188,26150,2,0,L|215:131,1,56,8|0,0:0|0:0,0:0:0:0:
306,89,26483,2,0,L|320:144,2,56,0|0|8,0:0|0:0|0:0,0:0:0:0:
236,52,26983,1,0,0:0:0:0:
236,52,27150,6,2,P|148:96|132:184,1,168,2|0,0:0|0:0,0:0:0:0:
168,232,27816,1,0,0:0:0:0:
88,312,28150,1,8,0:0:0:0:
88,312,28316,6,2,L|164:308,1,56,2|0,0:0|0:0,0:0:0:0:
168,232,28650,2,0,L|92:236,1,56,0|8,0:0|0:0,0:0:0:0:
220,292,28983,2,0,P|280:288|352:260,1,112,0|0,0:0|0:0,0:0:0:0:
352,260,29400,1,0,0:0:0:0:
376,244,29483,1,8,0:0:0:0:
428,184,29650,1,0,0:0:0:0:
428,184,29816,6,2,P|480:148|488:80,1,112,2|8,0:0|0:0,0:0:0:0:
412,108,30316,1,0,0:0:0:0:
396,32,30483,2,0,P|344:68|336:136,1,112,0|8,0:0|0:0,0:0:0:0:
228,232,31150,6,2,P|210:284|163:312,1,112,2|8,0:0|0:0,0:0:0:0:
147,236,31650,1,0,0:0:0:0:
66,240,31816,2,0,P|84:188|100:176,1,56,0|0,0:0|0:0,0:0:0:0:
104,168,32066,1,0,0:0:0:0:
128,160,32150,1,8,0:0:0:0:
204,136,32316,1,0,0:0:0:0:
204,136,32483,6,0,L|268:112,1,56,2|0,0:0|0:0,0:0:0:0:
268,188,32816,2,0,L|336:193,1,56,8|0,0:0|0:0,0:0:0:0:
296,264,33150,2,0,L|355:297,1,56,0|0,0:0|0:0,0:0:0:0:
272,336,33483,2,0,L|311:391,1,56,8|0,0:0|0:0,0:0:0:0:
220,280,33816,6,2,P|156:312|92:304,1,112,2|8,0:0|0:0,0:0:0:0:
52,272,34316,1,0,0:0:0:0:
16,200,34483,2,2,P|52:148|116:120,1,112,2|8,0:0|0:0,0:0:0:0:
236,60,35150,5,6,0:0:0:0:
236,60,35316,2,0,L|304:27,2,56,0|8|0,0:0|0:0|0:0,0:0:0:0:
332,184,35983,2,0,L|408:184,2,56,0|8|0,0:0|0:0|0:0,0:0:0:0:
236,308,36650,6,0,L|304:333,2,56,0|8|0,0:0|0:0|0:0,0:0:0:0:
96,240,37316,2,0,L|27:214,1,56,0|8,0:0|0:0,0:0:0:0:
0,156,37650,1,0,0:0:0:0:
76,148,37816,6,2,P|140:144|196:120,1,112,2|8,0:0|0:0,0:0:0:0:
256,96,38316,1,0,0:0:0:0:
324,60,38483,2,0,P|359:33|396:24,2,56,0|0|8,0:0|0:0|0:0,0:0:0:0:
324,140,38983,6,2,P|332:184|364:244,1,112,2|0,0:0|0:0,0:0:0:0:
363,243,39399,1,0,0:0:0:0:
363,243,39483,1,8,0:0:0:0:
340,320,39650,1,0,0:0:0:0:
340,320,39816,2,0,P|296:328|260:320,1,56
228,260,40150,2,0,P|272:252|308:260,1,56,8|0,0:0|0:0,0:0:0:0:
200,344,40483,6,2,B|128:340|128:340|72:304,1,112,2|8,0:0|0:0,0:0:0:0:
152,268,40983,1,0,0:0:0:0:
76,248,41150,2,0,B|108:204|108:204|176:184,1,112,0|8,0:0|0:0,0:0:0:0:
320,180,41816,6,2,B|380:212|380:212|432:196,1,112,2|8,0:0|0:0,0:0:0:0:
388,128,42316,1,0,0:0:0:0:
444,72,42483,2,0,P|418:53|391:48,1,56,0|0,0:0|0:0,0:0:0:0:
368,48,42733,1,0,0:0:0:0:
344,60,42816,1,8,0:0:0:0:
280,104,42983,1,0,0:0:0:0:
280,104,43150,6,0,P|252:88|228:52,1,56,2|0,0:0|0:0,0:0:0:0:
288,176,43483,2,0,P|255:173|218:150,1,56,8|0,0:0|0:0,0:0:0:0:
320,240,43816,2,0,P|289:251|246:246,1,56,0|0,0:0|0:0,0:0:0:0:
376,284,44150,2,0,P|353:306|312:320,1,56,8|0,0:0|0:0,0:0:0:0:
248,336,44483,5,6,0:0:0:0:
248,336,44650,1,0,0:0:0:0:
188,288,44816,1,8,0:0:0:0:
188,288,44983,1,6,0:0:0:0:
168,212,45150,1,0,0:0:0:0:
168,212,45316,1,0,0:0:0:0:
140,136,45483,2,6,L|84:116,2,56,14|2|6,0:0|0:0|0:0,0:0:0:0:
332,100,46522,6,0,P|360:136|364:176,1,70,2|0,0:0|0:0,0:0:0:0:
304,236,47229,2,0,P|276:200|272:160,1,70,2|0,0:0|0:0,0:0:0:0:
228,88,47936,1,2,0:0:0:0:
184,108,48289,1,2,0:0:0:0:
140,128,48642,6,0,P|92:200|92:256,1,140,2|0,0:0|0:0,0:0:0:0:
156,332,49702,1,2,0:0:0:0:
156,332,50056,2,0,P|204:260|204:204,1,140,2|0,0:0|0:0,0:0:0:0:
236,116,51116,1,0,0:0:0:0:
236,116,51469,6,0,P|260:80|304:48,1,70,2|0,0:0|0:0,0:0:0:0:
376,84,52176,2,0,P|352:120|308:152,1,70
264,208,52883,2,0,P|292:228|344:232,1,70,2|0,0:0|0:0,0:0:0:0:
424,232,53590,2,0,P|416:272|380:316,2,70,2|0|2,0:0|0:0|0:0,0:0:0:0:
424,232,55003,5,2,0:0:0:0:
368,44,55709,1,0,0:0:0:0:
188,124,56416,1,0,0:0:0:0:
148,216,56770,1,0,0:0:0:0:
212,288,57123,6,0,P|280:300|340:256,1,140,2|2,0:0|0:0,0:0:0:0:
260,200,58183,1,2,0:0:0:0:
188,124,58536,2,0,P|228:96|264:96,1,70,2|0,0:0|0:0,0:0:0:0:
324,32,59243,2,0,P|346:71|343:114,1,70,0|0,0:0|0:0,0:0:0:0:
328,192,59950,5,2,0:0:0:0:
232,216,60303,1,0,0:0:0:0:
176,296,60656,1,2,0:0:0:0:
176,296,61363,2,0,P|136:240|144:168,1,140,0|0,0:0|0:0,0:0:0:0:
160,76,62423,5,0,0:0:0:0:
160,76,62777,2,0,P|192:56|248:48,1,70,2|0,0:0|0:0,0:0:0:0:
300,112,63483,2,0,P|268:132|212:140,1,70,0|0,0:0|0:0,0:0:0:0:
142,171,64190,2,0,P|107:165|68:146,2,70,2|0|0,0:0|0:0|0:0,0:0:0:0:
264,260,65427,1,2,0:0:0:0:
264,260,65603,1,0,0:0:0:0:
256,192,65957,12,0,67724,0:0:0:0:
288,280,68430,6,0,B|352:288|384:216,1,112,6|8,0:0|0:0,0:0:0:0:
400,72,69096,2,0,B|336:64|304:136,1,112,0|8,0:0|0:0,0:0:0:0:
244,168,69596,1,0,0:0:0:0:
244,168,69763,6,0,P|264:188|312:200,2,56,2|0|8,0:0|0:0|0:0,0:0:0:0:
184,116,70263,2,0,P|136:84|64:96,1,112,0|0,0:0|0:0,0:0:0:0:
56,100,70680,1,0,0:0:0:0:
36,120,70763,2,0,L|8:184,1,56,8|0,0:0|0:0,0:0:0:0:
60,236,71096,6,0,L|100:300,1,56,2|0,0:0|0:0,0:0:0:0:
168,276,71430,2,0,L|208:340,1,56,8|0,0:0|0:0,0:0:0:0:
264,368,71763,1,0,0:0:0:0:
331,329,71930,1,0,0:0:0:0:
265,285,72096,1,8,0:0:0:0:
336,252,72263,6,2,P|375:216|400:148,1,112,2|0,0:0|0:0,0:0:0:0:
412,136,72680,1,0,0:0:0:0:
412,136,72763,2,0,L|340:136,1,56,8|0,0:0|0:0,0:0:0:0:
300,64,73096,2,0,L|372:64,1,56,0|0,0:0|0:0,0:0:0:0:
272,148,73430,2,0,L|200:148,1,56,8|0,0:0|0:0,0:0:0:0:
156,96,73763,6,2,P|136:148|168:208,1,112,2|8,0:0|0:0,0:0:0:0:
232,224,74263,1,0,0:0:0:0:
172,276,74430,2,0,P|192:296|236:304,1,56
292,280,74763,2,0,P|304:260|312:224,1,56,8|0,0:0|0:0,0:0:0:0:
288,156,75096,6,0,L|244:92,1,56,2|0,0:0|0:0,0:0:0:0:
212,44,75430,1,8,0:0:0:0:
212,44,75596,2,0,P|180:88|196:156,1,112
204,168,76013,1,0,0:0:0:0:
216,196,76096,2,0,L|228:256,1,56,8|0,0:0|0:0,0:0:0:0:
308,256,76429,6,2,B|352:260|352:260|424:236,1,112,2|8,0:0|0:0,0:0:0:0:
420,160,76929,1,0,0:0:0:0:
452,88,77096,2,0,L|512:68,2,56,0|0|8,0:0|0:0|0:0,0:0:0:0:
372,96,77596,6,2,P|324:104|248:92,1,112,2|0,0:0|0:0,0:0:0:0:
184,100,78096,2,0,L|204:156,1,56,8|0,0:0|0:0,0:0:0:0:
156,244,78429,2,0,L|136:188,1,56,0|0,0:0|0:0,0:0:0:0:
228,224,78763,2,0,L|248:280,1,56,8|0,0:0|0:0,0:0:0:0:
172,336,79096,6,2,P|228:372|288:364,1,112,6|8,0:0|0:0,0:0:0:0:
340,336,79596,1,0,0:0:0:0:
408,292,79763,2,0,L|472:264,1,56
412,208,80096,2,0,L|476:180,1,56,8|0,0:0|0:0,0:0:0:0:
472,108,80429,5,2,0:0:0:0:
396,112,80596,1,0,0:0:0:0:
428,40,80763,1,8,0:0:0:0:
428,40,80929,2,0,P|364:40|324:80,1,112
304,80,81346,1,0,0:0:0:0:
272,88,81429,2,0,L|212:120,1,56,8|0,0:0|0:0,0:0:0:0:
144,108,81763,6,0,P|148:140|172:176,1,56,2|0,0:0|0:0,0:0:0:0:
224,208,82096,2,0,P|188:231|154:241,1,56,8|0,0:0|0:0,0:0:0:0:
100,212,82429,1,0,0:0:0:0:
116,288,82596,1,0,0:0:0:0:
192,312,82763,1,8,0:0:0:0:
264,276,82929,6,2,P|308:252|344:188,1,112,2|0,0:0|0:0,0:0:0:0:
364,160,83346,1,0,0:0:0:0:
364,160,83429,2,0,L|396:96,1,56,8|0,0:0|0:0,0:0:0:0:
312,88,83763,2,0,L|313:16,1,56
236,52,84096,2,0,L|207:-14,1,56,8|0,0:0|0:0,0:0:0:0:
144,36,84429,6,2,B|115:57|115:57|112:104|76:124,1,112,2|8,0:0|0:0,0:0:0:0:
72,280,85096,2,0,B|100:258|100:258|104:212|140:192,1,112,0|8,0:0|0:0,0:0:0:0:
184,260,85596,1,0,0:0:0:0:
216,184,85763,6,0,P|212:160|184:128,2,56,2|0|8,0:0|0:0|0:0,0:0:0:0:
263,251,86263,2,0,P|320:256|376:224,1,112
388,216,86679,1,0,0:0:0:0:
408,196,86763,2,0,L|469:168,1,56,8|0,0:0|0:0,0:0:0:0:
476,92,87096,6,2,B|432:100|432:100|392:124|360:132,1,112,2|8,0:0|0:0,0:0:0:0:
304,168,87596,1,0,0:0:0:0:
300,92,87763,2,0,L|300:20,2,56,0|0|8,0:0|0:0|0:0,0:0:0:0:
232,132,88263,2,2,P|188:144|116:136,1,112,2|0,0:0|0:0,0:0:0:0:
72,200,88763,6,0,L|72:268,1,56,8|0,0:0|0:0,0:0:0:0:
144,292,89096,2,0,L|144:224,1,56
216,268,89429,2,0,L|216:336,1,56,8|0,0:0|0:0,0:0:0:0:
296,308,89763,5,6,0:0:0:0:
296,308,89929,2,0,L|352:348,2,56,0|8|0,0:0|0:0|0:0,0:0:0:0:
344,244,90429,5,0,0:0:0:0:
344,244,90595,2,0,L|411:256,2,56,0|8|0,0:0|0:0|0:0,0:0:0:0:
356,168,91096,5,2,0:0:0:0:
356,168,91262,2,0,L|422:150,2,56,0|8|0,0:0|0:0|0:0,0:0:0:0:
328,96,91763,5,0,0:0:0:0:
328,96,91929,2,0,L|381:52,2,56,0|8|0,0:0|0:0|0:0,0:0:0:0:
272,152,92429,6,0,L|218:195,1,56,2|0,0:0|0:0,0:0:0:0:
180,124,92763,2,0,L|150:186,1,56,8|0,0:0|0:0,0:0:0:0:
84,140,93096,2,0,L|83:208,1,56,0|0,0:0|0:0,0:0:0:0:
4,192,93429,2,0,L|32:254,1,56,8|0,0:0|0:0,0:0:0:0:
88,296,93763,5,2,0:0:0:0:
88,296,93929,2,0,L|34:339,2,56,0|8|0,0:0|0:0|0:0,0:0:0:0:
168,288,94429,5,0,0:0:0:0:
223,343,94596,1,0,0:0:0:0:
278,288,94762,1,8,0:0:0:0:
223,232,94929,1,0,0:0:0:0:
300,212,95096,6,0,L|344:168,1,56,2|0,0:0|0:0,0:0:0:0:
280,120,95429,2,0,L|338:98,1,56,8|0,0:0|0:0,0:0:0:0:
308,28,95763,2,0,L|369:33,1,56,0|0,0:0|0:0,0:0:0:0:
412,96,96096,1,8,0:0:0:0:
412,96,96263,1,0,0:0:0:0:
452,164,96429,6,0,L|408:208,1,56,2|0,0:0|0:0,0:0:0:0:
472,256,96763,2,0,L|413:277,1,56,8|0,0:0|0:0,0:0:0:0:
444,348,97096,2,0,L|382:342,1,56,0|0,0:0|0:0,0:0:0:0:
340,280,97429,1,8,0:0:0:0:
340,280,97596,1,0,0:0:0:0:
256,248,97763,6,0,L|256:312,1,56,2|0,0:0|0:0,0:0:0:0:
200,192,98096,2,0,L|136:192,1,56,8|0,0:0|0:0,0:0:0:0:
256,136,98429,2,0,L|256:72,1,56,0|0,0:0|0:0,0:0:0:0:
312,192,98763,2,0,L|376:192,1,56,8|0,0:0|0:0,0:0:0:0:
256,304,99096,6,0,L|256:248,1,56,2|0,0:0|0:0,0:0:0:0:
144,192,99429,2,0,L|200:192,1,56,8|0,0:0|0:0,0:0:0:0:
256,80,99763,2,0,L|256:136,1,56,0|0,0:0|0:0,0:0:0:0:
368,192,100096,2,0,L|312:192,1,56,8|0,0:0|0:0,0:0:0:0:
256,304,100429,6,0,P|190:324|116:300,2,140,6|2|2,0:0|0:0|0:0,0:0:0:0:
188,180,102429,1,0,0:0:0:0:
268,64,103096,6,0,P|333:43|408:68,2,140,2|2|2,0:0|0:0|0:0,0:0:0:0:
336,188,105096,1,0,0:0:0:0:
184,188,105596,5,0,0:0:0:0:
184,188,105679,1,0,0:0:0:0:
184,188,105763,2,0,L|112:168,1,56,8|8,0:0|0:0,0:0:0:0:
200,100,106263,2,0,L|143:51,1,56,8|8,0:0|0:0,0:0:0:0:
312,100,106763,2,0,L|368:51,1,56,8|8,0:0|0:0,0:0:0:0:
328,188,107263,2,0,L|400:168,1,56,8|8,0:0|0:0,0:0:0:0:
316,272,107763,2,0,L|292:328,1,56,8|0,0:0|0:0,0:0:0:0:
200,272,108096,2,0,L|224:328,1,56,8|0,0:0|0:0,0:0:0:0:
112,324,108429,6,0,L|42:348,2,56,8|0|0,0:0|0:0|0:0,0:0:0:0:
112,248,108929,2,0,L|42:272,2,56,8|0|0,0:0|0:0|0:0,0:0:0:0:
136,180,109429,2,0,L|189:162,2,56,8|0|0,0:0|0:0|0:0,0:0:0:0:
112,112,109929,2,0,L|165:94,2,56,8|0|0,0:0|0:0|0:0,0:0:0:0:
224,48,110429,5,8,0:0:0:0:
328,88,110763,2,4,L|360:164,2,56,0|0|4,0:0|0:0|0:0,0:0:0:0:
136,128,114554,6,0,P|112:192|144:264,1,140,2|2,0:0|0:0,0:0:0:0:
136,256,116861,1,2,0:0:0:0:
375,256,119169,6,0,P|399:192|376:128,1,140,2|2,0:0|0:0,0:0:0:0:
376,128,121477,1,2,0:0:0:0:
256,192,124361,12,2,134169,0:0:0:0:
