osu file format v14

[General]
AudioFilename: DM DOKURO - SAVE (Encore).mp3
AudioLeadIn: 2000
PreviewTime: 2316
Countdown: 0
SampleSet: Soft
StackLeniency: 0.6
Mode: 0
LetterboxInBreaks: 0
EpilepsyWarning: 1
WidescreenStoryboard: 1

[Editor]
Bookmarks: 42150,64190,65603,79763,108929
DistanceSpacing: 1
BeatDivisor: 4
GridSize: 4
TimelineZoom: 1.7

[Metadata]
Title:SAVE (Encore)
TitleUnicode:SAVE (Encore)
Artist:DM DOKURO
ArtistUnicode:DM DOKURO
Creator:Kaitjuh
Version:ChronoN's Insane
Source:UNDERTALE
Tags:toby fox Last Goodbye SAVE the World Hopes and Dreams undertale underground radio koopa712 bladesofsteel -Harpuia- ChronoNig
BeatmapID:923762
BeatmapSetID:419963

[Difficulty]
HPDrainRate:6
CircleSize:4
OverallDifficulty:8
ApproachRate:9
SliderMultiplier:1.8
SliderTickRate:1

[Events]
//Background and Video events
0,0,"bg.png",0,0
//Break Periods
//Storyboard Layer 0 (Background)
//Storyboard Layer 1 (Fail)
//Storyboard Layer 2 (Pass)
//Storyboard Layer 3 (Foreground)
//Storyboard Sound Samples

[TimingPoints]
-2183,333.333333333333,4,2,0,20,1,0
483,-142.857142857143,4,2,0,20,0,0
1149,-117.647058823529,4,2,0,40,0,0
1816,-100,4,2,0,50,0,0
7316,-100,4,2,0,5,0,0
7483,-100,4,2,0,50,0,0
8483,-100,4,2,0,50,0,0
19316,-100,4,2,0,5,0,0
19483,-100,4,2,0,50,0,0
45816,706.713780918728,4,2,1,50,1,0
68430,333.333333333333,4,1,0,50,1,1
68430,-90.9090909090909,4,2,0,50,0,1
100429,-200,4,2,0,40,0,0
100763,-200,4,2,0,5,0,0
101013,-200,4,2,0,40,0,0
101429,-200,4,2,0,5,0,0
101679,-200,4,2,0,40,0,0
102096,-200,4,2,0,5,0,0
102346,-200,4,2,0,40,0,0
102763,-200,4,2,0,5,0,0
103013,-200,4,2,0,40,0,0
103429,-200,4,2,0,5,0,0
103679,-200,4,2,0,40,0,0
104096,-200,4,2,0,5,0,0
104346,-200,4,2,0,40,0,0
104763,-200,4,2,0,5,0,0
104929,-200,4,2,0,40,0,0
105429,-200,4,2,0,5,0,0
105596,-100,4,2,0,50,0,0
111096,517.241379310345,4,2,0,40,1,0
111096,-133.333333333333,4,2,0,40,0,0
111225,-133.333333333333,4,2,0,5,0,0
111483,-133.333333333333,4,2,0,35,0,0
111742,-133.333333333333,4,2,0,5,0,0
112001,-133.333333333333,4,2,0,30,0,0
112259,-133.333333333333,4,2,0,5,0,0
112906,545.454545454546,4,2,0,30,1,0
114554,576.923076923077,4,2,1,20,1,0
114554,-200,4,2,1,20,0,0

[Colours]
Combo1 : 253,234,0
Combo2 : 0,141,166
Combo3 : 174,0,0
Combo4 : 29,139,1

[HitObjects]
52,148,483,6,0,P|84:160|132:144,1,62.9999980773926
152,92,816,2,0,P|184:80|232:96,1,62.9999980773926
280,144,1150,6,0,P|316:157|371:139,1,76.5000014591217
408,76,1483,2,0,P|444:62|499:80,1,76.5000014591217
493,229,1816,6,0,P|448:236|405:223,1,90
304,140,2150,1,0,0:0:0:0:
406,224,2316,1,0,0:0:0:0:
128,244,2483,6,0,P|173:237|216:250,1,90
317,334,2816,1,0,0:0:0:0:
214,249,2982,1,0,0:0:0:0:
424,288,3150,6,0,P|452:260|456:184,1,90,2|0,0:0|0:0,0:0:0:0:
292,96,3483,1,8,0:0:0:0:
360,204,3650,1,0,0:0:0:0:
416,28,3816,2,0,B|380:149,1,90
332,288,4150,2,0,B|306:201,1,90,8|0,0:0|0:0,0:0:0:0:
256,28,4483,6,0,B|230:114,1,90,2|0,0:0|0:0,0:0:0:0:
172,276,4816,1,8,0:0:0:0:
306,201,4983,1,0,0:0:0:0:
61,119,5150,2,0,P|89:147|177:155,1,90
316,120,5483,1,8,0:0:0:0:
148,52,5650,1,0,0:0:0:0:
280,275,5816,6,0,P|239:294|194:292,1,90,2|0,0:0|0:0,0:0:0:0:
136,162,6150,2,0,P|174:186|219:191,1,90,8|0,0:0|0:0,0:0:0:0:
56,96,6483,2,0,P|38:137|40:182,1,90
320,216,6816,2,0,P|321:171|303:130,1,90,8|0,0:0|0:0,0:0:0:0:
224,44,7066,1,0,0:0:0:0:
224,44,7150,6,0,B|144:56|168:16|76:32,1,135,2|0,0:0|0:0,0:0:0:0:
0,76,7483,1,8,0:0:0:0:
112,164,7650,1,0,0:0:0:0:
32,296,7816,2,0,P|16:252|18:208,1,90
232,196,8150,1,8,0:0:0:0:
104,240,8316,1,0,0:0:0:0:
60,96,8483,6,0,P|128:80|188:88,1,90,2|0,0:0|0:0,0:0:0:0:
304,252,8816,1,8,0:0:0:0:
231,106,8983,1,0,0:0:0:0:
303,252,9150,6,0,P|328:289|366:311,1,90
231,106,9483,2,0,P|187:110|148:131,1,90,8|0,0:0|0:0,0:0:0:0:
395,116,9816,6,0,P|414:76|416:32,1,90,2|0,0:0|0:0,0:0:0:0:
231,106,10150,2,0,L|247:230,1,90,8|0,0:0|0:0,0:0:0:0:
260,364,10483,1,0,0:0:0:0:
376,300,10650,1,0,0:0:0:0:
168,240,10816,1,8,0:0:0:0:
332,213,10983,1,0,0:0:0:0:
116,312,11150,6,0,B|88:276|88:276|80:204,1,90,2|0,0:0|0:0,0:0:0:0:
232,172,11483,1,8,0:0:0:0:
64,76,11650,1,0,0:0:0:0:
212,24,11816,6,0,P|256:24|328:56,1,90
387,163,12150,1,8,0:0:0:0:
212,120,12316,1,0,0:0:0:0:
292,260,12483,6,0,L|420:264,1,90,2|0,0:0|0:0,0:0:0:0:
477,161,12816,2,0,L|349:165,1,90,8|0,0:0|0:0,0:0:0:0:
160,80,13150,1,0,0:0:0:0:
120,256,13317,1,0,0:0:0:0:
320,144,13483,1,8,0:0:0:0:
280,320,13650,1,0,0:0:0:0:
160,80,13816,6,0,P|112:60|40:80,1,90,6|0,0:0|0:0,0:0:0:0:
140,240,14150,1,8,0:0:0:0:
272,156,14316,1,0,0:0:0:0:
56,192,14483,2,0,P|44:240|40:280,1,90
246,318,14816,2,0,P|241:273|230:230,1,90,8|0,0:0|0:0,0:0:0:0:
149,121,15150,6,0,B|188:105|188:105|255:96,1,90,2|0,0:0|0:0,0:0:0:0:
246,318,15483,2,0,B|212:291|212:291|183:254,1,90,8|0,0:0|0:0,0:0:0:0:
372,132,15816,1,0,0:0:0:0:
328,324,15983,1,0,0:0:0:0:
272,184,16150,1,8,0:0:0:0:
328,324,16316,5,0,0:0:0:0:
356,112,16483,2,0,P|304:76|248:80,1,90,2|0,0:0|0:0,0:0:0:0:
96,128,16816,1,8,0:0:0:0:
164,28,16983,1,0,0:0:0:0:
184,220,17150,2,0,P|236:256|292:252,1,90,2|0,0:0|0:0,0:0:0:0:
192,128,17483,1,8,0:0:0:0:
152,308,17650,1,0,0:0:0:0:
152,308,17733,1,0,0:0:0:0:
152,308,17816,6,0,P|196:332|268:340,1,90,2|0,0:0|0:0,0:0:0:0:
436,232,18150,1,8,0:0:0:0:
450,337,18316,1,0,0:0:0:0:
268,144,18483,1,0,0:0:0:0:
253,249,18649,1,0,0:0:0:0:
421,126,18816,1,8,0:0:0:0:
436,232,18982,1,0,0:0:0:0:
280,52,19150,6,0,B|216:32|216:32|116:56,1,135,2|0,0:0|0:0,0:0:0:0:
60,80,19483,1,8,0:0:0:0:
60,80,19650,1,0,0:0:0:0:
92,243,19816,2,0,P|111:203|124:160,1,90
24,292,20150,2,8,P|56:320|136:312,1,90,8|0,0:0|0:0,0:0:0:0:
192,112,20483,6,0,P|160:84|80:92,1,90,2|0,0:0|0:0,0:0:0:0:
108,208,20816,1,8,0:0:0:0:
224,144,20983,1,0,0:0:0:0:
24,28,21150,2,0,B|32:156,1,90
40,272,21483,1,8,0:0:0:0:
168,336,21650,1,0,0:0:0:0:
144,112,21816,6,0,L|152:201,1,90,2|0,0:0|0:0,0:0:0:0:
248,276,22150,2,0,L|256:186,1,90,8|0,0:0|0:0,0:0:0:0:
264,48,22483,1,0,0:0:0:0:
432,156,22650,1,0,0:0:0:0:
312,120,22816,1,8,0:0:0:0:
452,16,22983,1,0,0:0:0:0:
460,180,23150,6,0,P|456:224|432:292,1,90,2|0,0:0|0:0,0:0:0:0:
324,336,23483,2,0,P|260:344|216:324,1,90,8|0,0:0|0:0,0:0:0:0:
116,232,23816,1,0,0:0:0:0:
304,108,23983,1,0,0:0:0:0:
280,224,24150,1,8,0:0:0:0:
92,116,24315,1,0,0:0:0:0:
224,304,24483,6,0,P|260:316|344:304,1,90,6|0,0:0|0:0,0:0:0:0:
432,172,24816,1,8,0:0:0:0:
440,304,24983,1,0,0:0:0:0:
300,180,25150,6,0,P|264:168|180:180,1,90
240,288,25483,1,8,0:0:0:0:
360,72,25650,1,0,0:0:0:0:
412,244,25816,6,0,P|404:296|364:352,1,90,2|0,0:0|0:0,0:0:0:0:
312,164,26150,1,8,0:0:0:0:
256,340,26316,1,0,0:0:0:0:
112,180,26483,1,0,0:0:0:0:
252,240,26650,1,0,0:0:0:0:
104,176,26816,1,8,0:0:0:0:
266,246,26983,1,0,0:0:0:0:
98,174,27150,6,0,P|48:168|-12:192,1,90,2|0,0:0|0:0,0:0:0:0:
64,312,27483,1,8,0:0:0:0:
64,312,27650,1,0,0:0:0:0:
184,108,27816,2,0,B|200:200|200:200,1,90
284,296,28150,2,0,P|316:256|324:212,1,90,8|0,0:0|0:0,0:0:0:0:
268,72,28483,5,2,0:0:0:0:
408,176,28650,2,0,L|404:276,1,90,0|8,0:0|0:0,0:0:0:0:
180,197,28983,2,0,L|192:12,1,180
280,32,29399,1,0,0:0:0:0:
280,32,29483,2,0,B|292:160|292:160,1,90,8|0,0:0|0:0,0:0:0:0:
304,280,29816,6,0,P|256:272|200:288,1,90,2|0,0:0|0:0,0:0:0:0:
144,336,30150,1,8,0:0:0:0:
116,252,30316,1,0,0:0:0:0:
132,164,30483,2,0,B|176:184|212:176|220:136|272:120|320:144,1,180,0|8,0:0|0:0,0:0:0:0:
392,144,30983,1,0,0:0:0:0:
428,228,31150,6,0,B|384:208|348:216|340:256|288:272|240:248,1,180,2|8,0:0|0:0,0:0:0:0:
280,168,31650,1,0,0:0:0:0:
300,80,31816,1,0,0:0:0:0:
382,116,31983,1,0,0:0:0:0:
382,116,32066,1,0,0:0:0:0:
382,116,32150,2,0,P|380:176|367:224,1,90,8|0,0:0|0:0,0:0:0:0:
260,160,32483,6,0,P|215:154|171:162,1,90,2|0,0:0|0:0,0:0:0:0:
80,260,32816,2,0,P|125:266|169:258,1,90,8|0,0:0|0:0,0:0:0:0:
268,348,33150,6,0,P|274:303|266:259,1,90
72,76,33483,2,0,P|66:121|74:165,1,90,8|0,0:0|0:0,0:0:0:0:
180,324,33816,6,0,P|268:348|332:288,1,180,2|8,0:0|0:0,0:0:0:0:
360,200,34316,1,0,0:0:0:0:
220,184,34483,2,0,B|240:228|252:292,1,90
136,248,34816,1,8,0:0:0:0:
288,124,34983,1,0,0:0:0:0:
420,300,35150,5,6,0:0:0:0:
455,156,35316,2,0,P|412:128|368:120,2,90,0|8|0,0:0|0:0|0:0,0:0:0:0:
328,288,35816,5,0,0:0:0:0:
300,68,35982,2,0,P|343:39|387:31,2,90,0|8|0,0:0|0:0|0:0,0:0:0:0:
224,200,36483,5,2,0:0:0:0:
344,248,36650,1,0,0:0:0:0:
136,296,36816,1,8,0:0:0:0:
160,108,36983,1,0,0:0:0:0:
344,152,37150,5,0,0:0:0:0:
224,200,37317,1,0,0:0:0:0:
432,248,37483,1,8,0:0:0:0:
408,60,37650,1,0,0:0:0:0:
220,88,37816,6,0,L|96:75,1,90,2|0,0:0|0:0,0:0:0:0:
184,260,38150,2,0,L|307:272,1,90,8|0,0:0|0:0,0:0:0:0:
364,120,38483,1,0,0:0:0:0:
364,120,38650,2,0,P|368:164|348:244,2,90,0|8|0,0:0|0:0|0:0,0:0:0:0:
236,32,39150,5,2,0:0:0:0:
208,192,39316,1,0,0:0:0:0:
216,236,39400,1,0,0:0:0:0:
224,280,39483,2,0,B|236:332|236:332|280:380,1,90,8|0,0:0|0:0,0:0:0:0:
356,264,39816,2,0,B|395:227|395:227|414:165,1,90
284,152,40149,2,0,B|232:136|232:136|169:150,1,90,8|0,0:0|0:0,0:0:0:0:
28,188,40483,6,0,P|72:180|128:120,1,90,2|0,0:0|0:0,0:0:0:0:
140,68,40816,1,8,0:0:0:0:
228,48,40983,1,0,0:0:0:0:
316,68,41150,2,0,P|368:124|340:224,1,180,0|8,0:0|0:0,0:0:0:0:
284,152,41650,1,0,0:0:0:0:
200,116,41816,6,0,P|148:172|176:272,1,180,2|8,0:0|0:0,0:0:0:0:
248,312,42316,1,0,0:0:0:0:
332,276,42483,1,0,0:0:0:0:
344,188,42650,1,0,0:0:0:0:
344,188,42733,1,0,0:0:0:0:
344,188,42816,2,0,B|348:136|348:136|336:80,1,90,8|0,0:0|0:0,0:0:0:0:
144,60,43150,6,0,P|68:52|40:64,1,90,2|0,0:0|0:0,0:0:0:0:
271,163,43483,2,0,P|315:170|358:158,1,90,8|0,0:0|0:0,0:0:0:0:
92,200,43816,6,0,P|16:208|-12:196,1,90
304,32,44149,2,0,P|348:24|391:36,1,90,8|0,0:0|0:0,0:0:0:0:
304,272,44483,5,2,0:0:0:0:
344,112,44650,1,0,0:0:0:0:
344,112,44816,1,0,0:0:0:0:
168,312,44983,5,2,0:0:0:0:
208,152,45150,1,0,0:0:0:0:
208,152,45316,1,0,0:0:0:0:
40,344,45483,5,2,0:0:0:0:
80,184,45650,1,0,0:0:0:0:
40,344,45816,5,4,0:0:0:0:
76,204,46522,1,0,0:0:0:0:
168,316,46876,1,0,0:0:0:0:
160,171,47229,5,0,0:0:0:0:
82,294,47582,1,0,0:0:0:0:
217,240,47936,1,0,0:0:0:0:
76,204,48289,1,0,0:0:0:0:
168,316,48642,6,0,P|212:328|272:312,1,90
340,288,49349,1,0,0:0:0:0:
364,200,49702,1,0,0:0:0:0:
280,132,50056,2,0,P|236:120|168:132,1,90
128,188,50762,1,0,0:0:0:0:
216,212,51116,1,0,0:0:0:0:
100,96,51469,5,0,0:0:0:0:
40,188,51823,1,0,0:0:0:0:
204,134,52176,1,0,0:0:0:0:
100,96,52530,1,0,0:0:0:0:
100,280,52883,5,0,0:0:0:0:
40,188,53237,1,0,0:0:0:0:
204,242,53590,1,0,0:0:0:0:
100,280,53944,1,0,0:0:0:0:
204,136,54296,6,0,B|308:112|284:180|416:140,2,180
160,248,56416,1,0,0:0:0:0:
244,216,56770,1,0,0:0:0:0:
336,272,57123,6,0,P|372:280|448:272,1,90
472,200,57830,1,0,0:0:0:0:
448,112,58183,1,0,0:0:0:0:
340,96,58536,2,0,P|296:108|252:148,1,90
188,216,59243,1,0,0:0:0:0:
156,132,59596,1,0,0:0:0:0:
84,216,59950,6,0,P|80:320|168:356,2,180
220,172,62070,1,0,0:0:0:0:
136,136,62423,1,0,0:0:0:0:
208,84,62777,5,0,0:0:0:0:
195,243,63130,1,0,0:0:0:0:
111,107,63483,1,0,0:0:0:0:
258,167,63837,1,0,0:0:0:0:
103,206,64190,5,0,0:0:0:0:
24,160,64543,1,0,0:0:0:0:
24,68,64897,1,0,0:0:0:0:
100,16,65250,1,0,0:0:0:0:
188,107,65603,6,0,B|160:164|196:220|196:220|184:248|184:248|184:296,1,180,6|0,0:0|0:0,0:0:0:0:
188,16,66664,1,0,0:0:0:0:
188,107,67017,1,8,0:0:0:0:
256,192,67370,12,0,68254,0:0:0:0:
188,107,68430,6,0,B|160:164|196:220|196:220|184:248|184:248|188:304,1,198.000006042481,6|8,0:0|0:0,0:0:0:0:
272,156,68930,1,0,0:0:0:0:
88,248,69096,2,0,P|88:304|104:352,1,99.0000030212403
24,128,69430,2,0,P|4:176|0:224,1,99.0000030212403,8|0,0:0|0:0,0:0:0:0:
208,32,69763,6,0,P|160:28|88:72,1,99.0000030212403,2|0,0:0|0:0,0:0:0:0:
184,168,70096,1,8,0:0:0:0:
360,52,70263,2,0,P|436:32|520:104,1,198.000006042481
472,196,70680,1,0,0:0:0:0:
472,196,70763,2,0,B|456:244|456:244|448:316,1,99.0000030212403,8|0,0:0|0:0,0:0:0:0:
272,248,71096,6,0,P|227:265|170:261,1,99.0000030212403,2|0,0:0|0:0,0:0:0:0:
201,49,71430,2,0,P|245:31|302:35,1,99.0000030212403,8|0,0:0|0:0,0:0:0:0:
352,160,71763,1,0,0:0:0:0:
132,140,71930,2,0,B|104:140|80:128|80:128|80:160|104:208,1,99.0000030212403,0|8,0:0|0:0,0:0:0:0:
220,352,72263,6,0,B|232:320|232:284|232:284|232:252|232:252|248:224|248:224|244:192|264:148,1,198.000006042481,2|0,0:0|0:0,0:0:0:0:
356,220,72680,1,0,0:0:0:0:
356,220,72763,2,0,L|336:324,1,99.0000030212403,8|0,0:0|0:0,0:0:0:0:
500,112,73096,2,0,L|480:216,1,99.0000030212403
336,4,73430,1,8,0:0:0:0:
360,132,73596,1,0,0:0:0:0:
156,208,73763,6,0,P|142:260|160:331,1,99.0000030212403,2|0,0:0|0:0,0:0:0:0:
237,127,74096,2,0,P|242:78|230:31,1,99.0000030212403,8|0,0:0|0:0,0:0:0:0:
48,240,74430,1,0,0:0:0:0:
116,88,74596,1,0,0:0:0:0:
244,264,74763,2,0,P|288:272|360:244,1,99.0000030212403,8|0,0:0|0:0,0:0:0:0:
500,88,75096,5,2,0:0:0:0:
452,224,75263,1,0,0:0:0:0:
328,92,75430,1,8,0:0:0:0:
284,248,75596,2,0,B|216:280|144:260|144:260|156:232|220:232,1,198.000006042481
128,332,76013,1,0,0:0:0:0:
128,332,76096,2,0,P|80:300|72:248,1,99.0000030212403,8|0,0:0|0:0,0:0:0:0:
72,96,76429,6,0,L|186:113,1,99.0000030212403,2|0,0:0|0:0,0:0:0:0:
420,164,76763,2,0,L|305:181,1,99.0000030212403,8|0,0:0|0:0,0:0:0:0:
116,196,77096,1,0,0:0:0:0:
336,104,77263,1,0,0:0:0:0:
272,268,77429,1,8,0:0:0:0:
200,32,77596,1,0,0:0:0:0:
96,68,77763,5,2,0:0:0:0:
200,32,77929,1,0,0:0:0:0:
232,136,78095,1,8,0:0:0:0:
264,240,78263,2,0,L|300:360,1,99.0000030212403
360,184,78596,1,0,0:0:0:0:
160,256,78763,2,0,P|116:264|40:224,1,99.0000030212403,8|0,0:0|0:0,0:0:0:0:
184,40,79096,6,0,P|171:82|188:144,1,99.0000030212403,2|0,0:0|0:0,0:0:0:0:
312,88,79429,1,8,0:0:0:0:
248,252,79596,1,0,0:0:0:0:
464,144,79763,6,0,P|477:186|460:248,1,99.0000030212403
336,192,80096,1,8,0:0:0:0:
400,356,80263,1,0,0:0:0:0:
204,288,80429,6,0,P|156:280|64:292,1,99.0000030212403,2|0,0:0|0:0,0:0:0:0:
28,172,80763,1,8,0:0:0:0:
28,172,80929,2,0,P|112:192|236:168,1,198.000006042481
296,256,81346,1,0,0:0:0:0:
296,256,81429,2,0,P|340:272|408:256,1,99.0000030212403,8|0,0:0|0:0,0:0:0:0:
448,132,81763,5,2,0:0:0:0:
496,260,81929,1,0,0:0:0:0:
464,96,82096,1,8,0:0:0:0:
328,192,82263,1,0,0:0:0:0:
480,64,82429,1,0,0:0:0:0:
500,280,82596,2,0,P|456:276|416:212,1,99.0000030212403,0|8,0:0|0:0,0:0:0:0:
488,132,82929,6,0,B|456:164|400:156|372:120|372:120|344:148|360:200,1,198.000006042481,2|0,0:0|0:0,0:0:0:0:
436,76,83346,1,0,0:0:0:0:
436,76,83429,2,0,P|400:40|320:56,1,99.0000030212403,8|0,0:0|0:0,0:0:0:0:
256,228,83763,2,0,P|248:172|272:100,1,99.0000030212403
344,272,84096,2,0,P|304:316|228:320,1,99.0000030212403,8|0,0:0|0:0,0:0:0:0:
48,236,84429,5,2,0:0:0:0:
168,160,84596,1,0,0:0:0:0:
48,256,84763,2,0,L|56:376,1,99.0000030212403,8|0,0:0|0:0,0:0:0:0:
168,160,85096,5,0,0:0:0:0:
48,84,85263,1,0,0:0:0:0:
168,180,85430,2,0,L|160:300,1,99.0000030212403,8|0,0:0|0:0,0:0:0:0:
276,336,85763,5,2,0:0:0:0:
356,121,85929,1,0,0:0:0:0:
244,236,86096,1,8,0:0:0:0:
404,288,86263,2,0,B|424:272|428:248|428:248|424:220|408:200|408:200|448:168|448:124|440:96,1,198.000006042481
378,27,86679,1,0,0:0:0:0:
378,27,86763,2,0,P|355:83|359:135,1,99.0000030212403,8|0,0:0|0:0,0:0:0:0:
300,284,87096,6,0,P|292:236|256:188,1,99.0000030212403,2|0,0:0|0:0,0:0:0:0:
160,292,87429,2,0,P|123:317|64:320,1,99.0000030212403,8|0,0:0|0:0,0:0:0:0:
24,80,87763,1,0,0:0:0:0:
92,232,87929,1,0,0:0:0:0:
264,56,88096,1,8,0:0:0:0:
104,132,88263,1,0,0:0:0:0:
148,32,88429,5,2,0:0:0:0:
104,132,88596,1,0,0:0:0:0:
208,160,88763,1,8,0:0:0:0:
312,188,88929,2,0,B|360:200|360:200|412:196|412:196|452:220|452:220|512:232|512:232,1,198.000006042481
374,369,89429,2,0,L|398:253,1,99.0000030212403,8|0,0:0|0:0,0:0:0:0:
424,92,89763,5,2,0:0:0:0:
240,140,89929,1,0,0:0:0:0:
432,208,90096,2,0,P|468:260|448:324,1,99.0000030212403,8|0,0:0|0:0,0:0:0:0:
210,320,90429,5,2,0:0:0:0:
394,272,90595,1,0,0:0:0:0:
202,204,90762,2,0,P|166:152|186:88,1,99.0000030212403,8|0,0:0|0:0,0:0:0:0:
373,75,91096,5,2,0:0:0:0:
336,302,91263,1,0,0:0:0:0:
240,140,91429,2,0,P|193:159|137:159,1,99.0000030212403,8|0,0:0|0:0,0:0:0:0:
36,16,91763,5,2,0:0:0:0:
73,243,91930,1,0,0:0:0:0:
169,81,92096,2,0,P|216:100|272:100,1,99.0000030212403,8|0,0:0|0:0,0:0:0:0:
416,56,92429,5,2,0:0:0:0:
212,200,92596,1,0,0:0:0:0:
432,176,92763,2,0,L|444:300,1,99.0000030212403,8|0,0:0|0:0,0:0:0:0:
320,36,93096,5,2,0:0:0:0:
116,180,93263,1,0,0:0:0:0:
336,156,93430,2,0,L|348:280,1,99.0000030212403,8|0,0:0|0:0,0:0:0:0:
240,344,93763,5,2,0:0:0:0:
192,192,93929,1,0,0:0:0:0:
96,312,94096,1,8,0:0:0:0:
24,148,94262,1,0,0:0:0:0:
189,269,94429,5,0,0:0:0:0:
144,52,94596,1,0,0:0:0:0:
292,256,94763,1,8,0:0:0:0:
302,12,94929,1,0,0:0:0:0:
360,168,95096,6,0,P|324:154|219:168,1,99.0000030212403,2|0,0:0|0:0,0:0:0:0:
135,344,95429,2,0,P|163:319|205:221,1,99.0000030212403,8|0,0:0|0:0,0:0:0:0:
91,58,95763,2,0,P|96:94|161:179,1,99.0000030212403
312,224,96096,1,8,0:0:0:0:
220,68,96263,1,0,0:0:0:0:
128,227,96429,6,0,P|78:227|32:212,1,99.0000030212403,2|0,0:0|0:0,0:0:0:0:
266,231,96763,2,0,P|291:273|301:322,1,99.0000030212403,8|0,0:0|0:0,0:0:0:0:
196,112,97096,2,0,P|220:69|257:36,1,99.0000030212403
488,140,97429,1,8,0:0:0:0:
304,139,97596,1,0,0:0:0:0:
448,44,97763,5,2,0:0:0:0:
452,236,97929,1,0,0:0:0:0:
304,139,98096,2,0,P|268:127|200:139,1,99.0000030212403,8|0,0:0|0:0,0:0:0:0:
23,299,98429,1,0,0:0:0:0:
208,134,98596,1,0,0:0:0:0:
56,120,98763,1,8,0:0:0:0:
180,320,98929,1,0,0:0:0:0:
56,120,99096,6,0,P|48:72|68:4,1,99.0000030212403,2|0,0:0|0:0,0:0:0:0:
204,108,99429,2,0,P|212:152|200:204,1,99.0000030212403,8|0,0:0|0:0,0:0:0:0:
80,320,99763,1,0,0:0:0:0:
31,123,99929,1,0,0:0:0:0:
216,32,100096,1,8,0:0:0:0:
216,32,100179,1,0,0:0:0:0:
216,32,100263,1,8,0:0:0:0:
256,208,100429,6,0,P|248:268|192:320,1,135,4|0,0:0|0:0,0:0:0:0:
108,152,101096,2,0,P|116:92|172:40,1,135
256,208,101763,6,0,P|264:268|320:320,1,135
404,152,102429,2,0,P|396:92|340:40,1,135
313,269,103096,6,0,P|373:297|440:291,1,135
440,92,103763,2,0,P|396:84|304:124,1,135
197,269,104429,6,0,P|137:297|71:291,1,135
71,92,105096,2,0,P|138:86|198:114,1,135
236,148,105679,1,0,0:0:0:0:
256,192,105763,5,8,0:0:0:0:
56,352,105929,1,8,0:0:0:0:
280,132,106263,5,8,0:0:0:0:
186,370,106429,1,8,0:0:0:0:
304,72,106763,5,8,0:0:0:0:
341,325,106929,1,8,0:0:0:0:
324,12,107263,5,8,0:0:0:0:
482,212,107429,1,8,0:0:0:0:
244,84,107763,6,0,P|196:72|128:72,1,90
176,176,108096,2,0,P|224:188|292:188,1,90
20,92,108429,5,2,0:0:0:0:
48,248,108596,1,0,0:0:0:0:
48,248,108763,1,0,0:0:0:0:
176,176,108929,5,2,0:0:0:0:
148,332,109096,1,0,0:0:0:0:
148,332,109263,1,0,0:0:0:0:
312,120,109429,5,2,0:0:0:0:
340,276,109596,1,0,0:0:0:0:
340,276,109763,1,0,0:0:0:0:
484,196,109929,5,2,0:0:0:0:
456,352,110096,1,0,0:0:0:0:
456,352,110263,1,0,0:0:0:0:
236,312,110429,6,0,L|212:220,1,90
324,184,110763,2,0,L|332:76,1,90
212,72,111096,6,0,L|200:-8,1,67.5000025749208,4|0,0:0|0:0,0:0:0:0:
324,184,111613,2,0,L|328:104,1,67.5000025749208
236,312,112130,2,0,L|212:224,1,67.5000025749208
180,68,114554,6,0,B|180:160|144:244|144:244|216:316|320:280,1,360
352,104,119169,6,0,B|284:168|268:260|268:260|228:180|132:140,1,360
256,192,123784,12,0,126380,0:0:0:0:
256,192,126669,12,0,128977,0:0:0:0:
256,192,129265,12,0,134169,0:0:0:0:
