osu file format v14

[General]
AudioFilename: DM DOKURO - SAVE (Encore).mp3
AudioLeadIn: 2000
PreviewTime: 2316
Countdown: 0
SampleSet: Normal
StackLeniency: 0.6
Mode: 0
LetterboxInBreaks: 0
EpilepsyWarning: 1
WidescreenStoryboard: 1

[Editor]
Bookmarks: 3150,65603,114542,123784,134169
DistanceSpacing: 1.6
BeatDivisor: 2
GridSize: 4
TimelineZoom: 1

[Metadata]
Title:SAVE (Encore)
TitleUnicode:SAVE (Encore)
Artist:DM DOKURO
ArtistUnicode:DM DOKURO
Creator:Kaitjuh
Version:BladesofSteel's Easy
Source:UNDERTALE
Tags:toby fox Last Goodbye SAVE the World Hopes and Dreams undertale underground radio koopa712 bladesofsteel -Harpuia- ChronoNig
BeatmapID:910411
BeatmapSetID:419963

[Difficulty]
HPDrainRate:2
CircleSize:2
OverallDifficulty:2
ApproachRate:2.5
SliderMultiplier:0.6
SliderTickRate:1

[Events]
//Background and Video events
0,0,"bg.png",0,0
//Break Periods
2,50256,64103
2,114754,122284
//Storyboard Layer 0 (Background)
//Storyboard Layer 1 (Fail)
//Storyboard Layer 2 (Pass)
//Storyboard Layer 3 (Foreground)
//Storyboard Sound Samples

[TimingPoints]
-2183,333.333333333333,4,1,1,60,1,0
3650,-100,4,1,0,40,0,0
3983,-100,4,1,1,60,0,0
6316,-100,4,1,0,40,0,0
6650,-100,4,1,1,60,0,0
7650,-100,4,1,0,40,0,0
7983,-100,4,1,1,60,0,0
12983,-100,4,1,0,40,0,0
13316,-100,4,1,1,60,0,0
15650,-100,4,1,0,40,0,0
15983,-100,4,1,1,60,0,0
16983,-100,4,1,0,40,0,0
17316,-100,4,1,1,60,0,0
23650,-100,4,1,0,40,0,0
23983,-100,4,1,1,60,0,0
26316,-100,4,1,0,40,0,0
26650,-100,4,1,1,60,0,0
28983,-100,4,1,0,40,0,0
29316,-100,4,1,1,60,0,0
30316,-100,4,1,0,40,0,0
30650,-100,4,1,1,60,0,0
31650,-100,4,1,0,40,0,0
31983,-100,4,1,1,60,0,0
35650,-100,4,1,0,40,0,0
35983,-100,4,1,1,60,0,0
36983,-100,4,1,0,40,0,0
37316,-100,4,1,1,60,0,0
38316,-100,4,1,0,40,0,0
38650,-100,4,1,1,60,0,0
39650,-100,4,1,0,40,0,0
39983,-100,4,1,1,60,0,0
40983,-100,4,1,0,40,0,0
41316,-100,4,1,1,60,0,0
43650,-100,4,1,0,40,0,0
43983,-100,4,1,1,60,0,0
44983,-100,4,1,0,40,0,0
45316,-100,4,1,1,60,0,0
45816,706.713780918728,4,2,0,5,1,0
68430,333.333333333333,4,1,1,60,1,1
71596,-100,4,1,0,60,0,1
71930,-100,4,1,1,60,0,1
72930,-100,4,1,0,60,0,1
73263,-100,4,1,1,60,0,1
77596,-100,4,1,0,60,0,1
77929,-100,4,1,1,60,0,1
83596,-100,4,1,0,60,0,1
83929,-100,4,1,1,60,0,1
86263,-100,4,1,0,60,0,1
86596,-100,4,1,1,60,0,1
87596,-100,4,1,0,60,0,1
87929,-100,4,1,1,60,0,1
88929,-100,4,1,0,60,0,1
89263,-100,4,1,1,60,0,1
89763,-100,4,1,1,60,0,0
95596,-100,4,1,0,60,0,0
95929,-100,4,1,1,60,0,0
100429,-100,4,2,0,60,0,0
105763,-100,4,1,1,80,0,0
108929,-100,4,1,0,60,0,0
109263,-100,4,1,1,80,0,0
109596,-100,4,1,0,60,0,0
109929,-100,4,1,1,60,0,0
111096,517.241379310345,4,1,0,60,1,0
112906,545.454545454546,4,2,0,60,1,0
114554,576.923076923077,4,2,0,20,1,0

[Colours]
Combo1 : 0,141,166
Combo2 : 174,0,0
Combo3 : 29,139,1
Combo4 : 253,234,0

[HitObjects]
312,296,3150,6,0,L|128:316,1,180,4|8,0:0|0:0,0:0:0:0:
52,264,4483,2,0,P|40:172|56:144,1,120
120,84,5483,1,8,0:0:0:0:
204,132,5816,6,0,P|240:184|300:116,1,180,0|8,0:0|0:0,0:0:0:0:
332,28,7150,2,0,P|412:12|480:88,1,180,0|8,0:0|0:0,0:0:0:0:
456,168,8483,6,0,L|408:288,1,120
340,344,9483,1,8,0:0:0:0:
244,344,9816,2,0,P|184:332|128:296,1,120
72,228,10816,1,8,0:0:0:0:
80,132,11150,6,0,L|36:16,2,120
168,172,12816,2,8,P|224:168|280:124,1,120
336,56,13816,6,0,P|392:32|452:44,2,120,4|0|0,0:2|0:0|0:0,0:0:0:0:
400,128,15483,2,0,L|416:252,1,120,8|8,0:0|0:0,0:0:0:0:
364,328,16483,6,0,P|236:344|152:272,1,240
112,192,18150,1,8,0:0:0:0:
124,96,18483,2,0,L|184:56,1,60,0|8,0:0|0:0,0:0:0:0:
268,80,19150,6,0,L|392:96,1,120
460,156,20150,1,8,0:0:0:0:
400,232,20483,2,0,P|388:292|404:348,2,120
460,156,22150,5,8,0:0:0:0:
428,68,22483,2,0,L|304:52|304:52,1,120
220,88,23483,2,0,P|164:112|84:104,1,120,8|8,0:0|0:0,0:0:0:0:
20,72,24483,1,0,0:0:0:0:
136,228,25150,5,0,0:0:0:0:
284,348,25816,2,0,P|372:312|400:232,1,180,2|8,0:0|0:0,0:0:0:0:
396,140,27150,2,0,P|436:72|484:56,2,120
464,212,28816,2,0,P|424:280|376:296,1,120,8|8,0:0|0:0,0:0:0:0:
292,304,29816,6,0,L|108:316,1,180,2|8,0:0|0:0,0:0:0:0:
28,260,31150,2,0,B|52:180|-4:164|28:84,1,180,0|8,0:0|0:0,0:0:0:0:
100,20,32483,6,0,L|232:44,1,120
312,56,33483,1,8,0:0:0:0:
388,116,33816,2,0,P|408:60|388:-8,2,120,0|0|4,0:0|0:0|0:0,0:0:0:0:
308,160,35483,6,0,L|184:180,1,120,8|8,0:0|0:0,0:0:0:0:
28,76,36816,2,0,L|152:56,1,120,8|8,0:0|0:0,0:0:0:0:
240,40,37816,5,0,0:0:0:0:
300,116,38150,2,0,P|356:132|424:112,1,120,8|8,0:0|0:0,0:0:0:0:
268,240,39483,2,0,P|208:220|144:244,1,120,8|8,0:0|0:0,0:0:0:0:
208,316,40483,6,0,P|248:336|364:256,1,180,6|8,0:0|0:0,0:0:0:0:
380,184,41816,2,0,B|416:52,2,120,2|0|0,0:0|0:0|0:0,0:0:0:0:
360,276,43483,6,0,P|420:272|484:324,1,120,8|8,0:0|0:0,0:0:0:0:
396,368,44483,2,0,P|336:372|276:224,1,240,4|4,0:0|0:0,0:0:0:0:
256,192,46169,12,0,50056,0:2:0:0:
256,192,65603,12,4,68430,0:0:0:0:
148,180,69763,6,0,P|140:116|168:64,1,120
256,36,70763,1,8,0:0:0:0:
324,104,71096,6,0,P|320:180|224:236,1,180,0|8,0:0|0:0,0:0:0:0:
144,248,72430,2,0,P|92:221|76:106,1,180,0|8,0:0|0:0,0:0:0:0:
162,153,73763,6,0,P|204:172|240:245,1,120
228,332,74763,1,8,0:0:0:0:
324,344,75096,2,0,L|452:352,2,120
228,332,76763,5,8,0:0:0:0:
140,364,77096,2,0,P|148:280|288:256,1,240
376,264,78763,1,8,0:0:0:0:
432,184,79096,6,0,L|452:56,1,120,4|0,0:2|0:0,0:0:0:0:
368,16,80096,1,8,0:0:0:0:
276,44,80429,2,0,L|256:172,1,120
180,220,81429,1,8,0:0:0:0:
100,168,81763,6,0,P|32:160|-24:192,2,120
180,220,83429,2,0,P|232:264|356:244,1,180,8|0,0:0|0:0,0:0:0:0:
424,212,84763,5,8,0:0:0:0:
436,116,85096,2,0,L|380:52,1,60,0|8,0:0|0:0,0:0:0:0:
308,36,85763,2,0,L|112:88,1,180,0|8,0:0|0:0,0:0:0:0:
60,144,87096,6,0,P|36:224|132:352,2,240,0|0|6,0:0|0:0|0:0,0:0:0:0:
220,40,90429,5,2,0:0:0:0:
168,224,91096,1,2,0:0:0:0:
352,164,91763,1,2,0:0:0:0:
240,320,92429,6,0,L|120:329,1,120,2|2,0:0|0:0,0:0:0:0:
44,152,93763,2,0,L|163:142,1,120,2|2,0:0|0:0,0:0:0:0:
260,136,94763,1,8,0:0:0:0:
308,52,95096,6,0,P|356:116|320:212,1,180,2|8,0:0|0:0,0:0:0:0:
260,136,96429,2,0,P|208:160|100:152,1,120,0|0,0:0|0:0,0:0:0:0:
48,164,97429,1,8,0:0:0:0:
92,248,97763,6,0,P|100:308|64:384,2,120,0|0|0,0:0|0:0|0:0,0:0:0:0:
144,168,99429,2,0,L|216:140,1,60,8|0,0:0|0:0,0:0:0:0:
288,112,100096,1,8,0:0:0:0:
360,176,100429,6,0,P|449:139|424:-1,2,240,4|2|0,0:0|0:0|0:0,0:0:0:0:
216,52,103763,1,0,0:0:0:0:
184,240,104429,2,0,P|184:320|212:368,1,120,2|0,0:0|0:0,0:0:0:0:
372,264,105763,6,0,L|504:276,2,120
276,264,107429,2,0,P|184:276|152:260,1,120,8|8,0:0|0:0,0:0:0:0:
104,188,108429,6,0,P|84:88|0:40,2,180,4|8|4,0:0|0:0|0:0,0:0:0:0:
60,272,110763,1,8,0:0:0:0:
256,192,111096,12,2,114554,0:0:0:0:
256,192,123784,12,0,134169,0:0:0:0:
