osu file format v14

[General]
AudioFilename: DM DOKURO - SAVE (Encore).mp3
AudioLeadIn: 2000
PreviewTime: 2316
Countdown: 0
SampleSet: Soft
StackLeniency: 0.7
Mode: 0
LetterboxInBreaks: 0
EpilepsyWarning: 1
WidescreenStoryboard: 1

[Editor]
Bookmarks: 4150,12816,24483
DistanceSpacing: 0.5
BeatDivisor: 4
GridSize: 8
TimelineZoom: 2.100003

[Metadata]
Title:SAVE (Encore)
TitleUnicode:SAVE (Encore)
Artist:DM DOKURO
ArtistUnicode:DM DOKURO
Creator:Kaitjuh
Version:-Harpuia-'s Extra
Source:UNDERTALE
Tags:toby fox Last Goodbye SAVE the World Hopes and Dreams undertale underground radio koopa712 bladesofsteel -Harpuia- ChronoNig
BeatmapID:916958
BeatmapSetID:419963

[Difficulty]
HPDrainRate:6
CircleSize:4
OverallDifficulty:8
ApproachRate:9.2
SliderMultiplier:1.8
SliderTickRate:1

[Events]
//Background and Video events
0,0,"bg.png",0,0
//Break Periods
2,100629,105026
2,111296,113984
//Storyboard Layer 0 (Background)
//Storyboard Layer 1 (Fail)
//Storyboard Layer 2 (Pass)
//Storyboard Layer 3 (Foreground)
//Storyboard Sound Samples

[TimingPoints]
-2183,333.333333333333,4,2,0,20,1,0
483,-125,4,2,0,45,0,0
1150,-117.647058823529,4,2,0,50,0,0
1816,-111.111111111111,4,2,0,55,0,0
2483,-100,4,2,0,65,0,0
2816,-90.9090909090909,4,2,0,65,0,0
3149,-100,4,2,0,85,0,0
13150,-83.3333333333333,4,2,0,85,0,0
13816,-100,4,2,0,85,0,0
45816,706.713780918728,4,2,0,60,1,0
45992,-100,4,2,1,60,0,0
67724,-133.333333333333,4,2,1,45,0,0
68430,333.333333333333,4,2,0,75,1,1
100429,-200,4,2,0,50,0,0
105596,-100,4,2,0,70,0,0
111096,517.241379310345,4,2,0,70,1,0
112906,545.454545454546,4,2,0,20,1,0
114554,576.923076923077,4,2,1,20,1,0
114554,-133.333333333333,4,2,1,20,0,0

[Colours]
Combo1 : 253,234,0
Combo2 : 0,141,166
Combo3 : 174,0,0
Combo4 : 29,139,1

[HitObjects]
116,109,483,5,2,0:0:0:0:
222,125,650,1,0,0:0:0:0:
205,231,816,1,2,0:0:0:0:
99,215,983,1,0,0:0:0:0:
222,125,1150,6,0,P|271:142|297:185,1,76.5000014591217,2|0,0:0|0:0,0:0:0:0:
228,300,1483,2,0,P|203:253|214:204,1,76.5000014591217,2|0,0:0|0:0,0:0:0:0:
372,226,1816,5,2,0:0:0:0:
342,344,1983,1,0,0:0:0:0:
228,300,2150,1,2,0:0:0:0:
342,344,2316,1,0,0:0:0:0:
388,189,2483,6,0,P|396:141|372:85,1,90,2|0,0:0|0:0,0:0:0:0:
224,56,2816,2,0,P|216:104|240:160,1,99.0000030212403,2|0,0:0|0:0,0:0:0:0:
296,205,3150,6,0,P|220:165|124:201,1,180,4|8,0:0|0:0,0:0:0:0:
208,293,3650,1,0,0:0:0:0:
384,113,3816,1,2,0:0:0:0:
380,269,3983,1,0,0:0:0:0:
264,93,4150,1,8,0:0:0:0:
472,73,4316,1,0,0:0:0:0:
260,205,4483,6,0,P|208:201|156:213,1,90,2|0,0:0|0:0,0:0:0:0:
380,269,4816,2,0,P|432:273|484:261,1,90,8|0,0:0|0:0,0:0:0:0:
272,333,5150,1,0,0:0:0:0:
400,133,5316,1,2,0:0:0:0:
228,177,5483,1,8,0:0:0:0:
444,289,5650,1,2,0:0:0:0:
184,353,5816,6,0,P|144:301|160:185,1,180,2|8,0:0|0:0,0:0:0:0:
260,257,6316,1,0,0:0:0:0:
92,361,6483,2,0,P|68:318|68:250,1,90,2|2,0:0|0:0,0:0:0:0:
277,170,6816,2,0,P|276:214|259:256,1,90,8|2,0:0|0:0,0:0:0:0:
92,157,7150,6,0,B|148:141|148:141|192:165|192:165|196:119|236:97,1,180,0|8,0:0|0:0,0:0:0:0:
372,201,7650,1,2,0:0:0:0:
259,256,7816,1,0,0:0:0:0:
259,256,7983,1,0,0:0:0:0:
456,160,8150,1,8,0:0:0:0:
363,321,8316,1,0,0:0:0:0:
224,104,8483,6,0,B|197:124|192:165|192:165|148:128|74:146,1,180,0|8,0:0|0:0,0:0:0:0:
116,265,8983,1,0,0:0:0:0:
287,175,9150,1,2,0:0:0:0:
279,306,9316,1,0,0:0:0:0:
451,142,9483,1,8,0:0:0:0:
472,259,9650,1,2,0:0:0:0:
279,306,9816,6,0,P|234:310|190:290,1,90,2|0,0:0|0:0,0:0:0:0:
386,245,10150,2,0,P|431:241|475:261,1,90,8|0,0:0|0:0,0:0:0:0:
386,370,10483,1,0,0:0:0:0:
277,181,10650,1,2,0:0:0:0:
193,292,10816,1,8,0:0:0:0:
471,258,10983,1,2,0:0:0:0:
284,89,11150,6,0,L|273:188,1,90,2|0,0:0|0:0,0:0:0:0:
384,28,11483,1,8,0:0:0:0:
198,63,11650,1,0,0:0:0:0:
411,169,11816,2,0,P|462:166|513:172,1,90,2|2,0:0|0:0,0:0:0:0:
259,209,12150,2,0,P|208:212|157:206,1,90,8|0,0:0|0:0,0:0:0:0:
410,270,12483,6,0,P|403:314|376:350,1,90,2|0,0:0|0:0,0:0:0:0:
224,288,12816,2,0,P|231:244|259:209,1,90,14|0,0:0|0:0,0:0:0:0:
413,257,13150,6,0,P|410:311|379:354,1,107.999996704102,2|0,0:0|0:0,0:0:0:0:
221,301,13483,2,0,P|224:247|255:204,1,107.999996704102,14|0,0:0|0:0,0:0:0:0:
420,240,13816,6,0,P|369:190|369:77,1,180,4|8,0:0|0:0,0:0:0:0:
482,132,14316,1,0,0:0:0:0:
323,281,14483,1,2,0:0:0:0:
263,72,14650,1,0,0:0:0:0:
396,175,14816,1,8,0:0:0:0:
238,231,14983,1,0,0:0:0:0:
362,45,15150,6,0,P|407:39|451:52,1,90,2|0,0:0|0:0,0:0:0:0:
395,174,15483,2,0,P|351:180|308:168,1,90,8|0,0:0|0:0,0:0:0:0:
223,66,15816,1,0,0:0:0:0:
143,272,15983,1,2,0:0:0:0:
332,143,16150,1,8,0:0:0:0:
106,141,16316,1,2,0:0:0:0:
292,280,16483,6,0,B|343:285|377:249|377:249|426:250|459:307,1,180,2|8,0:0|0:0,0:0:0:0:
340,356,16983,1,0,0:0:0:0:
301,170,17150,2,0,L|328:84,1,90,2|2,0:0|0:0,0:0:0:0:
493,145,17483,2,0,L|512:248,1,90,8|2,0:0|0:0,0:0:0:0:
292,280,17816,6,0,B|252:285|252:285|225:266|225:266|168:291|105:256,1,180,0|8,0:0|0:0,0:0:0:0:
175,150,18316,1,2,0:0:0:0:
283,361,18483,1,0,0:0:0:0:
283,361,18650,1,0,0:0:0:0:
426,172,18816,1,8,0:0:0:0:
280,202,18983,1,0,0:0:0:0:
157,46,19150,6,0,B|225:44|225:44|261:64|261:64|354:57,1,180,0|8,0:0|0:0,0:0:0:0:
410,156,19650,1,0,0:0:0:0:
175,150,19816,2,0,L|65:153,1,90,2|0,0:0|0:0,0:0:0:0:
242,235,20150,2,0,L|331:232,1,90,8|0,0:0|0:0,0:0:0:0:
476,81,20483,5,2,0:0:0:0:
287,141,20650,1,2,0:0:0:0:
503,215,20816,1,10,0:0:0:0:
350,267,20983,1,2,0:0:0:0:
387,113,21150,1,0,0:0:0:0:
326,362,21316,1,2,0:0:0:0:
498,309,21483,1,8,0:0:0:0:
298,125,21650,6,0,B|285:185|285:185|297:206|297:206|270:314,1,180,2|0,0:0|0:0,0:0:0:0:
215,110,22150,2,0,L|186:215,1,90,10|0,0:0|0:0,0:0:0:0:
406,261,22483,2,0,L|386:156,1,90,2|0,0:0|0:0,0:0:0:0:
215,110,22816,1,8,0:0:0:0:
296,208,22983,1,2,0:0:0:0:
440,47,23150,6,0,P|373:42|338:60,1,90,0|0,0:0|0:0,0:0:0:0:
209,211,23483,2,0,P|276:216|311:198,1,90,12|0,0:0|0:0,0:0:0:0:
246,21,23816,2,0,P|241:88|259:123,1,90,2|0,0:0|0:0,0:0:0:0:
410,252,24149,2,0,P|415:185|397:150,1,90,14|0,0:0|0:0,0:0:0:0:
278,335,24483,6,0,P|368:325|450:384,1,180,4|8,0:0|0:0,0:0:0:0:
410,252,24983,1,0,0:0:0:0:
278,335,25150,2,0,P|231:259|241:172,1,180,2|8,0:0|0:0,0:0:0:0:
350,107,25650,1,0,0:0:0:0:
127,132,25816,5,2,0:0:0:0:
228,40,25983,1,0,0:0:0:0:
327,250,26150,1,10,0:0:0:0:
183,259,26316,1,0,0:0:0:0:
350,107,26483,2,0,P|398:98|441:107,1,90,2|0,0:0|0:0,0:0:0:0:
327,250,26816,2,0,P|375:259|418:250,1,90,10|0,0:0|0:0,0:0:0:0:
220,165,27150,6,0,B|166:152|166:152|140:175|140:175|94:153|39:172,1,180,0|8,0:0|0:0,0:0:0:0:
87,289,27650,1,0,0:0:0:0:
279,85,27816,1,2,0:0:0:0:
238,252,27983,1,2,0:0:0:0:
119,45,28150,1,8,0:0:0:0:
358,44,28316,1,2,0:0:0:0:
119,45,28650,5,0,0:0:0:0:
358,44,28816,1,8,0:0:0:0:
170,139,28983,2,0,P|117:135|68:154,1,90,2|0,0:0|0:0,0:0:0:0:
297,186,29316,1,2,0:0:0:0:
297,186,29400,1,2,0:0:0:0:
297,186,29483,2,0,P|350:190|399:171,1,90,8|0,0:0|0:0,0:0:0:0:
183,274,29816,6,0,L|155:362,1,90,2|0,0:0|0:0,0:0:0:0:
345,348,30150,1,8,0:0:0:0:
120,190,30316,1,2,0:0:0:0:
384,179,30483,2,0,P|368:220|337:253,1,90,2|0,0:0|0:0,0:0:0:0:
218,133,30816,2,0,L|239:37,1,90,8|0,0:0|0:0,0:0:0:0:
463,118,31150,6,0,L|487:240,1,90,2|0,0:0|0:0,0:0:0:0:
443,41,31483,1,8,0:0:0:0:
497,286,31650,1,2,0:0:0:0:
384,179,31816,1,0,0:0:0:0:
443,41,31983,1,2,0:0:0:0:
452,80,32066,1,2,0:0:0:0:
463,118,32150,2,0,L|487:240,1,90,8|2,0:0|0:0,0:0:0:0:
327,249,32483,6,0,P|317:295|311:337,1,90,2|0,0:0|0:0,0:0:0:0:
249,144,32816,2,0,P|259:91|261:53,1,90,8|2,0:0|0:0,0:0:0:0:
157,287,33150,2,0,L|162:376,1,90,2|0,0:0|0:0,0:0:0:0:
87,102,33483,2,0,P|88:64|100:12,1,90,10|0,0:0|0:0,0:0:0:0:
327,249,33816,5,2,0:0:0:0:
157,287,33983,1,0,0:0:0:0:
345,97,34150,1,14,0:0:0:0:
354,350,34316,1,0,0:0:0:0:
188,129,34483,5,2,0:0:0:0:
445,214,34650,1,0,0:0:0:0:
154,277,34816,1,14,0:0:0:0:
354,354,34983,1,0,0:0:0:0:
188,129,35150,5,6,0:0:0:0:
154,277,35316,1,0,0:0:0:0:
318,130,35483,2,0,P|316:86|294:44,1,90,8|0,0:0|0:0,0:0:0:0:
78,144,35816,5,2,0:0:0:0:
167,12,35983,1,0,0:0:0:0:
238,205,36150,2,0,L|224:309,1,90,8|0,0:0|0:0,0:0:0:0:
424,246,36483,5,2,0:0:0:0:
318,130,36650,1,0,0:0:0:0:
274,364,36816,2,0,P|318:364|360:340,1,90,8|0,0:0|0:0,0:0:0:0:
414,156,37150,5,2,0:0:0:0:
251,204,37316,1,0,0:0:0:0:
396,25,37483,2,0,L|489:64,1,90,8|2,0:0|0:0,0:0:0:0:
286,105,37816,6,0,B|245:120|201:97|201:97|159:143|94:140,1,180,2|8,0:0|0:0,0:0:0:0:
102,16,38316,1,0,0:0:0:0:
224,214,38483,2,0,L|211:339,1,90,2|0,0:0|0:0,0:0:0:0:
286,105,38816,1,8,0:0:0:0:
121,138,38983,1,0,0:0:0:0:
371,256,39150,5,2,0:0:0:0:
214,303,39316,1,0,0:0:0:0:
214,303,39400,1,2,0:0:0:0:
214,303,39483,2,0,P|163:308|117:295,1,90,8|0,0:0|0:0,0:0:0:0:
333,183,39816,1,2,0:0:0:0:
356,343,39983,1,0,0:0:0:0:
121,191,40150,1,8,0:0:0:0:
79,351,40316,1,2,0:0:0:0:
315,144,40483,6,0,P|263:125|207:136,1,90,6|0,0:0|0:0,0:0:0:0:
121,191,40816,1,8,0:0:0:0:
254,335,40983,1,0,0:0:0:0:
312,105,41150,2,0,P|310:58|328:6,1,90,2|0,0:0|0:0,0:0:0:0:
414,208,41483,2,0,P|418:258|414:297,1,90,8|0,0:0|0:0,0:0:0:0:
312,105,41816,5,2,0:0:0:0:
312,105,41983,1,0,0:0:0:0:
450,64,42150,1,8,0:0:0:0:
282,250,42316,1,2,0:0:0:0:
204,29,42483,1,0,0:0:0:0:
450,64,42650,1,0,0:0:0:0:
271,119,42816,2,0,L|150:119,1,90,8|0,0:0|0:0,0:0:0:0:
407,237,43150,5,2,0:0:0:0:
359,53,43316,1,0,0:0:0:0:
282,250,43483,5,10,0:0:0:0:
450,64,43650,1,0,0:0:0:0:
413,332,43816,5,2,0:0:0:0:
271,119,43983,1,0,0:0:0:0:
297,350,44150,5,10,0:0:0:0:
359,53,44316,1,2,0:0:0:0:
492,353,44483,5,14,0:0:0:0:
282,250,44650,1,0,0:0:0:0:
471,126,44816,1,0,0:0:0:0:
413,276,44983,1,12,0:0:0:0:
310,40,45150,5,2,0:0:0:0:
505,144,45316,1,0,0:0:0:0:
268,169,45483,1,14,0:0:0:0:
414,252,45650,1,0,0:0:0:0:
455,23,45816,1,6,0:0:0:0:
104,101,46522,6,0,P|91:156|107:219,1,90,2|0,0:0|0:0,0:0:0:0:
192,257,47229,2,0,P|247:249|311:253,1,90,2|0,0:0|0:0,0:0:0:0:
295,133,47936,2,0,P|250:140|205:140,1,90,0|2,0:0|0:0,0:0:0:0:
306,14,48642,6,0,P|352:26|392:65,2,90,2|0|2,0:0|0:0|0:0,0:0:0:0:
295,133,49702,1,2,0:0:0:0:
295,133,50056,2,0,B|374:171|374:171|471:137,1,180,0|0,0:0|0:0,0:0:0:0:
383,52,51116,1,2,0:0:0:0:
485,177,51469,6,0,P|486:222|459:268,1,90,6|0,0:0|0:0,0:0:0:0:
370,329,52176,2,0,P|349:289|350:244,1,90,2|0,0:0|0:0,0:0:0:0:
485,177,52883,6,0,P|501:218|491:271,1,90,2|0,0:0|0:0,0:0:0:0:
370,329,53590,2,0,P|337:298|323:256,1,90,2|0,0:0|0:0,0:0:0:0:
191,162,54296,6,0,P|166:214|170:263,2,90,2|0|2,0:0|0:0|0:0,0:0:0:0:
191,162,55709,2,0,B|234:138|275:160|275:160|323:190|381:141|348:63|274:89,1,270,0|2,0:0|0:0,0:0:0:0:
456,133,57123,6,0,P|452:88|434:47,1,90,6|0,0:0|0:0,0:0:0:0:
344,121,57830,2,0,P|336:174|359:217,1,90,2|2,0:0|0:0,0:0:0:0:
452,261,58536,2,0,P|454:309|426:362,1,90,2|0,0:0|0:0,0:0:0:0:
329,302,59243,2,0,P|284:298|235:313,1,90,0|2,0:0|0:0,0:0:0:0:
166,197,59950,6,0,P|209:208|253:204,2,90,2|0|2,0:0|0:0|0:0,0:0:0:0:
166,197,61363,2,0,B|116:203|81:167|81:167|68:220|23:238,1,180,0|0,0:0|0:0,0:0:0:0:
123,306,62423,1,2,0:0:0:0:
276,252,62777,6,0,P|302:216|307:163,1,90,6|0,0:0|0:0,0:0:0:0:
208,74,63484,2,0,P|167:94|142:131,1,90,2|0,0:0|0:0,0:0:0:0:
276,252,64190,6,0,P|289:209|276:157,1,90,2|0,0:0|0:0,0:0:0:0:
208,74,64897,1,0,0:0:0:0:
208,74,65250,6,0,L|272:96,1,45,0|2,0:0|0:0,0:0:0:0:
323,55,65603,2,0,P|374:46|416:60,1,90
434,171,66310,2,0,P|388:202|346:206,2,90,2|0|2,0:0|0:0|0:0,0:0:0:0:
434,171,67724,6,0,B|428:200|439:231|439:231|450:263|440:294,1,118.125004506111
238,182,68430,6,0,P|240:111|263:72,1,90,6|0,0:0|0:0,0:0:0:0:
355,275,68763,2,0,P|353:346|330:385,1,90,8|0,0:0|0:0,0:0:0:0:
346,161,69096,2,0,P|417:163|456:186,1,90,2|0,0:0|0:0,0:0:0:0:
249,291,69430,2,0,P|178:289|139:266,1,90,8|0,0:0|0:0,0:0:0:0:
346,161,69763,5,0,0:0:0:0:
345,362,69930,1,2,0:0:0:0:
161,281,70096,1,8,0:0:0:0:
381,249,70263,2,0,P|427:253|499:218,1,90
235,189,70596,1,0,0:0:0:0:
235,189,70680,1,2,0:0:0:0:
235,189,70763,2,0,P|173:182|119:201,1,90,8|0,0:0|0:0,0:0:0:0:
63,343,71096,5,6,0:0:0:0:
38,150,71263,1,0,0:0:0:0:
249,291,71430,5,10,0:0:0:0:
54,261,71596,1,2,0:0:0:0:
298,191,71763,5,0,0:0:0:0:
38,150,71930,1,2,0:0:0:0:
249,291,72096,5,8,0:0:0:0:
54,261,72263,1,0,0:0:0:0:
361,291,72430,5,2,0:0:0:0:
231,101,72596,1,0,0:0:0:0:
231,101,72680,1,2,0:0:0:0:
231,101,72763,2,0,P|190:96|134:109,1,90,8|0,0:0|0:0,0:0:0:0:
195,231,73096,1,0,0:0:0:0:
195,231,73263,1,0,0:0:0:0:
300,32,73430,1,8,0:0:0:0:
75,42,73597,1,0,0:0:0:0:
300,207,73763,6,0,P|358:210|390:198,1,90,6|0,0:0|0:0,0:0:0:0:
497,56,74096,2,0,P|439:53|407:65,1,90,8|0,0:0|0:0,0:0:0:0:
474,231,74430,2,0,P|477:173|465:141,1,90,2|0,0:0|0:0,0:0:0:0:
323,34,74763,2,0,P|320:92|332:124,1,90,8|0,0:0|0:0,0:0:0:0:
474,231,75096,5,0,0:0:0:0:
289,319,75263,1,2,0:0:0:0:
428,342,75430,1,8,0:0:0:0:
273,199,75596,2,0,P|225:191|160:213,1,90,2|0,0:0|0:0,0:0:0:0:
115,323,75929,1,0,0:0:0:0:
115,323,76013,1,2,0:0:0:0:
115,323,76096,2,0,P|67:331|2:309,1,90,8|0,0:0|0:0,0:0:0:0:
170,105,76429,5,6,0:0:0:0:
230,317,76596,1,2,0:0:0:0:
92,241,76763,1,8,0:0:0:0:
304,181,76930,1,0,0:0:0:0:
150,357,77096,5,6,0:0:0:0:
217,106,77263,1,2,0:0:0:0:
320,265,77429,1,8,0:0:0:0:
47,198,77596,1,6,0:0:0:0:
320,265,77929,5,0,0:0:0:0:
217,106,78096,2,0,P|223:57|259:9,1,90,12|0,0:0|0:0,0:0:0:0:
348,110,78429,5,2,0:0:0:0:
348,110,78596,1,0,0:0:0:0:
207,250,78763,2,0,P|162:244|117:212,1,90,12|0,0:0|0:0,0:0:0:0:
347,195,79096,6,0,L|461:202,1,90,6|0,0:0|0:0,0:0:0:0:
321,342,79429,2,0,L|207:349,1,90,8|0,0:0|0:0,0:0:0:0:
411,284,79763,2,0,L|404:398,1,90,2|0,0:0|0:0,0:0:0:0:
264,258,80096,2,0,L|257:144,1,90,8|0,0:0|0:0,0:0:0:0:
321,342,80429,5,0,0:0:0:0:
139,313,80596,1,2,0:0:0:0:
264,258,80763,1,8,0:0:0:0:
75,225,80929,2,0,P|35:268|30:316,1,90,2|0,0:0|0:0,0:0:0:0:
264,258,81263,1,0,0:0:0:0:
264,258,81346,1,0,0:0:0:0:
264,258,81429,2,0,L|257:144,1,90,8|0,0:0|0:0,0:0:0:0:
477,112,81763,5,6,0:0:0:0:
395,245,81929,1,0,0:0:0:0:
340,35,82096,1,8,0:0:0:0:
477,112,82263,1,0,0:0:0:0:
258,168,82429,1,0,0:0:0:0:
427,320,82596,1,2,0:0:0:0:
387,156,82763,1,8,0:0:0:0:
263,278,82929,1,0,0:0:0:0:
486,222,83096,5,2,0:0:0:0:
318,62,83263,1,0,0:0:0:0:
318,62,83346,1,2,0:0:0:0:
318,62,83429,2,0,L|227:71,1,90,8|0,0:0|0:0,0:0:0:0:
42,148,83763,2,0,L|133:157,1,90,6|2,0:0|0:0,0:0:0:0:
262,199,84096,2,0,L|351:190,1,90,12|0,0:0|0:0,0:0:0:0:
162,291,84429,6,0,L|272:300,1,90,6|0,0:0|0:0,0:0:0:0:
441,197,84763,2,0,L|331:188,1,90,8|0,0:0|0:0,0:0:0:0:
349,384,85096,2,0,L|358:274,1,90,2|0,0:0|0:0,0:0:0:0:
255,105,85430,2,0,L|246:215,1,90,8|0,0:0|0:0,0:0:0:0:
390,84,85763,5,0,0:0:0:0:
149,132,85929,1,2,0:0:0:0:
347,227,86096,1,8,0:0:0:0:
96,266,86263,2,0,P|57:245|22:184,1,90,2|0,0:0|0:0,0:0:0:0:
247,194,86596,1,0,0:0:0:0:
247,194,86679,1,2,0:0:0:0:
247,194,86763,2,0,L|237:293,1,90,8|0,0:0|0:0,0:0:0:0:
472,140,87096,5,6,0:0:0:0:
472,140,87263,1,2,0:0:0:0:
453,305,87429,1,8,0:0:0:0:
326,204,87596,1,0,0:0:0:0:
505,227,87763,5,6,0:0:0:0:
293,347,87929,1,2,0:0:0:0:
295,98,88096,1,8,0:0:0:0:
438,342,88263,1,6,0:0:0:0:
295,98,88596,5,0,0:0:0:0:
484,168,88763,2,0,P|491:220|473:282,1,90,12|0,0:0|0:0,0:0:0:0:
343,214,89096,5,0,0:0:0:0:
343,214,89263,1,2,0:0:0:0:
345,23,89429,2,0,P|397:16|459:34,1,90,12|0,0:0|0:0,0:0:0:0:
218,188,89763,5,6,0:0:0:0:
134,106,89929,1,0,0:0:0:0:
216,22,90096,1,10,0:0:0:0:
300,103,90263,1,0,0:0:0:0:
202,202,90429,5,6,0:0:0:0:
118,120,90595,1,0,0:0:0:0:
200,36,90762,1,10,0:0:0:0:
284,117,90929,1,0,0:0:0:0:
234,293,91096,6,0,P|183:295|148:279,1,90,6|0,0:0|0:0,0:0:0:0:
32,131,91430,2,0,P|82:128|117:144,1,90,10|0,0:0|0:0,0:0:0:0:
54,318,91763,2,0,P|51:267|67:232,1,90,4|0,0:0|0:0,0:0:0:0:
215,116,92097,2,0,P|217:166|201:201,1,90,10|0,0:0|0:0,0:0:0:0:
360,337,92429,5,6,0:0:0:0:
430,164,92596,1,0,0:0:0:0:
309,215,92762,1,10,0:0:0:0:
482,285,92929,1,0,0:0:0:0:
337,344,93095,5,6,0:0:0:0:
408,171,93263,1,0,0:0:0:0:
286,222,93428,1,10,0:0:0:0:
459,292,93595,1,0,0:0:0:0:
204,333,93763,6,0,P|152:336|110:315,1,90,6|0,0:0|0:0,0:0:0:0:
253,141,94096,2,0,P|281:184|284:231,1,90,8|2,0:0|0:0,0:0:0:0:
65,194,94429,2,0,P|88:147|127:121,1,90,4|2,0:0|0:0,0:0:0:0:
204,333,94763,2,0,P|152:336|110:315,1,90,14|0,0:0|0:0,0:0:0:0:
253,141,95096,5,6,0:0:0:0:
335,325,95263,1,0,0:0:0:0:
152,204,95429,1,10,0:0:0:0:
366,202,95596,1,0,0:0:0:0:
118,321,95763,5,2,0:0:0:0:
145,92,95929,1,0,0:0:0:0:
253,263,96096,1,10,0:0:0:0:
273,131,96263,1,0,0:0:0:0:
40,136,96429,5,6,0:0:0:0:
152,204,96596,1,0,0:0:0:0:
265,31,96763,1,10,0:0:0:0:
134,75,96929,1,0,0:0:0:0:
276,244,97096,5,2,0:0:0:0:
353,138,97263,1,0,0:0:0:0:
134,75,97429,1,10,0:0:0:0:
152,204,97596,1,0,0:0:0:0:
265,31,97763,6,0,P|317:25|362:38,1,90,6|0,0:0|0:0,0:0:0:0:
479,219,98096,2,0,P|427:225|382:212,1,90,8|2,0:0|0:0,0:0:0:0:
308,109,98429,1,0,0:0:0:0:
295,328,98596,1,2,0:0:0:0:
454,150,98763,1,10,0:0:0:0:
475,301,98929,1,0,0:0:0:0:
198,334,99096,5,2,0:0:0:0:
216,116,99263,1,0,0:0:0:0:
328,303,99429,1,10,0:0:0:0:
127,218,99596,1,0,0:0:0:0:
341,168,99763,5,2,0:0:0:0:
198,334,99929,1,0,0:0:0:0:
216,116,100096,1,10,0:0:0:0:
328,303,100262,1,0,0:0:0:0:
127,218,100429,5,4,0:0:0:0:
173,149,105596,5,0,0:0:0:0:
173,149,105679,1,0,0:0:0:0:
173,149,105763,1,8,0:0:0:0:
358,222,105929,1,8,0:0:0:0:
128,250,106263,5,8,0:0:0:0:
383,133,106429,1,8,0:0:0:0:
108,120,106763,5,8,0:0:0:0:
403,263,106929,1,8,0:0:0:0:
89,263,107263,5,8,0:0:0:0:
422,120,107429,1,8,0:0:0:0:
54,159,107763,5,8,0:0:0:0:
458,225,108096,1,8,0:0:0:0:
161,344,108429,5,12,0:0:0:0:
218,89,108596,1,0,0:0:0:0:
321,263,108763,1,0,0:0:0:0:
100,176,108929,5,12,0:0:0:0:
327,136,109096,1,0,0:0:0:0:
202,247,109263,1,0,0:0:0:0:
313,22,109429,5,12,0:0:0:0:
321,263,109596,1,0,0:0:0:0:
218,89,109763,1,0,0:0:0:0:
434,203,109929,5,12,0:0:0:0:
202,247,110096,1,0,0:0:0:0:
327,136,110263,1,0,0:0:0:0:
318,361,110429,5,12,0:0:0:0:
222,168,110596,1,0,0:0:0:0:
182,375,110763,1,8,0:0:0:0:
347,235,110929,1,8,0:0:0:0:
107,256,111096,5,12,0:0:0:0:
70,115,114554,6,0,B|135:86|201:114|201:114|272:142|347:97,1,270.000010299683,0|2,0:0|0:0,0:0:0:0:
331,105,116861,6,0,B|314:184|214:238|166:233|146:202|136:146|182:89|237:97|267:120|277:206|256:248|214:281|214:281|265:283|292:329,1,540.000020599366
279,311,120323,1,2,0:0:0:0:
279,311,121477,6,0,B|298:287|324:277|324:277|352:268|381:283|381:283|361:261|362:231|362:231|365:201|386:180|386:180|354:188|328:181|328:181|305:167|289:144|289:144|289:170|272:196|272:196|251:215|224:223|224:223|256:235|269:255|269:255|277:277|272:299,1,540.000020599366,0|0,0:0|0:0,0:0:0:0:
256,192,124361,12,0,134169,0:0:0:0:
