osu file format v14

[General]
AudioFilename: DM DOKURO - SAVE (Encore).mp3
AudioLeadIn: 2000
PreviewTime: 2316
Countdown: 0
SampleSet: Soft
StackLeniency: 0.6
Mode: 0
LetterboxInBreaks: 0
EpilepsyWarning: 1
WidescreenStoryboard: 1

[Editor]
Bookmarks: 3150,13816,24483,35150,45816,57123,68430,79096,89763,100429,111096,114554,124361
DistanceSpacing: 1
BeatDivisor: 4
GridSize: 4
TimelineZoom: 1

[Metadata]
Title:SAVE (Encore)
TitleUnicode:SAVE (Encore)
Artist:DM DOKURO
ArtistUnicode:DM DOKURO
Creator:Kaitjuh
Version:koopa's Normal
Source:UNDERTALE
Tags:toby fox Last Goodbye SAVE the World Hopes and Dreams undertale underground radio koopa712 bladesofsteel -Harpuia- ChronoNig
BeatmapID:909726
BeatmapSetID:419963

[Difficulty]
HPDrainRate:3.5
CircleSize:3
OverallDifficulty:4
ApproachRate:4.5
SliderMultiplier:1
SliderTickRate:1

[Events]
//Background and Video events
0,0,"bg.png",0,0
//Break Periods
2,111295,113294
//Storyboard Layer 0 (Background)
//Storyboard Layer 1 (Fail)
//Storyboard Layer 2 (Pass)
//Storyboard Layer 3 (Foreground)
//Storyboard Sound Samples

[TimingPoints]
-2183,333.333333333333,4,2,0,20,1,0
3149,-100,4,1,1,50,0,0
7816,-100,4,1,0,50,0,0
7983,-100,4,1,1,50,0,0
13816,-100,4,1,1,60,0,0
18483,-100,4,1,0,60,0,0
18816,-100,4,1,1,60,0,0
21983,-100,4,1,0,60,0,0
22150,-100,4,1,1,60,0,0
24483,-100,4,1,1,70,0,0
25150,-100,4,1,0,70,0,0
25483,-100,4,1,1,70,0,0
25816,-100,4,1,0,70,0,0
26150,-100,4,1,1,70,0,0
26483,-100,4,1,0,70,0,0
26816,-100,4,1,1,70,0,0
27816,-100,4,1,2,70,0,0
28816,-100,4,1,3,70,0,0
30150,-100,4,1,2,70,0,0
30816,-100,4,1,3,70,0,0
31483,-100,4,1,2,70,0,0
32150,-100,4,1,3,70,0,0
32483,-100,4,1,1,70,0,0
33816,-100,4,1,2,70,0,0
34150,-100,4,1,1,70,0,0
34483,-100,4,1,2,70,0,0
35150,-100,4,1,1,70,0,0
38150,-100,4,1,2,70,0,0
39483,-100,4,1,3,70,0,0
40816,-100,4,1,2,70,0,0
41483,-100,4,1,3,70,0,0
42150,-100,4,1,2,70,0,0
42816,-100,4,1,3,70,0,0
43483,-100,4,1,2,70,0,0
45483,-100,4,1,3,70,0,0
45816,706.713780918728,4,1,2,70,1,0
46522,-100,4,2,1,55,0,0
68430,333.333333333333,4,1,2,85,1,1
70263,-100,4,1,3,85,0,1
71096,-100,4,1,2,85,0,1
72763,-100,4,1,3,85,0,1
73763,-100,4,1,2,85,0,1
75263,-100,4,1,3,85,0,1
76429,-100,4,1,2,85,0,1
78096,-100,4,1,3,85,0,1
79096,-100,4,1,2,85,0,1
80096,-100,4,1,3,85,0,1
80429,-100,4,1,2,85,0,1
81429,-100,4,1,3,85,0,1
81763,-100,4,1,2,85,0,1
82596,-100,4,1,3,85,0,1
83429,-100,4,1,2,85,0,1
84096,-100,4,1,3,85,0,1
84429,-100,4,1,2,85,0,1
85429,-100,4,1,3,85,0,1
85763,-100,4,1,2,85,0,1
86763,-100,4,1,3,85,0,1
87096,-100,4,1,2,85,0,1
87929,-100,4,1,3,85,0,1
89763,-100,4,1,2,85,0,1
90096,-100,4,1,3,85,0,1
95096,-100,4,1,2,85,0,1
95763,-100,4,1,3,85,0,1
96429,-100,4,1,2,85,0,1
97096,-100,4,1,3,85,0,1
97763,-100,4,1,2,85,0,1
98263,-100,4,1,0,85,0,1
98429,-100,4,1,2,85,0,1
99596,-100,4,1,0,85,0,1
100096,-100,4,1,2,85,0,1
100429,-100,4,1,0,85,0,0
100513,-100,4,2,0,60,0,0
105763,-100,4,1,2,80,0,0
108096,-100,4,1,0,80,0,0
111096,517.241379310345,4,1,2,80,1,0
112906,545.454545454546,4,2,0,80,1,0
114554,576.923076923077,4,2,1,40,1,0
126669,-100,4,2,1,25,0,0
129265,-100,4,2,1,10,0,0
134169,-100,4,2,1,15,0,0

[Colours]
Combo1 : 255,192,0
Combo2 : 0,202,0
Combo3 : 18,124,255
Combo4 : 242,24,57
Combo5 : 253,234,0
Combo6 : 29,139,1
Combo7 : 0,141,166
Combo8 : 174,0,0

[HitObjects]
164,80,3150,6,0,P|106:172|152:256,1,200,4|0,0:0|0:0,0:0:0:0:
207,172,4150,2,0,P|251:184|287:232,1,100,8|0,0:0|0:0,0:0:0:0:
375,268,4816,1,8,0:0:0:0:
404,172,5150,2,0,B|364:140|352:88|352:88|300:68,1,150,0|2,0:0|0:0,0:0:0:0:
257,78,5816,6,0,P|189:102|65:78,2,200,4|0|2,0:0|0:0|0:0,0:0:0:0:
317,158,7483,2,0,P|341:226|309:306,1,150,8|0,0:0|0:0,0:0:0:0:
268,309,8150,1,8,0:0:0:0:
168,308,8483,6,0,B|116:288|88:251|88:251|64:152,1,200
149,100,9483,1,8,0:0:0:0:
248,116,9816,2,0,P|306:103|360:124,1,100,0|8,0:0|0:0,0:0:0:0:
300,204,10483,2,0,L|310:252,1,50,0|8,0:0|0:0,0:0:0:0:
409,270,10983,5,8,0:0:0:0:
376,308,11150,2,0,P|335:335|284:336,1,100,0|8,0:0|0:0,0:0:0:0:
192,299,11816,2,0,B|158:262|158:262|155:213,1,100,2|8,0:0|0:0,0:0:0:0:
241,161,12483,2,0,P|207:128|146:113,2,100,0|10|0,0:0|0:0|0:0,0:0:0:0:
340,149,13483,1,10,0:0:0:0:
430,193,13816,70,0,P|439:141|423:95,2,100,4|8|0,0:0|0:0|0:0,0:0:0:0:
368,272,14816,1,8,0:0:0:0:
272,300,15150,2,0,B|220:300|220:300|176:279,1,100,0|8,0:0|0:0,0:0:0:0:
80,256,15816,2,0,P|116:200|204:184,1,150,0|2,0:0|0:0,0:0:0:0:
242,195,16483,6,0,P|353:199|400:113,2,200,4|2|2,0:0|0:0|0:0,0:0:0:0:
300,112,18150,2,0,B|212:64|212:64|156:64,1,150,8|0,0:0|0:0,0:0:0:0:
125,97,18816,1,8,0:0:0:0:
168,188,19150,6,0,B|256:147|256:235|359:183,1,200
458,203,20150,1,8,0:0:0:0:
400,284,20483,2,0,P|360:312|312:328,1,100,0|8,0:0|0:0,0:0:0:0:
212,328,21150,2,0,L|161:308,1,50,0|8,0:0|0:0,0:0:0:0:
80,258,21650,6,0,B|116:222|116:222|166:222|166:222|208:185,1,150,0|2,0:0|0:0,0:0:0:0:
296,225,22483,1,0,0:0:0:0:
346,225,22650,2,0,B|400:225|400:225|440:169,1,100,8|2,0:0|0:0,0:0:0:0:
418,138,23150,1,4,0:0:0:0:
379,46,23483,2,0,P|428:38|477:44,2,100,8|0|8,0:0|0:0|0:0,0:0:0:0:
328,132,24483,70,0,P|256:190|184:132,1,200,4|2,0:0|0:0,0:0:0:0:
111,200,25483,1,8,0:0:0:0:
116,300,25816,2,2,B|172:296|207:264|207:264|255:282|305:264|305:264|340:296|396:300,1,300,6|8,0:0|0:0,0:0:0:0:
399,200,27150,6,0,P|416:166|340:38,1,200,0|2,0:0|0:0,0:0:0:0:
321,137,28150,2,0,P|306:156|298:179,1,50,8|2,0:0|0:0,0:0:0:0:
304,280,28650,2,8,P|256:292|208:280,1,100,2|8,0:0|0:0,0:0:0:0:
214,180,29316,2,0,P|206:156|190:136,1,50,0|8,0:0|0:0,0:0:0:0:
112,75,29816,5,0,0:0:0:0:
88,172,30150,2,2,P|100:224|124:264,1,100,10|2,0:0|0:0,0:0:0:0:
206,320,30816,1,8,0:0:0:0:
306,320,31150,5,0,0:0:0:0:
388,263,31483,2,2,P|413:220|424:172,1,100,10|2,0:0|0:0,0:0:0:0:
400,75,32150,1,8,0:0:0:0:
302,92,32483,70,0,P|253:90|208:113,1,100,0|10,0:0|0:0,0:0:0:0:
276,188,33150,1,0,0:0:0:0:
178,209,33483,1,10,0:0:0:0:
168,308,33816,2,2,B|222:311|256:270|256:270|296:296|352:296,1,200,6|6,0:0|0:0,0:0:0:0:
402,210,34816,1,8,0:0:0:0:
392,60,35316,6,0,L|424:124,2,50,0|8|2,0:0|0:0|0:0,0:0:0:0:
306,111,35983,2,0,L|318:167,2,50,0|8|2,0:0|0:0|0:0,0:0:0:0:
206,111,36650,2,0,L|194:55,2,50,0|8|2,0:0|0:0|0:0,0:0:0:0:
120,162,37316,2,0,L|88:98,2,50,0|8|2,0:0|0:0|0:0,0:0:0:0:
142,207,37816,6,0,P|134:275|150:315,1,100,0|10,0:0|0:0,0:0:0:0:
231,254,38483,2,0,L|275:230,1,50,0|10,0:0|0:0,0:0:0:0:
371,260,38983,2,2,B|387:208|355:165|355:165|359:112,1,150,10|8,0:0|0:0,0:0:0:0:
288,45,39816,1,0,0:0:0:0:
194,79,40150,1,8,0:0:0:0:
255,158,40483,5,0,0:0:0:0:
315,238,40816,2,2,P|263:258|215:250,1,100,10|2,0:0|0:0,0:0:0:0:
173,164,41483,1,8,0:0:0:0:
146,68,41816,69,0,0:0:0:0:
80,144,42150,2,2,P|76:200|48:252,1,100,10|2,0:0|0:0,0:0:0:0:
61,339,42816,1,8,0:0:0:0:
152,296,43150,5,0,0:0:0:0:
246,331,43483,1,10,0:0:0:0:
259,232,43816,1,0,0:0:0:0:
353,267,44149,1,10,0:0:0:0:
448,236,44483,2,2,P|492:184|496:88,2,150,2|10|8,0:0|0:0|0:0,0:0:0:0:
353,267,45816,1,4,0:0:0:0:normal-hitfinish2.wav
284,195,46522,70,0,L|300:87,2,100,2|0|2,0:0|0:0|0:0,0:0:0:0:
225,276,48642,1,8,0:0:0:0:
128,252,49349,2,0,L|88:192,2,50,2|0|2,0:0|0:0|0:2,0:0:0:0:
231,81,51469,6,0,L|266:184,1,100,8|2,0:0|0:0,0:0:0:0:
312,164,52529,1,0,0:0:0:0:
361,153,52883,2,0,L|393:247,1,100,0|2,0:0|0:0,0:0:0:0:
493,256,54296,2,0,P|457:325|385:348,1,150,8|0,0:0|0:0,0:0:0:0:
343,342,55709,1,2,0:2:0:0:
178,230,57123,69,8,0:0:0:0:
168,181,57476,1,0,0:0:0:0:
169,131,57830,2,0,P|182:84|230:41,1,100,2|0,0:0|0:0,0:0:0:0:
268,134,59243,1,2,0:0:0:0:
292,178,59596,1,0,0:0:0:0:
327,214,59950,2,0,B|375:198|426:207|426:207|463:106,1,200,8|2,0:0|0:0,0:0:0:0:
268,61,62777,6,0,P|218:78|159:94,1,100,8|2,0:0|0:0,0:0:0:0:
78,122,64190,2,0,P|63:175|60:230,1,100,0|2,0:0|0:0,0:0:0:0:
142,277,65603,2,0,P|182:308|216:360,2,100,12|0|2,0:0|0:0|0:0,0:0:0:0:
154,80,68430,70,0,P|125:122|119:175,1,100,4|10,0:0|0:0,0:0:0:0:
218,159,69096,2,0,P|216:212|238:275,1,100,0|10,0:0|0:0,0:0:0:0:
327,277,69763,1,0,0:0:0:0:
363,242,69930,2,0,P|370:194|367:142,1,100,2|10,0:0|0:0,0:0:0:0:
296,72,70596,2,0,L|244:68,1,50,2|8,0:0|0:0,0:0:0:0:
156,112,71096,6,0,P|112:77|53:53,2,100,0|10|0,0:0|0:0|0:0,0:0:0:0:
167,161,71930,1,10,0:0:0:0:
106,240,72263,2,2,P|159:270|252:274,1,150,10|10,0:0|0:0,0:0:0:0:
344,296,73096,1,2,0:0:0:0:
416,226,73430,1,8,0:0:0:0:
396,128,73763,69,4,0:0:0:0:
315,69,74096,2,0,B|262:78|262:78|197:78,1,100,10|0,0:0|0:0,0:0:0:0:
125,120,74763,1,10,0:0:0:0:
70,203,75096,2,0,L|83:259,1,50,0|10,0:0|0:0,0:0:0:0:
177,280,75596,1,10,0:0:0:0:
273,251,75929,2,0,L|284:202,1,50,2|8,0:0|0:0,0:0:0:0:
370,151,76429,5,2,0:0:0:0:
446,216,76763,1,8,0:0:0:0:
412,310,77096,2,2,L|357:317,1,50,2|10,0:0|0:0,0:0:0:0:
262,323,77596,1,10,0:0:0:0:
188,256,77929,2,0,L|121:245,2,50,2|8|2,0:0|0:0|0:0,0:0:0:0:
264,191,78596,1,2,0:0:0:0:
311,173,78763,1,8,0:0:0:0:
365,89,79096,6,0,P|398:128|410:192,2,100,6|8|2,0:0|0:0|0:0,0:0:0:0:
274,48,80096,1,8,0:0:0:0:
202,117,80429,1,0,0:0:0:0:
172,157,80596,2,0,P|133:180|61:177,2,100,2|10|2,0:0|0:0|0:0,0:0:0:0:
214,184,81429,1,8,0:0:0:0:
314,192,81763,6,0,P|292:249|259:273,1,100,0|10,0:0|0:0,0:0:0:0:
166,297,82429,1,0,0:0:0:0:
166,246,82596,1,10,0:0:0:0:
262,272,82929,2,2,B|294:322|347:310|347:310|405:266,1,150,2|10,0:0|0:0,0:0:0:0:
423,186,83763,1,2,0:0:0:0:
406,88,84096,1,8,0:0:0:0:
306,80,84429,70,2,L|204:69,1,100,6|8,0:0|0:0,0:0:0:0:
218,169,85096,2,2,L|116:158,1,100,2|8,0:0|0:0,0:0:0:0:
133,257,85763,2,0,L|149:309,1,50,0|10,0:0|0:0,0:0:0:0:
245,328,86263,2,2,P|296:331|347:296,1,100,10|2,0:0|0:0,0:0:0:0:
356,261,86763,1,8,0:0:0:0:
439,206,87096,6,2,P|415:180|354:161,1,100,2|8,0:0|0:0,0:0:0:0:
254,160,87763,1,2,0:0:0:0:
205,170,87929,1,10,0:0:0:0:
246,261,88263,1,8,0:0:0:0:
148,244,88596,2,2,P|116:196|118:135,1,100,2|10,0:0|0:0,0:0:0:0:
182,82,89263,2,0,L|240:77,1,50,2|8,0:0|0:0,0:0:0:0:
332,68,89763,6,2,L|375:158,1,100,6|8,0:0|0:0,0:0:0:0:
465,201,90429,2,2,P|433:241|377:257,1,100,2|8,0:0|0:0,0:0:0:0:
296,297,91096,2,2,P|253:318|192:312,1,100,2|8,0:0|0:0,0:0:0:0:
234,221,91763,1,2,0:0:0:0:
262,125,92096,1,8,0:0:0:0:
180,68,92429,6,2,L|136:158,1,100,2|8,0:0|0:0,0:0:0:0:
47,201,93095,2,2,P|79:241|135:257,1,100,2|8,0:0|0:0,0:0:0:0:
216,297,93762,2,2,P|259:318|320:312,1,100,2|8,0:0|0:0,0:0:0:0:
278,221,94429,1,2,0:0:0:0:
250,125,94762,1,8,0:0:0:0:
343,87,95096,70,0,L|399:71,2,50,6|0|10,0:0|0:0|0:0,0:0:0:0:
370,183,95763,1,2,0:0:0:0:
378,232,95929,1,2,0:0:0:0:
360,279,96096,1,8,0:0:0:0:
260,272,96429,6,0,L|216:304,2,50,2|0|10,0:0|0:0|0:0,0:0:0:0:
256,172,97096,1,2,0:0:0:0:
246,123,97263,1,2,0:0:0:0:
215,84,97429,1,8,0:0:0:0:
135,144,97763,6,0,L|104:101,2,50,2|0|10,0:0|0:0|0:0,0:0:0:0:
149,192,98263,1,8,0:0:0:0:
136,240,98429,2,0,L|105:283,2,50,2|0|10,0:0|0:0|0:0,0:0:0:0:
236,231,99096,6,0,L|211:278,2,50,2|0|10,0:0|0:0|0:0,0:0:0:0:
277,202,99596,1,8,0:0:0:0:
326,192,99763,2,0,L|382:191,2,50,2|0|10,0:0|0:0|0:0,0:0:0:0:
348,95,100429,6,0,P|256:62|164:95,2,200,4|2|8,0:0|0:0|0:0,0:0:0:0:
256,273,102429,1,2,0:0:0:0:
156,100,103096,6,0,P|122:192|156:284,1,200,0|2,0:0|0:0,0:0:0:0:
356,283,104429,2,0,P|389:191|356:100,1,200,10|2,0:0|0:0,0:0:0:0:
160,57,105763,70,0,L|146:105,1,50,6|2,0:0|0:0,0:0:0:0:
206,185,106263,2,0,L|219:136,1,50,2|2,0:0|0:0,0:0:0:0:
279,218,106763,2,2,L|265:266,1,50
326,346,107263,2,2,L|339:297,1,50
387,209,107763,2,0,P|392:159|375:113,1,100,2|8,0:0|0:0,0:0:0:0:
276,107,108429,5,8,0:0:0:0:
229,124,108596,1,4,0:0:0:0:
206,221,108929,1,8,0:0:0:0:
253,204,109096,1,4,0:0:0:0:
328,270,109429,2,0,L|283:293,1,50,8|4,0:0|0:0,0:0:0:0:
191,330,109929,2,0,L|141:339,1,50,8|4,0:0|0:0,0:0:0:0:
91,253,110429,70,0,P|92:203|110:151,2,100,0|8|4,0:0|0:0|0:0,0:0:0:0:
80,96,114554,70,0,P|56:192|80:288,2,200,0|2|8,0:0|0:0|0:0,0:0:0:0:
432,288,119169,2,0,P|456:192|432:96,2,200,0|2|8,0:0|0:0|0:0,0:0:0:0:
256,192,124361,12,12,134169,0:0:0:0:
