osu file format v14

[General]
AudioFilename: DM DOKURO - SAVE (Encore).mp3
AudioLeadIn: 2000
PreviewTime: 2316
Countdown: 0
SampleSet: Soft
StackLeniency: 0.6
Mode: 0
LetterboxInBreaks: 0
EpilepsyWarning: 1
WidescreenStoryboard: 1

[Editor]
DistanceSpacing: 1.3
BeatDivisor: 4
GridSize: 4
TimelineZoom: 1

[Metadata]
Title:SAVE (Encore)
TitleUnicode:SAVE (Encore)
Artist:DM DOKURO
ArtistUnicode:DM DOKURO
Creator:Kaitjuh
Version:Insane
Source:UNDERTALE
Tags:toby fox Last Goodbye SAVE the World Hopes and Dreams undertale underground radio koopa712 bladesofsteel -Harpuia- ChronoNig
BeatmapID:908717
BeatmapSetID:419963

[Difficulty]
HPDrainRate:7
CircleSize:4
OverallDifficulty:7.5
ApproachRate:9
SliderMultiplier:1.8
SliderTickRate:1

[Events]
//Background and Video events
0,0,"bg.png",0,0
//Break Periods
2,111296,113954
2,121676,123761
//Storyboard Layer 0 (Background)
//Storyboard Layer 1 (Fail)
//Storyboard Layer 2 (Pass)
//Storyboard Layer 3 (Foreground)
//Storyboard Sound Samples

[TimingPoints]
-2183,333.333333333333,4,2,2,20,1,0
483,-125,4,2,2,20,0,0
816,-125,4,2,2,25,0,0
1149,-125,4,2,2,30,0,0
1482,-125,4,2,2,35,0,0
1816,-111.111111111111,4,2,2,40,0,0
2150,-111.111111111111,4,2,2,45,0,0
2483,-111.111111111111,4,2,2,50,0,0
3149,-100,4,1,0,50,0,0
45816,706.713780918728,4,2,2,30,1,0
68430,333.333333333333,4,1,0,60,1,0
68430,-90.9090909090909,4,1,0,60,0,1
100429,-200,4,2,0,40,0,0
105596,-100,4,1,0,60,0,0
111096,517.241379310345,4,2,2,40,1,0
111096,-100,4,2,2,40,0,0
112906,545.454545454546,4,2,2,30,1,0
114554,576.923076923077,4,2,2,20,1,0
114554,-200,4,2,2,20,0,0
134025,-100,4,2,2,5,0,0

[Colours]
Combo1 : 253,234,0
Combo2 : 0,141,166
Combo3 : 174,0,0
Combo4 : 29,139,1

[HitObjects]
52,304,483,6,0,P|88:302|123:284,1,72,2|0,0:0|0:0,0:0:0:0:
94,124,816,2,0,P|96:159|112:191,1,72
273,166,1150,2,0,P|238:168|205:183,1,72,2|0,0:0|0:0,0:0:0:0:
228,348,1483,2,0,P|226:311|208:276,1,72
255,90,1816,6,0,P|256:129|272:165,1,80.9999975280763,2|0,0:0|0:0,0:0:0:0:
381,2,2150,2,0,P|340:3|303:19,1,80.9999975280763
469,128,2483,2,0,P|466:87|450:50,1,80.9999975280763,2|0,0:0|0:0,0:0:0:0:
343,216,2816,2,0,P|382:213|418:197,1,80.9999975280763
200,164,3150,6,0,B|192:240|192:240|220:288|216:368,1,180,6|8,0:0|0:0,0:0:0:0:
332,332,3650,1,0,0:0:0:0:
332,332,3816,2,0,P|376:344|440:304,1,90
359,165,4150,2,0,P|315:153|251:193,1,90,8|0,0:0|0:0,0:0:0:0:
424,256,4483,6,0,P|461:206|469:154,1,90,2|0,0:0|0:0,0:0:0:0:
328,80,4816,2,0,L|362:173,1,90,8|0,0:0|0:0,0:0:0:0:
417,331,5150,1,0,0:0:0:0:
423,90,5316,1,0,0:0:0:0:
318,230,5483,1,8,0:0:0:0:
424,256,5650,2,2,P|453:153|417:83,1,180,2|0,0:0|0:0,0:0:0:0:
185,63,6150,5,8,0:0:0:0:
328,80,6316,1,0,0:0:0:0:
174,211,6483,2,2,P|248:266|328:212,1,180,2|8,0:0|0:0,0:0:0:0:
424,90,6983,5,0,0:0:0:0:
424,90,7066,1,0,0:0:0:0:
424,90,7150,2,0,P|464:93|512:129,1,90,2|0,0:0|0:0,0:0:0:0:
398,259,7483,2,0,P|358:256|310:220,1,90,8|0,0:0|0:0,0:0:0:0:
232,70,7816,1,2,0:0:0:0:
148,252,7983,1,0,0:0:0:0:
224,176,8150,1,8,0:0:0:0:
182,350,8316,1,0,0:0:0:0:
123,154,8483,6,0,P|111:109|123:41,1,90,2|0,0:0|0:0,0:0:0:0:
296,20,8816,2,0,P|308:65|296:133,1,90,8|0,0:0|0:0,0:0:0:0:
250,272,9150,2,0,P|295:282|356:264,1,90
439,124,9483,2,0,L|388:215,1,90,8|0,0:0|0:0,0:0:0:0:
294,350,9816,6,0,P|324:312|338:253,1,90,2|0,0:0|0:0,0:0:0:0:
234,129,10150,2,0,L|311:195,1,90,8|0,0:0|0:0,0:0:0:0:
157,263,10483,1,0,0:3:0:0:
86,328,10650,1,0,0:0:0:0:
128,174,10816,1,8,0:0:0:0:
250,272,10983,5,0,0:3:0:0:
250,272,11150,2,2,P|289:304|363:311,1,90,2|0,0:0|0:0,0:0:0:0:
426,252,11483,2,0,P|387:220|313:213,1,90,8|0,0:0|0:0,0:0:0:0:
250,272,11816,2,2,P|211:304|137:311,1,90,2|0,0:0|0:0,0:0:0:0:
74,252,12150,2,0,P|113:220|187:213,1,90,8|0,0:0|0:0,0:0:0:0:
316,134,12483,6,2,P|332:90|316:44,1,90,2|0,0:0|0:0,0:0:0:0:
191,49,12816,2,2,P|180:92|196:134,1,90,2|0,0:0|0:0,0:0:0:0:
352,307,13150,1,2,0:0:0:0:
256,196,13316,1,0,0:0:0:0:
256,348,13483,1,10,0:0:0:0:
256,196,13650,1,0,0:0:0:0:
160,307,13816,6,2,P|120:248|128:129,1,180,6|8,0:0|0:0,0:0:0:0:
191,49,14316,1,0,0:0:0:0:
191,49,14483,2,0,P|224:85|239:132,1,90
302,270,14816,2,0,P|269:234|254:187,1,90,8|0,0:0|0:0,0:0:0:0:
352,91,15150,6,0,P|395:82|472:110,1,90,2|0,0:0|0:0,0:0:0:0:
389,269,15483,2,0,P|346:278|269:250,1,90,8|0,0:0|0:0,0:0:0:0:
180,172,15816,1,0,0:0:0:0:
301,269,15983,1,0,0:0:0:0:
325,116,16150,1,8,0:0:0:0:
347,349,16316,2,2,P|462:321|471:239,1,180,2|0,0:0|0:0,0:0:0:0:
482,96,16816,5,8,0:0:0:0:
439,193,16983,1,0,0:0:0:0:
439,193,17066,1,0,0:0:0:0:
439,193,17150,2,2,B|397:167|350:187|350:187|305:99|199:91,1,270,2|0,0:0|0:0,0:0:0:0:
188,91,17733,1,0,0:0:0:0:
166,97,17816,6,0,P|117:115|78:178,1,90,2|0,0:0|0:0,0:0:0:0:
131,282,18150,2,0,P|180:264|219:201,1,90,8|0,0:0|0:0,0:0:0:0:
352,186,18483,1,2,0:0:0:0:
318,269,18650,1,0,0:0:0:0:
386,103,18816,1,8,0:0:0:0:
407,257,18983,1,0,0:0:0:0:
407,257,19066,1,0,0:0:0:0:
407,257,19150,6,0,P|345:356|272:347,1,180,2|8,0:0|0:0,0:0:0:0:
318,269,19650,1,0,0:0:0:0:
318,269,19816,2,0,P|293:221|235:200,1,90
138,309,20150,2,0,P|192:311|239:271,1,90,8|0,0:0|0:0,0:0:0:0:
193,134,20483,6,0,P|163:179|174:240,1,90,2|0,0:0|0:0,0:0:0:0:
283,117,20816,2,0,P|312:71|301:10,1,90
162,213,21150,1,0,0:0:0:0:
343,181,21316,1,0,0:0:0:0:
225,46,21483,1,8,0:0:0:0:
252,197,21650,6,2,P|293:260|398:257,1,180,2|0,0:0|0:0,0:0:0:0:
407,247,22066,1,0,0:0:0:0:
422,232,22150,2,2,L|465:140,1,90,10|0,0:0|3:0,0:0:0:0:
374,101,22483,1,2,0:0:0:0:
283,117,22650,1,2,0:0:0:0:
343,181,22816,1,8,0:0:0:0:
311,36,22983,6,0,B|275:48|225:46|225:46|220:94|184:148,1,180,2|0,0:0|0:0,0:0:0:0:
141,296,23483,1,10,0:0:0:0:
167,214,23650,1,0,0:0:0:0:
226,277,23816,1,2,0:0:0:0:
200,359,23983,1,2,0:0:0:0:
82,233,24150,1,8,0:0:0:0:
252,197,24316,1,2,0:0:0:0:
366,323,24483,6,0,P|415:331|477:296,1,90,6|0,0:0|0:0,0:0:0:0:
496,239,24816,1,8,0:0:0:0:
464,154,24983,1,0,0:0:0:0:
338,201,25150,2,0,P|289:209|227:174,1,90,2|0,0:0|0:0,0:0:0:0:
211,115,25483,1,8,0:0:0:0:
301,115,25650,1,0,0:0:0:0:
162,191,25816,6,0,L|82:232,1,90,2|0,0:0|0:0,0:0:0:0:
36,154,26150,2,0,L|115:112,1,90,8|0,0:0|0:0,0:0:0:0:
258,31,26483,1,0,0:0:0:0:
252,197,26650,1,0,0:0:0:0:
240,216,26733,1,0,0:0:0:0:
229,235,26816,1,8,0:0:0:0:
301,115,26983,1,0,0:0:0:0:
327,272,27150,6,0,P|352:307|413:324,1,90,2|0,0:0|0:0,0:0:0:0:
482,281,27483,2,0,P|457:246|396:229,1,90,8|0,0:0|0:0,0:0:0:0:
301,115,27816,1,2,0:0:0:0:
399,118,27983,1,0,0:0:0:0:
338,201,28150,1,10,0:0:0:0:
349,33,28316,6,0,P|293:17|248:34,1,90,2|0,0:0|0:0,0:0:0:0:
119,93,28650,2,0,P|175:109|220:92,1,90,2|0,0:0|0:0,0:0:0:0:
53,29,28983,2,0,P|33:63|34:127,1,90,2|0,0:0|0:0,0:0:0:0:
105,206,29316,1,0,0:0:0:0:
91,224,29400,1,0,0:0:0:0:
77,242,29483,1,10,0:0:0:0:
48,348,29650,1,0,0:0:0:0:
48,348,29816,6,0,P|101:350|134:329,1,90,2|0,0:0|0:0,0:0:0:0:
197,212,30150,1,10,0:0:0:0:
286,204,30316,1,2,0:0:0:0:
350,267,30483,2,0,P|401:257|444:213,1,90,2|0,0:0|0:0,0:0:0:0:
460,105,30816,2,0,P|409:115|366:159,1,90,10|0,0:0|0:0,0:0:0:0:
270,302,31150,6,0,P|324:287|365:246,1,90,2|0,0:0|0:0,0:0:0:0:
379,137,31483,1,10,0:0:0:0:
297,97,31650,1,2,0:0:0:0:
212,126,31816,2,0,P|170:143|116:187,1,90,2|0,0:0|0:0,0:0:0:0:
133,168,32066,1,0,0:0:0:0:
133,168,32150,1,10,0:0:0:0:
136,285,32316,1,0,0:0:0:0:
136,285,32483,6,0,P|168:319|228:330,1,90,2|0,0:0|0:0,0:0:0:0:
291,197,32816,2,0,P|245:207|206:254,1,90,10|0,0:0|0:0,0:0:0:0:
294,294,33150,2,0,P|326:328|386:339,1,90,2|0,0:0|0:0,0:0:0:0:
449,206,33483,2,0,P|403:216|364:263,1,90,10|0,0:0|0:0,0:0:0:0:
512,241,33816,6,0,P|521:195|487:145,1,90,2|0,0:0|0:0,0:0:0:0:
417,40,34150,2,0,P|408:86|442:136,1,90,8|0,0:0|0:0,0:0:0:0:
443,292,34483,2,0,P|409:319|360:322,1,90,2|0,0:0|0:0,0:0:0:0:
291,197,34816,1,8,0:0:0:0:
259,180,34900,1,0,0:0:0:0:
224,173,34983,1,0,0:0:0:0:
188,175,35066,1,0,0:0:0:0:
154,188,35150,6,0,P|109:231|97:266,1,90,4|0,0:0|0:0,0:0:0:0:
116,362,35483,1,10,0:0:0:0:
218,328,35650,2,0,P|236:259|174:294,1,180,2|0,0:0|0:0,0:0:0:0:
319,336,36150,1,10,0:0:0:0:
369,202,36316,6,0,P|329:133|225:103,1,180,2|0,0:0|0:0,0:0:0:0:
147,106,36816,1,10,0:0:0:0:
86,173,36983,2,0,L|41:282,1,90,2|0,0:0|0:0,0:0:0:0:
114,355,37316,1,0,0:0:0:0:
154,274,37483,1,10,0:0:0:0:
242,254,37650,1,2,0:0:0:0:
319,336,37816,6,0,P|371:339|419:318,1,90,2|0,0:0|0:0,0:0:0:0:
438,222,38150,1,8,0:0:0:0:
302,205,38316,1,0,0:0:0:0:
317,220,38400,1,0,0:0:0:0:
333,236,38483,1,2,0:0:0:0:
363,131,38650,2,0,P|365:88|339:52,1,90,2|8,0:0|0:0,0:0:0:0:
363,131,38983,6,0,B|404:145|434:184|434:184|463:145|514:119,1,180,2|2,0:0|0:0,0:0:0:0:
501,125,39400,1,0,0:0:0:0:
501,125,39483,1,8,0:0:0:0:
425,51,39650,1,0,0:0:0:0:
425,51,39816,2,0,P|382:41|338:51,1,90,2|0,0:0|0:0,0:0:0:0:
194,109,40150,2,0,P|237:119|281:109,1,90,10|0,0:0|0:0,0:0:0:0:
149,44,40483,6,0,P|118:88|125:143,1,90,6|0,0:0|0:0,0:0:0:0:
178,212,40816,1,10,0:0:0:0:
267,198,40983,1,2,0:0:0:0:
331,260,41150,2,0,P|362:293|438:306,1,90,2|0,0:0|0:0,0:0:0:0:
481,232,41483,2,0,P|450:199|374:186,1,90,10|0,0:0|0:0,0:0:0:0:
284,114,41816,6,0,P|262:163|274:214,1,90,2|0,0:0|0:0,0:0:0:0:
292,303,42150,1,10,0:0:0:0:
207,331,42316,1,2,0:0:0:0:
138,272,42483,2,0,P|89:245|44:235,1,90,2|0,0:0|0:0,0:0:0:0:
56,236,42733,1,0,0:0:0:0:
56,236,42816,1,10,0:0:0:0:
28,160,42983,1,0,0:0:0:0:
131,127,43150,6,0,P|161:108|191:57,1,90,2|0,0:0|0:0,0:0:0:0:
303,178,43483,2,0,P|271:161|212:161,1,90,10|0,0:0|0:0,0:0:0:0:
261,3,43816,2,0,P|262:38|291:89,1,90,2|0,0:0|0:0,0:0:0:0:
406,208,44150,2,0,P|404:172|375:121,1,90,10|0,0:0|0:0,0:0:0:0:
334,281,44483,5,6,0:0:0:0:
480,148,44650,1,0,0:0:0:0:
480,148,44816,1,8,0:0:0:0:
428,304,44983,1,6,0:0:0:0:
303,178,45150,1,0,0:0:0:0:
303,178,45316,1,0,0:0:0:0:
360,380,45483,1,10,0:0:0:0:
406,208,45650,1,8,0:0:0:0:
228,252,45816,5,6,0:0:0:0:
228,252,46522,2,0,P|182:270|109:250,1,90,2|0,0:0|0:0,0:0:0:0:
303,178,47229,2,0,P|349:160|422:180,1,90,2|0,0:0|0:0,0:0:0:0:
366,269,47936,1,2,0:0:0:0:
445,341,48289,1,2,0:0:0:0:
463,234,48642,5,2,0:0:0:0:
342,373,48996,1,0,0:0:0:0:
282,198,49349,2,0,P|270:154|308:91,1,90,2|2,0:0|0:0,0:0:0:0:
411,46,50056,2,0,B|397:84|405:125|405:125|389:151|389:151|391:190|374:230,1,180,2|2,0:0|0:0,0:0:0:0:
351,323,51116,1,2,0:0:0:0:
225,313,51469,6,0,P|188:275|181:216,1,90,2|0,0:0|0:0,0:0:0:0:
130,143,52176,2,0,P|181:129|236:153,1,90,2|0,0:0|0:0,0:0:0:0:
324,145,52883,2,0,P|309:196|261:231,1,90,2|0,0:0|0:0,0:0:0:0:
216,139,53589,2,0,P|230:87|278:52,1,90,2|0,0:0|0:0,0:0:0:0:
409,63,54296,5,2,0:0:0:0:
256,216,55003,1,2,0:0:0:0:
103,63,55709,1,2,0:0:0:0:
256,292,56416,1,0,0:0:0:0:
344,228,56770,1,0,0:0:0:0:
452,236,57123,6,0,P|476:172|419:81,1,180,2|2,0:0|0:0,0:0:0:0:
324,132,58183,1,2,0:0:0:0:
256,216,58536,2,0,P|224:228|160:208,1,90,2|0,0:0|0:0,0:0:0:0:
136,112,59243,2,0,P|168:100|232:120,1,90,2|0,0:0|0:0,0:0:0:0:
360,232,59950,5,2,0:0:0:0:
256,216,60303,1,0,0:0:0:0:
324,132,60656,1,2,0:0:0:0:
240,332,61363,2,0,B|215:326|172:328|172:328|136:272|84:260,1,180,2|0,0:0|0:0,0:0:0:0:
24,172,62423,1,0,0:0:0:0:
132,96,62777,6,0,P|188:88|244:108,1,90,2|0,0:0|0:0,0:0:0:0:
280,184,63483,2,0,P|224:192|168:172,1,90,2|0,0:0|0:0,0:0:0:0:
368,140,64190,2,0,B|380:184|380:184|369:227,1,90,2|0,0:0|0:0,0:0:0:0:
468,136,64897,2,0,B|456:92|456:92|468:42,1,90,2|0,0:0|0:0,0:0:0:0:
452,244,65427,1,2,0:0:0:0:
452,244,65603,6,0,P|428:292|372:312,1,90,2|0,0:0|0:0,0:0:0:0:
292,328,66310,1,2,0:0:0:0:
220,248,66664,1,0,0:0:0:0:
248,144,67017,1,2,0:0:0:0:
452,68,67724,5,0,0:0:0:0:
452,68,68430,6,0,P|460:110|432:200,1,99.0000030212403,6|0,0:0|0:0,0:0:0:0:
247,241,68763,2,0,P|239:199|267:109,1,99.0000030212403,8|0,0:0|0:0,0:0:0:0:
451,165,69096,2,0,L|384:264,1,99.0000030212403,2|0,0:0|0:0,0:0:0:0:
247,143,69430,2,0,L|314:44,1,99.0000030212403,8|0,0:0|0:0,0:0:0:0:
395,246,69763,5,2,0:0:0:0:
247,241,69930,1,0,0:0:0:0:
232,260,70013,1,0,0:0:0:0:
220,280,70096,1,8,0:0:0:0:
120,292,70263,2,2,P|204:379|292:348,1,198.000006042481
269,366,70680,1,0,0:0:0:0:
269,366,70763,1,10,0:0:0:0:
332,289,70930,1,0,0:0:0:0:
472,272,71096,6,0,P|464:208|412:156,1,99.0000030212403,2|0,0:0|0:0,0:0:0:0:
295,64,71430,2,0,P|298:113|322:155,1,99.0000030212403,8|0,0:0|0:0,0:0:0:0:
322,155,71680,1,0,0:0:0:0:
322,155,71763,1,2,0:0:0:0:
408,76,71930,1,0,0:0:0:0:
208,144,72096,1,8,0:0:0:0:
361,255,72263,6,0,P|412:176|408:72,1,198.000006042481,2|2,0:0|0:0,0:0:0:0:
408,76,72680,1,0,0:0:0:0:
409,75,72763,1,8,0:0:0:0:
295,64,72930,1,0,0:0:0:0:
208,144,73096,2,0,P|180:188|128:212,1,99.0000030212403,2|0,0:0|0:0,0:0:0:0:
28,252,73430,2,0,P|56:296|108:320,1,99.0000030212403,8|0,0:0|0:0,0:0:0:0:
236,324,73763,6,0,P|296:304|368:312,1,99.0000030212403,2|0,0:0|0:0,0:0:0:0:
431,287,74096,2,0,P|428:336|400:376,1,99.0000030212403,8|0,0:0|0:0,0:0:0:0:
364,204,74430,2,0,P|304:184|232:192,1,99.0000030212403,2|0,0:0|0:0,0:0:0:0:
168,167,74763,2,0,P|170:215|199:255,1,99.0000030212403,8|0,0:0|0:0,0:0:0:0:
236,88,75096,5,2,0:0:0:0:
348,28,75263,1,0,0:0:0:0:
360,52,75346,1,0,0:0:0:0:
372,76,75430,1,8,0:0:0:0:
236,88,75596,2,2,B|180:104|140:92|140:92|120:128|56:152,1,198.000006042481
60,150,76013,1,0,0:0:0:0:
60,150,76096,1,8,0:0:0:0:
180,16,76263,1,0,0:0:0:0:
256,190,76429,6,2,B|304:206|348:166|348:166|332:114|380:66,1,198.000006042481,2|8,0:0|0:0,0:0:0:0:
423,136,76929,1,0,0:0:0:0:
266,111,77096,1,2,0:0:0:0:
365,244,77263,1,2,0:0:0:0:
371,75,77429,1,8,0:0:0:0:
256,190,77596,6,0,B|155:231|155:231|110:174|85:184,1,198.000006042481,2|2,0:0|0:0,0:0:0:0:
173,135,78096,1,8,0:0:0:0:
257,313,78263,2,2,B|332:305|364:244|364:244|384:276|428:276,1,198.000006042481
379,350,78763,1,8,0:0:0:0:
256,190,78929,1,0,0:0:0:0:
144,352,79096,6,0,P|84:356|12:330,1,99.0000030212403,2|0,0:0|0:0,0:0:0:0:
158,185,79429,2,0,P|218:181|290:207,1,99.0000030212403,8|0,0:0|0:0,0:0:0:0:
417,275,79763,2,0,P|462:235|494:166,1,99.0000030212403,2|0,0:0|0:0,0:0:0:0:
320,117,80096,2,0,P|275:157|243:226,1,99.0000030212403,8|0,0:0|0:0,0:0:0:0:
417,275,80429,5,2,0:0:0:0:
452,100,80596,1,0,0:0:0:0:
436,120,80679,1,0,0:0:0:0:
420,140,80763,1,8,0:0:0:0:
255,189,80929,2,2,B|188:212|156:160|156:160|146:111|104:92,1,198.000006042481
108,93,81346,1,0,0:0:0:0:
108,93,81429,1,10,0:0:0:0:
220,120,81596,1,0,0:0:0:0:
104,218,81763,6,0,P|156:260|224:276,1,99.0000030212403,2|0,0:0|0:0,0:0:0:0:
336,242,82096,2,0,P|284:200|216:184,1,99.0000030212403,8|0,0:0|0:0,0:0:0:0:
255,189,82346,1,0,0:0:0:0:
255,189,82429,1,2,0:0:0:0:
408,196,82596,1,0,0:0:0:0:
320,326,82763,1,8,0:0:0:0:
254,188,82929,6,2,P|256:124|384:80,1,198.000006042481
388,76,83346,1,0,0:0:0:0:
408,92,83429,1,10,0:0:0:0:
504,164,83596,1,0,0:0:0:0:
340,160,83763,2,0,P|332:200|364:264,1,99.0000030212403,2|0,0:0|0:0,0:0:0:0:
444,292,84096,2,0,P|452:252|420:188,1,99.0000030212403,8|0,0:0|0:0,0:0:0:0:
320,326,84429,6,0,P|264:352|220:354,1,99.0000030212403,2|0,0:0|0:0,0:0:0:0:
162,206,84763,1,8,0:0:0:0:
136,312,84929,1,0,0:0:0:0:
84,120,85096,2,0,P|132:96|216:100,1,99.0000030212403,2|0,0:0|0:0,0:0:0:0:
368,92,85429,1,8,0:0:0:0:
276,136,85596,1,0,0:0:0:0:
272,8,85763,5,2,0:0:0:0:
276,136,85929,1,0,0:0:0:0:
276,156,86013,1,0,0:0:0:0:
276,176,86096,1,8,0:0:0:0:
188,256,86263,2,2,P|277:296|363:247,1,198.000006042481
359,253,86679,1,0,0:0:0:0:
359,253,86763,1,10,0:0:0:0:
388,138,86929,1,0,0:0:0:0:
474,264,87096,6,2,B|445:208|445:208|481:170|491:118|450:75,1,198.000006042481,2|8,0:0|0:0,0:0:0:0:
359,20,87596,1,0,0:0:0:0:
276,136,87763,2,0,P|224:128|176:92,1,99.0000030212403,2|0,0:0|0:0,0:0:0:0:
359,20,88096,1,8,0:0:0:0:
276,136,88263,6,0,P|216:236|241:324,1,198.000006042481,2|0,0:0|0:0,0:0:0:0:
337,245,88763,1,8,0:0:0:0:
448,206,88929,2,2,B|421:179|412:143|412:143|376:125|376:125|358:80|326:53,1,198.000006042481
213,26,89429,1,8,0:0:0:0:
172,54,89512,1,0,0:0:0:0:
132,83,89595,1,0,0:0:0:0:
91,111,89678,1,0,0:0:0:0:
58,149,89763,6,0,L|21:246,1,99.0000030212403,6|0,0:0|0:0,0:0:0:0:
0,338,90096,1,8,0:0:0:0:
93,305,90263,1,0,0:0:0:0:
180,123,90429,6,0,L|139:229,1,99.0000030212403,6|0,0:0|0:0,0:0:0:0:
116,330,90762,1,8,0:0:0:0:
218,294,90929,1,0,0:0:0:0:
310,98,91096,6,0,L|265:215,1,99.0000030212403,6|0,0:0|0:0,0:0:0:0:
239,325,91429,1,8,0:0:0:0:
351,286,91596,1,0,0:0:0:0:
453,70,91763,6,0,L|403:199,1,99.0000030212403,6|0,0:0|0:0,0:0:0:0:
374,319,92096,1,8,0:0:0:0:
498,276,92263,1,0,0:0:0:0:
278,253,92429,6,0,P|235:275|165:281,1,99.0000030212403,6|0,0:0|0:0,0:0:0:0:
65,271,92763,1,8,0:0:0:0:
44,174,92929,1,0,0:0:0:0:
257,156,93096,6,0,P|214:178|144:184,1,99.0000030212403,6|0,0:0|0:0,0:0:0:0:
44,174,93429,1,8,0:0:0:0:
23,77,93596,1,0,0:0:0:0:
164,185,93763,5,2,0:0:0:0:
259,55,93929,1,0,0:0:0:0:
106,104,94096,1,8,0:0:0:0:
259,154,94263,1,0,0:0:0:0:
374,25,94430,5,2,0:0:0:0:
253,173,94596,1,0,0:0:0:0:
436,128,94763,1,10,0:0:0:0:
259,55,94930,1,2,0:0:0:0:
362,219,95096,6,0,P|391:261|404:330,1,99.0000030212403,2|0,0:0|0:0,0:0:0:0:
305,291,95429,2,0,P|295:341|256:399,1,99.0000030212403,8|0,0:0|0:0,0:0:0:0:
213,301,95763,2,0,P|170:330|102:343,1,99.0000030212403,2|0,0:0|0:0,0:0:0:0:
133,248,96096,1,10,0:0:0:0:
133,248,96263,1,2,0:0:0:0:
80,107,96429,6,0,P|89:56|128:-1,1,99.0000030212403,2|0,0:0|0:0,0:0:0:0:
171,96,96762,2,0,P|213:67|282:53,1,99.0000030212403,8|0,0:0|0:0,0:0:0:0:
243,154,97096,2,0,P|293:163|351:202,1,99.0000030212403,2|0,0:0|0:0,0:0:0:0:
262,248,97429,1,10,0:0:0:0:
262,248,97596,1,2,0:0:0:0:
312,336,97763,6,0,P|368:331|410:311,1,99.0000030212403,2|0,0:0|0:0,0:0:0:0:
436,210,98096,2,0,P|380:215|338:235,1,99.0000030212403,8|0,0:0|0:0,0:0:0:0:
200,336,98429,2,0,P|144:331|102:311,1,99.0000030212403,2|0,0:0|0:0,0:0:0:0:
76,210,98762,2,0,P|132:215|174:235,1,99.0000030212403,8|0,0:0|0:0,0:0:0:0:
256,188,99096,5,2,0:0:0:0:
351,116,99263,1,0,0:0:0:0:
314,2,99429,1,10,0:0:0:0:
195,2,99596,1,0,0:0:0:0:
157,117,99763,1,2,0:0:0:0:
351,116,99929,1,0,0:0:0:0:
195,2,100096,1,10,0:0:0:0:
256,188,100263,1,2,0:0:0:0:
314,2,100429,5,6,0:0:0:0:
157,117,101096,2,0,B|152:148|96:176|96:176|112:224|64:260,2,180,2|2|2,0:0|0:0|0:0,0:0:0:0:
352,88,103096,6,0,B|396:96|436:72|436:72|436:124|468:160,1,180,2|2,0:0|0:0,0:0:0:0:
240,300,104429,2,0,B|196:292|156:316|156:316|156:264|124:228,1,180,2|2,0:0|0:0,0:0:0:0:
352,88,105596,5,0,0:0:0:0:
352,88,105679,1,0,0:0:0:0:
352,88,105763,1,12,0:0:0:0:
140,152,105929,1,8,0:0:0:0:
360,168,106263,5,8,0:0:0:0:
140,152,106429,1,8,0:0:0:0:
424,120,106763,5,8,0:0:0:0:
204,200,106929,1,8,0:0:0:0:
436,200,107263,5,8,0:0:0:0:
212,124,107429,1,8,0:0:0:0:
368,248,107763,5,8,0:0:0:0:
152,72,108096,1,8,0:0:0:0:
368,248,108429,6,8,P|408:280|464:280,2,90,8|0|8,0:0|0:0|0:0,0:0:0:0:
360,160,108929,2,8,P|312:178|284:227,2,90,8|0|8,0:0|0:0|0:0,0:0:0:0:
440,197,109429,6,8,P|447:146|419:97,2,90,8|0|8,0:0|0:0|0:0,0:0:0:0:
368,248,109929,2,8,P|360:298|388:347,2,90,8|0|8,0:0|0:0|0:0,0:0:0:0:
360,160,110429,5,8,0:0:0:0:
144,112,110763,1,8,0:0:0:0:
180,192,110929,1,8,0:0:0:0:
256,32,111096,1,4,0:0:0:0:
96,112,114554,6,0,P|74:193|102:293,1,180,2|0,0:0|0:0,0:0:0:0:
256,196,116861,1,2,0:0:0:0:
416,112,119169,6,0,P|438:193|410:293,1,180,2|2,0:0|0:0,0:0:0:0:
256,196,121476,1,0,0:0:0:0:
256,192,124361,12,2,126669,0:0:0:0:
256,192,126957,12,2,129265,0:0:0:0:
256,192,129554,12,2,134025,0:0:0:0:
