osu file format v14

[General]
AudioFilename: audio.mp3
AudioLeadIn: 0
PreviewTime: 191916
Countdown: 0
SampleSet: Soft
StackLeniency: 0.7
Mode: 2
LetterboxInBreaks: 0
WidescreenStoryboard: 1

[Editor]
Bookmarks: 21333,42666,63999,85333,106666,127999,149333,167999,191999,213333,234666,255999,277333,309333,330666,351999,373333
DistanceSpacing: 2.2
BeatDivisor: 4
GridSize: 8
TimelineZoom: 1.4

[Metadata]
Title:SAVE
TitleUnicode:SAVE
Artist:DM DOKURO
ArtistUnicode:DM DOKURO
Creator:Dapuluous
Version:Vessel of Determination
Source:UNDERTALE
Tags:dreemurr toby fox underground radio hopes and dreams ajamez jemzuu
BeatmapID:2225349
BeatmapSetID:842664

[Difficulty]
HPDrainRate:6
CircleSize:4
OverallDifficulty:9.2
ApproachRate:9.2
SliderMultiplier:2.1
SliderTickRate:2

[Events]
//Background and Video events
0,0,"66.png",0,0
//Break Periods
//Storyboard Layer 0 (Background)
//Storyboard Layer 1 (Fail)
//Storyboard Layer 2 (Pass)
//Storyboard Layer 3 (Foreground)
//Storyboard Layer 4 (Overlay)
//Storyboard Sound Samples

[TimingPoints]
0,333.333333333333,4,2,0,45,1,0
19999,-100,4,3,1,50,0,0
21333,-100,4,1,0,65,0,0
21416,-100,4,1,1,65,0,0
42666,-100,4,1,0,50,0,0
42833,-100,4,2,1,50,0,0
63583,-100,4,3,0,50,0,0
63999,-100,4,1,0,70,0,1
64083,-100,4,1,1,70,0,1
106666,-100,4,1,1,65,0,0
127999,-100,4,2,0,50,0,0
148749,-100,4,1,1,50,0,0
149333,-100,4,1,1,65,0,0
167999,-100,4,2,0,50,0,0
170666,-100,4,2,0,45,0,0
190666,-100,4,3,1,50,0,0
191999,-100,4,1,1,70,0,1
234666,-100,4,1,0,65,0,0
234999,-125,4,2,0,45,0,0
255999,-100,4,1,1,70,0,1
298666,-125,4,2,0,65,0,0
303999,-100,4,1,1,65,0,0
309333,666.666666666667,4,2,0,45,1,0
309333,-76.9230769230769,4,2,0,45,0,0
330666,-100,4,2,0,50,0,0
351999,-76.9230769230769,4,2,1,65,0,0
378666,-100,4,2,0,10,0,0

[Colours]
Combo1 : 246,255,0
Combo2 : 255,0,0
Combo3 : 0,255,255
Combo4 : 255,174,0
Combo5 : 70,0,255
Combo6 : 241,0,248
Combo7 : 0,213,0

[HitObjects]
464,80,0,6,0,P|400:256|232:176,2,420,2|0|2,0:0|0:0|0:0,0:0:0:0:
40,96,2666,6,0,P|128:256|280:144,2,420,2|0|2,0:0|0:0|0:0,0:0:0:0:
464,64,5333,6,0,P|272:64|272:256,1,420,2|0,0:0|0:0,0:0:0:0:
456,192,6333,1,0,0:0:0:0:
128,192,6666,5,2,0:0:0:0:
473,64,7666,1,0,0:0:0:0:
184,192,7999,5,2,0:0:0:0:
456,192,8666,1,2,0:0:0:0:
184,192,9333,5,2,0:0:0:0:
336,96,9499,2,0,L|224:96,1,105,0|2,0:0|0:0,0:0:0:0:
384,288,9833,2,0,L|272:288,1,105,0|2,0:0|0:0,0:0:0:0:
432,160,10166,2,0,L|320:160,2,105,0|2|0,0:0|0:0|0:0,0:0:0:0:
112,192,10666,5,2,0:0:0:0:
448,192,11333,1,2,0:0:0:0:
72,32,11999,5,2,0:0:0:0:
176,32,12166,2,0,L|280:32,1,105,0|2,0:0|0:0,0:0:0:0:
440,120,12499,2,0,L|336:120,1,105,0|2,0:0|0:0,0:0:0:0:
176,192,12833,2,0,L|281:192,2,105,0|2|0,0:0|0:0|0:0,0:0:0:0:
496,192,13333,5,2,0:0:0:0:
120,192,13999,1,2,0:0:0:0:
456,192,14666,5,2,0:0:0:0:
296,88,14833,2,0,L|400:88,1,105,0|2,0:0|0:0,0:0:0:0:
240,160,15166,2,0,L|352:160,1,105,0|2,0:0|0:0,0:0:0:0:
184,256,15499,2,0,L|72:256,2,105,0|2|0,0:0|0:0|0:0,0:0:0:0:
480,192,15999,5,2,0:0:0:0:
144,192,16666,1,2,0:0:0:0:
480,192,17333,5,2,0:0:0:0:
328,288,17499,2,0,L|328:176,1,105,0|2,0:0|0:0,0:0:0:0:
488,64,17833,2,0,L|384:64,2,105,0|2|0,0:0|0:0|0:0,0:0:0:0:
224,144,18333,2,0,L|120:144,1,105,2|0,0:0|0:0,0:0:0:0:
440,192,18666,5,2,0:0:0:0:
40,336,19333,2,0,P|144:240|32:160,1,315,2|0,0:0|0:0,0:0:0:0:
440,296,19999,2,0,L|320:296,2,105,10|0|0,0:0|0:0|0:0,0:0:0:0:
152,32,20499,1,8,0:0:0:0:
96,32,20582,1,0,0:0:0:0:
96,32,20666,1,0,0:0:0:0:
152,32,20749,1,0,0:0:0:0:
96,80,20833,5,8,0:0:0:0:
40,80,20916,1,0,0:0:0:0:
216,136,20999,2,0,L|280:136,1,52.5,8|0,0:0|0:0,0:0:0:0:
443,120,21166,2,0,L|496:120,1,52.5,8|0,0:0|0:0,0:0:0:0:
168,213,21333,6,0,P|128:260|219:355,1,210,4|8,0:0|0:0,0:0:0:0:
310,346,21833,1,0,0:0:0:0:
61,162,21999,2,0,L|62:47,1,105,0|0,0:0|0:0,0:0:0:0:
232,239,22333,2,0,L|118:257,1,105,8|0,0:0|0:0,0:0:0:0:
404,167,22666,5,2,0:0:0:0:
265,92,22833,2,0,L|150:74,1,105,0|8,0:0|0:0,0:0:0:0:
326,17,23166,1,0,0:0:0:0:
163,182,23333,2,0,L|161:302,1,105,0|0,0:0|0:0,0:0:0:0:
324,281,23666,2,0,L|358:406,1,105,8|0,0:0|0:0,0:0:0:0:
51,163,23999,6,0,P|84:101|221:71,1,210,2|8,0:0|0:0,0:0:0:0:
321,80,24499,1,0,0:0:0:0:
72,278,24666,2,0,L|185:291,1,105,0|0,0:0|0:0,0:0:0:0:
328,333,24999,1,8,0:0:0:0:
192,192,25166,1,0,0:0:0:0:
480,162,25333,5,2,0:0:0:0:
321,80,25499,2,0,L|432:64,1,105,0|8,0:0|0:0,0:0:0:0:
246,118,25833,1,0,0:0:0:0:
397,224,25999,2,0,L|406:353,1,105,0|0,0:0|0:0,0:0:0:0:
246,344,26333,2,0,L|127:349,1,105,8|0,0:0|0:0,0:0:0:0:
485,254,26666,6,0,P|472:192|340:147,1,210,2|8,0:0|0:0,0:0:0:0:
225,158,27166,1,0,0:0:0:0:
482,130,27333,2,0,P|472:68|420:25,1,105,0|0,0:0|0:0,0:0:0:0:
290,50,27666,1,8,0:0:0:0:
444,37,27833,1,0,0:0:0:0:
124,268,27999,6,0,L|139:150,1,105,2|0,0:0|0:0,0:0:0:0:
290,186,28333,2,0,L|299:66,1,105,8|0,0:0|0:0,0:0:0:0:
474,159,28666,2,0,L|444:39,1,105,0|0,0:0|0:0,0:0:0:0:
286,328,28999,2,0,L|413:350,1,105,8|0,0:0|0:0,0:0:0:0:
74,364,29333,6,0,P|107:303|245:265,1,210,2|8,0:0|0:0,0:0:0:0:
342,261,29833,1,0,0:0:0:0:
146,194,29999,1,0,0:0:0:0:
282,174,30166,2,0,L|296:59,1,105,0|8,0:0|0:0,0:0:0:0:
158,29,30499,1,0,0:0:0:0:
455,264,30666,6,0,P|433:321|290:361,1,210,2|8,0:0|0:0,0:0:0:0:
179,345,31166,1,0,0:0:0:0:
41,266,31333,1,0,0:0:0:0:
190,218,31499,1,0,0:0:0:0:
36,161,31666,2,0,P|37:98|79:40,1,105,8|2,0:0|0:0,0:0:0:0:
112,48,31916,1,2,0:0:0:0:
357,21,31999,6,0,P|417:34|425:195,1,210,4|8,0:0|0:0,0:0:0:0:
347,202,32499,1,0,0:0:0:0:
72,323,32666,1,0,0:0:0:0:
234,315,32833,1,0,0:0:0:0:
68,215,32999,2,0,L|61:84,1,105,8|0,0:0|0:0,0:0:0:0:
347,78,33333,5,2,0:0:0:0:
204,170,33499,2,0,L|328:189,1,105,0|8,0:0|0:0,0:0:0:0:
152,284,33833,1,0,0:0:0:0:
333,355,33999,2,0,L|224:377,1,105,0|0,0:0|0:0,0:0:0:0:
381,264,34333,2,0,L|483:284,1,105,8|0,0:0|0:0,0:0:0:0:
160,216,34666,6,0,P|114:143|208:79,1,210,2|8,0:0|0:0,0:0:0:0:
307,77,35166,1,0,0:0:0:0:
67,128,35333,2,0,L|59:247,1,105,0|0,0:0|0:0,0:0:0:0:
187,297,35666,1,8,0:0:0:0:
60,347,35833,1,0,0:0:0:0:
366,277,35999,5,2,0:0:0:0:
232,205,36166,2,0,L|120:170,1,105,0|8,0:0|0:0,0:0:0:0:
291,115,36499,1,0,0:0:0:0:
118,55,36666,2,0,L|228:35,1,105,0|0,0:0|0:0,0:0:0:0:
49,283,36999,2,0,L|159:263,1,105,8|0,0:0|0:0,0:0:0:0:
457,278,37333,6,0,P|406:213|270:180,1,210,2|8,0:0|0:0,0:0:0:0:
403,159,37833,1,0,0:0:0:0:
152,161,37999,2,0,L|30:146,1,105,0|0,0:0|0:0,0:0:0:0:
218,277,38333,2,0,L|96:262,1,105,8|0,0:0|0:0,0:0:0:0:
450,287,38666,6,0,L|435:173,1,105,2|0,0:0|0:0,0:0:0:0:
288,176,38999,2,0,L|270:43,1,105,8|0,0:0|0:0,0:0:0:0:
102,113,39333,2,0,L|124:-7,1,105,0|0,0:0|0:0,0:0:0:0:
279,335,39666,2,0,L|383:322,1,105,8|0,0:0|0:0,0:0:0:0:
100,344,39999,6,0,P|152:291|293:253,1,210,2|8,0:0|0:0,0:0:0:0:
411,208,40499,1,0,0:0:0:0:
139,171,40666,1,0,0:0:0:0:
281,149,40833,2,0,L|287:33,1,105,0|8,0:0|0:0,0:0:0:0:
425,15,41166,1,0,0:0:0:0:
127,368,41333,5,2,0:0:0:0:
262,305,41499,1,0,0:0:0:0:
128,228,41666,2,0,L|17:218,1,105,8|0,0:0|0:0,0:0:0:0:
194,133,41999,1,0,0:0:0:0:
68,110,42166,1,0,0:0:0:0:
400,176,42333,2,0,L|416:257,2,52.5,8|2|2,0:0|0:0|0:0,0:0:0:0:
80,192,42666,5,4,0:0:0:0:
328,352,42999,2,0,L|328:240,1,105,0|0,0:0|0:0,0:0:0:0:
72,256,43333,2,0,L|176:256,1,105,8|0,0:0|0:0,0:0:0:0:
336,264,43666,2,0,L|336:160,1,105,0|0,0:0|0:0,0:0:0:0:
72,192,43999,5,2,0:0:0:0:
304,40,44333,2,0,L|416:40,1,105,0|0,0:0|0:0,0:0:0:0:
136,40,44666,2,0,L|32:40,1,105,8|0,0:0|0:0,0:0:0:0:
192,304,44999,2,0,L|88:304,1,105,0|0,0:0|0:0,0:0:0:0:
352,48,45333,6,0,P|424:104|344:160,1,210,2|0,0:0|0:0,0:0:0:0:
448,192,45833,1,0,0:0:0:0:
176,192,45999,1,8,0:0:0:0:
424,353,46333,2,0,L|424:241,1,105,0|0,0:0|0:0,0:0:0:0:
160,192,46666,5,2,0:0:0:0:
376,48,46999,2,0,L|376:160,1,105,0|0,0:0|0:0,0:0:0:0:
136,56,47333,2,0,L|24:56,2,105,8|0|0,0:0|0:0|0:0,0:0:0:0:
472,192,47999,5,2,0:0:0:0:
304,56,48333,2,0,L|416:56,1,105,0|0,0:0|0:0,0:0:0:0:
144,192,48666,6,0,P|72:248|152:304,1,210,8|0,0:0|0:0,0:0:0:0:
48,192,49166,1,0,0:0:0:0:
312,192,49333,5,2,0:0:0:0:
112,40,49666,2,0,L|112:152,1,105,0|0,0:0|0:0,0:0:0:0:
376,280,49999,2,0,L|160:280,1,210,8|0,0:0|0:0,0:0:0:0:
72,280,50499,1,0,0:0:0:0:
368,192,50666,6,0,P|368:96|272:96,1,210,2|0,0:0|0:0,0:0:0:0:
392,192,51166,1,0,0:0:0:0:
144,192,51333,2,0,P|48:192|48:96,1,210,8|0,0:0|0:0,0:0:0:0:
144,192,51833,1,0,0:0:0:0:
384,32,51999,6,0,P|456:88|376:144,1,210,2|0,0:0|0:0,0:0:0:0:
480,192,52499,1,0,0:0:0:0:
208,296,52666,2,0,L|104:296,3,105,8|0|0|0,0:0|0:0|0:0|0:0,0:0:0:0:
424,192,53333,6,0,P|424:288|328:288,1,210,2|0,0:0|0:0,0:0:0:0:
32,192,53999,2,0,L|32:80,1,105,8|0,0:0|0:0,0:0:0:0:
137,192,54333,2,0,L|33:192,1,105,0|0,0:0|0:0,0:0:0:0:
296,80,54666,6,0,P|368:136|288:192,1,210,2|0,0:0|0:0,0:0:0:0:
200,192,55166,1,0,0:0:0:0:
464,192,55333,2,0,L|464:320,1,105,8|0,0:0|0:0,0:0:0:0:
359,192,55666,2,0,L|471:192,1,105
208,192,55999,5,0,0:0:0:0:
384,32,56333,2,0,L|384:144,1,105
144,192,56666,1,8,0:0:0:0:
336,256,56999,2,0,L|440:256,1,105,0|0,0:0|0:0,0:0:0:0:
184,224,57333,6,0,L|80:224,1,105,2|0,0:0|0:0,0:0:0:0:
240,304,57666,2,0,L|240:192,1,105,0|0,0:0|0:0,0:0:0:0:
488,192,57999,1,8,0:0:0:0:
288,192,58333,2,0,L|392:192,1,105,0|0,0:0|0:0,0:0:0:0:
128,32,58666,6,0,P|128:128|224:128,1,210,2|0,0:0|0:0,0:0:0:0:
320,128,59166,1,0,0:0:0:0:
56,192,59333,1,8,0:0:0:0:
224,336,59666,2,0,L|120:336,1,105,0|0,0:0|0:0,0:0:0:0:
384,192,59999,6,0,P|456:248|376:304,1,210,2|0,0:0|0:0,0:0:0:0:
280,192,60499,1,0,0:0:0:0:
32,80,60666,2,0,L|32:192,1,105,8|0,0:0|0:0,0:0:0:0:
136,80,60999,2,0,L|32:80,1,105,0|0,0:0|0:0,0:0:0:0:
296,48,61333,6,0,L|400:48,1,105,2|0,0:0|0:0,0:0:0:0:
240,192,61666,2,0,L|344:192,1,105,0|0,0:0|0:0,0:0:0:0:
400,192,61916,1,0,0:0:0:0:
224,320,61999,5,8,0:0:0:0:
120,320,62166,1,0,0:0:0:0:
16,320,62333,1,0,0:0:0:0:
344,192,62666,5,0,0:0:0:0:
376,192,62708,1,0,0:0:0:0:
152,192,62999,1,0,0:0:0:0:
120,192,63041,1,0,0:0:0:0:
368,120,63333,1,0,0:0:0:0:
400,120,63374,1,0,0:0:0:0:
112,120,63666,1,0,0:0:0:0:
64,120,63749,1,0,0:0:0:0:
64,120,63832,1,0,0:0:0:0:
112,120,63916,1,0,0:0:0:0:
321,359,63999,6,0,L|429:370,1,105,4|0,0:0|0:0,0:0:0:0:
175,262,64333,1,8,0:0:0:0:
311,216,64499,2,0,L|298:150,1,52.5,0|0,0:0|0:0,0:0:0:0:
273,111,64666,2,0,L|161:95,1,105,0|0,0:0|0:0,0:0:0:0:
333,30,64999,2,0,L|440:11,1,105,8|0,0:0|0:0,0:0:0:0:
148,245,65333,5,2,0:0:0:0:
279,287,65499,2,0,P|286:363|250:407,1,105,0|8,0:0|0:0,0:0:0:0:
108,379,65833,2,0,P|56:326|55:257,1,105,0|0,0:0|0:0,0:0:0:0:
302,182,66166,2,0,L|368:178,1,52.5,0|0,0:0|0:0,0:0:0:0:
296,89,66333,2,0,L|187:76,1,105,8|0,0:0|0:0,0:0:0:0:
473,282,66666,6,0,L|352:294,1,105,2|0,0:0|0:0,0:0:0:0:
189,320,66999,2,0,L|411:367,1,210,8|0,0:0|0:0,0:0:0:0:
146,197,67499,2,0,L|0:173,1,105,0|8,0:0|0:0,0:0:0:0:
348,48,67833,2,0,L|464:25,1,105,0|0,0:0|0:0,0:0:0:0:
267,249,68166,2,0,L|280:183,1,52.5,0|0,0:0|0:0,0:0:0:0:
305,144,68333,2,0,L|419:121,1,105,8|0,0:0|0:0,0:0:0:0:
308,137,68666,5,0,0:0:0:0:
271,230,68832,1,0,0:0:0:0:
333,308,68999,1,8,0:0:0:0:
432,293,69165,1,0,0:0:0:0:
162,33,69333,5,2,0:0:0:0:
295,51,69499,1,0,0:0:0:0:
159,180,69666,2,0,L|29:188,1,105,8|0,0:0|0:0,0:0:0:0:
177,282,69999,1,0,0:0:0:0:
303,315,70166,1,0,0:0:0:0:
165,370,70333,2,0,L|50:375,1,105,8|0,0:0|0:0,0:0:0:0:
365,211,70666,5,2,0:0:0:0:
219,197,70833,2,0,L|233:72,1,105,0|8,0:0|0:0,0:0:0:0:
387,20,71166,2,0,L|274:5,1,105,0|0,0:0|0:0,0:0:0:0:
25,206,71499,2,0,L|39:122,1,52.5,0|0,0:0|0:0,0:0:0:0:
66,90,71666,2,0,L|182:129,1,105,8|0,0:0|0:0,0:0:0:0:
447,362,71999,6,0,L|306:348,1,105,2|0,0:0|0:0,0:0:0:0:
165,381,72333,2,0,P|155:301|261:247,1,210,8|0,0:0|0:0,0:0:0:0:
504,184,72833,2,0,L|483:77,1,105,0|8,0:0|0:0,0:0:0:0:
183,65,73166,1,0,0:0:0:0:
305,53,73333,5,2,0:0:0:0:
158,195,73499,2,0,L|97:199,1,52.5,0|0,0:0|0:0,0:0:0:0:
162,321,73666,2,0,L|276:328,1,105,8|0,0:0|0:0,0:0:0:0:
160,239,73999,1,0,0:0:0:0:
38,193,74166,1,0,0:0:0:0:
326,162,74333,2,0,L|462:144,1,105,8|0,0:0|0:0,0:0:0:0:
139,80,74666,6,0,L|254:63,1,105,6|0,0:0|0:0,0:0:0:0:
414,247,74999,1,8,0:0:0:0:
341,178,75165,1,0,0:0:0:0:
369,82,75332,1,0,0:0:0:0:
467,64,75499,2,0,L|349:47,2,105,0|8|0,0:0|0:0|0:0,0:0:0:0:
183,167,75999,5,2,0:0:0:0:
57,220,76166,2,0,L|265:270,1,210,0|0,0:0|0:0,0:0:0:0:
17,357,76666,1,0,0:0:0:0:
152,328,76833,1,0,0:0:0:0:
156,275,76916,1,0,0:0:0:0:
161,223,76999,1,8,0:0:0:0:
12,119,77166,1,0,0:0:0:0:
318,70,77333,5,2,0:0:0:0:
167,170,77499,1,0,0:0:0:0:
330,237,77666,2,0,L|472:262,1,105,8|0,0:0|0:0,0:0:0:0:
170,362,77999,1,0,0:0:0:0:
315,371,78166,2,0,P|278:314|139:267,1,210,0|0,0:0|0:0,0:0:0:0:
443,218,78666,5,2,0:0:0:0:
287,170,78833,1,0,0:0:0:0:
286,117,78916,1,0,0:0:0:0:
285,65,78999,2,0,L|409:60,1,105,8|0,0:0|0:0,0:0:0:0:
282,15,79333,1,0,0:0:0:0:
166,22,79499,1,0,0:0:0:0:
294,232,79666,2,0,L|423:242,1,105,8|0,0:0|0:0,0:0:0:0:
106,355,79999,5,2,0:0:0:0:
252,345,80166,1,0,0:0:0:0:
108,255,80333,2,0,L|97:129,1,105,8|0,0:0|0:0,0:0:0:0:
222,102,80666,1,0,0:0:0:0:
92,55,80833,1,0,0:0:0:0:
271,209,80999,2,0,L|149:182,1,105,8|0,0:0|0:0,0:0:0:0:
442,328,81333,5,2,0:0:0:0:
301,312,81499,2,0,L|488:217,1,210,0|0,0:0|0:0,0:0:0:0:
205,184,81999,1,0,0:0:0:0:
337,97,82166,1,0,0:0:0:0:
285,85,82249,1,0,0:0:0:0:
234,74,82332,1,8,0:0:0:0:
373,2,82499,1,0,0:0:0:0:
69,134,82666,6,0,L|86:275,1,105,2|0,0:0|0:0,0:0:0:0:
361,287,82999,2,0,L|350:405,1,105,8|0,0:0|0:0,0:0:0:0:
212,255,83333,2,0,L|237:148,1,105,0|0,0:0|0:0,0:0:0:0:
364,116,83666,1,8,0:0:0:0:
61,349,83833,6,0,L|182:347,1,105,0|0,0:0|0:0,0:0:0:0:
16,235,84166,2,0,L|30:169,1,52.5,0|0,0:0|0:0,0:0:0:0:
51,135,84333,2,0,L|163:120,1,105,8|0,0:0|0:0,0:0:0:0:
415,288,84666,2,0,L|305:259,1,105,0|0,0:0|0:0,0:0:0:0:
164,333,84999,2,0,L|54:349,1,105,8|0,0:0|0:0,0:0:0:0:
384,32,85333,6,0,P|456:88|384:144,1,210,4|8,0:0|0:0,0:0:0:0:
280,192,85833,1,0,0:0:0:0:
384,232,85999,2,0,L|384:336,1,105,0|0,0:0|0:0,0:0:0:0:
112,192,86333,2,0,L|112:304,1,105,8|0,0:0|0:0,0:0:0:0:
392,96,86666,6,0,P|296:96|296:192,1,210,2|8,0:0|0:0,0:0:0:0:
400,192,87166,1,0,0:0:0:0:
288,40,87333,2,0,L|408:40,1,105,0|0,0:0|0:0,0:0:0:0:
128,48,87666,2,0,L|16:48,1,105,8|0,0:0|0:0,0:0:0:0:
304,192,87999,6,0,P|304:288|208:288,1,210,2|8,0:0|0:0,0:0:0:0:
368,192,88499,1,0,0:0:0:0:
256,192,88666,1,0,0:0:0:0:
144,192,88833,1,0,0:0:0:0:
408,144,88999,2,0,L|408:32,1,105,8|0,0:0|0:0,0:0:0:0:
88,80,89333,6,0,L|304:80,1,210,2|8,0:0|0:0,0:0:0:0:
192,120,89833,2,0,L|192:224,1,105,0|0,0:0|0:0,0:0:0:0:
328,120,90166,1,0,0:0:0:0:
48,192,90333,2,0,L|48:80,1,105,8|0,0:0|0:0,0:0:0:0:
312,192,90666,6,0,P|312:288|216:288,1,210,2|8,0:0|0:0,0:0:0:0:
392,192,91166,2,0,L|392:80,1,105
224,88,91499,1,0,0:0:0:0:
472,344,91666,2,0,L|360:344,1,105,8|0,0:0|0:0,0:0:0:0:
88,240,91999,6,0,L|312:240,1,210,2|8,0:0|0:0,0:0:0:0:
192,192,92499,1,0,0:0:0:0:
80,192,92666,1,0,0:0:0:0:
80,192,92833,1,0,0:0:0:0:
360,88,92999,2,0,L|472:88,1,105,8|0,0:0|0:0,0:0:0:0:
176,336,93333,6,0,P|72:336|72:240,1,210,2|8,0:0|0:0,0:0:0:0:
176,192,93833,1,0,0:0:0:0:
288,192,93999,1,0,0:0:0:0:
288,192,94166,1,0,0:0:0:0:
16,72,94333,2,0,L|16:176,1,105,8|0,0:0|0:0,0:0:0:0:
312,72,94666,6,0,L|96:72,1,210,2|8,0:0|0:0,0:0:0:0:
232,136,95166,1,0,0:0:0:0:
232,136,95333,1,0,0:0:0:0:
104,136,95499,1,0,0:0:0:0:
384,240,95666,2,0,L|384:344,1,105,8|0,0:0|0:0,0:0:0:0:
80,56,95999,6,0,L|296:56,1,210,2|8,0:0|0:0,0:0:0:0:
184,96,96499,1,0,0:0:0:0:
296,96,96666,1,0,0:0:0:0:
296,96,96833,1,0,0:0:0:0:
24,192,96999,2,0,L|160:192,1,105,8|0,0:0|0:0,0:0:0:0:
424,304,97333,6,0,P|328:304|328:208,1,210,2|8,0:0|0:0,0:0:0:0:
432,120,97833,2,0,L|312:120,2,105,0|0|0,0:0|0:0|0:0,0:0:0:0:
160,280,98333,2,0,L|56:280,1,105,8|0,0:0|0:0,0:0:0:0:
376,40,98666,6,0,P|432:48|376:136,1,210,2|8,0:0|0:0,0:0:0:0:
264,136,99166,2,0,L|144:136,2,105,0|0|0,0:0|0:0|0:0,0:0:0:0:
16,288,99666,2,0,L|16:184,1,105,8|0,0:0|0:0,0:0:0:0:
312,240,99999,6,0,P|312:336|216:336,1,210,2|8,0:0|0:0,0:0:0:0:
112,208,100499,2,0,L|216:208,2,105,0|0|0,0:0|0:0|0:0,0:0:0:0:
384,152,100999,2,0,L|496:152,1,105,8|0,0:0|0:0,0:0:0:0:
208,56,101333,6,0,L|432:56,1,210,2|8,0:0|0:0,0:0:0:0:
304,96,101833,1,0,0:0:0:0:
192,96,101999,1,0,0:0:0:0:
192,96,102166,1,0,0:0:0:0:
448,192,102333,2,0,L|448:304,1,105,8|0,0:0|0:0,0:0:0:0:
176,192,102666,6,0,P|104:216|176:280,1,210,2|8,0:0|0:0,0:0:0:0:
280,112,103166,2,0,L|416:112,2,105,0|0|0,0:0|0:0|0:0,0:0:0:0:
24,192,103666,2,0,L|24:304,1,105,8|0,0:0|0:0,0:0:0:0:
296,280,103999,6,0,L|72:280,1,210,2|8,0:0|0:0,0:0:0:0:
192,224,104499,1,0,0:0:0:0:
304,224,104666,1,0,0:0:0:0:
304,224,104833,1,0,0:0:0:0:
32,72,104999,2,0,L|144:72,1,105,8|0,0:0|0:0,0:0:0:0:
432,144,105333,6,0,L|208:144,1,210,2|8,0:0|0:0,0:0:0:0:
328,240,105833,1,0,0:0:0:0:
208,240,105999,1,0,0:0:0:0:
208,240,106166,1,0,0:0:0:0:
488,312,106333,2,0,L|488:192,1,105,8|0,0:0|0:0,0:0:0:0:
163,30,106666,6,0,P|132:74|233:156,1,210,4|8,0:0|0:0,0:0:0:0:
359,144,107166,1,0,0:0:0:0:
230,276,107333,2,0,L|111:293,1,105,0|0,0:0|0:0,0:0:0:0:
257,375,107666,2,0,L|370:396,1,105,8|0,0:0|0:0,0:0:0:0:
76,147,107999,5,2,0:0:0:0:
204,128,108166,2,0,P|294:93|410:159,1,210,0|0,0:0|0:0,0:0:0:0:
152,291,108666,1,0,0:0:0:0:
284,363,108833,1,0,0:0:0:0:
232,373,108916,1,0,0:0:0:0:
181,384,108999,1,8,0:0:0:0:
50,349,109166,1,0,0:0:0:0:
366,251,109333,6,0,L|486:264,1,105,2|0,0:0|0:0,0:0:0:0:
291,172,109666,2,0,P|323:105|456:83,1,210,8|0,0:0|0:0,0:0:0:0:
171,44,110166,1,0,0:0:0:0:
322,70,110333,1,8,0:0:0:0:
53,211,110499,6,0,L|167:221,1,105,0|2,0:0|0:0,0:0:0:0:
317,365,110833,2,0,L|310:295,1,52.5,0|0,0:0|0:0,0:0:0:0:
292,274,110999,2,0,L|152:306,1,105,8|0,0:0|0:0,0:0:0:0:
322,183,111333,2,0,L|451:153,1,105,0|0,0:0|0:0,0:0:0:0:
159,89,111666,2,0,L|43:71,1,105,8|0,0:0|0:0,0:0:0:0:
379,53,111999,6,0,P|440:70|418:212,1,210,2|8,0:0|0:0,0:0:0:0:
334,304,112499,1,0,0:0:0:0:
81,348,112666,2,0,L|197:366,1,105,0|0,0:0|0:0,0:0:0:0:
59,248,112999,2,0,L|181:260,1,105,8|0,0:0|0:0,0:0:0:0:
449,92,113333,6,0,L|343:101,2,105,2|0|8,0:0|0:0|0:0,0:0:0:0:
301,206,113833,2,0,L|430:226,1,105,0|0,0:0|0:0,0:0:0:0:
285,369,114166,2,0,L|247:313,1,52.5,0|0,0:0|0:0,0:0:0:0:
215,298,114333,2,0,L|102:314,1,105,8|0,0:0|0:0,0:0:0:0:
466,109,114666,6,0,L|459:-16,1,105,2|0,0:0|0:0,0:0:0:0:
312,22,114999,2,0,B|308:-37|308:-37|313:49,1,105,8|0,0:0|0:0,0:0:0:0:
55,238,115333,1,0,0:0:0:0:
177,270,115499,2,0,L|180:386,1,105,0|8,0:0|0:0,0:0:0:0:
55,380,115833,1,0,0:0:0:0:
355,301,115999,5,2,0:0:0:0:
206,160,116166,1,0,0:0:0:0:
297,118,116332,1,8,0:0:0:0:
313,18,116499,1,0,0:0:0:0:
239,0,116666,1,0,0:0:0:0:
141,0,116832,1,0,0:0:0:0:
377,209,116999,1,8,0:0:0:0:
492,224,117165,1,0,0:0:0:0:
167,346,117333,6,0,L|280:364,2,105,2|0|8,0:0|0:0|0:0,0:0:0:0:
43,353,117833,1,0,0:0:0:0:
185,253,117999,2,0,L|192:117,1,105,0|0,0:0|0:0,0:0:0:0:
354,104,118333,2,0,L|337:-11,1,105,8|0,0:0|0:0,0:0:0:0:
43,25,118666,5,2,0:0:0:0:
190,144,118833,2,0,P|172:202|36:277,1,210,0|0,0:0|0:0,0:0:0:0:
326,342,119333,1,0,0:0:0:0:
194,292,119499,1,0,0:0:0:0:
192,239,119582,1,0,0:0:0:0:
191,187,119665,1,8,0:0:0:0:
343,128,119833,1,0,0:0:0:0:
38,57,119999,6,0,L|160:43,1,105,2|0,0:0|0:0,0:0:0:0:
290,204,120333,2,0,L|404:223,1,105,8|0,0:0|0:0,0:0:0:0:
137,350,120666,1,0,0:0:0:0:
266,288,120833,2,0,L|154:253,1,105,0|8,0:0|0:0,0:0:0:0:
453,112,121166,6,0,L|457:-4,1,105,0|0,0:0|0:0,0:0:0:0:
300,86,121499,2,0,L|314:146,1,52.5,0|0,0:0|0:0,0:0:0:0:
337,176,121666,2,0,L|447:202,1,105,8|0,0:0|0:0,0:0:0:0:
316,276,121999,1,0,0:0:0:0:
186,309,122166,1,0,0:0:0:0:
441,384,122333,2,0,L|413:273,1,105,8|0,0:0|0:0,0:0:0:0:
128,169,122666,6,0,L|21:141,1,105,2|0,0:0|0:0,0:0:0:0:
192,230,122999,2,0,P|208:186|112:79,1,210,8|0,0:0|0:0,0:0:0:0:
223,91,123499,1,0,0:0:0:0:
64,329,123666,2,0,P|123:329|180:353,1,105,8|0,0:0|0:0,0:0:0:0:
450,288,123999,6,0,L|337:300,2,105,2|0|8,0:0|0:0|0:0,0:0:0:0:
277,208,124499,2,0,L|292:92,1,105,0|0,0:0|0:0,0:0:0:0:
438,87,124833,2,0,L|428:19,1,52.5,0|0,0:0|0:0,0:0:0:0:
415,9,124999,2,0,L|300:4,1,105,8|0,0:0|0:0,0:0:0:0:
36,142,125333,5,2,0:0:0:0:
103,222,125499,1,0,0:0:0:0:
193,273,125666,1,8,0:0:0:0:
296,291,125833,1,0,0:0:0:0:
45,360,125999,2,0,L|168:375,2,105,0|0|8,0:0|0:0|0:0,0:0:0:0:
167,284,126499,1,0,0:0:0:0:
443,240,126666,5,2,0:0:0:0:
301,203,126833,2,0,L|288:93,1,105,0|8,0:0|0:0,0:0:0:0:
135,84,127166,2,0,L|154:-30,1,105,0|0,0:0|0:0,0:0:0:0:
294,6,127499,1,0,0:0:0:0:
133,225,127666,2,0,L|22:237,1,105,8|0,0:0|0:0,0:0:0:0:
376,192,127999,5,2,0:0:0:0:
160,48,128333,2,0,P|256:48|256:144,1,210,2|0,0:0|0:0,0:0:0:0:
144,192,128833,1,2,0:0:0:0:
416,192,129166,2,0,P|488:248|408:304,1,210,2|0,0:0|0:0,0:0:0:0:
168,336,129666,6,0,L|168:232,1,105,2|0,0:0|0:0,0:0:0:0:
328,48,129999,2,0,L|328:160,1,105,2|0,0:0|0:0,0:0:0:0:
168,48,130333,2,0,L|48:48,1,105,2|0,0:0|0:0,0:0:0:0:
360,192,130666,6,0,P|472:264|360:336,1,315,2|0,0:0|0:0,0:0:0:0:
240,288,131333,2,0,L|24:288,1,210,2|0,0:0|0:0,0:0:0:0:
288,40,131833,6,0,P|440:120|288:208,1,420,2|0,0:0|0:0,0:0:0:0:
48,288,132666,2,0,P|48:160|104:160,1,210,2|0,0:0|0:0,0:0:0:0:
496,192,133333,5,4,0:0:0:0:
248,64,133666,2,0,P|152:64|152:160,1,210,2|0,0:0|0:0,0:0:0:0:
256,192,134166,1,2,0:0:0:0:
48,328,134499,6,0,P|48:232|144:232,1,210,2|0,0:0|0:0,0:0:0:0:
384,352,134999,2,0,L|384:248,1,105,2|0,0:0|0:0,0:0:0:0:
216,64,135332,2,0,L|344:64,1,105,2|0,0:0|0:0,0:0:0:0:
152,128,135666,2,0,L|152:240,1,105,2|0,0:0|0:0,0:0:0:0:
400,312,135999,6,0,L|184:312,2,210,2|0|2,0:0|0:0|0:0,0:0:0:0:
64,72,136999,6,0,P|64:192|304:192,1,420,2|2,0:0|0:0,0:0:0:0:
472,144,137999,2,0,L|248:144,1,210,2|0,0:0|0:0,0:0:0:0:
368,192,138499,1,2,0:0:0:0:
48,192,138666,5,4,0:0:0:0:
264,64,138999,2,0,L|48:64,1,210,2|0,0:0|0:0,0:0:0:0:
160,64,139499,1,2,0:0:0:0:
384,336,139833,6,0,P|384:240|288:240,1,210,2|0,0:0|0:0,0:0:0:0:
448,144,140333,2,0,L|232:144,2,210,2|0|2,0:0|0:0|0:0,0:0:0:0:
344,192,141166,1,0,0:0:0:0:
48,56,141333,6,0,P|48:160|224:160,1,315,2|0,0:0|0:0,0:0:0:0:
464,248,141999,2,0,P|464:152|368:152,1,210,2|0,0:0|0:0,0:0:0:0:
128,296,142499,6,0,L|448:296,1,315,2|0,0:0|0:0,0:0:0:0:
24,192,143333,1,2,0:0:0:0:
312,40,143666,2,0,L|312:144,1,105,2|0,0:0|0:0,0:0:0:0:
32,192,143999,5,4,0:0:0:0:
248,192,144333,2,0,P|152:192|152:288,1,210,2|0,0:0|0:0,0:0:0:0:
248,192,144833,1,2,0:0:0:0:
472,328,145166,6,0,P|472:232|376:232,1,210,2|0,0:0|0:0,0:0:0:0:
224,64,145666,2,0,L|440:64,2,210,2|0|2,0:0|0:0|0:0,0:0:0:0:
128,64,146499,1,0,0:0:0:0:
400,128,146666,6,0,L|184:128,2,210,2|0|2,0:0|0:0|0:0,0:0:0:0:
496,128,147499,1,0,0:0:0:0:
170,192,147666,2,0,B|354:192|354:192|130:192|130:192|370:192,1,630,2|2,0:0|0:0,0:0:0:0:
448,192,148833,1,0,0:0:0:0:
176,264,148999,2,0,L|64:264,1,105,8|0,0:0|0:0,0:0:0:0:
444,195,149333,5,4,0:0:0:0:
235,175,149666,2,0,P|296:118|453:95,1,210,8|0,0:0|0:0,0:0:0:0:
290,64,150166,1,0,0:0:0:0:
416,89,150333,1,8,0:0:0:0:
146,224,150499,1,0,0:0:0:0:
283,256,150666,6,0,L|290:369,1,105,2|0,0:0|0:0,0:0:0:0:
24,151,150999,2,0,L|133:113,1,105,8|0,0:0|0:0,0:0:0:0:
271,58,151333,2,0,L|169:23,1,105,0|0,0:0|0:0,0:0:0:0:
319,155,151666,1,8,0:0:0:0:
179,198,151833,1,0,0:0:0:0:
463,278,151999,6,0,P|444:220|311:155,1,210,2|8,0:0|0:0,0:0:0:0:
439,135,152499,1,0,0:0:0:0:
240,248,152666,2,0,P|258:312|413:347,1,210,0|8,0:0|0:0,0:0:0:0:
492,308,153166,1,0,0:0:0:0:
236,133,153333,5,2,0:0:0:0:
353,101,153499,1,0,0:0:0:0:
226,22,153666,2,0,L|76:19,1,105,8|0,0:0|0:0,0:0:0:0:
294,208,153999,2,0,L|178:227,1,105,0|0,0:0|0:0,0:0:0:0:
358,304,154333,2,0,L|482:318,1,105,8|0,0:0|0:0,0:0:0:0:
128,330,154666,5,2,0:0:0:0:
403,185,154999,2,0,P|322:125|213:111,1,210,8|0,0:0|0:0,0:0:0:0:
338,95,155499,2,0,L|450:78,1,105,0|8,0:0|0:0,0:0:0:0:
128,31,155833,1,0,0:0:0:0:
261,224,155999,6,0,L|398:234,1,105,2|0,0:0|0:0,0:0:0:0:
109,352,156333,2,0,L|94:239,1,105,8|0,0:0|0:0,0:0:0:0:
261,224,156666,2,0,L|277:115,1,105,0|0,0:0|0:0,0:0:0:0:
457,129,156999,2,0,L|438:22,1,105,8|0,0:0|0:0,0:0:0:0:
113,45,157333,6,0,L|230:31,1,105,2|0,0:0|0:0,0:0:0:0:
395,227,157666,2,0,L|278:213,1,105,8|0,0:0|0:0,0:0:0:0:
101,89,157999,2,0,L|218:75,1,105,0|0,0:0|0:0,0:0:0:0:
474,173,158333,6,0,P|374:194|362:304,1,210,8|0,0:0|0:0,0:0:0:0:
470,317,158833,1,0,0:0:0:0:
207,284,158999,2,0,P|248:229|386:195,1,210,8|0,0:0|0:0,0:0:0:0:
287,152,159499,1,0,0:0:0:0:
21,160,159666,2,0,L|24:56,1,105,8|0,0:0|0:0,0:0:0:0:
83,31,159916,1,0,0:0:0:0:
330,298,159999,5,4,0:0:0:0:
159,367,160333,2,0,L|155:259,1,105,8|0,0:0|0:0,0:0:0:0:
288,209,160666,1,0,0:0:0:0:
110,150,160833,2,0,L|226:117,1,105,0|8,0:0|0:0,0:0:0:0:
485,110,161166,1,0,0:0:0:0:
351,315,161333,5,2,0:0:0:0:
274,252,161499,1,0,0:0:0:0:
305,159,161666,1,8,0:0:0:0:
404,155,161832,1,0,0:0:0:0:
274,66,161999,2,0,L|152:38,1,105,0|0,0:0|0:0,0:0:0:0:
320,249,162333,2,0,L|438:278,1,105,8|0,0:0|0:0,0:0:0:0:
92,351,162666,5,2,0:0:0:0:
393,384,162999,2,0,L|393:268,1,105,8|0,0:0|0:0,0:0:0:0:
247,164,163333,1,0,0:0:0:0:
430,40,163499,2,0,L|326:57,1,105,0|8,0:0|0:0,0:0:0:0:
38,209,163833,1,0,0:0:0:0:
184,272,163999,6,0,L|198:380,1,105,2|0,0:0|0:0,0:0:0:0:
372,371,164333,2,0,B|356:427|356:427|370:373,1,105,8|0,0:0|0:0,0:0:0:0:
104,129,164666,2,0,L|219:104,1,105,0|0,0:0|0:0,0:0:0:0:
354,86,164999,1,8,0:0:0:0:
186,20,165166,1,0,0:0:0:0:
462,174,165333,6,0,P|322:177|472:364,1,525,2|0,0:0|0:0,0:0:0:0:
356,305,166333,1,8,0:0:0:0:
461,275,166499,1,0,0:0:0:0:
205,228,166666,6,0,P|248:166|374:129,1,210,2|8,0:0|0:0,0:0:0:0:
481,122,167166,1,0,0:0:0:0:
216,42,167333,2,0,L|333:24,1,105,0|0,0:0|0:0,0:0:0:0:
492,254,167666,2,0,L|384:242,1,105,8|0,0:0|0:0,0:0:0:0:
64,224,167999,5,4,0:0:0:0:
256,192,168166,12,0,170333,0:0:0:0:
48,192,170666,6,0,L|48:304,1,105,2|0,0:0|0:0,0:0:0:0:
153,297,170999,2,0,L|33:297,1,105
216,216,171333,2,0,L|328:216,1,105,2|0,0:0|0:0,0:0:0:0:
432,144,171666,2,0,L|432:248,1,105
264,48,171999,5,2,0:0:0:0:
160,48,172165,1,0,0:0:0:0:
160,48,172332,1,0,0:0:0:0:
264,48,172498,1,0,0:0:0:0:
96,136,172666,2,0,L|216:136,1,105,2|0,0:0|0:0,0:0:0:0:
96,192,172999,2,0,L|96:296,1,105
264,136,173333,5,2,0:0:0:0:
359,136,173499,1,0,0:0:0:0:
359,136,173666,1,0,0:0:0:0:
264,136,173832,1,0,0:0:0:0:
432,304,173999,2,0,L|312:304,1,105,2|0,0:0|0:0,0:0:0:0:
440,136,174333,2,0,L|440:241,1,105
272,48,174666,6,0,L|400:48,2,105,2|0|0,0:0|0:0|0:0,0:0:0:0:
160,48,175166,1,0,0:0:0:0:
328,192,175333,2,0,L|440:192,2,105,2|0|0,0:0|0:0|0:0,0:0:0:0:
224,192,175833,1,0,0:0:0:0:
56,112,175999,6,0,L|56:216,1,105,2|0,0:0|0:0,0:0:0:0:
168,192,176333,2,0,L|168:304,1,105
336,272,176666,2,0,L|232:272,1,105,2|0,0:0|0:0,0:0:0:0:
336,192,176999,2,0,L|448:192,1,105
272,48,177333,5,2,0:0:0:0:
176,48,177499,1,0,0:0:0:0:
80,48,177666,1,0,0:0:0:0:
176,48,177833,1,0,0:0:0:0:
344,144,177999,2,0,L|232:144,1,105,2|0,0:0|0:0,0:0:0:0:
344,208,178333,2,0,L|456:208,1,105
280,296,178666,6,0,L|176:296,3,105,2|0|0|0,0:0|0:0|0:0|0:0,0:0:0:0:
344,96,179333,2,0,L|464:96,2,105,2|0|0,0:0|0:0|0:0,0:0:0:0:
232,96,179833,1,0,0:0:0:0:
392,288,179999,6,0,L|280:288,2,105,2|0|0,0:0|0:0|0:0,0:0:0:0:
496,288,180499,1,0,0:0:0:0:
328,192,180666,2,0,L|328:296,1,105,2|0,0:0|0:0,0:0:0:0:
488,64,180999,2,0,L|360:64,1,105,0|0,0:0|0:0,0:0:0:0:
80,64,181333,6,0,L|80:176,1,105,2|0,0:0|0:0,0:0:0:0:
192,128,181666,2,0,L|304:128,1,105,0|0,0:0|0:0,0:0:0:0:
136,240,181999,2,0,L|136:352,1,105,2|0,0:0|0:0,0:0:0:0:
241,240,182333,2,0,L|113:240,1,105,0|0,0:0|0:0,0:0:0:0:
384,256,182666,6,0,L|488:256,1,105,2|0,0:0|0:0,0:0:0:0:
376,192,182999,2,0,L|488:192,1,105,0|0,0:0|0:0,0:0:0:0:
320,160,183333,2,0,L|320:48,1,105,2|0,0:0|0:0,0:0:0:0:
216,56,183666,2,0,L|336:56,1,105,0|0,0:0|0:0,0:0:0:0:
72,192,183999,6,0,L|72:304,1,105,2|0,0:0|0:0,0:0:0:0:
176,192,184333,2,0,L|296:192,1,105,0|0,0:0|0:0,0:0:0:0:
120,192,184666,2,0,L|120:304,1,105,2|0,0:0|0:0,0:0:0:0:
232,192,184999,2,0,L|232:320,1,105,0|0,0:0|0:0,0:0:0:0:
392,232,185333,6,0,L|288:232,2,105,2|0|0,0:0|0:0|0:0,0:0:0:0:
488,232,185833,1,0,0:0:0:0:
328,128,185999,2,0,L|224:128,1,105,2|0,0:0|0:0,0:0:0:0:
384,144,186333,2,0,L|384:32,1,105,0|0,0:0|0:0,0:0:0:0:
136,80,186666,6,0,L|32:80,3,105,2|0|0|0,0:0|0:0|0:0|0:0,0:0:0:0:
192,160,187333,2,0,L|304:160,1,105,2|0,0:0|0:0,0:0:0:0:
400,272,187666,2,0,L|400:160,1,105,0|0,0:0|0:0,0:0:0:0:
136,304,187999,6,0,L|272:304,2,105,2|0|0,0:0|0:0|0:0,0:0:0:0:
40,304,188499,1,0,0:0:0:0:
200,208,188666,2,0,L|88:208,1,105,2|0,0:0|0:0,0:0:0:0:
208,72,188999,2,0,L|328:72,1,105,0|0,0:0|0:0,0:0:0:0:
56,40,189333,6,0,L|56:152,1,105,2|0,0:0|0:0,0:0:0:0:
176,168,189666,2,0,L|288:168,1,105,0|0,0:0|0:0,0:0:0:0:
440,280,189999,2,0,L|440:176,1,105,2|0,0:0|0:0,0:0:0:0:
192,88,190333,2,0,L|80:88,1,105,0|0,0:0|0:0,0:0:0:0:
416,80,190666,5,8,0:0:0:0:
465,88,190749,1,0,0:0:0:0:
490,133,190832,1,0,0:0:0:0:
470,180,190916,1,0,0:0:0:0:
421,193,190999,1,0,0:0:0:0:
80,248,191166,5,8,0:0:0:0:
128,248,191249,1,0,0:0:0:0:
176,248,191333,1,0,0:0:0:0:
128,248,191416,1,0,0:0:0:0:
80,248,191499,1,0,0:0:0:0:
416,64,191666,5,8,0:0:0:0:
472,64,191749,1,0,0:0:0:0:
472,64,191833,1,0,0:0:0:0:
416,64,191916,1,0,0:0:0:0:
152,320,191999,6,0,P|115:260|223:186,1,210,4|8,0:0|0:0,0:0:0:0:
329,305,192499,1,0,0:0:0:0:
152,320,192666,2,0,B|162:407|162:407|159:355,1,105,0|0,0:0|0:0,0:0:0:0:
320,202,192999,2,0,P|376:187|433:188,1,105,8|0,0:0|0:0,0:0:0:0:
152,117,193333,5,2,0:0:0:0:
287,81,193499,1,0,0:0:0:0:
139,24,193666,2,0,P|65:73|129:202,1,210,8|0,0:0|0:0,0:0:0:0:
194,215,194166,1,0,0:0:0:0:
305,264,194333,2,0,L|198:315,1,105,8|0,0:0|0:0,0:0:0:0:
463,272,194666,6,0,P|434:219|287:173,1,210,2|8,0:0|0:0,0:0:0:0:
405,131,195166,1,0,0:0:0:0:
257,67,195333,2,0,L|372:42,1,105,0|0,0:0|0:0,0:0:0:0:
102,359,195666,1,8,0:0:0:0:
234,323,195833,6,0,P|215:266|85:193,1,210,0|0,0:0|0:0,0:0:0:0:
197,166,196333,1,8,0:0:0:0:
457,360,196499,2,0,L|472:251,1,105,0|0,0:0|0:0,0:0:0:0:
317,186,196833,2,0,L|333:131,1,52.5,0|0,0:0|0:0,0:0:0:0:
354,101,196999,2,0,L|463:88,1,105,8|0,0:0|0:0,0:0:0:0:
177,379,197333,5,2,0:0:0:0:
388,325,197666,2,0,L|387:210,1,105,8|0,0:0|0:0,0:0:0:0:
250,228,197999,1,0,0:0:0:0:
183,154,198165,1,0,0:0:0:0:
226,65,198332,1,8,0:0:0:0:
325,70,198498,1,0,0:0:0:0:
23,250,198666,5,2,0:0:0:0:
258,340,198999,2,0,L|127:369,1,105,8|0,0:0|0:0,0:0:0:0:
301,251,199333,2,0,L|415:263,1,105,0|0,0:0|0:0,0:0:0:0:
397,216,199583,1,0,0:0:0:0:
368,171,199666,1,8,0:0:0:0:
221,139,199833,1,0,0:0:0:0:
480,346,199999,6,0,L|492:236,1,105,2|0,0:0|0:0,0:0:0:0:
325,148,200333,2,0,L|324:35,1,105,8|0,0:0|0:0,0:0:0:0:
159,44,200666,2,0,B|152:-38|152:-38|157:4,1,105,0|0,0:0|0:0,0:0:0:0:
399,248,200999,2,0,L|505:260,1,105,8|0,0:0|0:0,0:0:0:0:
187,350,201333,6,0,P|171:299|291:210,1,210,2|8,0:0|0:0,0:0:0:0:
399,248,201833,1,0,0:0:0:0:
141,195,201999,2,0,P|166:140|304:71,1,210,0|8,0:0|0:0,0:0:0:0:
419,75,202499,1,0,0:0:0:0:
147,102,202666,6,0,P|93:118|86:257,1,210,4|8,0:0|0:0,0:0:0:0:
186,281,203166,1,0,0:0:0:0:
305,312,203333,1,0,0:0:0:0:
184,379,203499,1,0,0:0:0:0:
29,306,203666,2,0,P|34:244|54:181,1,105,8|0,0:0|0:0,0:0:0:0:
337,149,203999,5,2,0:0:0:0:
197,149,204166,1,0,0:0:0:0:
338,7,204333,2,0,P|404:18|479:138,1,210,8|0,0:0|0:0,0:0:0:0:
343,287,204833,1,0,0:0:0:0:
484,324,204999,2,0,B|470:407|470:407|480:356,1,105,8|0,0:0|0:0,0:0:0:0:
201,292,205333,6,0,P|232:236|364:175,1,210,2|8,0:0|0:0,0:0:0:0:
243,147,205833,1,0,0:0:0:0:
106,99,205999,2,0,L|212:48,1,105,0|0,0:0|0:0,0:0:0:0:
69,6,206333,1,8,0:0:0:0:
354,384,206499,6,0,P|378:311|261:230,1,210,0|0,0:0|0:0,0:0:0:0:
175,206,206999,1,8,0:0:0:0:
43,218,207166,2,0,L|58:102,1,105,0|0,0:0|0:0,0:0:0:0:
224,81,207499,2,0,L|237:22,2,52.5,0|0|8,0:0|0:0|0:0,0:0:0:0:
61,22,207833,1,0,0:0:0:0:
363,209,207999,5,2,0:0:0:0:
132,351,208333,2,0,L|275:360,1,105,8|0,0:0|0:0,0:0:0:0:
89,280,208666,1,0,0:0:0:0:
21,206,208832,1,0,0:0:0:0:
56,113,208999,1,8,0:0:0:0:
156,104,209165,1,0,0:0:0:0:
449,357,209333,5,2,0:0:0:0:
211,284,209666,2,0,L|219:163,1,105,8|0,0:0|0:0,0:0:0:0:
388,120,209999,2,0,L|264:102,1,105,0|0,0:0|0:0,0:0:0:0:
294,63,210249,1,0,0:0:0:0:
325,32,210333,1,8,0:0:0:0:
466,23,210499,1,0,0:0:0:0:
177,141,210666,6,0,L|44:164,1,105,2|0,0:0|0:0,0:0:0:0:
327,280,210999,2,0,L|438:294,1,105,8|0,0:0|0:0,0:0:0:0:
255,366,211333,2,0,L|134:387,1,105,0|0,0:0|0:0,0:0:0:0:
426,152,211666,2,0,L|305:173,1,105,8|0,0:0|0:0,0:0:0:0:
31,279,211999,6,0,P|60:219|199:137,1,210,2|8,0:0|0:0,0:0:0:0:
295,75,212499,1,0,0:0:0:0:
30,126,212666,2,0,L|43:15,1,105,0|0,0:0|0:0,0:0:0:0:
304,259,212999,1,8,0:0:0:0:
166,309,213166,1,0,0:0:0:0:
464,192,213333,6,0,L|464:296,1,105,4|0,0:0|0:0,0:0:0:0:
192,192,213666,1,8,0:0:0:0:
464,192,213833,2,0,P|464:96|368:96,1,210,0|0,0:0|0:0,0:0:0:0:
96,192,214333,1,8,0:0:0:0:
384,192,214499,6,0,P|344:288|248:288,1,210,0|0,0:0|0:0,0:0:0:0:
488,192,214999,1,8,0:0:0:0:
216,56,215166,2,0,P|216:160|312:160,1,210
64,192,215666,1,8,0:0:0:0:
336,192,215833,1,0,0:0:0:0:
48,192,215999,6,0,P|48:288|152:288,1,210,2|8,0:0|0:0,0:0:0:0:
248,192,216499,1,0,0:0:0:0:
88,144,216666,2,0,L|192:144,2,105,0|0|8,0:0|0:0|0:0,0:0:0:0:
368,64,217166,6,0,P|464:64|464:160,1,210,0|0,0:0|0:0,0:0:0:0:
360,160,217583,1,0,0:0:0:0:
256,160,217666,2,0,L|40:160,1,210,8|0,0:0|0:0,0:0:0:0:
168,192,218166,1,0,0:0:0:0:
432,40,218333,2,0,L|432:152,1,105,8|0,0:0|0:0,0:0:0:0:
136,256,218666,6,0,P|72:272|144:336,1,210,2|8,0:0|0:0,0:0:0:0:
312,192,219166,1,0,0:0:0:0:
64,48,219333,2,0,P|64:144|160:144,1,210,0|8,0:0|0:0,0:0:0:0:
48,192,219833,1,0,0:0:0:0:
344,40,219999,6,0,P|416:80|336:144,1,210,2|8,0:0|0:0,0:0:0:0:
176,192,220499,1,0,0:0:0:0:
432,192,220666,2,0,L|432:296,1,105
328,192,220916,1,0,0:0:0:0:
224,256,220999,2,0,L|120:256,1,105,8|0,0:0|0:0,0:0:0:0:
392,336,221333,6,0,L|176:336,1,210,2|8,0:0|0:0,0:0:0:0:
296,288,221833,1,0,0:0:0:0:
416,288,221999,1,0,0:0:0:0:
296,288,222166,1,0,0:0:0:0:
128,56,222333,2,0,L|128:168,1,105,8|0,0:0|0:0,0:0:0:0:
432,56,222666,6,0,P|432:144|320:144,1,210,2|8,0:0|0:0,0:0:0:0:
440,192,223166,1,0,0:0:0:0:
160,192,223333,1,0,0:0:0:0:
40,192,223499,1,0,0:0:0:0:
160,192,223666,1,8,0:0:0:0:
40,192,223833,1,0,0:0:0:0:
352,288,223999,6,0,L|248:288,1,105,4|0,0:0|0:0,0:0:0:0:
496,192,224333,1,8,0:0:0:0:
216,40,224499,2,0,P|144:64|216:128,1,210,0|0,0:0|0:0,0:0:0:0:
464,192,224999,1,8,0:0:0:0:
192,192,225166,6,0,P|192:288|288:288,1,210,0|0,0:0|0:0,0:0:0:0:
40,192,225666,1,8,0:0:0:0:
312,192,225833,2,0,P|408:192|408:288,1,210,0|0,0:0|0:0,0:0:0:0:
240,192,226333,1,8,0:0:0:0:
408,192,226499,1,0,0:0:0:0:
112,344,226666,6,0,L|112:232,1,105,2|0,0:0|0:0,0:0:0:0:
392,40,226999,2,0,P|456:64|376:128,1,210,8|0,0:0|0:0,0:0:0:0:
136,48,227499,2,0,L|32:48,1,105,0|8,0:0|0:0,0:0:0:0:
312,96,227833,6,0,P|376:112|312:192,1,210,0|0,0:0|0:0,0:0:0:0:
208,192,228249,1,0,0:0:0:0:
104,192,228333,2,0,P|104:288|200:288,1,210,8|0,0:0|0:0,0:0:0:0:
80,104,228833,2,0,L|184:104,2,105,0|8|0,0:0|0:0|0:0,0:0:0:0:
360,48,229333,6,0,P|416:64|352:152,1,210,2|8,0:0|0:0,0:0:0:0:
184,192,229833,1,0,0:0:0:0:
432,192,229999,2,0,P|432:288|336:288,1,210,0|8,0:0|0:0,0:0:0:0:
456,192,230499,1,0,0:0:0:0:
176,64,230666,6,0,L|408:64,1,210,2|8,0:0|0:0,0:0:0:0:
216,192,231166,1,0,0:0:0:0:
464,192,231333,2,0,L|464:304,1,105,0|0,0:0|0:0,0:0:0:0:
360,288,231583,1,0,0:0:0:0:
256,288,231666,6,0,P|144:288|144:208,1,210,8|2,0:0|0:0,0:0:0:0:
248,192,232166,5,0,0:0:0:0:
496,48,232333,1,8,0:0:0:0:
376,48,232499,1,0,0:0:0:0:
496,48,232666,1,0,0:0:0:0:
376,48,232833,1,0,0:0:0:0:
104,192,232999,2,0,L|104:304,1,105,8|0,0:0|0:0,0:0:0:0:
432,272,233333,6,0,L|320:272,2,105,8|0|0,0:0|0:0|0:0,0:0:0:0:
96,288,233833,2,0,L|208:288,2,105,8|0|0,0:0|0:0|0:0,0:0:0:0:
424,192,234333,2,0,L|424:64,1,105,8|0,0:0|0:0,0:0:0:0:
96,80,234666,5,4,0:0:0:0:
244,142,234999,2,0,P|297:202|345:318,1,168,2|0,0:0|0:0,0:0:0:0:
232,335,235666,1,0,0:0:0:0:
117,362,235999,1,2,0:0:0:0:
41,357,236166,6,0,P|40:302|95:198,1,168,0|0,0:0|0:0,0:0:0:0:
215,168,236833,2,0,B|221:123|221:123|219:110,2,42,0|0|0,0:0|0:0|0:0,0:0:0:0:
381,227,237333,6,0,P|375:173|307:84,1,168,2|0,0:0|0:0,0:0:0:0:
459,279,237999,2,0,L|460:372,1,84,0|0,0:0|0:0,0:0:0:0:
316,367,238499,2,0,P|201:365|143:331,1,168,0|0,0:0|0:0,0:0:0:0:
172,303,238916,1,0,0:0:0:0:
206,280,238999,1,0,0:0:0:0:
374,229,239333,2,0,P|394:180|332:73,1,168,0|0,0:0|0:0,0:0:0:0:
79,69,239999,6,0,L|255:23,2,168,2|0|0,0:0|0:0|0:0,0:0:0:0:
246,195,240999,1,0,0:0:0:0:
411,294,241333,1,2,0:0:0:0:
488,348,241499,6,0,L|320:393,1,168,0|0,0:0|0:0,0:0:0:0:
197,343,242166,2,0,L|192:297,2,42,0|0|0,0:0|0:0|0:0,0:0:0:0:
45,233,242666,2,0,P|52:176|125:85,1,168,2|0,0:0|0:0,0:0:0:0:
261,41,243333,2,0,L|178:16,1,84,0|0,0:0|0:0,0:0:0:0:
332,181,243833,6,0,L|151:140,1,168,0|0,0:0|0:0,0:0:0:0:
181,182,244249,1,0,0:0:0:0:
215,206,244332,1,0,0:0:0:0:
351,272,244666,2,0,P|415:291|489:370,1,168,0|0,0:0|0:0,0:0:0:0:
206,358,245333,6,0,P|211:312|292:209,1,168,2|0,0:0|0:0,0:0:0:0:
144,202,245999,2,0,P|100:185|83:58,1,168,0|0,0:0|0:0,0:0:0:0:
201,33,246666,2,0,L|288:14,1,84,2|0,0:0|0:0,0:0:0:0:
131,111,247166,1,0,0:0:0:0:
263,223,247499,2,0,L|274:280,2,42,0|0|0,0:0|0:0|0:0,0:0:0:0:
432,215,247999,6,0,P|420:166|335:79,1,168,2|0,0:0|0:0,0:0:0:0:
473,342,248666,2,0,L|390:318,1,84,0|0,0:0|0:0,0:0:0:0:
256,313,249166,2,0,P|276:263|391:206,1,168,0|0,0:0|0:0,0:0:0:0:
344,173,249582,1,0,0:0:0:0:
307,155,249665,1,0,0:0:0:0:
184,115,249999,1,0,0:0:0:0:
299,46,250333,1,0,0:0:0:0:
47,221,250666,6,0,P|68:282|157:339,1,168,2|0,0:0|0:0,0:0:0:0:
288,319,251333,2,0,P|265:275|152:224,1,168,0|0,0:0|0:0,0:0:0:0:
316,195,251999,2,0,L|325:100,1,84,2|0,0:0|0:0,0:0:0:0:
196,66,252499,1,0,0:0:0:0:
75,149,252833,2,0,L|68:201,2,42,0|0|0,0:0|0:0|0:0,0:0:0:0:
337,314,253333,6,0,L|168:380,2,168,2|0|0,0:0|0:0|0:0,0:0:0:0:
410,282,254166,1,0,0:0:0:0:
266,220,254499,2,0,P|225:189|110:153,1,168,0|0,0:0|0:0,0:0:0:0:
115,194,254916,1,0,0:0:0:0:
139,228,254999,1,0,0:0:0:0:
279,263,255333,5,0,0:0:0:0:
303,296,255416,1,0,0:0:0:0:
302,337,255499,1,0,0:0:0:0:
277,369,255583,1,0,0:0:0:0:
237,379,255666,2,0,L|149:348,1,84,0|0,0:0|0:0,0:0:0:0:
480,192,255999,6,0,L|480:320,1,105,4|0,0:0|0:0,0:0:0:0:
200,96,256333,2,0,L|88:96,2,105,8|0|0,0:0|0:0|0:0,0:0:0:0:
304,96,256833,1,0,0:0:0:0:
48,192,256999,6,0,P|48:288|152:288,1,210,8|2,0:0|0:0,0:0:0:0:
248,192,257499,1,0,0:0:0:0:
80,192,257666,1,8,0:0:0:0:
376,288,257833,2,0,P|480:288|480:192,1,210,0|0,0:0|0:0,0:0:0:0:
384,192,258249,1,0,0:0:0:0:
280,32,258333,2,0,L|168:32,1,105,8|0,0:0|0:0,0:0:0:0:
424,192,258666,6,0,L|424:304,1,105,2|0,0:0|0:0,0:0:0:0:
152,304,258999,2,0,L|376:304,1,210,8|0,0:0|0:0,0:0:0:0:
248,192,259499,1,0,0:0:0:0:
416,192,259666,1,8,0:0:0:0:
136,48,259833,6,0,P|64:96|144:144,1,210,0|0,0:0|0:0,0:0:0:0:
240,96,260249,1,0,0:0:0:0:
344,48,260333,2,0,L|344:160,1,105,8|0,0:0|0:0,0:0:0:0:
176,192,260666,2,0,L|64:192,1,105,0|0,0:0|0:0,0:0:0:0:
344,192,260999,2,0,L|448:192,1,105,8|0,0:0|0:0,0:0:0:0:
128,320,261333,6,0,L|128:216,1,105,2|0,0:0|0:0,0:0:0:0:
400,344,261666,2,0,L|400:240,1,105,8|0,0:0|0:0,0:0:0:0:
232,256,261999,2,0,L|336:256,1,105,0|0,0:0|0:0,0:0:0:0:
64,192,262333,6,0,P|64:96|160:96,1,210,8|2,0:0|0:0,0:0:0:0:
272,192,262833,1,0,0:0:0:0:
104,192,262999,1,8,0:0:0:0:
368,56,263166,2,0,L|152:56,1,210,0|0,0:0|0:0,0:0:0:0:
264,96,263583,1,0,0:0:0:0:
368,96,263666,2,0,L|368:208,1,105,8|0,0:0|0:0,0:0:0:0:
88,336,263999,6,0,L|328:336,1,210,2|8,0:0|0:0,0:0:0:0:
192,192,264499,1,0,0:0:0:0:
464,192,264666,2,0,L|464:64,1,105,0|0,0:0|0:0,0:0:0:0:
176,64,264999,1,8,0:0:0:0:
448,64,265166,6,0,P|448:160|336:160,1,210,0|0,0:0|0:0,0:0:0:0:
464,192,265666,1,8,0:0:0:0:
296,56,265833,2,0,P|240:64|304:144,1,210,0|0,0:0|0:0,0:0:0:0:
32,192,266333,2,0,L|32:304,1,105,8|0,0:0|0:0,0:0:0:0:
352,192,266666,6,0,L|464:192,1,105,4|0,0:0|0:0,0:0:0:0:
192,96,266999,2,0,L|87:96,2,105,8|0|0,0:0|0:0|0:0,0:0:0:0:
296,96,267500,1,0,0:0:0:0:
40,192,267666,6,0,P|40:288|136:288,1,210,8|2,0:0|0:0,0:0:0:0:
240,192,268166,1,0,0:0:0:0:
408,192,268333,1,8,0:0:0:0:
136,40,268499,2,0,P|136:168|136:48,1,210,0|0,0:0|0:0,0:0:0:0:
240,64,268916,1,0,0:0:0:0:
344,64,269000,2,0,L|456:64,1,105,8|0,0:0|0:0,0:0:0:0:
168,192,269333,6,0,L|168:304,1,105,2|0,0:0|0:0,0:0:0:0:
456,288,269666,2,0,L|328:288,1,105,8|0,0:0|0:0,0:0:0:0:
104,136,269999,2,0,L|224:136,2,105,0|0|8,0:0|0:0|0:0,0:0:0:0:
384,40,270499,6,0,P|384:136|288:136,1,210,0|0,0:0|0:0,0:0:0:0:
184,136,270916,1,0,0:0:0:0:
80,136,271000,2,0,L|80:240,1,105,8|0,0:0|0:0,0:0:0:0:
248,256,271333,2,0,L|144:256,1,105,0|0,0:0|0:0,0:0:0:0:
432,192,271666,2,0,L|432:320,1,105,8|0,0:0|0:0,0:0:0:0:
128,320,272000,6,0,L|16:320,1,105,2|0,0:0|0:0,0:0:0:0:
296,288,272333,2,0,L|296:176,1,105,8|0,0:0|0:0,0:0:0:0:
128,144,272666,2,0,L|8:144,1,105,0|0,0:0|0:0,0:0:0:0:
312,40,272999,6,0,P|312:136|200:136,1,210,8|2,0:0|0:0,0:0:0:0:
328,192,273499,1,0,0:0:0:0:
160,192,273666,1,8,0:0:0:0:
416,256,273833,2,0,P|416:352|304:352,1,210,0|0,0:0|0:0,0:0:0:0:
216,288,274250,1,0,0:0:0:0:
112,344,274333,2,0,L|232:344,1,105,8|0,0:0|0:0,0:0:0:0:
488,48,274666,6,0,P|488:136|376:136,1,210,2|8,0:0|0:0,0:0:0:0:
280,192,275166,1,0,0:0:0:0:
448,192,275333,1,0,0:0:0:0:
168,48,275499,2,0,L|168:160,1,105,0|8,0:0|0:0,0:0:0:0:
464,272,275833,6,0,L|232:272,1,210,0|0,0:0|0:0,0:0:0:0:
424,208,276333,1,8,0:0:0:0:
312,208,276499,1,0,0:0:0:0:
312,208,276666,1,0,0:0:0:0:
424,208,276833,1,0,0:0:0:0:
168,256,277000,2,0,L|48:256,1,105,8|0,0:0|0:0,0:0:0:0:
416,227,277333,6,0,P|379:167|283:125,1,157.5,4|0,0:0|0:0,0:0:0:0:
228,108,277666,2,0,L|342:77,1,105,8|0,0:0|0:0,0:0:0:0:
163,33,277999,2,0,L|45:13,1,105,0|0,0:0|0:0,0:0:0:0:
330,79,278333,6,0,P|310:131|175:210,1,210,8|2,0:0|0:0,0:0:0:0:
288,233,278833,1,0,0:0:0:0:
41,349,278999,1,8,0:0:0:0:
167,318,279166,2,0,P|218:349|394:353,1,210,0|0,0:0|0:0,0:0:0:0:
352,324,279583,1,0,0:0:0:0:
161,117,279666,2,0,L|58:85,1,105,8|0,0:0|0:0,0:0:0:0:
345,63,279999,6,0,L|224:29,1,105,2|0,0:0|0:0,0:0:0:0:
404,153,280333,2,0,L|517:129,1,105,8|0,0:0|0:0,0:0:0:0:
248,166,280666,2,0,L|270:304,1,105,0|0,0:0|0:0,0:0:0:0:
392,311,280999,1,8,0:0:0:0:
123,358,281166,6,0,L|344:402,1,210,0|0,0:0|0:0,0:0:0:0:
272,373,281583,1,0,0:0:0:0:
90,257,281666,1,8,0:0:0:0:
203,224,281833,1,0,0:0:0:0:
67,155,281999,2,0,P|60:71|66:37,1,105,0|0,0:0|0:0,0:0:0:0:
317,40,282333,1,8,0:0:0:0:
190,18,282499,1,0,0:0:0:0:
455,103,282666,6,0,L|475:300,1,157.5,4|0,0:0|0:0,0:0:0:0:
279,354,282999,2,0,L|160:384,1,105,8|0,0:0|0:0,0:0:0:0:
350,242,283333,1,0,0:0:0:0:
214,211,283499,1,0,0:0:0:0:
74,217,283666,2,0,L|66:96,1,105,8|0,0:0|0:0,0:0:0:0:
351,74,283999,1,0,0:0:0:0:
208,39,284166,1,0,0:0:0:0:
466,203,284333,1,8,0:0:0:0:
306,259,284499,6,0,P|333:199|461:116,1,210,0|0,0:0|0:0,0:0:0:0:
395,106,284916,1,0,0:0:0:0:
195,349,284999,2,0,L|75:373,1,105,8|0,0:0|0:0,0:0:0:0:
359,348,285333,6,0,L|479:372,1,105,2|0,0:0|0:0,0:0:0:0:
151,251,285666,2,0,L|178:17,1,210,8|0,0:0|0:0,0:0:0:0:
312,20,286166,1,0,0:0:0:0:
38,284,286333,1,8,0:0:0:0:
205,334,286499,6,0,P|179:253|67:180,1,210,0|0,0:0|0:0,0:0:0:0:
355,158,286999,1,8,0:0:0:0:
202,99,287166,2,0,L|219:231,1,105,0|0,0:0|0:0,0:0:0:0:
482,326,287499,1,0,0:0:0:0:
215,337,287666,1,8,0:0:0:0:
364,270,287833,1,0,0:0:0:0:
64,229,287999,6,0,L|44:92,1,105,4|0,0:0|0:0,0:0:0:0:
213,105,288333,2,0,L|219:-10,1,105,8|0,0:0|0:0,0:0:0:0:
382,248,288666,2,0,L|327:126,1,105,0|0,0:0|0:0,0:0:0:0:
170,204,288999,1,8,0:0:0:0:
427,355,289166,1,0,0:0:0:0:
277,320,289333,6,0,L|266:211,1,105,2|0,0:0|0:0,0:0:0:0:
99,144,289666,2,0,L|116:25,1,105,8|0,0:0|0:0,0:0:0:0:
400,34,289999,1,0,0:0:0:0:
250,27,290166,1,0,0:0:0:0:
99,144,290333,2,0,L|91:270,1,105,8|0,0:0|0:0,0:0:0:0:
404,234,290666,6,0,L|275:256,1,105,2|0,0:0|0:0,0:0:0:0:
154,378,290999,2,0,L|272:363,1,105,8|0,0:0|0:0,0:0:0:0:
12,291,291333,1,0,0:0:0:0:
158,231,291499,1,0,0:0:0:0:
306,282,291666,2,0,L|318:157,1,105,8|0,0:0|0:0,0:0:0:0:
19,128,291999,6,0,L|133:98,1,105,2|0,0:0|0:0,0:0:0:0:
284,24,292333,2,0,L|392:44,1,105,8|0,0:0|0:0,0:0:0:0:
128,206,292666,1,0,0:0:0:0:
274,225,292833,1,0,0:0:0:0:
140,317,292999,1,8,0:0:0:0:
241,331,293166,1,0,0:0:0:0:
498,360,293333,6,0,L|359:359,1,105,2|0,0:0|0:0,0:0:0:0:
148,186,293666,1,8,0:0:0:0:
288,164,293833,1,0,0:0:0:0:
35,76,293999,2,0,L|162:42,1,105,0|0,0:0|0:0,0:0:0:0:
288,164,294333,1,8,0:0:0:0:
148,186,294499,1,0,0:0:0:0:
422,327,294666,6,0,L|207:300,1,210,2|8,0:0|0:0,0:0:0:0:
336,265,295166,1,0,0:0:0:0:
72,258,295333,2,0,L|277:178,1,210,0|8,0:0|0:0,0:0:0:0:
148,186,295833,1,0,0:0:0:0:
411,53,295999,5,2,0:0:0:0:
324,102,296165,1,0,0:0:0:0:
336,200,296332,1,8,0:0:0:0:
431,228,296499,1,0,0:0:0:0:
294,175,296666,1,0,0:0:0:0:
381,224,296832,1,0,0:0:0:0:
369,322,296999,1,8,0:0:0:0:
274,350,297166,1,0,0:0:0:0:
21,335,297333,5,2,0:0:0:0:
172,262,297499,1,0,0:0:0:0:
53,166,297666,1,8,0:0:0:0:
210,148,297833,1,0,0:0:0:0:
106,33,297999,1,0,0:0:0:0:
276,33,298166,1,0,0:0:0:0:
26,293,298333,1,8,0:0:0:0:
384,355,298499,1,0,0:0:0:0:
261,291,298666,6,0,P|130:234|126:117,1,252,4|0,0:0|0:0,0:0:0:0:
190,97,299333,2,0,P|302:18|439:50,1,252,2|0,0:0|0:0,0:0:0:0:
329,105,299999,2,0,P|272:133|186:312,1,252,2|0,0:0|0:0,0:0:0:0:
273,328,300666,2,0,P|337:350|489:260,1,252,2|0,0:0|0:0,0:0:0:0:
334,141,301333,6,0,P|232:101|74:113,1,252,2|0,0:0|0:0,0:0:0:0:
178,133,301999,2,0,P|255:175|247:337,1,252,2|0,0:0|0:0,0:0:0:0:
165,355,302666,6,0,P|74:320|70:151,1,252,2|0,0:0|0:0,0:0:0:0:
134,130,303333,2,0,P|182:99|399:71,1,252,2|0,0:0|0:0,0:0:0:0:
323,53,303916,1,0,0:0:0:0:
119,19,303999,5,0,0:0:0:0:
389,171,304166,1,8,0:0:0:0:
405,192,304499,5,0,0:0:0:0:
109,294,304666,1,8,0:0:0:0:
75,319,304999,5,0,0:0:0:0:
378,356,305166,1,8,0:0:0:0:
428,371,305499,5,0,0:0:0:0:
112,200,305666,1,8,0:0:0:0:
405,192,305999,1,0,0:0:0:0:
105,58,306333,1,8,0:0:0:0:
503,353,306666,6,0,L|486:216,1,105,8|0,0:0|0:0,0:0:0:0:
364,180,306999,1,0,0:0:0:0:
106,160,307166,2,0,L|114:44,1,105,8|0,0:0|0:0,0:0:0:0:
397,38,307499,1,0,0:0:0:0:
255,256,307666,2,0,L|148:289,1,105,8|0,0:0|0:0,0:0:0:0:
324,344,307999,5,0,0:0:0:0:
78,98,308166,2,0,L|185:131,1,105,8|0,0:0|0:0,0:0:0:0:
9,186,308499,1,0,0:0:0:0:
295,220,308666,2,0,L|432:206,1,105,8|0,0:0|0:0,0:0:0:0:
86,64,308999,1,0,0:0:0:0:
415,44,309166,1,0,0:0:0:0:
152,192,309333,6,0,P|80:208|168:304,1,272.999987503052,4|0,0:0|0:0,0:0:0:0:
360,192,310333,1,2,0:0:0:0:
88,88,310666,2,0,L|304:88,2,204.749990627289,2|0|2,0:0|0:0|0:0,0:0:0:0:
376,192,311999,5,2,0:0:0:0:
192,272,312333,2,0,L|336:272,2,136.499993751526,2|0|2,0:0|0:0|0:0,0:0:0:0:
472,48,313333,2,0,P|472:128|360:128,2,204.749990627289,2|0|2,0:0|0:0|0:0,0:0:0:0:
56,192,314666,5,2,0:0:0:0:
240,64,314999,2,0,L|80:64,2,136.499993751526,0|0|2,0:0|0:0|0:0,0:0:0:0:
440,192,315999,2,0,P|328:192|328:264,2,204.749990627289,2|0|2,0:0|0:0|0:0,0:0:0:0:
160,192,317333,5,2,0:0:0:0:
344,32,317666,2,0,L|344:176,1,136.499993751526,2|0,0:0|0:0,0:0:0:0:
72,192,318333,1,2,0:0:0:0:
472,296,318666,2,0,L|232:296,2,204.749990627289,2|0|2,0:0|0:0|0:0,0:0:0:0:
56,192,319999,5,2,0:0:0:0:
240,96,320333,2,0,L|384:96,2,136.499993751526,2|0|2,0:0|0:0|0:0,0:0:0:0:
48,192,321333,2,0,P|160:192|160:264,2,204.749990627289,2|0|2,0:0|0:0|0:0,0:0:0:0:
320,192,322666,5,2,0:0:0:0:
128,336,322999,2,0,L|128:192,1,136.499993751526,2|0,0:0|0:0,0:0:0:0:
312,192,323666,1,2,0:0:0:0:
32,64,323999,2,0,P|128:64|128:152,2,204.749990627289,2|0|2,0:0|0:0|0:0,0:0:0:0:
448,192,325333,5,2,0:0:0:0:
256,64,325666,2,0,L|256:208,1,136.499993751526,2|0,0:0|0:0,0:0:0:0:
440,64,326333,1,2,0:0:0:0:
160,248,326666,2,0,L|376:248,2,204.749990627289,2|0|2,0:0|0:0|0:0,0:0:0:0:
440,192,328000,5,2,0:0:0:0:
256,192,328333,2,0,L|256:352,1,136.499993751526,2|0,0:0|0:0,0:0:0:0:
440,192,329000,1,2,0:0:0:0:
32,72,329333,2,0,P|144:72|144:144,2,204.749990627289,0|0|2,0:0|0:0|0:0,0:0:0:0:
424,128,330666,6,0,L|385:28,1,105,2|0,0:0|0:0,0:0:0:0:
206,18,331333,1,2,0:0:0:0:
397,239,331666,1,0,0:0:0:0:
186,342,331999,2,0,L|21:359,1,157.5,2|0,0:0|0:0,0:0:0:0:
271,238,332999,1,2,0:0:0:0:
56,121,333333,6,0,P|92:83|168:45,1,105,2|0,0:0|0:0,0:0:0:0:
305,127,333999,2,0,L|181:154,1,105,2|0,0:0|0:0,0:0:0:0:
464,332,334666,6,0,P|480:269|419:176,1,157.5,2|0,0:0|0:0,0:0:0:0:
202,149,335666,1,2,0:0:0:0:
436,82,335999,6,0,P|499:147|499:190,1,105,2|0,0:0|0:0,0:0:0:0:
301,256,336666,1,2,0:0:0:0:
493,298,336999,1,0,0:0:0:0:
228,361,337333,2,0,L|57:355,1,157.5,2|0,0:0|0:0,0:0:0:0:
301,256,338333,1,2,0:0:0:0:
39,274,338666,5,2,0:0:0:0:
187,253,338999,1,0,0:0:0:0:
25,164,339333,2,0,P|36:99|66:52,1,105,2|0,0:0|0:0,0:0:0:0:
315,59,339999,2,0,L|319:226,1,157.5,2|0,0:0|0:0,0:0:0:0:
106,339,340999,1,2,0:0:0:0:
347,358,341333,6,0,L|492:346,1,105,2|0,0:0|0:0,0:0:0:0:
292,266,341999,2,0,L|427:249,1,105,2|0,0:0|0:0,0:0:0:0:
172,190,342666,2,0,L|338:155,1,157.5,2|0,0:0|0:0,0:0:0:0:
126,86,343666,1,2,0:0:0:0:
327,44,343999,6,0,L|201:26,1,105,2|0,0:0|0:0,0:0:0:0:
55,166,344666,2,0,L|181:148,1,105,2|0,0:0|0:0,0:0:0:0:
397,301,345333,2,0,L|222:321,2,157.5,2|0|2,0:0|0:0|0:0,0:0:0:0:
179,224,346666,5,2,0:0:0:0:
52,198,346999,1,0,0:0:0:0:
183,117,347333,2,0,L|296:98,1,105,2|0,0:0|0:0,0:0:0:0:
54,89,347999,2,0,P|62:24|135:-64,1,157.5,2|0,0:0|0:0,0:0:0:0:
272,4,348999,1,2,0:0:0:0:
32,269,349333,6,0,L|145:286,1,105,2|0,0:0|0:0,0:0:0:0:
302,358,349999,2,0,L|179:382,1,105,2|0,0:0|0:0,0:0:0:0:
429,320,350666,2,0,P|405:259|304:181,1,157.5,2|0,0:0|0:0,0:0:0:0:
288,184,351333,5,0,0:0:0:0:
261,183,351416,1,0,0:0:0:0:
236,177,351499,1,0,0:0:0:0:
213,165,351582,1,0,0:0:0:0:
193,147,351666,1,0,0:0:0:0:
178,126,351749,1,0,0:0:0:0:
168,102,351832,1,0,0:0:0:0:
164,76,351916,1,0,0:0:0:0:
352,32,351999,6,0,L|216:32,1,136.499993751526,4|0,0:0|0:0,0:0:0:0:
304,80,352444,1,0,0:0:0:0:
392,80,352555,1,0,0:0:0:0:
392,80,352666,1,0,0:0:0:0:
192,192,352999,1,0,0:0:0:0:
128,192,353110,1,0,0:0:0:0:
64,192,353221,1,0,0:0:0:0:
272,288,353333,2,0,L|416:288,1,136.499993751526,2|0,0:0|0:0,0:0:0:0:
208,88,353999,1,0,0:0:0:0:
136,88,354110,1,0,0:0:0:0:
208,88,354221,1,0,0:0:0:0:
136,88,354333,1,0,0:0:0:0:
416,192,354666,5,0,0:0:0:0:
216,192,354999,1,0,0:0:0:0:
152,192,355110,1,0,0:0:0:0:
216,192,355221,1,0,0:0:0:0:
352,264,355333,2,0,P|352:336|288:336,1,136.499993751526
376,344,355777,1,0,0:0:0:0:
300,343,355888,1,0,0:0:0:0:
168,128,355999,2,0,P|96:128|96:176,1,136.499993751526,2|0,0:0|0:0,0:0:0:0:
304,64,356666,1,0,0:0:0:0:
376,64,356777,1,0,0:0:0:0:
304,112,356888,1,0,0:0:0:0:
376,112,356999,1,0,0:0:0:0:
448,112,357110,1,0,0:0:0:0:
160,192,357333,6,0,L|8:192,1,136.499993751526,4|0,0:0|0:0,0:0:0:0:
88,248,357777,1,0,0:0:0:0:
152,248,357888,1,0,0:0:0:0:
288,328,357999,2,0,P|288:264|224:264,1,136.499993751526
151,328,358444,1,0,0:0:0:0:
224,328,358555,1,0,0:0:0:0:
408,192,358666,2,0,P|448:224|392:280,1,136.499993751526,2|0,0:0|0:0,0:0:0:0:
200,72,359333,1,0,0:0:0:0:
272,72,359444,1,0,0:0:0:0:
200,72,359555,1,0,0:0:0:0:
128,72,359666,1,0,0:0:0:0:
408,192,359999,5,0,0:0:0:0:
216,296,360333,2,0,L|152:296,1,45.4999979171754,0|0,0:0|0:0,0:0:0:0:
128,296,360555,1,0,0:0:0:0:
264,296,360666,2,0,P|312:336|264:368,1,136.499993751526,0|0,0:0|0:0,0:0:0:0:
192,192,361110,1,0,0:0:0:0:
264,192,361221,1,0,0:0:0:0:
400,72,361333,2,0,P|400:136|336:136,1,136.499993751526,2|0,0:0|0:0,0:0:0:0:
208,120,361999,1,0,0:0:0:0:
280,120,362110,1,0,0:0:0:0:
352,120,362221,1,0,0:0:0:0:
280,120,362333,1,0,0:0:0:0:
352,120,362444,1,0,0:0:0:0:
40,32,362666,6,0,L|40:168,1,136.499993751526,4|0,0:0|0:0,0:0:0:0:
128,168,363111,1,0,0:0:0:0:
216,168,363222,1,0,0:0:0:0:
128,168,363333,1,0,0:0:0:0:
336,192,363666,1,0,0:0:0:0:
400,192,363777,1,0,0:0:0:0:
336,192,363888,1,0,0:0:0:0:
152,320,363999,2,0,P|152:264|224:264,1,136.499993751526
424,88,364666,1,0,0:0:0:0:
344,88,364777,1,0,0:0:0:0:
264,88,364888,1,0,0:0:0:0:
344,88,365000,1,0,0:0:0:0:
64,192,365333,5,0,0:0:0:0:
280,192,365666,1,0,0:0:0:0:
344,192,365777,1,0,0:0:0:0:
408,192,365888,1,0,0:0:0:0:
272,264,366000,2,0,P|272:336|336:336,1,136.499993751526
399,344,366444,1,0,0:0:0:0:
323,343,366555,1,0,0:0:0:0:
184,96,366666,2,0,P|184:160|256:160,1,136.499993751526,2|0,0:0|0:0,0:0:0:0:
432,64,367333,1,0,0:0:0:0:
368,64,367444,1,0,0:0:0:0:
304,64,367555,1,0,0:0:0:0:
368,112,367666,1,0,0:0:0:0:
432,112,367777,1,0,0:0:0:0:
112,192,367999,6,0,P|64:224|112:264,1,136.499993751526,4|0,0:0|0:0,0:0:0:0:
176,328,368444,1,0,0:0:0:0:
104,328,368555,1,0,0:0:0:0:
240,240,368666,2,0,L|384:240,1,136.499993751526,0|0,0:0|0:0,0:0:0:0:
312,296,369111,1,0,0:0:0:0:
376,296,369222,1,0,0:0:0:0:
200,64,369333,2,0,P|152:104|208:136,1,136.499993751526,2|0,0:0|0:0,0:0:0:0:
416,192,370000,1,0,0:0:0:0:
344,192,370111,1,0,0:0:0:0:
416,192,370222,1,0,0:0:0:0:
488,192,370333,1,0,0:0:0:0:
144,192,370666,5,0,0:0:0:0:
320,296,371000,2,0,L|384:296,1,45.4999979171754,0|0,0:0|0:0,0:0:0:0:
408,296,371222,1,0,0:0:0:0:
272,296,371333,2,0,P|224:336|272:368,1,136.499993751526,0|0,0:0|0:0,0:0:0:0:
336,192,371777,1,0,0:0:0:0:
400,192,371888,1,0,0:0:0:0:
256,64,372000,2,0,P|256:128|320:128,1,136.499993751526,2|0,0:0|0:0,0:0:0:0:
120,256,372666,1,0,0:0:0:0:
192,256,372777,1,0,0:0:0:0:
120,256,372888,1,0,0:0:0:0:
48,256,372999,5,0,0:0:0:0:
48,256,373111,1,0,0:0:0:0:
416,256,373333,1,4,0:0:0:0:
256,192,373666,12,0,378666,0:0:0:0:
