osu file format v14

[General]
AudioFilename: audio.ogg
AudioLeadIn: 0
PreviewTime: 77813
Countdown: 0
SampleSet: Normal
StackLeniency: 1
Mode: 1
LetterboxInBreaks: 0
WidescreenStoryboard: 1

[Editor]
Bookmarks: 21953,94853,110453,124853
DistanceSpacing: 0.4
BeatDivisor: 2
GridSize: 32
TimelineZoom: 0.9999999

[Metadata]
Title:Roar of the Jungle Dragon
TitleUnicode:Roar of the Jungle Dragon
Artist:DM DOKURO
ArtistUnicode:DM DOKURO
Creator:DEtermination21
Version:Kantan
Source:Terraria Calamity Mod
Tags:Video game rock melodic metal english bossfight yharon phase 2 second 2nd male vocal re-logic The Tale of a Cruel World
BeatmapID:3473806
BeatmapSetID:1692550

[Difficulty]
HPDrainRate:7
CircleSize:7
OverallDifficulty:3
ApproachRate:10
SliderMultiplier:1.4
SliderTickRate:1

[Events]
//Background and Video events
0,0,"Background_2560x1440.jpg",0,0
//Break Periods
//Storyboard Layer 0 (Background)
//Storyboard Layer 1 (Fail)
//Storyboard Layer 2 (Pass)
//Storyboard Layer 3 (Foreground)
//Storyboard Layer 4 (Overlay)
//Storyboard Sound Samples

[TimingPoints]
53,480,4,1,0,60,1,0
53,-111.111111111111,4,1,0,60,0,0
13492,-71.4285714285714,4,1,0,90,0,0
15413,240,4,1,0,60,1,0
15413,-142.857142857143,4,1,0,95,0,0
44213,-142.857142857143,4,1,0,95,0,0
45170,-142.86395,4,1,0,95,0,0
45651,-145.64696,4,1,0,95,0,0
45891,-147.0558,4,1,0,95,0,0
46131,-148.47826,4,1,0,95,0,0
46611,-151.36458,4,1,0,95,0,0
47091,-154.30702,4,1,0,95,0,0
47451,-156.55132,4,1,0,95,0,0
47811,-158.82828,4,1,0,95,0,0
48051,-160.3646,4,1,0,95,0,0
48291,-161.9158,4,1,0,95,0,0
48531,-163.48198,4,1,0,95,0,0
48771,-165.06334,4,1,0,95,0,0
49013,480,4,1,0,60,1,0
49013,-83.33333,4,1,0,95,0,0
64372,-76.92236,4,1,0,80,0,0
65092,-76.408134,4,1,0,80,0,0
65452,-76.15232,4,1,0,80,0,0
65812,-75.897354,4,1,0,80,0,0
66292,-75.55872,4,1,0,80,0,0
67012,-75.05362,4,1,0,80,0,0
67372,-74.80233,4,1,0,80,0,0
67732,-74.55189,4,1,0,80,0,0
68212,-74.21926,4,1,0,80,0,0
68932,-73.723114,4,1,0,80,0,0
69292,-73.47628,4,1,0,80,0,0
69652,-73.23027,4,1,0,80,0,0
70132,-72.90355,4,1,0,80,0,0
70852,-72.41619,4,1,0,80,0,0
71212,-72.17374,4,1,0,80,0,0
71572,-71.9321,4,1,0,80,0,0
72052,-71.61116,4,1,0,80,0,0
72292,-71.45123,4,1,0,80,0,0
72532,-71.29165,4,1,0,80,0,0
73012,-70.97357,4,1,0,80,0,0
73492,-70.65691,4,1,0,80,0,0
73972,-70.341675,4,1,0,80,0,0
74212,-70.18458,4,1,0,80,0,0
74452,-70.02783,4,1,0,80,0,0
74932,-69.71539,4,1,0,80,0,0
75412,-69.40436,4,1,0,80,0,0
75652,-69.24935,4,1,0,80,0,0
75892,-69.09469,4,1,0,80,0,0
77813,240,4,1,0,60,1,8
77813,-125,4,1,0,60,0,8
78772,-134.53111,4,1,0,60,0,8
79132,-134.0807,4,1,0,60,0,8
79492,-133.63177,4,1,0,60,0,8
79733,240,4,1,0,60,1,0
79733,-133.33333,4,1,0,100,0,1
141173,-95.2380952380952,4,1,0,100,0,0
142132,-129.87012987013,4,1,0,100,0,0
142852,-142.857142857143,4,1,0,90,0,0
144051,-147.058823529412,4,1,0,90,0,0
144291,-151.515151515152,4,1,0,90,0,0
144531,-156.25,4,1,0,90,0,0
145012,-166.666666666667,4,1,0,90,0,0
175733,240,8,1,0,60,1,0
175733,-166.666666666667,8,1,0,60,0,0
177653,480,4,1,0,60,1,0
177653,-83.3333333333333,4,1,0,80,0,0
178373,-100,4,1,0,80,0,0
239092,-100,4,1,0,80,0,0
241012,-105.2274,4,1,0,80,0,0
242932,-110.728065,4,1,0,80,0,0
244852,-116.516266,4,1,0,80,0,0
246772,-122.60704,4,1,0,80,0,0
248692,-129.0162,4,1,0,80,0,0
250612,-135.7604,4,1,0,80,0,0
252533,-142.857142857143,4,1,0,80,0,0

[HitObjects]
256,192,14453,5,8,0:0:0:0:
256,192,14813,1,8,0:0:0:0:
256,192,15173,1,8,0:0:0:0:
256,192,15413,1,4,0:0:0:0:
256,192,16133,1,8,0:0:0:0:
256,192,16373,1,8,0:0:0:0:
256,192,16853,1,0,0:0:0:0:
256,192,17213,1,8,0:0:0:0:
256,192,17693,1,0,0:0:0:0:
256,192,18053,1,0,0:0:0:0:
256,192,18293,1,8,0:0:0:0:
256,192,18653,1,0,0:0:0:0:
256,192,19013,1,8,0:0:0:0:
256,192,19253,1,0,0:0:0:0:
256,192,19973,1,0,0:0:0:0:
256,192,20213,1,8,0:0:0:0:
256,192,20453,1,8,0:0:0:0:
256,192,20693,1,0,0:0:0:0:
256,192,21173,1,12,0:0:0:0:
256,192,21653,1,12,0:0:0:0:
256,192,22133,1,4,0:0:0:0:
256,192,22613,1,4,0:0:0:0:
256,192,23093,1,12,0:0:0:0:
256,192,23573,1,0,0:0:0:0:
256,192,23813,1,8,0:0:0:0:
256,192,24053,1,8,0:0:0:0:
256,192,24293,1,0,0:0:0:0:
256,192,24533,1,8,0:0:0:0:
256,192,25013,1,8,0:0:0:0:
256,192,25373,1,0,0:0:0:0:
256,192,25733,1,0,0:0:0:0:
256,192,25973,1,8,0:0:0:0:
256,192,26333,1,8,0:0:0:0:
256,192,26693,1,8,0:0:0:0:
256,192,26933,1,4,0:0:0:0:
256,192,27653,1,8,0:0:0:0:
256,192,27893,1,8,0:0:0:0:
256,192,28253,1,0,0:0:0:0:
256,192,28613,1,0,0:0:0:0:
256,192,28853,1,12,0:0:0:0:
256,192,29333,1,12,0:0:0:0:
256,192,29813,1,12,0:0:0:0:
256,192,30773,1,12,0:0:0:0:
256,192,31253,1,8,0:0:0:0:
256,192,31493,1,0,0:0:0:0:
256,192,31733,1,8,0:0:0:0:
256,192,32093,1,0,0:0:0:0:
256,192,32573,1,8,0:0:0:0:
256,192,33053,1,0,0:0:0:0:
256,192,33413,1,8,0:0:0:0:
256,192,33653,1,0,0:0:0:0:
256,192,34013,1,8,0:0:0:0:
256,192,34373,1,8,0:0:0:0:
256,192,34613,1,0,0:0:0:0:
256,192,35093,1,0,0:0:0:0:
256,192,35333,1,0,0:0:0:0:
256,192,35573,1,8,0:0:0:0:
256,192,36053,1,0,0:0:0:0:
256,192,36533,1,12,0:0:0:0:
256,192,37013,1,12,0:0:0:0:
256,192,37493,1,4,0:0:0:0:
256,192,37973,1,4,0:0:0:0:
256,192,38453,1,12,0:0:0:0:
256,192,38933,1,0,0:0:0:0:
256,192,39173,1,0,0:0:0:0:
256,192,39413,1,8,0:0:0:0:
256,192,39653,1,8,0:0:0:0:
256,192,39893,1,8,0:0:0:0:
256,192,40373,1,8,0:0:0:0:
256,192,40733,1,8,0:0:0:0:
256,192,41093,1,0,0:0:0:0:
256,192,41333,1,0,0:0:0:0:
256,192,41693,1,8,0:0:0:0:
256,192,42053,1,8,0:0:0:0:
256,192,42293,1,0,0:0:0:0:
256,192,43013,1,8,0:0:0:0:
256,192,43253,1,8,0:0:0:0:
256,192,43613,1,0,0:0:0:0:
256,192,43973,1,0,0:0:0:0:
256,192,44213,1,12,0:0:0:0:
256,192,44693,1,12,0:0:0:0:
256,192,45173,1,12,0:0:0:0:
256,192,45653,1,0,0:0:0:0:
256,192,45893,1,8,0:0:0:0:
256,192,46133,1,8,0:0:0:0:
256,192,46613,1,0,0:0:0:0:
256,192,47093,1,8,0:0:0:0:
256,192,47453,1,8,0:0:0:0:
256,192,47813,1,8,0:0:0:0:
256,192,48293,1,0,0:0:0:0:
256,192,48533,1,8,0:0:0:0:
256,192,48773,1,8,0:0:0:0:
256,192,49013,1,4,0:0:0:0:
256,192,49733,1,8,0:0:0:0:
256,192,50453,1,0,0:0:0:0:
256,192,50933,1,8,0:0:0:0:
256,192,51653,1,8,0:0:0:0:
256,192,52373,1,0,0:0:0:0:
256,192,52853,1,8,0:0:0:0:
256,192,53573,1,0,0:0:0:0:
256,192,55733,1,0,0:0:0:0:
256,192,56213,1,8,0:0:0:0:
256,192,56693,1,8,0:0:0:0:
256,192,57413,1,0,0:0:0:0:
256,192,58133,1,8,0:0:0:0:
256,192,58613,1,8,0:0:0:0:
256,192,59333,1,0,0:0:0:0:
256,192,60053,1,0,0:0:0:0:
256,192,60533,1,8,0:0:0:0:
256,192,63413,1,0,0:0:0:0:
256,192,64373,1,12,0:0:0:0:
256,192,65093,1,0,0:0:0:0:
256,192,65453,1,0,0:0:0:0:
256,192,65813,1,8,0:0:0:0:
256,192,66293,1,8,0:0:0:0:
256,192,67013,1,0,0:0:0:0:
256,192,67373,1,8,0:0:0:0:
256,192,67733,1,8,0:0:0:0:
256,192,68213,1,8,0:0:0:0:
256,192,68933,1,8,0:0:0:0:
256,192,69293,1,8,0:0:0:0:
256,192,69653,1,0,0:0:0:0:
256,192,70133,1,0,0:0:0:0:
256,192,70853,1,8,0:0:0:0:
256,192,71213,1,0,0:0:0:0:
256,192,71573,1,8,0:0:0:0:
256,192,72053,1,8,0:0:0:0:
256,192,72293,1,8,0:0:0:0:
256,192,72533,1,8,0:0:0:0:
256,192,73013,1,0,0:0:0:0:
256,192,73493,1,8,0:0:0:0:
256,192,73973,1,0,0:0:0:0:
256,192,74213,1,8,0:0:0:0:
256,192,74453,1,8,0:0:0:0:
256,192,74933,1,0,0:0:0:0:
256,192,75413,1,8,0:0:0:0:
256,192,75653,1,0,0:0:0:0:
256,192,75893,1,8,0:0:0:0:
256,192,77813,1,12,0:0:0:0:
256,192,78773,1,8,0:0:0:0:
256,192,79133,1,0,0:0:0:0:
256,192,79493,1,0,0:0:0:0:
256,192,79733,1,12,0:0:0:0:
256,192,80213,1,0,0:0:0:0:
256,192,80453,1,0,0:0:0:0:
256,192,80693,1,8,0:0:0:0:
256,192,81173,1,0,0:0:0:0:
256,192,81653,1,8,0:0:0:0:
256,192,82133,1,8,0:0:0:0:
256,192,82373,1,8,0:0:0:0:
256,192,82613,1,0,0:0:0:0:
256,192,83333,1,8,0:0:0:0:
256,192,83573,1,0,0:0:0:0:
256,192,84053,1,0,0:0:0:0:
256,192,84293,1,8,0:0:0:0:
256,192,84533,1,0,0:0:0:0:
256,192,84773,1,8,0:0:0:0:
256,192,85013,1,8,0:0:0:0:
256,192,85493,1,0,0:0:0:0:
256,192,86213,1,8,0:0:0:0:
256,192,86453,1,0,0:0:0:0:
256,192,86813,1,8,0:0:0:0:
256,192,87173,1,8,0:0:0:0:
256,192,87413,1,0,0:0:0:0:
256,192,87893,1,0,0:0:0:0:
256,192,88133,1,8,0:0:0:0:
256,192,88373,1,0,0:0:0:0:
256,192,88853,1,8,0:0:0:0:
256,192,89333,1,8,0:0:0:0:
256,192,89813,1,8,0:0:0:0:
256,192,90053,1,8,0:0:0:0:
256,192,90293,1,0,0:0:0:0:
256,192,91013,1,8,0:0:0:0:
256,192,91253,1,0,0:0:0:0:
256,192,91493,1,0,0:0:0:0:
256,192,91733,1,8,0:0:0:0:
256,192,92213,1,8,0:0:0:0:
256,192,92453,1,8,0:0:0:0:
256,192,92693,1,8,0:0:0:0:
256,192,93173,1,0,0:0:0:0:
256,192,94133,1,12,0:0:0:0:
256,192,94373,1,0,0:0:0:0:
256,192,94613,1,12,0:0:0:0:
256,192,95093,1,12,0:0:0:0:
256,192,95333,1,0,0:0:0:0:
256,192,95573,1,8,0:0:0:0:
256,192,96053,1,0,0:0:0:0:
256,192,96533,1,8,0:0:0:0:
256,192,96773,1,8,0:0:0:0:
256,192,97013,1,0,0:0:0:0:
256,192,97493,1,0,0:0:0:0:
256,192,97973,1,8,0:0:0:0:
256,192,98693,1,8,0:0:0:0:
256,192,98933,1,0,0:0:0:0:
256,192,99413,1,8,0:0:0:0:
256,192,99653,1,0,0:0:0:0:
256,192,99893,1,8,0:0:0:0:
256,192,100373,1,8,0:0:0:0:
256,192,100613,1,8,0:0:0:0:
256,192,100853,1,0,0:0:0:0:
256,192,101573,1,8,0:0:0:0:
256,192,101813,1,0,0:0:0:0:
256,192,102173,1,8,0:0:0:0:
256,192,102533,1,8,0:0:0:0:
256,192,102773,1,0,0:0:0:0:
256,192,103253,1,8,0:0:0:0:
256,192,103493,1,8,0:0:0:0:
256,192,103733,1,0,0:0:0:0:
256,192,103973,1,0,0:0:0:0:
256,192,104213,1,8,0:0:0:0:
256,192,104693,1,0,0:0:0:0:
256,192,105173,1,8,0:0:0:0:
256,192,105413,1,8,0:0:0:0:
256,192,105653,1,0,0:0:0:0:
256,192,106373,1,8,0:0:0:0:
256,192,106613,1,0,0:0:0:0:
256,192,106853,1,0,0:0:0:0:
256,192,107093,1,8,0:0:0:0:
256,192,107573,1,8,0:0:0:0:
256,192,107813,1,0,0:0:0:0:
256,192,108053,1,8,0:0:0:0:
256,192,108533,1,0,0:0:0:0:
256,192,109493,5,8,0:0:0:0:
256,192,109733,1,0,0:0:0:0:
256,192,109973,1,8,0:0:0:0:
256,192,110453,1,12,0:0:0:0:
256,192,110933,1,8,0:0:0:0:
256,192,111173,1,8,0:0:0:0:
256,192,111413,1,0,0:0:0:0:
256,192,111893,1,8,0:0:0:0:
256,192,112373,1,8,0:0:0:0:
256,192,112853,1,0,0:0:0:0:
256,192,113093,1,8,0:0:0:0:
256,192,113333,1,0,0:0:0:0:
256,192,114053,1,8,0:0:0:0:
256,192,114293,1,0,0:0:0:0:
256,192,114533,1,8,0:0:0:0:
256,192,115013,1,8,0:0:0:0:
256,192,115253,1,8,0:0:0:0:
256,192,115493,1,8,0:0:0:0:
256,192,116213,1,0,0:0:0:0:
256,192,116453,1,8,0:0:0:0:
256,192,117173,1,8,0:0:0:0:
256,192,117533,1,0,0:0:0:0:
256,192,117893,1,0,0:0:0:0:
256,192,118133,1,8,0:0:0:0:
256,192,118613,1,8,0:0:0:0:
256,192,118853,1,0,0:0:0:0:
256,192,119093,1,0,0:0:0:0:
256,192,119573,1,8,0:0:0:0:
256,192,120053,1,8,0:0:0:0:
256,192,120293,1,0,0:0:0:0:
256,192,120533,1,8,0:0:0:0:
256,192,121013,1,0,0:0:0:0:
256,192,121733,1,8,0:0:0:0:
256,192,121973,1,0,0:0:0:0:
256,192,122453,1,8,0:0:0:0:
256,192,122693,1,8,0:0:0:0:
256,192,122933,1,0,0:0:0:0:
256,192,123413,1,0,0:0:0:0:
256,192,123893,5,8,0:0:0:0:
256,192,124613,1,0,0:0:0:0:
256,192,124853,5,12,0:0:0:0:
256,192,125333,1,12,0:0:0:0:
256,192,125813,1,12,0:0:0:0:
256,192,126293,1,8,0:0:0:0:
256,192,126533,1,8,0:0:0:0:
256,192,126773,1,0,0:0:0:0:
256,192,127253,1,0,0:0:0:0:
256,192,127733,1,8,0:0:0:0:
256,192,127973,1,0,0:0:0:0:
256,192,128213,1,8,0:0:0:0:
256,192,128453,1,0,0:0:0:0:
256,192,129173,1,0,0:0:0:0:
256,192,129653,1,8,0:0:0:0:
256,192,129893,1,8,0:0:0:0:
256,192,130133,1,0,0:0:0:0:
256,192,130613,1,0,0:0:0:0:
256,192,131093,1,0,0:0:0:0:
256,192,131333,1,0,0:0:0:0:
256,192,131573,5,8,0:0:0:0:
256,192,132293,1,0,0:0:0:0:
256,192,132533,5,8,0:0:0:0:
256,192,132893,1,0,0:0:0:0:
256,192,133253,1,0,0:0:0:0:
256,192,133493,1,8,0:0:0:0:
256,192,133973,1,8,0:0:0:0:
256,192,134213,1,8,0:0:0:0:
256,192,134453,1,0,0:0:0:0:
256,192,134933,1,0,0:0:0:0:
256,192,135413,1,8,0:0:0:0:
256,192,135893,1,0,0:0:0:0:
256,192,136133,1,0,0:0:0:0:
256,192,136373,1,8,0:0:0:0:
256,192,137093,1,8,0:0:0:0:
256,192,137333,1,0,0:0:0:0:
256,192,137813,1,0,0:0:0:0:
256,192,138053,1,0,0:0:0:0:
256,192,138293,1,8,0:0:0:0:
256,192,139013,1,8,0:0:0:0:
256,192,139253,1,8,0:0:0:0:
256,192,139733,1,8,0:0:0:0:
256,192,139973,1,8,0:0:0:0:
256,192,140213,1,8,0:0:0:0:
256,192,140453,1,0,0:0:0:0:
256,192,140693,1,8,0:0:0:0:
256,192,141173,1,4,0:0:0:0:
256,192,142853,1,8,0:0:0:0:
256,192,143093,1,8,0:0:0:0:
256,192,143333,1,8,0:0:0:0:
256,192,143573,1,0,0:0:0:0:
256,192,144053,1,8,0:0:0:0:
256,192,144293,1,0,0:0:0:0:
256,192,144533,1,8,0:0:0:0:
256,192,145013,1,8,0:0:0:0:
256,192,145733,1,8,0:0:0:0:
256,192,146453,1,8,0:0:0:0:
256,192,146933,1,0,0:0:0:0:
256,192,147653,1,0,0:0:0:0:
256,192,148373,1,8,0:0:0:0:
256,192,148853,1,0,0:0:0:0:
256,192,149573,1,0,0:0:0:0:
256,192,150293,1,0,0:0:0:0:
256,192,150773,1,8,0:0:0:0:
256,192,151493,1,8,0:0:0:0:
256,192,152213,1,12,0:0:0:0:
256,192,152693,1,12,0:0:0:0:
256,192,153413,1,8,0:0:0:0:
256,192,154133,1,8,0:0:0:0:
256,192,154613,1,0,0:0:0:0:
256,192,155333,1,0,0:0:0:0:
256,192,156053,1,8,0:0:0:0:
256,192,156533,1,0,0:0:0:0:
256,192,157253,1,0,0:0:0:0:
256,192,157973,1,0,0:0:0:0:
256,192,158453,1,8,0:0:0:0:
256,192,159173,1,8,0:0:0:0:
256,192,159893,1,12,0:0:0:0:
256,192,160373,1,12,0:0:0:0:
256,192,160733,1,8,0:0:0:0:
256,192,161093,1,8,0:0:0:0:
256,192,161813,1,8,0:0:0:0:
256,192,162293,1,0,0:0:0:0:
256,192,162653,1,0,0:0:0:0:
256,192,163013,1,0,0:0:0:0:
256,192,163733,1,8,0:0:0:0:
256,192,164213,1,0,0:0:0:0:
256,192,164573,1,0,0:0:0:0:
256,192,164933,1,0,0:0:0:0:
256,192,165653,1,0,0:0:0:0:
256,192,166133,1,8,0:0:0:0:
256,192,166493,1,8,0:0:0:0:
256,192,166853,1,8,0:0:0:0:
256,192,167573,1,12,0:0:0:0:
256,192,168053,1,12,0:0:0:0:
256,192,168413,1,8,0:0:0:0:
256,192,168773,1,8,0:0:0:0:
256,192,169493,1,8,0:0:0:0:
256,192,169973,1,0,0:0:0:0:
256,192,170333,1,0,0:0:0:0:
256,192,170693,1,0,0:0:0:0:
256,192,171413,1,8,0:0:0:0:
256,192,171893,1,0,0:0:0:0:
256,192,172253,1,0,0:0:0:0:
256,192,172613,1,0,0:0:0:0:
256,192,173333,1,0,0:0:0:0:
256,192,173813,1,8,0:0:0:0:
256,192,174173,1,8,0:0:0:0:
256,192,174533,1,8,0:0:0:0:
256,192,174773,1,8,0:0:0:0:
256,192,175253,1,12,0:0:0:0:
256,192,175733,1,12,0:0:0:0:
256,192,177653,5,4,0:0:0:0:
256,192,178373,1,0,0:0:0:0:
256,192,178613,1,8,0:0:0:0:
256,192,179093,1,0,0:0:0:0:
256,192,179573,1,8,0:0:0:0:
256,192,180293,1,0,0:0:0:0:
256,192,180533,1,8,0:0:0:0:
256,192,181013,1,8,0:0:0:0:
256,192,181493,1,8,0:0:0:0:
256,192,181733,1,8,0:0:0:0:
256,192,181973,1,0,0:0:0:0:
256,192,182453,1,8,0:0:0:0:
256,192,182933,1,8,0:0:0:0:
256,192,183413,1,0,0:0:0:0:
256,192,184133,1,0,0:0:0:0:
256,192,184373,1,8,0:0:0:0:
256,192,184853,1,0,0:0:0:0:
256,192,185333,1,12,0:0:0:0:
256,192,186053,1,8,0:0:0:0:
256,192,186293,1,8,0:0:0:0:
256,192,186773,1,0,0:0:0:0:
256,192,187013,1,8,0:0:0:0:
256,192,187253,1,8,0:0:0:0:
256,192,187973,1,0,0:0:0:0:
256,192,188213,1,8,0:0:0:0:
256,192,188693,1,8,0:0:0:0:
256,192,189173,1,0,0:0:0:0:
256,192,189893,1,0,0:0:0:0:
256,192,190133,1,8,0:0:0:0:
256,192,190613,1,0,0:0:0:0:
256,192,191093,1,8,0:0:0:0:
256,192,191813,1,0,0:0:0:0:
256,192,192053,1,8,0:0:0:0:
256,192,192533,1,8,0:0:0:0:
256,192,193013,1,12,0:0:0:0:
256,192,193493,1,0,0:0:0:0:
256,192,193733,1,0,0:0:0:0:
256,192,193973,1,8,0:0:0:0:
256,192,194453,1,0,0:0:0:0:
256,192,194933,1,8,0:0:0:0:
256,192,195653,1,8,0:0:0:0:
256,192,195893,1,8,0:0:0:0:
256,192,196373,1,8,0:0:0:0:
256,192,196853,1,0,0:0:0:0:
256,192,197573,1,0,0:0:0:0:
256,192,197813,1,8,0:0:0:0:
256,192,198293,1,0,0:0:0:0:
256,192,198533,1,8,0:0:0:0:
256,192,198773,1,0,0:0:0:0:
256,192,199493,1,8,0:0:0:0:
256,192,199733,1,8,0:0:0:0:
256,192,200213,1,8,0:0:0:0:
256,192,200453,1,8,0:0:0:0:
256,192,200693,1,4,0:0:0:0:
256,192,201413,1,0,0:0:0:0:
256,192,201653,1,8,0:0:0:0:
256,192,202133,1,0,0:0:0:0:
256,192,202613,1,8,0:0:0:0:
256,192,203333,1,8,0:0:0:0:
256,192,203573,1,8,0:0:0:0:
256,192,204053,1,8,0:0:0:0:
256,192,204533,1,0,0:0:0:0:
256,192,205253,1,0,0:0:0:0:
256,192,205493,1,8,0:0:0:0:
256,192,205973,1,0,0:0:0:0:
256,192,206453,1,0,0:0:0:0:
256,192,207173,1,0,0:0:0:0:
256,192,207413,1,8,0:0:0:0:
256,192,207773,1,8,0:0:0:0:
256,192,208373,1,8,0:0:0:0:
256,192,208853,1,8,0:0:0:0:
256,192,209093,1,8,0:0:0:0:
256,192,209333,1,0,0:0:0:0:
256,192,209813,1,0,0:0:0:0:
256,192,210053,1,8,0:0:0:0:
256,192,210293,1,8,0:0:0:0:
256,192,211013,1,0,0:0:0:0:
256,192,211253,1,0,0:0:0:0:
256,192,211733,1,0,0:0:0:0:
256,192,211973,1,8,0:0:0:0:
256,192,212213,1,8,0:0:0:0:
256,192,212693,1,8,0:0:0:0:
256,192,212933,1,0,0:0:0:0:
256,192,213173,1,8,0:0:0:0:
256,192,213653,1,0,0:0:0:0:
256,192,214133,1,8,0:0:0:0:
256,192,214613,1,8,0:0:0:0:
256,192,215093,1,0,0:0:0:0:
256,192,215573,1,0,0:0:0:0:
256,192,215813,1,8,0:0:0:0:
256,192,216053,1,12,0:0:0:0:
256,192,216773,1,0,0:0:0:0:
256,192,217013,1,8,0:0:0:0:
256,192,217493,1,8,0:0:0:0:
256,192,217733,1,0,0:0:0:0:
256,192,217973,1,8,0:0:0:0:
256,192,218693,1,8,0:0:0:0:
256,192,218933,1,8,0:0:0:0:
256,192,219413,1,0,0:0:0:0:
256,192,219653,1,8,0:0:0:0:
256,192,219893,1,0,0:0:0:0:
256,192,220613,1,8,0:0:0:0:
256,192,220853,1,8,0:0:0:0:
256,192,221333,1,0,0:0:0:0:
256,192,221573,1,0,0:0:0:0:
256,192,221813,1,8,0:0:0:0:
256,192,222533,1,0,0:0:0:0:
256,192,222773,1,8,0:0:0:0:
256,192,223253,1,8,0:0:0:0:
256,192,223733,1,8,0:0:0:0:
256,192,223973,1,0,0:0:0:0:
256,192,224213,1,8,0:0:0:0:
256,192,224453,1,8,0:0:0:0:
256,192,224693,1,0,0:0:0:0:
256,192,225173,1,8,0:0:0:0:
256,192,225413,1,8,0:0:0:0:
256,192,225653,1,0,0:0:0:0:
256,192,226133,1,8,0:0:0:0:
256,192,226613,1,8,0:0:0:0:
256,192,226853,1,8,0:0:0:0:
256,192,227093,1,8,0:0:0:0:
256,192,227573,1,0,0:0:0:0:
256,192,228293,1,0,0:0:0:0:
256,192,228533,1,8,0:0:0:0:
256,192,229013,1,8,0:0:0:0:
256,192,229253,1,8,0:0:0:0:
256,192,229493,1,0,0:0:0:0:
256,192,229973,1,8,0:0:0:0:
256,192,230453,1,0,0:0:0:0:
256,192,231173,1,8,0:0:0:0:
256,192,231413,1,12,0:0:0:0:
256,192,231893,1,8,0:0:0:0:
256,192,232133,1,0,0:0:0:0:
256,192,232373,1,8,0:0:0:0:
256,192,232853,1,0,0:0:0:0:
256,192,233333,1,8,0:0:0:0:
256,192,234293,1,8,0:0:0:0:
256,192,234773,1,8,0:0:0:0:
256,192,235253,1,0,0:0:0:0:
256,192,235733,1,8,0:0:0:0:
256,192,235973,1,0,0:0:0:0:
256,192,236213,1,8,0:0:0:0:
256,192,236693,1,0,0:0:0:0:
256,192,237173,1,8,0:0:0:0:
256,192,238133,1,8,0:0:0:0:
256,192,238373,1,0,0:0:0:0:
256,192,238613,1,8,0:0:0:0:
256,192,238853,1,8,0:0:0:0:
256,192,239093,8,0,250613,0:0:0:0:
