osu file format v14

[General]
AudioFilename: Reality Check Through The Skull.mp3
AudioLeadIn: 0
PreviewTime: 46148
Countdown: 0
SampleSet: Normal
StackLeniency: 0.7
Mode: 0
LetterboxInBreaks: 0
WidescreenStoryboard: 1

[Editor]
Bookmarks: 193911
DistanceSpacing: 1.5
BeatDivisor: 4
GridSize: 4
TimelineZoom: 4.339996

[Metadata]
Title:Reality Check Through The Skull
TitleUnicode:Reality Check Through The Skull
Artist:DM DOKURO
ArtistUnicode:DM DOKURO
Creator:YUGAMI NEE NA
Version:ar9
Source:UNDERTALE
Tags:Reunited genocide toby fox undertale megalovania song that might play when you fight sans bonetrousle the underground radio DM DOKURO
BeatmapID:1916400
BeatmapSetID:838794

[Difficulty]
HPDrainRate:5
CircleSize:3.7
OverallDifficulty:8.8
ApproachRate:9
SliderMultiplier:2
SliderTickRate:1

[Events]
//Background and Video events
0,0,"sansbg.png",0,0
//Break Periods
2,230053,248233
//Storyboard Layer 0 (Background)
//Storyboard Layer 1 (Fail)
//Storyboard Layer 2 (Pass)
//Storyboard Layer 3 (Foreground)
//Storyboard Sound Samples

[TimingPoints]
29,338.983050847458,11,1,0,5,1,0
16720,338.983050847458,11,1,0,20,1,0
16720,-200,11,1,0,20,0,0
20414,338.983050847458,11,1,0,20,1,0
20414,-200,11,1,0,20,0,0
24106,338.983050847458,11,1,0,20,1,0
24106,-200,11,1,0,20,0,0
27798,338.983050847458,11,1,0,20,1,0
27798,-200,11,1,0,20,0,0
31491,338.983050847458,5,1,0,20,1,0
31491,-153.846153846154,5,1,0,20,0,0
33355,338.983050847458,5,1,0,20,1,0
33355,-153.846153846154,5,1,0,20,0,0
35197,338.983050847458,5,1,0,20,1,0
35197,-142.857142857143,5,1,0,20,0,0
37040,338.983050847458,5,1,0,20,1,0
37040,-133.333333333333,5,1,0,20,0,0
38845,461.538461538462,4,1,0,20,1,0
38845,-125,4,1,0,20,0,0
44245,-125,4,1,0,65,0,0
44360,230.769230769231,4,1,0,70,1,0
46206,230.769230769231,4,1,0,75,1,0
46206,-90.9090909090909,4,1,0,75,0,1
60975,-100,4,1,0,65,0,0
90513,-100,4,1,0,80,0,1
105297,461.538461538462,4,1,0,15,1,0
105297,-142.857142857143,4,1,0,15,0,0
133681,-142.857142857143,4,1,0,20,0,0
134835,-133.333333333333,4,1,0,35,0,0
160681,-25,4,1,0,35,0,0
162412,-100,4,1,0,35,0,0
162527,230.769230769231,4,1,0,65,1,0
164373,230.769230769231,4,1,0,80,1,1
171757,-100,4,1,0,45,0,0
179142,-100,4,1,0,80,0,1
186526,-100,4,1,0,45,0,0
193911,-100,4,1,0,65,0,0
222526,-80,4,1,0,25,0,1
228988,-25,4,1,0,10,0,1
229853,-100,4,1,0,5,0,0
234526,461.538461538462,4,1,0,5,1,0
248833,-25,4,1,0,5,0,0
249064,-100,4,1,0,30,0,0
272372,-66.6666666666667,4,1,0,30,0,0
276987,-133.333333333333,4,1,0,30,0,0
278833,230.769230769231,4,1,0,60,1,0
278833,-90.9090909090909,4,1,0,60,0,0
293602,-83.3333333333333,4,1,0,70,0,1
300986,-76.9230769230769,4,1,0,75,0,1
304679,-25,4,1,0,80,0,1
308371,-142.857142857143,4,1,0,50,0,1
314140,-142.857142857143,4,1,0,25,0,0
317256,-142.857142857143,4,1,0,15,0,0
318640,-142.857142857143,4,1,0,10,0,0
320948,-142.857142857143,4,1,0,5,0,0
323140,-100,4,2,0,5,0,0

[Colours]
Combo1 : 240,240,240
Combo2 : 255,0,0
Combo3 : 0,0,255
Combo4 : 0,255,255

[HitObjects]
256,192,29,12,0,4774,0:0:0:0:
256,192,5113,12,0,9690,0:0:0:0:
256,192,10198,12,0,16130,0:0:0:0:
64,96,16720,6,0,P|112:128|164:144,1,100
88,347,17397,2,0,B|8:192|96:32|256:0|404:32|508:192|403:350,1,800,8|8,0:0|0:0,0:0:0:0:
203,163,20414,6,0,P|240:203|245:267,1,100
256,192,21091,12,0,23803,0:0:0:0:
428,304,24106,6,0,P|376:292|328:260,1,100,8|0,0:0|0:0,0:0:0:0:
410,94,24783,2,0,B|330:94|110:190|110:278|198:358|258:370|322:358|398:278|398:190|186:94|94:94,1,800,8|8,0:0|0:0,0:0:0:0:
258,190,27798,2,0,P|316:201|374:182,1,100
256,192,28475,12,0,31187,0:0:0:0:
96,72,31491,6,0,P|136:124|224:144,1,129.999994049073,8|0,0:0|0:0,0:0:0:0:
84,180,32168,2,0,B|196:292|408:256|480:100,1,454.999979171754,8|0,0:0|0:0,0:0:0:0:
296,148,33693,5,0,0:0:0:0:
432,308,34032,2,0,B|396:200|324:184|284:276|160:256|140:152,1,357.49998363495,8|8,0:0|0:0,0:0:0:0:
300,112,35197,6,0,P|368:140|440:128,1,139.999995727539
220,68,35874,2,0,B|107:226|107:226|286:300,1,384.999988250733,8|8,0:0|0:0,0:0:0:0:
320,160,37040,6,0,P|384:212|376:296,2,150.000005722046,0|0|8,0:0|0:0|0:0,0:0:0:0:
256,272,37972,2,0,P|192:228|192:156,2,150.000005722046,8|0|8,0:0|0:0|0:0,0:0:0:0:
424,312,38845,5,0,0:0:0:0:
424,276,38960,1,0,0:0:0:0:
408,244,39075,1,8,0:0:0:0:
348,284,39306,2,0,P|296:304|240:280,1,120,0|8,0:0|0:0,0:0:0:0:
288,224,39883,1,0,0:0:0:0:
216,212,40114,1,8,0:0:0:0:
116,276,40345,5,0,0:0:0:0:
136,248,40460,1,8,0:0:0:0:
140,212,40575,1,8,0:0:0:0:
104,216,40691,5,0,0:0:0:0:
68,224,40806,1,0,0:0:0:0:
44,196,40921,2,0,P|48:156|92:104,1,80,8|0,0:0|0:0,0:0:0:0:
248,116,41498,2,0,P|272:160|300:180,2,80,8|0|8,0:0|0:0|0:0,0:0:0:0:
220,232,42191,1,0,0:0:0:0:
208,200,42306,1,8,0:0:0:0:
196,168,42421,1,8,0:0:0:0:
232,172,42537,5,0,0:0:0:0:
268,176,42652,1,0,0:0:0:0:
284,144,42768,2,0,P|320:120|336:88,1,80,8|0,0:0|0:0,0:0:0:0:
392,216,43345,2,0,P|340:244|296:248,1,80,8|0,0:0|0:0,0:0:0:0:
240,156,43806,1,8,0:0:0:0:
180,260,44037,2,0,P|160:256|128:232,1,40,0|8,0:0|0:0,0:0:0:0:
209,136,44268,6,0,P|223:123|241:120,2,20,0|0|0,0:0|0:0|0:0,0:0:0:0:
319,292,44475,1,0,0:0:0:0:
133,218,44590,1,0,0:0:0:0:
326,164,44706,5,8,0:0:0:0:
198,317,44821,1,0,0:0:0:0:
264,129,44936,1,0,0:0:0:0:
262,330,45052,5,8,0:0:0:0:
202,139,45167,1,0,0:0:0:0:
322,299,45283,5,0,0:0:0:0:
157,186,45398,1,8,0:0:0:0:
348,242,45513,5,0,0:0:0:0:
147,248,45629,1,0,0:0:0:0:
124,49,45744,5,12,0:0:0:0:
395,124,45860,5,12,0:0:0:0:
122,247,45975,5,12,0:0:0:0:
386,337,46090,5,8,0:0:0:0:
256,157,46206,5,4,0:0:0:0:
115,242,46321,1,0,0:0:0:0:
98,133,46436,2,0,P|198:77|310:89,1,220.000006713867,8|0,0:0|0:0,0:0:0:0:
384,192,46782,1,0,0:0:0:0:
396,60,46898,1,0,0:0:0:0:
292,140,47013,2,0,P|248:160|180:156,1,110.000003356934,8|0,0:0|0:0,0:0:0:0:
244,40,47244,1,8,0:0:0:0:
296,160,47359,1,0,0:0:0:0:
424,124,47475,2,0,P|468:228|428:332,1,220.000006713867,8|0,0:0|0:0,0:0:0:0:
376,204,47821,1,8,0:0:0:0:
264,272,47936,1,8,0:0:0:0:
308,148,48052,5,0,0:0:0:0:
344,276,48167,1,0,0:0:0:0:
240,192,48282,2,0,P|144:136|124:32,1,220.000006713867,8|8,0:0|0:0,0:0:0:0:
60,156,48629,1,0,0:0:0:0:
140,260,48744,1,0,0:0:0:0:
200,144,48859,2,0,P|244:112|320:120,2,110.000003356934,8|0|8,0:0|0:0|0:0,0:0:0:0:
292,240,49206,1,0,0:0:0:0:
424,232,49321,2,0,P|356:304|216:300,1,220.000006713867,8|0,0:0|0:0,0:0:0:0:
192,188,49667,1,8,0:0:0:0:
304,120,49782,1,8,0:0:0:0:
408,200,49898,5,0,0:0:0:0:
348,316,50013,1,0,0:0:0:0:
216,308,50129,2,0,P|160:284|128:224,1,110.000003356934,8|0,0:0|0:0,0:0:0:0:
256,200,50359,2,0,P|272:248|248:316,2,110.000003356934,8|0|0,0:0|0:0|0:0,0:0:0:0:
124,216,50706,2,0,P|188:176|264:176,1,110.000003356934,8|0,0:0|0:0,0:0:0:0:
120,88,50936,1,8,0:0:0:0:
244,44,51052,1,0,0:0:0:0:
364,92,51167,2,0,P|404:200|380:304,1,220.000006713867,8|0,0:0|0:0,0:0:0:0:
332,176,51513,1,8,0:0:0:0:
200,156,51629,1,8,0:0:0:0:
256,276,51744,5,0,0:0:0:0:
124,260,51859,1,0,0:0:0:0:
92,132,51975,2,0,P|192:80|296:112,1,220.000006713867,8|8,0:0|0:0,0:0:0:0:
392,196,52321,1,0,0:0:0:0:
360,324,52436,1,0,0:0:0:0:
288,212,52552,2,0,P|236:248|220:300,1,110.000003356934,8|0,0:0|0:0,0:0:0:0:
120,204,52782,1,8,0:0:0:0:
60,84,52898,6,0,P|184:60|296:104,1,220.000006713867,12|0,0:0|0:0,0:0:0:0:
340,200,53244,1,0,0:0:0:0:
452,272,53359,6,0,P|324:300|232:272,1,220.000006713867,12|0,0:0|0:0,0:0:0:0:
112,320,53706,5,0,0:0:0:0:
176,204,53821,2,0,P|276:148|324:48,1,220.000006713867,8|8,0:0|0:0,0:0:0:0:
428,136,54167,1,0,0:0:0:0:
340,36,54282,1,0,0:0:0:0:
216,88,54398,2,0,P|160:104|128:152,1,110.000003356934,8|0,0:0|0:0,0:0:0:0:
240,220,54629,1,8,0:0:0:0:
356,156,54744,1,0,0:0:0:0:
440,56,54859,2,0,P|472:168|436:288,1,220.000006713867,8|0,0:0|0:0,0:0:0:0:
345,180,55206,1,8,0:0:0:0:
213,191,55321,1,8,0:0:0:0:
292,295,55436,5,0,0:0:0:0:
424,294,55552,1,0,0:0:0:0:
308,230,55667,2,0,P|169:193|106:133,1,220.000006713867,8|8,0:0|0:0,0:0:0:0:
47,258,56013,1,0,0:0:0:0:
42,125,56129,1,0,0:0:0:0:
155,191,56244,2,0,P|209:217|247:263,1,110.000003356934,8|0,0:0|0:0,0:0:0:0:
298,133,56475,1,8,0:0:0:0:
424,170,56590,1,0,0:0:0:0:
366,289,56706,2,0,P|271:325|120:313,1,220.000006713867,8|0,0:0|0:0,0:0:0:0:
82,210,57052,1,8,0:0:0:0:
213,202,57167,1,8,0:0:0:0:
287,310,57282,6,0,P|313:258|295:200,1,110.000003356934
308,77,57513,2,0,P|196:117|147:215,1,220.000006713867,8|8,0:0|0:0,0:0:0:0:
281,195,57859,1,0,0:0:0:0:
405,241,57975,2,0,P|370:288|302:311,1,110.000003356934,0|8,0:0|0:0,0:0:0:0:
191,307,58206,1,0,0:0:0:0:
191,175,58321,2,0,P|306:217|371:318,2,220.000006713867,8|8|0,0:0|0:0|0:0,0:0:0:0:
285,82,58898,1,8,0:0:0:0:
153,77,59013,1,8,0:0:0:0:
219,191,59129,5,0,0:0:0:0:
144,299,59244,1,0,0:0:0:0:
275,307,59359,2,0,P|376:252|424:163,1,220.000006713867,8|8,0:0|0:0,0:0:0:0:
349,50,59706,1,0,0:0:0:0:
217,42,59821,2,0,P|141:131|120:239,1,220.000006713867,8|8,0:0|0:0,0:0:0:0:
122,279,60109,1,8,0:0:0:0:
146,322,60167,1,0,0:0:0:0:
342,338,60282,1,0,0:0:0:0:
247,162,60398,1,8,0:0:0:0:
257,210,60456,1,8,0:0:0:0:
284,250,60513,1,0,0:0:0:0:
429,114,60629,1,0,0:0:0:0:
237,65,60744,1,8,0:0:0:0:
194,90,60802,1,8,0:0:0:0:
164,129,60859,1,0,0:0:0:0:
105,319,60975,6,0,P|211:323|315:268,1,200,8|0,0:0|0:0,0:0:0:0:
215,222,61321,2,0,P|265:192|326:187,1,100,8|0,0:0|0:0,0:0:0:0:
370,262,61552,1,8,0:0:0:0:
450,202,61667,1,0,0:0:0:0:
368,144,61782,2,0,P|267:115|164:146,2,200,8|8|8,0:0|0:0|0:0,0:0:0:0:
285,200,62359,2,0,P|234:227|210:272,1,100
122,306,62590,2,0,P|84:213|105:99,1,200,8|8,0:0|0:0,0:0:0:0:
189,155,62936,5,0,0:0:0:0:
209,253,63052,1,0,0:0:0:0:
292,198,63167,2,0,P|346:173|381:122,2,100,8|0|8,0:0|0:0|0:0,0:0:0:0:
386,231,63513,1,0,0:0:0:0:
310,297,63629,2,0,P|221:344|105:319,1,200,8|8,0:0|0:0,0:0:0:0:
102,311,63917,1,0,0:0:0:0:
85,285,63975,1,8,0:0:0:0:
180,256,64090,1,0,0:0:0:0:
108,184,64206,2,0,P|150:151|200:142,1,100,8|8,0:0|0:0,0:0:0:0:
264,213,64436,1,0,0:0:0:0:
312,125,64552,1,0,0:0:0:0:
371,204,64667,6,0,P|317:293|212:324,1,200,8|8,0:0|0:0,0:0:0:0:
188,233,65013,1,8,0:0:0:0:
283,265,65129,1,0,0:0:0:0:
192,223,65244,2,0,P|233:185|286:173,1,100,8|0,0:0|0:0,0:0:0:0:
341,248,65475,2,0,P|415:169|427:63,3,200,8|8|8|8,0:0|0:0|0:0|0:0,0:0:0:0:
342,130,66282,2,0,P|298:157|237:162,1,100
271,261,66513,6,0,P|217:269|144:245,2,100,8|0|8,0:0|0:0|0:0,0:0:0:0:
216,176,66859,1,0,0:0:0:0:
122,139,66975,2,8,P|118:192|149:234,1,100
209,153,67206,1,0,0:0:0:0:
294,203,67321,6,0,P|325:264|383:296,1,100,8|0,0:0|0:0,0:0:0:0:
396,194,67552,1,0,0:0:0:0:
414,96,67667,6,0,P|306:73|193:90,1,200,12|0,0:0|0:0,0:0:0:0:
261,173,68013,1,0,0:0:0:0:
322,252,68129,6,0,P|203:267|121:246,1,200,12|8,0:0|0:0,0:0:0:0:
172,158,68475,6,0,P|211:120|261:102,2,100,8|0|8,0:0|0:0|0:0,0:0:0:0:
261,203,68821,1,0,0:0:0:0:
353,239,68936,1,8,0:0:0:0:
277,305,69052,1,0,0:0:0:0:
184,268,69167,2,0,P|116:184|133:77,2,200,8|0|8,0:0|0:0|0:0,0:0:0:0:
202,169,69744,1,0,0:0:0:0:
249,81,69859,1,0,0:0:0:0:
340,122,69975,1,8,0:0:0:0:
297,212,70090,1,0,0:0:0:0:
233,133,70206,6,0,P|143:189|110:278,1,200,8|8,0:0|0:0,0:0:0:0:
210,276,70552,1,8,0:0:0:0:
305,305,70667,2,0,P|362:304|404:276,1,100,0|8,0:0|0:0,0:0:0:0:
335,203,70898,1,0,0:0:0:0:
430,172,71013,2,0,P|403:123|350:100,1,100,8|0,0:0|0:0,0:0:0:0:
268,129,71244,2,0,P|181:186|70:171,2,200,8|8|8,0:0|0:0|0:0,0:0:0:0:
171,100,71821,1,8,0:0:0:0:
187,198,71936,1,0,0:0:0:0:
269,141,72052,6,0,P|311:180|326:228,1,100,8|8,0:0|0:0,0:0:0:0:
371,131,72282,1,0,0:0:0:0:
349,229,72398,1,8,0:0:0:0:
299,142,72513,1,0,0:0:0:0:
281,241,72629,1,8,0:0:0:0:
230,153,72744,1,0,0:0:0:0:
208,250,72859,1,0,0:0:0:0:
159,161,72975,6,0,P|191:108|241:86,1,100,8|8,0:0|0:0,0:0:0:0:
314,132,73206,1,0,0:0:0:0:
218,159,73321,1,0,0:0:0:0:
311,194,73436,1,8,0:0:0:0:
214,222,73552,1,8,0:0:0:0:
306,260,73667,1,0,0:0:0:0:
210,289,73782,1,0,0:0:0:0:
303,325,73898,6,0,P|399:288|452:197,1,200,8|8,0:0|0:0,0:0:0:0:
354,176,74244,2,0,P|292:156|225:162,2,100,8|0|8,0:0|0:0|0:0,0:0:0:0:
285,249,74590,1,0,0:0:0:0:
202,191,74706,6,0,P|146:189|88:227,1,100,8|0,0:0|0:0,0:0:0:0:
55,336,74936,1,0,0:0:0:0:
134,204,75052,1,8,0:0:0:0:
205,336,75167,1,8,0:0:0:0:
354,339,75282,1,0,0:0:0:0:
203,327,75398,1,0,0:0:0:0:
300,214,75513,1,8,0:0:0:0:
230,80,75629,1,8,0:0:0:0:
104,161,75744,6,0,P|149:202|200:216,1,100
264,123,75975,2,0,P|323:158|350:205,1,100
177,300,76206,1,12,0:0:0:0:
295,317,76321,2,0,P|354:304|390:271,2,100
234,212,76667,5,8,0:0:0:0:
114,205,76782,1,0,0:0:0:0:
297,287,76898,1,12,0:0:0:0:
371,193,77013,1,0,0:0:0:0:
279,113,77129,2,0,P|228:103|178:109,1,100,8|0,0:0|0:0,0:0:0:0:
76,278,77359,1,12,0:0:0:0:
191,312,77475,1,0,0:0:0:0:
299,262,77590,5,8,0:0:0:0:
322,243,77648,1,8,0:0:0:0:
337,217,77706,2,0,P|359:171|358:121,1,100
243,155,77936,1,0,0:0:0:0:
120,314,78052,2,0,P|77:214|97:118,1,200,12|0,0:0|0:0,0:0:0:0:
212,114,78398,2,0,P|214:173|240:215,2,100
401,179,78744,1,12,0:0:0:0:
366,293,78859,2,0,P|305:291|245:262,1,100
155,235,79090,6,0,P|180:177|231:125,1,100,8|12,0:0|0:0,0:0:0:0:
286,235,79321,1,0,0:0:0:0:
343,130,79436,2,0,P|288:110|214:120,1,100,8|0,0:0|0:0,0:0:0:0:
306,215,79667,2,0,P|270:249|219:268,1,100,8|0,0:0|0:0,0:0:0:0:
155,78,79898,1,12,0:0:0:0:
108,188,80013,1,8,0:0:0:0:
190,289,80129,1,0,0:0:0:0:
325,256,80244,1,0,0:0:0:0:
412,135,80359,6,0,P|342:124|285:133,1,100,8|0,0:0|0:0,0:0:0:0:
112,120,80590,1,12,0:0:0:0:
78,235,80706,1,0,0:0:0:0:
164,317,80821,2,0,P|227:302|272:264,1,100
319,91,81052,1,12,0:0:0:0:
238,179,81167,1,0,0:0:0:0:
144,104,81282,6,0,P|95:208|110:300,1,200,8|8,0:0|0:0,0:0:0:0:
219,246,81629,1,0,0:0:0:0:
412,295,81744,1,12,0:0:0:0:
395,176,81859,2,0,P|352:158|292:164,1,100,8|0,0:0|0:0,0:0:0:0:
288,272,82090,2,0,P|184:298|88:252,1,200,8|0,0:0|0:0,0:0:0:0:
193,85,82436,2,0,P|298:91|403:164,1,200,12|0,0:0|0:0,0:0:0:0:
364,257,82782,1,0,0:0:0:0:
166,295,82898,1,12,0:0:0:0:
93,200,83013,1,0,0:0:0:0:
73,319,83129,6,0,P|182:292|256:229,1,200,8|0,0:0|0:0,0:0:0:0:
348,305,83475,1,0,0:0:0:0:
419,118,83590,1,12,0:0:0:0:
309,167,83706,1,0,0:0:0:0:
260,276,83821,2,0,P|208:277|144:252,2,100,8|0|8,0:0|0:0|0:0,0:0:0:0:
372,231,84167,1,0,0:0:0:0:
177,189,84282,1,12,0:0:0:0:
291,151,84398,1,8,0:0:0:0:
410,147,84513,2,0,P|399:202|356:247,1,100
179,292,84744,1,12,0:0:0:0:
87,215,84859,1,0,0:0:0:0:
103,95,84975,6,0,P|206:115|306:202,1,200,8|0,0:0|0:0,0:0:0:0:
352,267,85321,1,0,0:0:0:0:
422,80,85436,2,0,P|368:86|310:120,1,100,12|0,0:0|0:0,0:0:0:0:
230,177,85667,1,0,0:0:0:0:
178,284,85782,1,0,0:0:0:0:
92,199,85898,2,0,P|152:201|195:225,1,100,8|0,0:0|0:0,0:0:0:0:
302,53,86129,1,12,0:0:0:0:
188,90,86244,1,0,0:0:0:0:
281,164,86359,2,0,P|337:191|363:251,1,100
183,323,86590,2,0,P|135:295|118:255,1,100,12|0,0:0|0:0,0:0:0:0:
231,215,86821,6,0,P|343:186|404:119,1,200,8|0,0:0|0:0,0:0:0:0:
279,114,87167,1,0,0:0:0:0:
133,250,87282,2,0,P|97:208|91:154,1,100,12|0,0:0|0:0,0:0:0:0:
210,171,87513,1,0,0:0:0:0:
321,217,87629,1,0,0:0:0:0:
434,178,87744,2,0,P|437:231|413:271,1,100,8|0,0:0|0:0,0:0:0:0:
282,79,87975,1,12,0:0:0:0:
175,184,88090,1,0,0:0:0:0:
320,143,88206,1,0,0:0:0:0:
213,247,88321,1,0,0:0:0:0:
401,116,88436,1,12,0:0:0:0:
398,266,88552,1,8,0:0:0:0:
260,325,88667,6,0,P|165:294|101:201,1,200,0|8,0:0|0:0,0:0:0:0:
225,200,89013,1,0,0:0:0:0:
422,161,89129,2,0,P|378:126|314:115,1,100,12|0,0:0|0:0,0:0:0:0:
338,234,89359,1,0,0:0:0:0:
218,214,89475,1,0,0:0:0:0:
98,215,89590,2,0,P|118:264|160:290,1,100,8|0,0:0|0:0,0:0:0:0:
205,93,89821,1,12,0:0:0:0:
324,95,89936,2,0,P|371:130|385:173,1,100,8|0,0:0|0:0,0:0:0:0:
304,257,90167,1,0,0:0:0:0:
145,135,90282,1,12,0:0:0:0:
128,182,90340,1,8,0:0:0:0:
131,232,90398,1,8,0:0:0:0:
160,273,90456,1,8,0:0:0:0:
205,291,90513,6,0,P|311:294|392:225,1,200
271,187,90859,2,0,P|210:193|166:178,1,100,0|8,0:0|0:0,0:0:0:0:
231,64,91090,2,0,P|301:70|346:106,1,100
409,184,91321,1,0,0:0:0:0:
358,303,91436,2,0,P|302:313|243:298,1,100,8|0,0:0|0:0,0:0:0:0:
210,184,91667,1,8,0:0:0:0:
158,303,91782,1,8,0:0:0:0:
269,238,91898,1,8,0:0:0:0:
140,223,92013,1,0,0:0:0:0:
237,310,92129,2,0,P|299:313|339:290,1,100
296,171,92359,5,8,0:0:0:0:
276,135,92417,1,8,0:0:0:0:
241,114,92475,1,0,0:0:0:0:
203,102,92532,1,0,0:0:0:0:
162,105,92590,2,8,P|132:201|149:304,1,200
267,246,92936,1,0,0:0:0:0:
335,134,93052,1,0,0:0:0:0:
315,262,93167,1,8,0:0:0:0:
289,135,93282,1,0,0:0:0:0:
362,243,93398,1,0,0:0:0:0:
256,167,93513,1,8,0:0:0:0:
381,201,93629,1,0,0:0:0:0:
252,215,93744,1,0,0:0:0:0:
367,156,93859,6,0,P|270:141|163:178,1,200,8|0,0:0|0:0,0:0:0:0:
113,287,94206,2,0,P|172:306|221:304,1,100,8|0,0:0|0:0,0:0:0:0:
335,275,94436,1,8,0:0:0:0:
455,224,94552,1,0,0:0:0:0:
327,202,94667,1,8,0:0:0:0:
447,153,94782,1,8,0:0:0:0:
318,131,94898,1,8,0:0:0:0:
438,82,95013,1,0,0:0:0:0:
309,59,95129,2,0,P|202:69|104:112,2,200,8|0|8,0:0|0:0|0:0,0:0:0:0:
238,169,95706,1,0,0:0:0:0:
156,269,95821,2,0,P|210:286|277:281,1,100
383,279,96052,6,0,P|430:244|443:184,1,100,8|0,0:0|0:0,0:0:0:0:
315,188,96282,2,8,P|335:135|378:104,1,100,8|0,0:0|0:0,0:0:0:0:
240,76,96513,1,8,0:0:0:0:
109,74,96629,1,8,0:0:0:0:
176,184,96744,1,0,0:0:0:0:
250,78,96859,2,0,P|305:80|350:110,2,100,8|0|0,0:0|0:0|0:0,0:0:0:0:
275,207,97206,1,8,0:0:0:0:
403,187,97321,1,0,0:0:0:0:
287,129,97436,2,0,P|234:141|188:176,1,100
39,41,97667,1,12,0:0:0:0:
234,78,97782,1,12,0:0:0:0:
109,235,97898,6,0,P|194:288|305:297,1,200,12|0,0:0|0:0,0:0:0:0:
432,297,98244,1,0,0:0:0:0:
301,247,98359,1,8,0:0:0:0:
165,208,98475,1,8,0:0:0:0:
100,84,98590,2,0,P|161:74|216:79,1,100
329,129,98821,6,0,P|357:224|336:324,1,200,8|8,0:0|0:0,0:0:0:0:
197,298,99167,1,8,0:0:0:0:
68,242,99282,1,0,0:0:0:0:
180,157,99398,1,0,0:0:0:0:
308,211,99513,1,8,0:0:0:0:
295,70,99629,1,0,0:0:0:0:
421,129,99744,6,0,P|448:236|419:331,1,200,8|0,0:0|0:0,0:0:0:0:
285,303,100090,1,0,0:0:0:0:
145,322,100206,2,0,P|112:279|106:225,1,100,8|8,0:0|0:0,0:0:0:0:
237,189,100436,1,0,0:0:0:0:
129,97,100552,1,0,0:0:0:0:
261,53,100667,6,0,P|366:76|450:138,1,200,8|8,0:0|0:0,0:0:0:0:
389,259,101013,2,0,P|337:279|289:277,1,100,8|0,0:0|0:0,0:0:0:0:
154,255,101244,1,0,0:0:0:0:
239,144,101359,2,0,P|296:127|350:133,1,100
472,163,101590,5,8,0:0:0:0:
424,219,101667,1,0,0:0:0:0:
354,243,101744,1,0,0:0:0:0:
280,248,101821,2,0,P|212:240|154:206,1,100,8|8,0:0|0:0,0:0:0:0:
141,92,102052,5,0,0:0:0:0:
102,154,102129,1,0,0:0:0:0:
116,225,102206,1,0,0:0:0:0:
158,283,102282,2,0,P|204:318|265:333,1,100,8|0,0:0|0:0,0:0:0:0:
224,171,102513,1,8,0:0:0:0:
369,101,102629,1,0,0:0:0:0:
301,245,102744,1,8,0:0:0:0:
273,87,102859,1,8,0:0:0:0:
390,197,102975,1,0,0:0:0:0:
240,251,103090,1,0,0:0:0:0:
184,100,103206,1,8,0:0:0:0:
334,47,103321,1,8,0:0:0:0:
376,200,103436,5,0,0:0:0:0:
312,248,103513,1,0,0:0:0:0:
232,257,103590,1,0,0:0:0:0:
160,220,103667,2,0,P|107:193|77:148,1,100,8|8,0:0|0:0,0:0:0:0:
190,41,103898,5,0,0:0:0:0:
260,79,103975,1,0,0:0:0:0:
301,147,104052,1,0,0:0:0:0:
309,226,104129,2,0,P|316:278|284:337,1,100,8|0,0:0|0:0,0:0:0:0:
155,182,104359,1,8,0:0:0:0:
313,306,104475,1,0,0:0:0:0:
113,311,104590,1,0,0:0:0:0:
277,195,104706,1,8,0:0:0:0:
81,234,104821,1,0,0:0:0:0:
249,340,104936,1,0,0:0:0:0:
147,166,105052,1,8,0:0:0:0:
333,96,105167,1,8,0:0:0:0:
305,293,105297,6,0,P|338:314|392:322,2,69.9999978637696,0|0|8,0:0|0:0|0:0,0:0:0:0:
207,285,105989,1,0,0:0:0:0:
108,286,106220,2,0,P|85:248|83:201,1,69.9999978637696
178,209,106681,2,0,P|177:162|155:125,1,69.9999978637696,8|0,0:0|0:0,0:0:0:0:
226,62,107143,2,0,P|281:116|303:201,1,139.999995727539,8|0,0:0|0:0,0:0:0:0:
386,125,107835,1,0,0:0:0:0:
383,223,108066,2,0,P|313:237|249:276,1,139.999995727539,8|0,0:0|0:0,0:0:0:0:
255,173,108758,1,0,0:0:0:0:
158,192,108989,6,0,P|138:229|133:269,1,69.9999978637696
231,250,109450,2,0,P|272:265|294:293,1,69.9999978637696,8|0,0:0|0:0,0:0:0:0:
326,192,109912,1,0,0:0:0:0:
417,227,110143,1,0,0:0:0:0:
402,130,110373,2,0,P|367:110|324:104,1,69.9999978637696,8|0,0:0|0:0,0:0:0:0:
326,201,110835,2,0,P|288:215|241:217,1,69.9999978637696
246,120,111297,1,8,0:0:0:0:
174,52,111527,2,0,P|154:86|152:128,1,69.9999978637696
70,172,111989,2,0,P|91:205|126:218,1,69.9999978637696,0|8,0:0|0:0,0:0:0:0:
184,144,112450,1,0,0:0:0:0:
206,239,112681,6,0,P|252:246|290:237,2,69.9999978637696,8|0|8,0:0|0:0|0:0,0:0:0:0:
246,149,113373,1,8,0:0:0:0:
184,72,113604,2,0,P|150:104|135:147,1,69.9999978637696
142,223,114066,2,0,P|169:270|204:293,1,69.9999978637696,8|0,0:0|0:0,0:0:0:0:
263,227,114527,2,0,P|336:171|370:110,1,139.999995727539,8|0,0:0|0:0,0:0:0:0:
266,103,115220,1,8,0:0:0:0:
172,129,115450,2,0,P|139:198|139:271,2,139.999995727539,0|8|0,0:0|0:0|0:0,0:0:0:0:
233,205,116604,5,0,0:0:0:0:
299,276,116835,2,0,P|340:258|362:228,1,69.9999978637696,8|8,0:0|0:0,0:0:0:0:
383,144,117297,2,0,P|351:115|317:106,2,69.9999978637696,0|0|8,0:0|0:0|0:0,0:0:0:0:
289,174,117989,1,8,0:0:0:0:
217,107,118220,2,0,P|175:90|125:88,1,69.9999978637696
102,171,118681,1,8,0:0:0:0:
169,242,118912,1,8,0:0:0:0:
265,260,119143,1,0,0:0:0:0:
359,235,119373,2,0,P|396:206|413:170,1,69.9999978637696,0|8,0:0|0:0,0:0:0:0:
331,67,119835,5,8,0:0:0:0:
162,70,120066,6,0,P|110:201|138:346,1,279.999991455078,4|0,0:0|0:0,0:0:0:0:
236,178,121450,6,0,P|305:221|340:280,1,139.999995727539,8|8,0:0|0:0,0:0:0:0:
412,207,122143,1,0,0:0:0:0:
392,111,122373,2,0,P|354:94|300:94,1,69.9999978637696,8|0,0:0|0:0,0:0:0:0:
236,49,122835,2,0,P|208:88|199:123,1,69.9999978637696
105,131,123297,2,0,P|115:184|135:209,1,69.9999978637696,8|0,0:0|0:0,0:0:0:0:
79,284,123758,6,0,P|126:307|173:302,2,69.9999978637696,8|0|8,0:0|0:0|0:0,0:0:0:0:
144,211,124450,1,0,0:0:0:0:
150,113,124681,2,0,P|190:122|218:142,2,69.9999978637696,0|0|8,0:0|0:0|0:0,0:0:0:0:
132,208,125373,2,0,P|144:240|180:264,1,69.9999978637696
248,200,125835,1,0,0:0:0:0:
276,296,126066,2,0,P|320:280|348:240,2,69.9999978637696,8|0|0,0:0|0:0|0:0,0:0:0:0:
272,200,126758,2,0,P|248:168|244:132,1,69.9999978637696,0|8,0:0|0:0,0:0:0:0:
144,132,127220,1,0,0:0:0:0:
152,228,127450,6,0,P|228:208|296:156,1,139.999995727539,0|8,0:0|0:0,0:0:0:0:
356,232,128143,1,0,0:0:0:0:
284,296,128373,2,0,P|240:308|192:304,1,69.9999978637696
120,292,128835,2,0,P|80:312|52:344,1,69.9999978637696,8|0,0:0|0:0,0:0:0:0:
48,232,129297,6,0,P|92:156|148:112,2,139.999995727539,8|8|0,0:0|0:0|0:0,0:0:0:0:
144,232,130450,1,0,0:0:0:0:
224,288,130681,2,0,P|268:280|308:248,1,69.9999978637696,8|0,0:0|0:0,0:0:0:0:
388,252,131143,6,0,P|408:212|412:176,2,69.9999978637696,8|0|8,0:0|0:0|0:0,0:0:0:0:
292,290,131835,2,0,P|256:294|220:286,1,69.9999978637696
140,336,132297,1,0,0:0:0:0:
88,252,132527,2,0,P|100:208|132:176,1,69.9999978637696,8|0,0:0|0:0,0:0:0:0:
196,244,132989,2,0,P|240:240|272:216,2,69.9999978637696,0|0|8,0:0|0:0|0:0,0:0:0:0:
232,152,133681,5,0,0:0:0:0:
266,147,133758,1,0,0:0:0:0:
299,138,133835,1,0,0:0:0:0:
327,118,133912,2,0,P|355:90|367:54,2,69.9999978637696,8|0|8,0:0|0:0|0:0,0:0:0:0:
52,256,134835,6,0,P|144:264|224:224,1,150.000005722046,4|0,0:0|0:0,0:0:0:0:
127,136,135527,1,0,0:0:0:0:
253,119,135758,2,0,P|319:162|344:238,1,150.000005722046,8|0,0:0|0:0,0:0:0:0:
242,303,136450,2,0,P|290:302|318:286,1,75.0000028610231,0|8,0:0|0:0,0:0:0:0:
214,208,136912,1,0,0:0:0:0:
91,171,137143,2,0,P|123:139|166:125,1,75.0000028610231,8|0,0:0|0:0,0:0:0:0:
276,111,137604,2,0,P|315:128|345:156,2,75.0000028610231,8|0|8,0:0|0:0|0:0,0:0:0:0:
191,207,138297,1,0,0:0:0:0:
101,296,138527,6,0,P|269:315|402:277,1,300.000011444092,0|8,0:0|0:0,0:0:0:0:
167,162,139912,1,0,0:0:0:0:
93,266,140143,2,0,P|139:269|188:259,1,75.0000028610231,8|0,0:0|0:0,0:0:0:0:
284,315,140604,1,0,0:0:0:0:
400,263,140835,2,0,P|392:302|360:336,2,75.0000028610231,8|0|8,0:0|0:0|0:0,0:0:0:0:
276,231,141527,1,0,0:0:0:0:
148,240,141758,2,0,P|114:204|105:164,1,75.0000028610231,8|8,0:0|0:0,0:0:0:0:
223,128,142220,6,0,P|297:159|346:235,1,150.000005722046
220,264,142912,1,0,0:0:0:0:
136,168,143143,2,0,P|104:200|92:240,2,75.0000028610231,8|0|8,0:0|0:0|0:0,0:0:0:0:
188,284,143835,1,0,0:0:0:0:
315,271,144066,2,0,P|385:225|421:148,1,150.000005722046,8|8,0:0|0:0,0:0:0:0:
291,143,144758,1,0,0:0:0:0:
168,108,144989,2,0,P|161:151|169:193,1,75.0000028610231,8|0,0:0|0:0,0:0:0:0:
64,103,145450,2,0,P|59:143|66:180,1,75.0000028610231,8|8,0:0|0:0,0:0:0:0:
79,304,145912,6,0,P|165:301|248:271,1,150.000005722046
146,181,146604,1,0,0:0:0:0:
79,72,146835,2,0,P|169:62|242:90,1,150.000005722046,8|8,0:0|0:0,0:0:0:0:
152,184,147527,1,0,0:0:0:0:
279,176,147758,5,8,0:0:0:0:
379,97,147989,1,8,0:0:0:0:
432,212,148220,2,0,P|352:235|259:206,1,150.000005722046,0|8,0:0|0:0,0:0:0:0:
197,312,148912,1,0,0:0:0:0:
106,221,149143,1,8,0:0:0:0:
195,131,149373,1,8,0:0:0:0:
285,221,149604,6,0,P|366:252|446:243,2,150.000005722046,4|0|8,0:0|0:0|0:0,0:0:0:0:
53,327,150989,1,0,0:0:0:0:
108,212,151220,2,0,P|150:244|172:285,1,75.0000028610231,0|8,0:0|0:0,0:0:0:0:
234,156,151681,1,0,0:0:0:0:
286,272,151912,2,0,P|330:241|348:209,1,75.0000028610231,8|8,0:0|0:0,0:0:0:0:
301,102,152373,2,0,P|258:95|213:104,1,75.0000028610231
141,195,152835,2,0,P|147:237|181:269,1,75.0000028610231,8|0,0:0|0:0,0:0:0:0:
274,331,153297,6,0,P|357:288|393:232,1,150.000005722046,8|0,0:0|0:0,0:0:0:0:
354,120,153989,1,0,0:0:0:0:
229,90,154220,2,0,P|163:166|138:233,1,150.000005722046,8|0,0:0|0:0,0:0:0:0:
271,203,154912,1,8,0:0:0:0:
308,202,155027,1,8,0:0:0:0:
342,217,155143,1,0,0:0:0:0:
365,245,155258,1,0,0:0:0:0:
399,229,155373,1,8,0:0:0:0:
328,122,155604,2,0,P|274:117|214:135,1,112.500004291535,0|8,0:0|0:0,0:0:0:0:
328,197,156181,1,0,0:0:0:0:
209,245,156412,1,8,0:0:0:0:
104,317,156643,1,0,0:0:0:0:
94,280,156758,1,8,0:0:0:0:
96,242,156873,1,8,0:0:0:0:
132,251,156989,5,0,0:0:0:0:
168,256,157104,1,0,0:0:0:0:
203,244,157220,1,8,0:0:0:0:
307,316,157450,2,0,P|365:273|389:214,1,112.500004291535,0|8,0:0|0:0,0:0:0:0:
363,112,158027,1,0,0:0:0:0:
244,158,158258,1,8,0:0:0:0:
119,185,158489,1,0,0:0:0:0:
152,167,158604,1,8,0:0:0:0:
179,141,158720,1,8,0:0:0:0:
196,174,158835,5,0,0:0:0:0:
210,208,158950,1,0,0:0:0:0:
240,185,159066,2,0,P|281:169|317:167,1,75.0000028610231,8|0,0:0|0:0,0:0:0:0:
143,75,159643,1,8,0:0:0:0:
269,62,159873,1,0,0:0:0:0:
214,177,160104,2,0,P|183:210|165:248,1,75.0000028610231,8|0,0:0|0:0,0:0:0:0:
136,218,160450,1,8,0:0:0:0:
116,185,160566,1,0,0:0:0:0:
128,148,160681,6,0,B|136:132|136:132|144:156|144:156|152:132|152:132|160:156|160:156|168:132|168:132|176:156|176:156|184:132|184:132|192:156|192:156|200:132|200:132|208:156|208:156|216:132|216:132|224:156|224:156|232:132|232:132|240:156|240:156|248:132|248:132|256:156|256:156|264:132|264:132|272:156|272:156|280:132|280:132|288:156|288:156|296:132|296:132|304:156|304:156|312:132|312:132|320:156|320:156|328:132|328:132|336:156|336:156|344:132|344:132|352:156|352:156|360:132|360:132|368:156|368:156|376:132|376:132|384:156|384:156,1,800,8|0,0:0|0:0,0:0:0:0:
78,291,162412,5,0,0:0:0:0:
110,261,162469,1,0,0:0:0:0:
133,222,162527,1,12,0:0:0:0:
307,317,162642,5,0,0:0:0:0:
107,317,162757,1,0,0:0:0:0:
221,151,162873,1,12,0:0:0:0:
417,186,162988,5,0,0:0:0:0:
252,298,163103,1,0,0:0:0:0:
80,192,163219,1,12,0:0:0:0:
416,231,163334,5,0,0:0:0:0:
251,343,163449,1,0,0:0:0:0:
79,237,163565,1,12,0:0:0:0:
426,146,163680,5,0,0:0:0:0:
255,39,163796,1,0,0:0:0:0:
79,132,163911,1,12,0:0:0:0:
250,236,164027,1,0,0:0:0:0:
422,335,164142,6,0,P|454:235|421:111,2,200,8|8|0,0:0|0:0|0:0,0:0:0:0:
302,282,164719,1,0,0:0:0:0:
316,153,164834,2,0,P|211:188|163:265,1,200,8|0,0:0|0:0,0:0:0:0:
58,334,165180,1,0,0:0:0:0:
188,338,165296,1,0,0:0:0:0:
58,346,165411,1,8,0:0:0:0:
134,241,165526,1,8,0:0:0:0:
156,112,165642,2,0,P|240:179|270:275,1,200
313,141,165988,1,8,0:0:0:0:
416,219,166103,1,8,0:0:0:0:
463,340,166219,2,0,P|367:324|281:260,1,200,0|8,0:0|0:0,0:0:0:0:
168,324,166565,1,0,0:0:0:0:
91,219,166680,1,8,0:0:0:0:
66,76,166911,5,0,0:0:0:0:
166,173,167026,1,0,0:0:0:0:
263,274,167142,1,12,0:0:0:0:
433,83,167257,5,0,0:0:0:0:
322,186,167373,1,0,0:0:0:0:
215,290,167488,1,12,0:0:0:0:
169,54,167603,5,0,0:0:0:0:
251,192,167719,1,0,0:0:0:0:
330,330,167834,1,12,0:0:0:0:
429,205,167949,1,0,0:0:0:0:
269,221,168065,6,0,P|172:221|87:154,1,200,0|8,0:0|0:0,0:0:0:0:
37,277,168411,1,0,0:0:0:0:
34,147,168526,2,0,P|150:152|235:191,1,200,8|0,0:0|0:0,0:0:0:0:
319,87,168873,1,0,0:0:0:0:
354,211,168988,1,0,0:0:0:0:
253,135,169103,1,8,0:0:0:0:
383,138,169219,1,8,0:0:0:0:
275,210,169334,2,0,P|241:291|141:343,1,200
109,216,169680,1,8,0:0:0:0:
204,305,169796,1,8,0:0:0:0:
184,176,169911,2,0,P|92:123|39:29,1,200,0|8,0:0|0:0,0:0:0:0:
167,85,170257,1,0,0:0:0:0:
289,39,170373,1,8,0:0:0:0:
63,302,170603,5,0,0:0:0:0:
203,302,170719,1,0,0:0:0:0:
342,302,170834,1,12,0:0:0:0:
64,220,170949,5,0,0:0:0:0:
212,220,171065,1,0,0:0:0:0:
268,220,171123,1,0,0:0:0:0:
324,220,171180,1,12,0:0:0:0:
64,144,171296,5,0,0:0:0:0:
223,144,171411,1,0,0:0:0:0:
382,144,171526,1,12,0:0:0:0:
64,64,171642,1,0,0:0:0:0:
264,60,171757,6,0,P|344:128|388:240,1,200,0|8,0:0|0:0,0:0:0:0:
272,260,172103,1,0,0:0:0:0:
196,356,172219,2,0,P|124:296|100:188,1,200,8|8,0:0|0:0,0:0:0:0:
104,76,172565,1,0,0:0:0:0:
224,72,172680,1,8,0:0:0:0:
336,120,172796,1,8,0:0:0:0:
404,220,172911,1,8,0:0:0:0:
440,336,173026,2,0,P|340:316|244:260,1,200
148,328,173373,2,0,P|86:262|77:150,1,200,8|0,0:0|0:0,0:0:0:0:
206,186,173834,5,8,0:0:0:0:
299,261,173949,1,0,0:0:0:0:
376,168,174065,2,0,P|312:88|212:44,1,200,8|8,0:0|0:0,0:0:0:0:
148,136,174411,1,0,0:0:0:0:
212,236,174526,1,8,0:0:0:0:
216,116,174642,1,0,0:0:0:0:
148,212,174757,1,8,0:0:0:0:
260,168,174873,2,0,P|364:216|408:304,1,200,8|8,0:0|0:0,0:0:0:0:
468,184,175219,2,0,P|388:108|296:76,1,200,0|8,0:0|0:0,0:0:0:0:
84,60,175680,6,0,P|64:112|72:168,1,100,8|0,0:0|0:0,0:0:0:0:
124,264,175911,2,0,P|224:296|344:268,1,200,8|8,0:0|0:0,0:0:0:0:
224,204,176257,1,0,0:0:0:0:
136,120,176373,1,8,0:0:0:0:
252,92,176488,1,8,0:0:0:0:
340,172,176603,1,8,0:0:0:0:
308,288,176719,2,0,P|216:292|128:236,1,200
224,204,177065,2,0,P|336:204|416:264,1,200,8|0,0:0|0:0,0:0:0:0:
109,107,177526,5,8,0:0:0:0:
218,158,177642,1,0,0:0:0:0:
296,67,177757,2,0,P|359:145|366:255,1,200,8|8,0:0|0:0,0:0:0:0:
251,270,178103,1,0,0:0:0:0:
176,175,178219,2,0,P|149:224|143:271,1,100,12|0,0:0|0:0,0:0:0:0:
111,151,178449,1,0,0:0:0:0:
229,128,178565,1,8,0:0:0:0:
354,333,178796,6,0,P|386:293|402:238,1,100,0|8,0:0|0:0,0:0:0:0:
338,145,179026,1,0,0:0:0:0:
311,114,179084,1,0,0:0:0:0:
276,93,179142,6,0,P|183:73|85:113,1,200,12|0,0:0|0:0,0:0:0:0:
188,194,179488,1,0,0:0:0:0:
313,162,179603,2,0,P|354:248|322:349,1,200,8|0,0:0|0:0,0:0:0:0:
195,331,179949,1,0,0:0:0:0:
102,238,180065,1,0,0:0:0:0:
193,146,180180,1,8,0:0:0:0:
285,238,180296,1,8,0:0:0:0:
387,317,180411,2,0,P|429:227|395:130,1,200
276,91,180757,1,8,0:0:0:0:
147,115,180873,1,8,0:0:0:0:
42,191,180988,2,0,P|82:289|168:331,1,200,0|8,0:0|0:0,0:0:0:0:
292,342,181334,1,0,0:0:0:0:
358,230,181449,1,8,0:0:0:0:
46,85,181680,5,0,0:0:0:0:
79,211,181796,1,0,0:0:0:0:
117,334,181911,1,12,0:0:0:0:
159,38,182026,5,0,0:0:0:0:
197,173,182142,1,0,0:0:0:0:
235,307,182257,1,12,0:0:0:0:
404,44,182373,5,0,0:0:0:0:
364,188,182488,1,0,0:0:0:0:
311,327,182603,1,12,0:0:0:0:
210,201,182719,1,0,0:0:0:0:
79,309,182834,6,0,P|60:194|94:109,1,200,0|8,0:0|0:0,0:0:0:0:
210,164,183180,1,0,0:0:0:0:
326,104,183296,2,0,P|365:202|342:303,1,200,8|0,0:0|0:0,0:0:0:0:
217,300,183642,1,0,0:0:0:0:
89,275,183757,1,0,0:0:0:0:
188,189,183873,1,8,0:0:0:0:
62,157,183988,1,8,0:0:0:0:
161,73,184103,2,0,P|265:106|323:191,1,200
334,46,184449,1,8,0:0:0:0:
457,88,184565,1,8,0:0:0:0:
375,188,184680,2,0,P|298:233|181:231,1,200,0|8,0:0|0:0,0:0:0:0:
105,333,185026,1,0,0:0:0:0:
52,213,185142,1,8,0:0:0:0:
322,143,185373,5,0,0:0:0:0:
164,204,185488,1,0,0:0:0:0:
325,258,185603,1,12,0:0:0:0:
179,121,185719,5,0,0:0:0:0:
342,195,185834,1,0,0:0:0:0:
298,237,185892,1,0,0:0:0:0:
241,256,185949,1,12,0:0:0:0:
355,101,186065,5,0,0:0:0:0:
158,198,186180,1,0,0:0:0:0:
371,311,186296,1,12,0:0:0:0:
283,56,186411,1,0,0:0:0:0:
84,305,186526,6,0,P|68:204|110:108,1,200,0|8,0:0|0:0,0:0:0:0:
208,178,186873,1,0,0:0:0:0:
220,60,186988,2,0,P|323:81|381:159,1,200,8|8,0:0|0:0,0:0:0:0:
338,280,187334,1,0,0:0:0:0:
223,313,187449,1,8,0:0:0:0:
280,206,187565,1,8,0:0:0:0:
164,238,187680,1,8,0:0:0:0:
227,135,187796,2,0,P|139:159|50:102,1,200
161,53,188142,2,0,P|267:40|345:102,1,200,8|0,0:0|0:0,0:0:0:0:
141,228,188603,5,8,0:0:0:0:
207,328,188719,1,0,0:0:0:0:
255,218,188834,2,0,P|353:261|446:233,1,200,8|8,0:0|0:0,0:0:0:0:
359,147,189180,1,0,0:0:0:0:
285,51,189296,1,8,0:0:0:0:
178,105,189411,1,0,0:0:0:0:
186,224,189526,1,8,0:0:0:0:
303,252,189642,2,0,P|210:291|112:255,1,200,8|8,0:0|0:0,0:0:0:0:
211,183,189988,2,0,P|107:179|35:246,1,200,0|8,0:0|0:0,0:0:0:0:
438,125,190449,5,8,0:0:0:0:
434,245,190565,1,0,0:0:0:0:
329,186,190680,2,0,P|232:144|130:148,1,200,8|8,0:0|0:0,0:0:0:0:
119,264,191026,1,0,0:0:0:0:
228,314,191142,1,8,0:0:0:0:
219,194,191257,1,8,0:0:0:0:
123,267,191373,1,8,0:0:0:0:
233,312,191488,2,0,P|337:295|420:242,1,200
393,126,191834,2,0,P|292:137|194:197,1,200,8|0,0:0|0:0,0:0:0:0:
59,201,192296,5,8,0:0:0:0:
162,261,192411,1,0,0:0:0:0:
173,141,192526,2,0,P|275:168|329:249,1,200,8|8,0:0|0:0,0:0:0:0:
444,274,192873,1,0,0:0:0:0:
430,155,192988,2,0,P|393:101|334:75,1,100,8|0,0:0|0:0,0:0:0:0:
247,55,193219,1,0,0:0:0:0:
175,150,193334,2,0,P|205:251|260:333,1,200,8|0,0:0|0:0,0:0:0:0:
116,196,193680,1,12,0:0:0:0:
258,53,193796,1,12,0:0:0:0:
398,193,193911,6,0,P|362:235|305:254,1,100,4|0,0:0|0:0,0:0:0:0:
314,121,194142,1,0,0:0:0:0:
204,190,194257,1,0,0:0:0:0:
92,121,194373,1,0,0:0:0:0:
98,250,194488,1,0,0:0:0:0:
222,286,194603,2,0,P|275:288|323:321,2,100
324,205,194949,1,0,0:0:0:0:
194,187,195065,1,0,0:0:0:0:
292,271,195180,1,0,0:0:0:0:
251,146,195296,2,0,P|308:139|357:146,1,100
418,253,195526,1,0,0:0:0:0:
292,291,195642,1,0,0:0:0:0:
164,266,195757,6,0,P|77:214|36:113,1,200
167,140,196103,1,0,0:0:0:0:
273,64,196219,2,0,P|313:104|325:151,1,100
448,182,196449,2,0,P|405:268|292:301,1,200
180,304,196796,1,0,0:0:0:0:
56,265,196911,2,0,P|70:206|100:161,1,100
171,70,197142,1,0,0:0:0:0:
299,85,197257,1,0,0:0:0:0:
395,172,197373,1,0,0:0:0:0:
417,299,197488,1,0,0:0:0:0:
296,251,197603,6,0,P|218:296|115:269,1,200
84,143,197949,1,0,0:0:0:0:
176,51,198065,2,0,P|238:58|276:88,1,100
396,54,198296,2,0,P|423:158|406:261,1,200
291,301,198642,1,0,0:0:0:0:
296,171,198757,2,0,P|283:120|228:87,1,100
116,97,198988,2,0,P|88:147|95:191,2,100
172,214,199334,1,0,0:0:0:0:
88,313,199449,6,0,P|196:324|293:298,1,200
273,170,199796,2,0,P|176:155|72:184,1,200
169,86,200142,1,0,0:0:0:0:
298,78,200257,1,0,0:0:0:0:
390,169,200373,2,0,P|370:267|279:331,1,200
167,295,200719,1,0,0:0:0:0:
51,235,200834,1,0,0:0:0:0:
51,105,200949,1,0,0:0:0:0:
167,40,201065,1,0,0:0:0:0:
283,104,201180,1,0,0:0:0:0:
283,234,201296,6,0,P|388:207|448:131,2,200
240,110,201873,1,0,0:0:0:0:
164,215,201988,1,0,0:0:0:0:
282,266,202103,1,0,0:0:0:0:
345,151,202219,1,0,0:0:0:0:
230,90,202334,1,0,0:0:0:0:
165,202,202449,6,0,P|88:277|137:334,2,200
264,286,203026,1,0,0:0:0:0:
394,298,203142,2,0,P|451:211|445:106,1,200
345,197,203488,1,0,0:0:0:0:
308,72,203603,1,0,0:0:0:0:
220,169,203719,1,0,0:0:0:0:
169,49,203834,2,0,P|115:76|81:143,2,100
266,136,204180,1,0,0:0:0:0:
393,164,204296,5,0,0:0:0:0:
367,225,204373,1,0,0:0:0:0:
320,271,204449,1,0,0:0:0:0:
260,301,204526,1,0,0:0:0:0:
194,311,204603,1,0,0:0:0:0:
128,298,204680,2,0,P|90:271|77:244,1,66.6666666666667
287,153,204834,1,0,0:0:0:0:
222,171,204911,1,0,0:0:0:0:
156,158,204988,6,0,P|107:135|79:100,2,100
250,67,205334,1,0,0:0:0:0:
379,68,205449,2,0,P|397:120|386:173,1,100
359,290,205680,2,0,P|263:316|160:291,1,200
262,205,206026,1,0,0:0:0:0:
392,203,206142,2,0,P|405:149|387:97,1,100
266,75,206373,6,0,P|155:91|81:151,2,200
215,194,206949,1,0,0:0:0:0:
103,261,207065,2,0,P|141:304|197:315,1,100
270,221,207296,1,0,0:0:0:0:
365,308,207411,1,0,0:0:0:0:
400,183,207526,2,0,P|418:131|401:87,1,100
279,130,207757,5,0,0:0:0:0:
176,48,207873,1,0,0:0:0:0:
87,142,207988,2,0,P|71:195|88:241,1,100
163,339,208219,1,0,0:0:0:0:
292,339,208334,1,0,0:0:0:0:
392,257,208449,2,0,P|405:232|410:210,2,50
344,132,208680,5,0,0:0:0:0:
292,116,208757,1,0,0:0:0:0:
240,120,208834,1,0,0:0:0:0:
188,136,208911,1,0,0:0:0:0:
144,164,208988,1,0,0:0:0:0:
112,208,209065,1,0,0:0:0:0:
136,240,209142,5,0,0:0:0:0:
172,260,209219,1,0,0:0:0:0:
208,276,209296,1,0,0:0:0:0:
248,284,209373,1,0,0:0:0:0:
288,284,209449,1,0,0:0:0:0:
328,272,209526,1,0,0:0:0:0:
364,252,209603,6,0,P|384:220|388:180,2,66.6666666666667
304,52,209834,2,0,P|264:48|216:60,1,66.6666666666667
112,156,209988,6,0,P|100:196|104:232,3,66.6666666666667
144,252,210296,1,0,0:0:0:0:
176,284,210373,1,0,0:0:0:0:
216,304,210449,1,0,0:0:0:0:
264,308,210526,5,0,0:0:0:0:
324,284,210603,1,0,0:0:0:0:
364,232,210680,1,0,0:0:0:0:
368,164,210757,1,0,0:0:0:0:
328,108,210834,1,0,0:0:0:0:
268,80,210911,1,0,0:0:0:0:
256,120,210988,5,0,0:0:0:0:
244,160,211065,1,0,0:0:0:0:
232,200,211142,1,0,0:0:0:0:
224,240,211219,2,0,P|196:260|164:264,3,66.6666666666667
40,164,211526,6,0,P|40:128|56:96,1,66.6666666666667
208,56,211680,2,0,P|240:72|264:100,2,66.6666666666667
160,80,211911,5,0,0:0:0:0:
124,116,211988,1,0,0:0:0:0:
96,160,212065,1,0,0:0:0:0:
88,212,212142,1,0,0:0:0:0:
108,260,212219,1,0,0:0:0:0:
148,296,212296,1,0,0:0:0:0:
196,260,212373,5,0,0:0:0:0:
244,224,212449,1,0,0:0:0:0:
292,188,212526,1,0,0:0:0:0:
340,152,212603,1,0,0:0:0:0:
388,116,212680,1,0,0:0:0:0:
436,80,212757,1,0,0:0:0:0:
440,120,212834,5,0,0:0:0:0:
440,160,212911,1,0,0:0:0:0:
436,200,212988,1,0,0:0:0:0:
424,240,213065,1,0,0:0:0:0:
400,272,213142,1,0,0:0:0:0:
368,300,213219,1,0,0:0:0:0:
308,308,213296,5,0,0:0:0:0:
248,304,213373,1,0,0:0:0:0:
192,288,213449,1,0,0:0:0:0:
144,256,213526,1,0,0:0:0:0:
112,208,213603,1,0,0:0:0:0:
96,152,213680,1,0,0:0:0:0:
104,92,213757,6,0,P|140:80|176:80,1,66.6666666666667
228,228,213911,2,0,P|268:228|300:216,1,66.6666666666667
352,68,214065,2,0,P|388:56|424:56,1,66.6666666666667
432,92,214219,5,0,0:0:0:0:
424,132,214296,1,0,0:0:0:0:
412,168,214373,1,0,0:0:0:0:
396,204,214449,1,0,0:0:0:0:
372,236,214526,1,0,0:0:0:0:
340,260,214603,1,0,0:0:0:0:
316,212,214680,5,0,0:0:0:0:
280,172,214757,1,0,0:0:0:0:
240,140,214834,1,0,0:0:0:0:
192,120,214911,1,0,0:0:0:0:
140,108,214988,1,0,0:0:0:0:
88,112,215065,1,0,0:0:0:0:
96,180,215142,5,0,0:0:0:0:
124,240,215219,1,0,0:0:0:0:
176,284,215296,1,0,0:0:0:0:
240,308,215373,1,0,0:0:0:0:
304,300,215449,1,0,0:0:0:0:
360,264,215526,1,0,0:0:0:0:
420,212,215603,5,0,0:0:0:0:
340,220,215680,1,0,0:0:0:0:
260,216,215757,1,0,0:0:0:0:
184,196,215834,1,0,0:0:0:0:
116,156,215911,1,0,0:0:0:0:
64,96,215988,1,0,0:0:0:0:
32,24,216065,6,0,P|144:52|232:112,1,200
116,164,216411,1,0,0:0:0:0:
236,152,216526,1,0,0:0:0:0:
356,164,216642,1,0,0:0:0:0:
440,76,216757,2,0,P|454:197|423:277,1,200
302,258,217103,1,0,0:0:0:0:
283,138,217219,1,0,0:0:0:0:
164,150,217334,1,0,0:0:0:0:
178,268,217449,6,0,P|272:308|374:274,1,200
422,165,217796,1,0,0:0:0:0:
343,61,217911,2,0,P|286:64|243:91,1,100
120,63,218142,2,0,P|84:163|106:266,1,200
173,145,218488,1,0,0:0:0:0:
193,272,218603,1,0,0:0:0:0:
312,325,218719,1,0,0:0:0:0:
411,241,218834,6,0,P|449:186|452:138,2,100
342,129,219180,1,0,0:0:0:0:
283,245,219296,1,0,0:0:0:0:
259,117,219411,1,0,0:0:0:0:
202,233,219526,1,0,0:0:0:0:
180,104,219642,1,0,0:0:0:0:
123,220,219757,6,0,P|200:293|310:328,1,200
295,194,220103,1,0,0:0:0:0:
361,306,220219,1,0,0:0:0:0:
474,244,220334,1,0,0:0:0:0:
412,129,220449,2,0,P|357:100|305:93,1,100
320,224,220680,1,0,0:0:0:0:
189,224,220796,1,0,0:0:0:0:
186,94,220911,2,0,P|135:108|76:106,1,100
199,176,221142,1,0,0:0:0:0:
188,305,221257,1,0,0:0:0:0:
82,226,221373,6,0,P|66:172|82:127,2,100
205,183,221719,1,0,0:0:0:0:
126,286,221834,2,0,P|181:322|228:325,1,100
285,217,222065,1,0,0:0:0:0:
405,266,222180,1,0,0:0:0:0:
448,142,222296,2,0,P|391:110|338:110,1,100
134,114,222526,6,0,L|123:146,31,31.25
180,84,223449,6,0,L|218:70,31,31.25
184,154,224373,6,0,L|228:161,31,31.25
167,92,225296,6,0,L|143:67,31,31.25
129,149,226219,6,0,L|118:180,31,31.25
193,146,227142,6,0,L|235:133,31,31.25
192,212,228065,6,0,L|217:235,31,31.25
280,256,228988,6,0,B|284:256|284:256|284:252|284:252|280:252|280:252|276:252|276:252|276:256|276:256|276:260|276:260|280:264|280:264|280:260|280:260|284:260|284:260|288:260|288:260|288:256|288:256|288:252|288:252|288:248|288:248|284:248|284:248|280:248|280:248|276:248|276:248|272:248|272:248|272:252|272:252|272:256|272:256|272:260|272:260|272:264|272:264|276:264|276:264|284:264|284:264|288:264|288:264,30,100
256,192,248833,6,0,B|252:192|252:192|252:188|252:188|256:188|256:188|260:188|260:188|260:192|260:192|260:196|260:196|256:196|256:196|252:196|252:196|248:196|248:196|248:192|248:192|248:184|248:184|248:188|248:188|252:184|252:184|256:184|256:184|264:184|264:184|260:184|260:184|264:188|264:188|264:192|264:192|264:196|264:196|264:200|264:200|260:200|260:200|256:200|256:200|252:200|252:200|248:200|248:200|244:200|244:200|244:196|244:196|244:192|244:192|244:188|244:188|244:184|244:184|244:180|244:180|248:180|248:180|256:180|256:180|252:180|252:180|260:180|260:180|264:180|264:180|268:180|268:180|268:184|268:184|268:188|268:188|268:192|268:192|268:196|268:196|268:200|268:200|268:204|268:204|264:204|264:204|256:204|256:204|252:204|252:204|248:204|248:204|260:204|260:204|244:204|244:204|240:204|240:204|240:200|240:200|236:192|236:192|240:196|240:196|240:188|240:188|240:184|240:184|240:180|240:180|244:176|244:176|244:176|244:176|248:176|248:176|256:172|256:172|252:176|252:176|260:176|260:176|264:176|264:176|268:176|268:176|268:176|268:176|272:180|272:180|272:184|272:184|272:188|272:188|276:192|276:192|272:196|272:196|272:200|272:200|272:204|272:204|268:204|268:204|264:208|264:208|268:208|268:208|260:208|260:208|256:212|256:212|248:208|248:208|252:208|252:208|244:208|244:208|244:204|244:204|244:200|244:200,1,400
256,112,249179,1,0,0:0:0:0:
256,272,249295,6,0,P|320:268|372:236,1,100,12|0,0:0|0:0,0:0:0:0:
424,157,249756,2,0,P|372:126|322:117,1,100
327,236,250218,6,0,P|247:186|150:222,2,200
226,301,251372,1,0,0:0:0:0:
106,291,251602,2,0,P|77:194|139:106,1,200
231,57,252295,1,0,0:0:0:0:
351,61,252526,1,0,0:0:0:0:
283,159,252756,2,0,P|221:146|185:115,1,100
90,187,253218,1,0,0:0:0:0:
55,235,253333,1,0,0:0:0:0:
113,247,253449,6,0,P|168:267|225:266,1,100
260,159,253910,2,0,P|317:173|362:216,2,100
171,239,254602,2,0,P|195:262|237:286,1,50
245,224,254833,2,0,P|312:257|368:271,2,100
261,104,255526,1,0,0:0:0:0:
202,115,255641,1,0,0:0:0:0:
148,141,255756,2,0,P|97:179|81:226,1,100
123,256,256102,1,0,0:0:0:0:
182,267,256218,2,0,P|240:262|286:235,1,100
248,349,256679,5,0,0:0:0:0:
309,315,256795,1,0,0:0:0:0:
221,296,256910,1,0,0:0:0:0:
327,266,257026,1,0,0:0:0:0:
198,251,257141,1,0,0:0:0:0:
344,221,257256,1,0,0:0:0:0:
174,201,257372,1,0,0:0:0:0:
361,171,257487,1,0,0:0:0:0:
152,148,257602,6,0,P|226:78|342:53,1,200
275,164,258295,1,0,0:0:0:0:
390,130,258526,2,0,P|399:185|379:236,1,100
295,306,258987,2,0,P|192:286|113:219,1,200
202,144,259679,1,0,0:0:0:0:
287,60,259910,2,0,P|348:111|370:143,1,100
440,37,260372,6,0,B|328:75|328:277|328:277|256:98|196:281|196:281|191:75|77:38,1,800
92,160,262449,2,0,P|61:206|76:268,1,100
179,213,262910,2,0,P|146:257|147:311,2,100
281,148,263602,1,0,0:0:0:0:
362,235,263833,1,0,0:0:0:0:
257,295,263949,1,0,0:0:0:0:
151,239,264064,6,0,P|115:195|113:141,1,100,12|0,0:0|0:0,0:0:0:0:
220,103,264526,2,0,P|263:142|275:191,1,100
158,211,264987,2,0,P|255:250|353:236,1,200
435,319,265679,1,0,0:0:0:0:
437,198,265910,2,0,P|425:143|384:104,1,100
285,65,266372,2,0,P|179:85|112:157,1,200
54,251,267064,1,0,0:0:0:0:
173,263,267295,2,0,P|239:275|278:301,1,100
326,297,267641,1,0,0:0:0:0:
379,270,267756,6,0,P|435:178|419:80,1,200
320,152,268449,1,0,0:0:0:0:
292,98,268564,1,0,0:0:0:0:
246,57,268679,2,0,P|190:80|161:117,1,100
57,164,269141,1,0,0:0:0:0:
132,257,269372,1,0,0:0:0:0:
183,287,269487,1,0,0:0:0:0:
242,292,269602,6,0,P|296:291|337:260,1,100
360,211,269949,1,0,0:0:0:0:
384,156,270064,2,0,P|359:111|306:84,1,100
257,86,270410,1,0,0:0:0:0:
196,89,270526,2,0,P|139:116|115:151,1,100
71,255,270987,2,0,P|127:272|183:273,1,100
223,166,271449,5,0,0:0:0:0:
285,214,271564,1,0,0:0:0:0:
188,189,271679,1,0,0:0:0:0:
308,185,271795,1,0,0:0:0:0:
177,233,271910,1,0,0:0:0:0:
311,145,272026,1,0,0:0:0:0:
191,278,272141,1,0,0:0:0:0:
288,104,272256,1,0,0:0:0:0:
217,313,272372,6,0,P|330:289|406:255,1,150.000005722046
328,53,272833,2,0,P|247:69|175:103,1,150.000005722046
348,253,273295,2,0,P|376:173|374:106,1,150.000005722046
149,109,273756,2,0,P|133:191|146:265,1,150.000005722046
258,61,274218,1,0,0:0:0:0:
77,195,274449,1,0,0:0:0:0:
255,330,274679,1,0,0:0:0:0:
434,193,274910,1,0,0:0:0:0:
256,47,275141,5,0,0:0:0:0:
206,187,275256,1,0,0:0:0:0:
323,92,275372,1,0,0:0:0:0:
269,231,275487,1,0,0:0:0:0:
371,339,275602,5,0,0:0:0:0:
220,340,275718,1,0,0:0:0:0:
352,270,275833,1,0,0:0:0:0:
201,273,275949,1,0,0:0:0:0:
111,153,276064,5,0,0:0:0:0:
218,256,276179,1,0,0:0:0:0:
69,230,276295,1,0,0:0:0:0:
201,160,276410,1,0,0:0:0:0:
130,293,276526,5,0,0:0:0:0:
279,296,276641,1,0,0:0:0:0:
391,198,276756,1,0,0:0:0:0:
240,195,276872,1,0,0:0:0:0:
322,70,276987,6,0,B|358:42|404:36,1,75.0000028610231
284,205,277449,2,0,P|237:235|201:242,1,75.0000028610231
121,184,277910,1,0,0:0:0:0:
163,288,278141,1,0,0:0:0:0:
71,221,278372,1,0,0:0:0:0:
111,325,278602,1,0,0:0:0:0:
390,304,278833,6,0,P|422:188|381:90,2,220.000006713867
275,219,279409,1,0,0:0:0:0:
247,77,279525,2,0,P|168:157|150:268,1,220.000006713867
288,294,279871,1,0,0:0:0:0:
400,206,279986,1,0,0:0:0:0:
364,66,280102,2,0,P|299:61|241:69,1,110.000003356934
131,141,280333,1,0,0:0:0:0:
81,274,280448,6,0,P|188:313|303:305,1,220.000006713867
430,266,280794,1,0,0:0:0:0:
335,157,280909,2,0,P|243:88|136:65,1,220.000006713867
65,188,281256,1,0,0:0:0:0:
79,328,281371,2,0,P|147:333|201:322,1,110.000003356934
330,307,281602,1,0,0:0:0:0:
218,218,281717,1,0,0:0:0:0:
343,147,281833,2,0,P|301:101|242:89,1,110.000003356934
274,229,282063,1,0,0:0:0:0:
131,246,282179,1,0,0:0:0:0:
88,109,282294,6,0,P|177:48|296:39,2,220.000006713867
77,274,282871,1,0,0:0:0:0:
202,167,282986,1,0,0:0:0:0:
303,298,283102,1,0,0:0:0:0:
430,194,283217,2,0,P|364:108|260:70,1,220.000006713867
272,235,283563,1,0,0:0:0:0:
141,132,283679,1,0,0:0:0:0:
85,286,283794,2,0,P|159:309|196:309,1,110.000003356934
176,144,284025,1,0,0:0:0:0:
305,42,284140,6,0,P|366:139|364:259,1,220.000006713867
203,260,284486,1,0,0:0:0:0:
145,104,284602,2,0,P|87:198|82:313,1,220.000006713867
245,325,284948,1,0,0:0:0:0:
259,161,285063,2,0,P|306:215|360:224,1,110.000003356934
180,265,285294,1,0,0:0:0:0:
344,276,285409,1,0,0:0:0:0:
402,120,285525,2,0,P|348:140|283:140,2,110.000003356934
242,75,285871,1,0,0:0:0:0:
125,191,285986,1,0,0:0:0:0:
242,308,286102,1,0,0:0:0:0:
358,191,286217,6,0,P|261:284|166:302,2,220.000006713867
269,50,286794,1,0,0:0:0:0:
105,66,286909,2,0,P|145:182|229:250,1,220.000006713867
54,283,287256,1,0,0:0:0:0:
210,334,287371,1,0,0:0:0:0:
374,325,287486,2,0,P|299:246|190:226,1,220.000006713867
55,130,287833,6,0,P|165:95|277:113,1,220.000006713867
148,224,288179,1,0,0:0:0:0:
305,271,288294,2,0,P|362:180|343:71,1,220.000006713867
179,53,288640,1,0,0:0:0:0:
72,180,288756,2,0,P|147:205|199:202,1,110.000003356934
301,312,288986,1,0,0:0:0:0:
441,224,289102,1,0,0:0:0:0:
376,72,289217,2,0,P|313:74|259:102,2,110.000003356934
267,197,289563,1,0,0:0:0:0:
211,40,289679,6,0,P|168:149|93:219,1,220.000006713867
250,162,290025,1,0,0:0:0:0:
380,62,290140,2,0,P|419:169|382:287,1,220.000006713867
236,320,290486,1,0,0:0:0:0:
70,305,290602,2,0,P|71:191|129:102,1,220.000006713867
181,260,290948,1,0,0:0:0:0:
345,261,291063,1,0,0:0:0:0:
277,109,291179,2,0,P|257:219|184:306,1,220.000006713867
46,219,291525,6,0,P|92:108|172:51,2,220.000006713867
164,335,292102,1,0,0:0:0:0:
244,191,292217,1,0,0:0:0:0:
329,333,292333,1,0,0:0:0:0:
418,194,292448,2,0,P|350:108|243:76,1,220.000006713867
131,194,292794,1,0,0:0:0:0:
247,310,292909,1,0,0:0:0:0:
364,192,293025,1,0,0:0:0:0:
247,75,293140,2,0,P|234:140|265:189,2,110.000003356934
88,123,293486,1,0,0:0:0:0:
130,298,293602,6,0,P|262:322|384:291,1,239.999992675781,12|0,0:0|0:0,0:0:0:0:
439,136,293948,1,0,0:0:0:0:
268,78,294063,2,0,P|203:86|150:121,2,119.999996337891
88,59,294409,2,0,P|46:167|94:294,1,239.999992675781
227,169,294756,1,0,0:0:0:0:
150,331,294871,2,0,P|281:331|384:280,1,239.999992675781
369,104,295217,1,0,0:0:0:0:
188,102,295333,1,0,0:0:0:0:
312,230,295448,5,0,0:0:0:0:
133,250,295563,1,0,0:0:0:0:
217,89,295679,2,0,P|219:209|291:302,1,239.999992675781
421,177,296025,1,0,0:0:0:0:
284,60,296140,1,0,0:0:0:0:
112,118,296256,2,0,P|110:235|197:317,1,239.999992675781
374,326,296602,1,0,0:0:0:0:
466,172,296717,2,0,P|365:95|243:86,1,239.999992675781
90,156,297063,1,0,0:0:0:0:
269,180,297179,1,0,0:0:0:0:
89,181,297294,6,0,P|147:280|268:326,1,239.999992675781
198,155,297640,1,0,0:0:0:0:
50,50,297756,2,0,P|49:170|106:283,1,239.999992675781
278,307,298102,2,0,P|244:251|234:190,1,119.999996337891
404,258,298333,2,0,P|370:202|360:141,1,119.999996337891
210,50,298563,2,0,P|89:101|50:213,1,239.999992675781
224,148,298909,1,0,0:0:0:0:
404,136,299025,1,0,0:0:0:0:
326,297,299140,5,0,0:0:0:0:
145,309,299256,1,0,0:0:0:0:
223,147,299371,2,0,P|310:66|442:97,1,239.999992675781
431,262,299717,1,0,0:0:0:0:
324,115,299833,1,0,0:0:0:0:
239,273,299948,2,0,P|173:274|125:238,2,119.999996337891
58,289,300294,1,0,0:0:0:0:
103,115,300409,2,0,P|225:128|312:226,1,239.999992675781
225,43,300756,1,0,0:0:0:0:
402,66,300871,1,0,0:0:0:0:
287,213,300986,6,12,P|175:288|42:277,1,259.999988098145,12|0,0:0|0:0,0:0:0:0:
162,116,301333,1,0,0:0:0:0:
355,100,301448,2,0,P|411:218|371:339,1,259.999988098145
278,164,301794,1,0,0:0:0:0:
108,69,301909,2,0,P|68:132|69:198,1,129.999994049073
240,95,302140,1,0,0:0:0:0:
155,271,302256,2,0,P|293:270|400:197,1,259.999988098145
260,60,302602,1,0,0:0:0:0:
454,60,302717,1,0,0:0:0:0:
454,256,302833,5,0,0:0:0:0:
259,256,302948,1,0,0:0:0:0:
92,155,303063,2,0,P|129:275|260:327,1,259.999988098145
197,137,303409,1,0,0:0:0:0:
382,200,303525,1,0,0:0:0:0:
199,265,303640,2,0,P|165:149|251:53,1,259.999988098145
423,145,303986,1,0,0:0:0:0:
365,332,304102,2,0,P|229:331|146:243,1,259.999988098145
307,133,304448,2,0,P|234:120|173:138,1,129.999994049073
48,48,304679,5,0,0:0:0:0:
120,316,304794,1,0,0:0:0:0:
464,48,304909,5,0,0:0:0:0:
364,312,305025,1,0,0:0:0:0:
136,152,305140,5,0,0:0:0:0:
416,148,305256,1,0,0:0:0:0:
180,248,305371,5,0,0:0:0:0:
460,240,305486,1,0,0:0:0:0:
256,44,305602,5,0,0:0:0:0:
48,240,305717,1,0,0:0:0:0:
48,48,305833,5,0,0:0:0:0:
256,236,305948,1,0,0:0:0:0:
120,40,306063,5,0,0:0:0:0:
396,104,306179,1,0,0:0:0:0:
132,208,306294,5,0,0:0:0:0:
400,284,306409,1,0,0:0:0:0:
256,40,306525,5,0,0:0:0:0:
180,268,306640,1,0,0:0:0:0:
376,124,306756,5,0,0:0:0:0:
136,116,306871,1,0,0:0:0:0:
324,264,306986,5,0,0:0:0:0:
156,40,307102,1,0,0:0:0:0:
124,316,307217,5,0,0:0:0:0:
208,48,307333,1,0,0:0:0:0:
80,296,307448,5,0,0:0:0:0:
252,76,307563,1,0,0:0:0:0:
40,260,307679,5,0,0:0:0:0:
282,121,307794,1,0,0:0:0:0:
20,217,307909,5,0,0:0:0:0:
229,336,308025,1,0,0:0:0:0:
136,114,308140,5,0,0:0:0:0:
365,38,308256,1,0,0:0:0:0:
450,259,308371,6,0,P|419:277|379:282,2,69.9999978637696
288,308,308833,1,0,0:0:0:0:
47,231,309179,2,0,P|119:263|191:255,2,139.999995727539
135,90,309871,1,0,0:0:0:0:
187,70,309986,1,0,0:0:0:0:
243,62,310102,1,0,0:0:0:0:
299,70,310217,5,0,0:0:0:0:
347,98,310333,1,0,0:0:0:0:
383,138,310448,2,0,P|427:194|415:282,1,139.999995727539
196,184,311025,1,0,0:0:0:0:
92,316,311256,1,0,0:0:0:0:
48,156,311486,2,0,P|112:96|180:80,1,139.999995727539
196,128,311833,1,0,0:0:0:0:
240,160,311948,1,0,0:0:0:0:
296,164,312063,5,0,0:0:0:0:
348,144,312179,1,0,0:0:0:0:
384,100,312294,2,0,P|424:168|424:248,1,139.999995727539
188,304,312871,2,0,P|112:280|72:216,1,139.999995727539
172,92,313333,2,0,P|240:128|272:192,1,139.999995727539
276,236,313679,1,0,0:0:0:0:
244,280,313794,1,0,0:0:0:0:
192,296,313909,5,0,0:0:0:0:
136,288,314025,1,0,0:0:0:0:
96,248,314140,2,0,P|76:168|96:104,1,139.999995727539
344,108,314717,1,0,0:0:0:0:
476,212,314948,1,0,0:0:0:0:
348,324,315179,2,0,P|252:328|196:296,1,139.999995727539
166,279,315525,1,0,0:0:0:0:
124,242,315640,1,0,0:0:0:0:
99,191,315756,5,0,0:0:0:0:
90,135,315871,1,0,0:0:0:0:
97,79,315986,2,0,P|171:50|235:58,1,139.999995727539
389,110,316563,2,0,P|434:177|435:242,2,139.999995727539
245,198,317256,1,0,0:0:0:0:
191,182,317371,1,0,0:0:0:0:
135,182,317486,1,0,0:0:0:0:
84,206,317602,5,0,0:0:0:0:
49,250,317717,1,0,0:0:0:0:
47,306,317833,2,0,P|130:329|205:315,1,139.999995727539
347,290,318409,1,0,0:0:0:0:
295,129,318640,2,0,P|217:108|153:115,2,139.999995727539
343,157,319217,1,0,0:0:0:0:
380,199,319333,1,0,0:0:0:0:
390,253,319448,5,0,0:0:0:0:
367,303,319563,1,0,0:0:0:0:
315,325,319679,2,0,P|241:324|185:281,1,139.999995727539
91,53,320256,2,0,P|106:129|173:161,1,139.999995727539
312,96,320717,1,0,0:0:0:0:
405,235,320948,1,0,0:0:0:0:
355,208,321063,1,0,0:0:0:0:
299,198,321179,1,0,0:0:0:0:
243,203,321294,5,0,0:0:0:0:
195,231,321409,1,0,0:0:0:0:
152,267,321525,2,0,P|225:309|294:314,1,139.999995727539
380,180,322102,2,0,P|316:128|248:118,1,139.999995727539
92,102,322563,2,0,P|70:180|88:242,1,139.999995727539
126,272,322909,1,0,0:0:0:0:
178,292,323025,1,0,0:0:0:0:
256,192,323140,12,0,324986,0:0:0:0:
256,192,325044,12,0,326833,0:0:0:0:
256,192,326890,12,0,328679,0:0:0:0:
256,192,328736,12,0,330525,0:0:0:0:
