osu file format v14

[General]
AudioFilename: audio 1.200x.mp3
AudioLeadIn: 0
PreviewTime: 0
Countdown: 0
SampleSet: Soft
StackLeniency: 0.7
Mode: 3
LetterboxInBreaks: 0
SpecialStyle: 0
WidescreenStoryboard: 0

[Editor]
DistanceSpacing: 1
BeatDivisor: 4
GridSize: 32
TimelineZoom: 2.1

[Metadata]
Title:Cosmic Disgust
TitleUnicode:Cosmic Disgust
Artist:DM DOKURO
ArtistUnicode:DM DOKURO
Creator:[LS]ButterBog
Version:Cosmic Slime 1.2x
Source:
Tags:osutrainer
BeatmapID:4556681
BeatmapSetID:2160806

[Difficulty]
HPDrainRate:8
CircleSize:4
OverallDifficulty:8
ApproachRate:5
SliderMultiplier:1.4
SliderTickRate:1

[Events]
//Background and Video events
0,0,"Jykfam5-459779822.jpg",0,0
//Break Periods
//Storyboard Layer 0 (Background)
//Storyboard Layer 1 (Fail)
//Storyboard Layer 2 (Pass)
//Storyboard Layer 3 (Foreground)
//Storyboard Layer 4 (Overlay)
//Storyboard Sound Samples

[TimingPoints]
95,384.615384615385,4,2,0,100,1,0

[HitObjects]
64,192,95,5,0,0:0:0:0:
448,192,95,128,0,480:0:0:0:0:
320,192,480,128,0,865:0:0:0:0:
192,192,865,128,0,1249:0:0:0:0:
64,192,1249,128,0,1634:0:0:0:0:
320,192,1441,1,0,0:0:0:0:
192,192,1537,1,0,0:0:0:0:
448,192,1634,128,0,2018:0:0:0:0:
192,192,2018,128,0,2403:0:0:0:0:
320,192,2403,128,0,2691:0:0:0:0:
320,192,2787,128,0,3172:0:0:0:0:
64,192,3172,128,0,3941:0:0:0:0:
448,192,3172,1,0,0:0:0:0:
320,192,4134,128,0,4325:0:0:0:0:
192,192,4325,128,0,4518:0:0:0:0:
64,192,4518,128,0,4710:0:0:0:0:
448,192,4710,128,0,5095:0:0:0:0:
320,192,4710,1,0,0:0:0:0:
320,192,5287,128,0,5480:0:0:0:0:
64,192,5384,1,0,0:0:0:0:
192,192,5480,128,0,5865:0:0:0:0:
320,192,5865,128,0,6249:0:0:0:0:
64,192,6249,128,0,6634:0:0:0:0:
320,192,6634,128,0,7018:0:0:0:0:
192,192,7018,128,0,7403:0:0:0:0:
448,192,7403,128,0,7787:0:0:0:0:
320,192,7595,1,0,0:0:0:0:
64,192,7691,1,0,0:0:0:0:
192,192,7787,128,0,8172:0:0:0:0:
320,192,8172,128,0,8556:0:0:0:0:
448,192,8556,128,0,8941:0:0:0:0:
64,192,8941,128,0,9325:0:0:0:0:
320,192,9134,1,0,0:0:0:0:
448,192,9230,1,0,0:0:0:0:
320,192,9325,128,0,9710:0:0:0:0:
64,192,9710,128,0,10095:0:0:0:0:
320,192,10095,128,0,10480:0:0:0:0:
448,192,10480,128,0,10865:0:0:0:0:
64,192,10672,1,0,0:0:0:0:
64,192,10768,1,0,0:0:0:0:
192,192,10865,128,0,11249:0:0:0:0:
320,192,11249,128,0,11634:0:0:0:0:
192,192,11634,128,0,12306:0:0:0:0:
64,192,12403,128,0,12787:0:0:0:0:
448,192,12403,1,0,0:0:0:0:
320,192,12499,1,0,0:0:0:0:
448,192,12595,1,0,0:0:0:0:
192,192,12691,1,0,0:0:0:0:
320,192,12787,128,0,13172:0:0:0:0:
448,192,12787,1,0,0:0:0:0:
192,192,12884,1,0,0:0:0:0:
64,192,12980,1,0,0:0:0:0:
448,192,13075,1,0,0:0:0:0:
192,192,13172,128,0,13556:0:0:0:0:
64,192,13172,1,0,0:0:0:0:
320,192,13268,1,0,0:0:0:0:
448,192,13365,1,0,0:0:0:0:
64,192,13460,1,0,0:0:0:0:
448,192,13556,128,0,13941:0:0:0:0:
320,192,13556,1,0,0:0:0:0:
192,192,13653,1,0,0:0:0:0:
64,192,13749,1,0,0:0:0:0:
192,192,13845,1,0,0:0:0:0:
64,192,13941,128,0,14325:0:0:0:0:
320,192,13941,1,0,0:0:0:0:
448,192,14037,1,0,0:0:0:0:
320,192,14134,1,0,0:0:0:0:
192,192,14230,1,0,0:0:0:0:
320,192,14325,128,0,14710:0:0:0:0:
448,192,14325,1,0,0:0:0:0:
64,192,14422,1,0,0:0:0:0:
192,192,14518,1,0,0:0:0:0:
448,192,14615,1,0,0:0:0:0:
192,192,14710,128,0,15095:0:0:0:0:
64,192,14710,1,0,0:0:0:0:
448,192,14806,1,0,0:0:0:0:
320,192,14903,1,0,0:0:0:0:
64,192,14999,1,0,0:0:0:0:
448,192,15095,128,0,15480:0:0:0:0:
320,192,15095,1,0,0:0:0:0:
64,192,15191,1,0,0:0:0:0:
320,192,15287,1,0,0:0:0:0:
192,192,15384,1,0,0:0:0:0:
64,192,15384,1,0,0:0:0:0:
64,192,15480,128,0,16441:0:0:0:0:
320,192,15480,1,0,0:0:0:0:
448,192,15575,1,0,0:0:0:0:
320,192,15672,1,0,0:0:0:0:
192,192,15768,1,0,0:0:0:0:
448,192,15865,1,0,0:0:0:0:
192,192,15960,1,0,0:0:0:0:
320,192,16056,1,0,0:0:0:0:
192,192,16153,1,0,0:0:0:0:
448,192,16249,1,0,0:0:0:0:
320,192,16345,1,0,0:0:0:0:
192,192,16441,1,0,0:0:0:0:
448,192,16441,128,0,16634:0:0:0:0:
320,192,16537,1,0,0:0:0:0:
192,192,16634,1,0,0:0:0:0:
64,192,16634,128,0,16825:0:0:0:0:
448,192,16730,1,0,0:0:0:0:
320,192,16825,1,0,0:0:0:0:
192,192,16825,128,0,17018:0:0:0:0:
448,192,16922,1,0,0:0:0:0:
64,192,17018,1,0,0:0:0:0:
320,192,17018,128,0,17595:0:0:0:0:
448,192,17115,1,0,0:0:0:0:
192,192,17210,1,0,0:0:0:0:
64,192,17210,1,0,0:0:0:0:
448,192,17306,1,0,0:0:0:0:
64,192,17403,1,0,0:0:0:0:
192,192,17403,1,0,0:0:0:0:
448,192,17499,1,0,0:0:0:0:
64,192,17595,128,0,17787:0:0:0:0:
192,192,17595,1,0,0:0:0:0:
320,192,17691,1,0,0:0:0:0:
448,192,17787,128,0,18172:0:0:0:0:
192,192,17787,1,0,0:0:0:0:
64,192,17884,1,0,0:0:0:0:
192,192,17980,1,0,0:0:0:0:
64,192,18075,1,0,0:0:0:0:
192,192,18172,128,0,18556:0:0:0:0:
320,192,18172,1,0,0:0:0:0:
64,192,18268,1,0,0:0:0:0:
320,192,18365,1,0,0:0:0:0:
448,192,18365,1,0,0:0:0:0:
448,192,18460,1,0,0:0:0:0:
320,192,18460,1,0,0:0:0:0:
320,192,18556,1,0,0:0:0:0:
64,192,18556,1,0,0:0:0:0:
448,192,18556,128,0,18941:0:0:0:0:
192,192,18653,1,0,0:0:0:0:
64,192,18749,1,0,0:0:0:0:
320,192,18845,1,0,0:0:0:0:
192,192,18941,128,0,19325:0:0:0:0:
64,192,18941,1,0,0:0:0:0:
448,192,19037,1,0,0:0:0:0:
320,192,19134,1,0,0:0:0:0:
64,192,19230,1,0,0:0:0:0:
320,192,19325,128,0,19710:0:0:0:0:
448,192,19325,1,0,0:0:0:0:
64,192,19422,1,0,0:0:0:0:
192,192,19518,1,0,0:0:0:0:
448,192,19615,1,0,0:0:0:0:
64,192,19710,128,0,20095:0:0:0:0:
192,192,19710,1,0,0:0:0:0:
448,192,19806,1,0,0:0:0:0:
192,192,19903,1,0,0:0:0:0:
320,192,19999,1,0,0:0:0:0:
448,192,20095,128,0,20480:0:0:0:0:
192,192,20095,1,0,0:0:0:0:
320,192,20191,1,0,0:0:0:0:
192,192,20287,1,0,0:0:0:0:
64,192,20384,1,0,0:0:0:0:
192,192,20480,128,0,20865:0:0:0:0:
320,192,20480,1,0,0:0:0:0:
64,192,20575,1,0,0:0:0:0:
448,192,20672,1,0,0:0:0:0:
64,192,20768,1,0,0:0:0:0:
320,192,20865,128,0,21249:0:0:0:0:
448,192,20865,1,0,0:0:0:0:
64,192,20960,1,0,0:0:0:0:
192,192,21056,1,0,0:0:0:0:
64,192,21153,1,0,0:0:0:0:
448,192,21249,128,0,21634:0:0:0:0:
192,192,21249,1,0,0:0:0:0:
320,192,21345,1,0,0:0:0:0:
64,192,21441,1,0,0:0:0:0:
320,192,21537,1,0,0:0:0:0:
192,192,21537,1,0,0:0:0:0:
64,192,21634,128,0,22018:0:0:0:0:
320,192,21634,1,0,0:0:0:0:
448,192,21730,1,0,0:0:0:0:
192,192,21825,1,0,0:0:0:0:
448,192,21922,1,0,0:0:0:0:
320,192,22018,128,0,22403:0:0:0:0:
192,192,22018,1,0,0:0:0:0:
448,192,22115,1,0,0:0:0:0:
64,192,22210,1,0,0:0:0:0:
448,192,22306,1,0,0:0:0:0:
192,192,22403,128,0,22787:0:0:0:0:
64,192,22403,1,0,0:0:0:0:
448,192,22499,1,0,0:0:0:0:
320,192,22595,1,0,0:0:0:0:
64,192,22691,1,0,0:0:0:0:
320,192,22787,128,0,23172:0:0:0:0:
448,192,22787,1,0,0:0:0:0:
64,192,22884,1,0,0:0:0:0:
192,192,22980,1,0,0:0:0:0:
64,192,23075,1,0,0:0:0:0:
448,192,23172,128,0,23556:0:0:0:0:
192,192,23172,1,0,0:0:0:0:
320,192,23268,1,0,0:0:0:0:
192,192,23365,1,0,0:0:0:0:
320,192,23460,1,0,0:0:0:0:
64,192,23556,128,0,23941:0:0:0:0:
192,192,23556,1,0,0:0:0:0:
448,192,23653,1,0,0:0:0:0:
192,192,23749,1,0,0:0:0:0:
320,192,23845,1,0,0:0:0:0:
448,192,23941,128,0,24710:0:0:0:0:
192,192,23941,1,0,0:0:0:0:
320,192,24037,1,0,0:0:0:0:
192,192,24085,1,0,0:0:0:0:
64,192,24134,1,0,0:0:0:0:
320,192,24230,1,0,0:0:0:0:
64,192,24325,1,0,0:0:0:0:
320,192,24422,1,0,0:0:0:0:
64,192,24518,1,0,0:0:0:0:
320,192,24615,1,0,0:0:0:0:
64,192,24710,1,0,0:0:0:0:
192,192,24710,1,0,0:0:0:0:
64,192,24806,1,0,0:0:0:0:
320,192,24903,1,0,0:0:0:0:
448,192,24903,1,0,0:0:0:0:
448,192,24999,1,0,0:0:0:0:
64,192,25095,1,0,0:0:0:0:
192,192,25095,128,0,25480:0:0:0:0:
320,192,25191,1,0,0:0:0:0:
448,192,25287,1,0,0:0:0:0:
320,192,25287,1,0,0:0:0:0:
64,192,25384,1,0,0:0:0:0:
64,192,25480,1,0,0:0:0:0:
448,192,25480,128,0,25865:0:0:0:0:
320,192,25575,1,0,0:0:0:0:
64,192,25672,1,0,0:0:0:0:
192,192,25672,1,0,0:0:0:0:
320,192,25768,1,0,0:0:0:0:
320,192,25865,1,0,0:0:0:0:
64,192,25865,128,0,26249:0:0:0:0:
192,192,25960,1,0,0:0:0:0:
448,192,26056,1,0,0:0:0:0:
320,192,26056,1,0,0:0:0:0:
448,192,26153,1,0,0:0:0:0:
192,192,26249,1,0,0:0:0:0:
320,192,26249,128,0,26634:0:0:0:0:
64,192,26345,1,0,0:0:0:0:
64,192,26441,1,0,0:0:0:0:
448,192,26441,1,0,0:0:0:0:
192,192,26537,1,0,0:0:0:0:
448,192,26634,1,0,0:0:0:0:
64,192,26634,128,0,27018:0:0:0:0:
448,192,26730,1,0,0:0:0:0:
192,192,26825,1,0,0:0:0:0:
320,192,26825,1,0,0:0:0:0:
192,192,26922,1,0,0:0:0:0:
320,192,27018,128,0,27403:0:0:0:0:
448,192,27018,1,0,0:0:0:0:
448,192,27115,1,0,0:0:0:0:
64,192,27210,1,0,0:0:0:0:
192,192,27210,1,0,0:0:0:0:
64,192,27306,1,0,0:0:0:0:
448,192,27403,128,0,27787:0:0:0:0:
192,192,27403,1,0,0:0:0:0:
320,192,27499,1,0,0:0:0:0:
192,192,27595,1,0,0:0:0:0:
64,192,27595,1,0,0:0:0:0:
192,192,27691,1,0,0:0:0:0:
64,192,27691,1,0,0:0:0:0:
64,192,27787,1,0,0:0:0:0:
192,192,27787,1,0,0:0:0:0:
320,192,27787,128,0,27980:0:0:0:0:
64,192,27884,1,0,0:0:0:0:
448,192,27980,1,0,0:0:0:0:
192,192,27980,128,0,28172:0:0:0:0:
448,192,28075,1,0,0:0:0:0:
320,192,28172,128,0,28556:0:0:0:0:
64,192,28172,1,0,0:0:0:0:
64,192,28268,1,0,0:0:0:0:
192,192,28365,1,0,0:0:0:0:
448,192,28365,1,0,0:0:0:0:
448,192,28460,1,0,0:0:0:0:
192,192,28556,1,0,0:0:0:0:
64,192,28556,128,0,28941:0:0:0:0:
192,192,28653,1,0,0:0:0:0:
320,192,28749,1,0,0:0:0:0:
448,192,28749,1,0,0:0:0:0:
448,192,28845,1,0,0:0:0:0:
320,192,28941,1,0,0:0:0:0:
192,192,28941,128,0,29325:0:0:0:0:
320,192,29037,1,0,0:0:0:0:
64,192,29134,1,0,0:0:0:0:
448,192,29134,1,0,0:0:0:0:
64,192,29230,1,0,0:0:0:0:
320,192,29325,128,0,29710:0:0:0:0:
448,192,29325,1,0,0:0:0:0:
448,192,29422,1,0,0:0:0:0:
192,192,29518,1,0,0:0:0:0:
64,192,29518,1,0,0:0:0:0:
64,192,29615,1,0,0:0:0:0:
448,192,29710,1,0,0:0:0:0:
192,192,29710,128,0,30095:0:0:0:0:
448,192,29806,1,0,0:0:0:0:
320,192,29903,1,0,0:0:0:0:
64,192,29903,1,0,0:0:0:0:
320,192,29999,1,0,0:0:0:0:
64,192,30095,128,0,30865:0:0:0:0:
448,192,30095,1,0,0:0:0:0:
448,192,30191,1,0,0:0:0:0:
192,192,30287,1,0,0:0:0:0:
320,192,30287,1,0,0:0:0:0:
192,192,30384,1,0,0:0:0:0:
320,192,30480,1,0,0:0:0:0:
448,192,30480,1,0,0:0:0:0:
192,192,30575,1,0,0:0:0:0:
320,192,30672,1,0,0:0:0:0:
448,192,30672,1,0,0:0:0:0:
320,192,30768,1,0,0:0:0:0:
448,192,30768,1,0,0:0:0:0:
320,192,30865,1,0,0:0:0:0:
192,192,30865,1,0,0:0:0:0:
448,192,30865,1,0,0:0:0:0:
192,192,30960,1,0,0:0:0:0:
64,192,31056,1,0,0:0:0:0:
448,192,31056,1,0,0:0:0:0:
448,192,31153,1,0,0:0:0:0:
64,192,31249,1,0,0:0:0:0:
192,192,31249,128,0,31634:0:0:0:0:
64,192,31345,1,0,0:0:0:0:
448,192,31441,1,0,0:0:0:0:
320,192,31441,1,0,0:0:0:0:
448,192,31537,1,0,0:0:0:0:
320,192,31634,1,0,0:0:0:0:
64,192,31634,128,0,32018:0:0:0:0:
320,192,31730,1,0,0:0:0:0:
448,192,31825,1,0,0:0:0:0:
192,192,31825,1,0,0:0:0:0:
448,192,31922,1,0,0:0:0:0:
320,192,32018,1,0,0:0:0:0:
192,192,32018,128,0,32403:0:0:0:0:
320,192,32115,1,0,0:0:0:0:
64,192,32210,1,0,0:0:0:0:
448,192,32210,1,0,0:0:0:0:
448,192,32306,1,0,0:0:0:0:
64,192,32403,1,0,0:0:0:0:
320,192,32403,128,0,32787:0:0:0:0:
64,192,32499,1,0,0:0:0:0:
448,192,32595,1,0,0:0:0:0:
192,192,32595,1,0,0:0:0:0:
192,192,32691,1,0,0:0:0:0:
448,192,32787,128,0,33172:0:0:0:0:
64,192,32787,1,0,0:0:0:0:
320,192,32884,1,0,0:0:0:0:
64,192,32980,1,0,0:0:0:0:
192,192,32980,1,0,0:0:0:0:
64,192,33075,1,0,0:0:0:0:
320,192,33172,1,0,0:0:0:0:
192,192,33172,128,0,33556:0:0:0:0:
320,192,33268,1,0,0:0:0:0:
64,192,33365,1,0,0:0:0:0:
448,192,33365,1,0,0:0:0:0:
448,192,33460,1,0,0:0:0:0:
320,192,33556,128,0,33941:0:0:0:0:
64,192,33653,1,0,0:0:0:0:
448,192,33653,1,0,0:0:0:0:
64,192,33749,1,0,0:0:0:0:
192,192,33845,1,0,0:0:0:0:
448,192,33845,1,0,0:0:0:0:
448,192,33941,1,0,0:0:0:0:
64,192,33941,128,0,34422:0:0:0:0:
192,192,34037,1,0,0:0:0:0:
320,192,34037,1,0,0:0:0:0:
192,192,34134,1,0,0:0:0:0:
448,192,34230,1,0,0:0:0:0:
320,192,34230,1,0,0:0:0:0:
448,192,34325,1,0,0:0:0:0:
192,192,34422,1,0,0:0:0:0:
64,192,34518,1,0,0:0:0:0:
448,192,34518,128,0,34615:0:0:0:0:
64,192,34615,128,0,34710:0:0:0:0:
320,192,34710,128,0,35865:0:0:0:0:
448,192,34710,1,0,0:0:0:0:
192,192,34806,1,0,0:0:0:0:
64,192,34903,1,0,0:0:0:0:
448,192,34903,1,0,0:0:0:0:
448,192,34999,1,0,0:0:0:0:
192,192,35095,1,0,0:0:0:0:
64,192,35095,1,0,0:0:0:0:
192,192,35191,1,0,0:0:0:0:
64,192,35287,1,0,0:0:0:0:
448,192,35287,1,0,0:0:0:0:
448,192,35384,1,0,0:0:0:0:
192,192,35480,1,0,0:0:0:0:
64,192,35480,1,0,0:0:0:0:
64,192,35575,1,0,0:0:0:0:
192,192,35672,1,0,0:0:0:0:
448,192,35672,1,0,0:0:0:0:
448,192,35768,1,0,0:0:0:0:
64,192,35865,1,0,0:0:0:0:
192,192,35865,1,0,0:0:0:0:
64,192,35960,1,0,0:0:0:0:
320,192,36056,5,0,0:0:0:0:
448,192,36056,1,0,0:0:0:0:
448,192,36153,1,0,0:0:0:0:
320,192,36249,1,0,0:0:0:0:
64,192,36249,128,0,36634:0:0:0:0:
192,192,36345,1,0,0:0:0:0:
448,192,36441,1,0,0:0:0:0:
320,192,36441,1,0,0:0:0:0:
448,192,36537,1,0,0:0:0:0:
192,192,36634,128,0,37018:0:0:0:0:
320,192,36634,1,0,0:0:0:0:
64,192,36730,1,0,0:0:0:0:
448,192,36825,1,0,0:0:0:0:
320,192,36825,1,0,0:0:0:0:
448,192,36922,1,0,0:0:0:0:
320,192,36922,1,0,0:0:0:0:
64,192,36922,1,0,0:0:0:0:
320,192,37018,1,0,0:0:0:0:
64,192,37018,1,0,0:0:0:0:
448,192,37018,128,0,37595:0:0:0:0:
320,192,37115,1,0,0:0:0:0:
64,192,37210,1,0,0:0:0:0:
192,192,37210,1,0,0:0:0:0:
192,192,37306,1,0,0:0:0:0:
64,192,37403,1,0,0:0:0:0:
320,192,37403,1,0,0:0:0:0:
320,192,37499,1,0,0:0:0:0:
64,192,37595,1,0,0:0:0:0:
192,192,37595,128,0,38172:0:0:0:0:
64,192,37691,1,0,0:0:0:0:
448,192,37787,1,0,0:0:0:0:
320,192,37787,1,0,0:0:0:0:
320,192,37884,1,0,0:0:0:0:
448,192,37980,1,0,0:0:0:0:
64,192,37980,1,0,0:0:0:0:
448,192,38075,1,0,0:0:0:0:
64,192,38172,1,0,0:0:0:0:
320,192,38172,128,0,38556:0:0:0:0:
64,192,38268,1,0,0:0:0:0:
448,192,38365,1,0,0:0:0:0:
192,192,38365,1,0,0:0:0:0:
192,192,38460,1,0,0:0:0:0:
448,192,38556,128,0,39325:0:0:0:0:
64,192,38556,1,0,0:0:0:0:
320,192,38653,1,0,0:0:0:0:
64,192,38749,1,0,0:0:0:0:
192,192,38749,1,0,0:0:0:0:
64,192,38845,1,0,0:0:0:0:
320,192,38941,1,0,0:0:0:0:
192,192,38941,1,0,0:0:0:0:
320,192,39037,1,0,0:0:0:0:
64,192,39134,1,0,0:0:0:0:
192,192,39134,1,0,0:0:0:0:
64,192,39230,1,0,0:0:0:0:
320,192,39325,1,0,0:0:0:0:
192,192,39325,128,0,40095:0:0:0:0:
320,192,39422,1,0,0:0:0:0:
64,192,39518,1,0,0:0:0:0:
448,192,39518,1,0,0:0:0:0:
64,192,39615,1,0,0:0:0:0:
320,192,39710,1,0,0:0:0:0:
448,192,39710,1,0,0:0:0:0:
320,192,39806,1,0,0:0:0:0:
64,192,39903,1,0,0:0:0:0:
448,192,39903,1,0,0:0:0:0:
448,192,39999,1,0,0:0:0:0:
64,192,40095,128,0,40672:0:0:0:0:
320,192,40095,1,0,0:0:0:0:
320,192,40191,1,0,0:0:0:0:
192,192,40287,1,0,0:0:0:0:
448,192,40287,1,0,0:0:0:0:
192,192,40384,1,0,0:0:0:0:
320,192,40480,1,0,0:0:0:0:
448,192,40480,1,0,0:0:0:0:
320,192,40575,1,0,0:0:0:0:
448,192,40672,128,0,40865:0:0:0:0:
192,192,40672,1,0,0:0:0:0:
192,192,40768,1,0,0:0:0:0:
320,192,40865,128,0,41249:0:0:0:0:
64,192,40865,1,0,0:0:0:0:
64,192,40960,1,0,0:0:0:0:
448,192,41056,1,0,0:0:0:0:
192,192,41056,1,0,0:0:0:0:
448,192,41153,1,0,0:0:0:0:
192,192,41249,128,0,41634:0:0:0:0:
64,192,41249,1,0,0:0:0:0:
320,192,41345,1,0,0:0:0:0:
64,192,41441,1,0,0:0:0:0:
448,192,41441,1,0,0:0:0:0:
64,192,41537,1,0,0:0:0:0:
448,192,41634,128,0,42403:0:0:0:0:
320,192,41634,1,0,0:0:0:0:
320,192,41730,1,0,0:0:0:0:
64,192,41825,1,0,0:0:0:0:
192,192,41825,1,0,0:0:0:0:
64,192,41922,1,0,0:0:0:0:
192,192,42018,1,0,0:0:0:0:
320,192,42018,1,0,0:0:0:0:
192,192,42115,1,0,0:0:0:0:
64,192,42210,1,0,0:0:0:0:
320,192,42210,1,0,0:0:0:0:
320,192,42306,1,0,0:0:0:0:
192,192,42403,128,0,42787:0:0:0:0:
64,192,42403,1,0,0:0:0:0:
64,192,42499,1,0,0:0:0:0:
448,192,42595,1,0,0:0:0:0:
320,192,42595,1,0,0:0:0:0:
448,192,42691,1,0,0:0:0:0:
320,192,42787,128,0,43172:0:0:0:0:
64,192,42787,1,0,0:0:0:0:
64,192,42884,1,0,0:0:0:0:
448,192,42980,1,0,0:0:0:0:
192,192,43028,1,0,0:0:0:0:
64,192,43075,1,0,0:0:0:0:
192,192,43124,1,0,0:0:0:0:
64,192,43172,128,0,43749:0:0:0:0:
448,192,43172,1,0,0:0:0:0:
448,192,43268,1,0,0:0:0:0:
320,192,43365,1,0,0:0:0:0:
192,192,43365,1,0,0:0:0:0:
320,192,43460,1,0,0:0:0:0:
192,192,43556,1,0,0:0:0:0:
448,192,43556,1,0,0:0:0:0:
448,192,43653,1,0,0:0:0:0:
320,192,43749,128,0,43941:0:0:0:0:
192,192,43749,1,0,0:0:0:0:
64,192,43845,1,0,0:0:0:0:
192,192,43941,128,0,44325:0:0:0:0:
448,192,43941,1,0,0:0:0:0:
448,192,44037,1,0,0:0:0:0:
64,192,44134,1,0,0:0:0:0:
320,192,44134,1,0,0:0:0:0:
64,192,44230,1,0,0:0:0:0:
320,192,44325,128,0,44710:0:0:0:0:
448,192,44325,1,0,0:0:0:0:
448,192,44422,1,0,0:0:0:0:
64,192,44518,1,0,0:0:0:0:
192,192,44518,1,0,0:0:0:0:
192,192,44615,1,0,0:0:0:0:
64,192,44710,128,0,45095:0:0:0:0:
448,192,44710,1,0,0:0:0:0:
448,192,44806,1,0,0:0:0:0:
320,192,44903,1,0,0:0:0:0:
192,192,44903,1,0,0:0:0:0:
320,192,44999,1,0,0:0:0:0:
192,192,45095,1,0,0:0:0:0:
448,192,45095,128,0,45480:0:0:0:0:
192,192,45191,1,0,0:0:0:0:
64,192,45287,1,0,0:0:0:0:
320,192,45287,1,0,0:0:0:0:
64,192,45384,1,0,0:0:0:0:
192,192,45480,128,0,45865:0:0:0:0:
320,192,45480,1,0,0:0:0:0:
320,192,45575,1,0,0:0:0:0:
448,192,45672,1,0,0:0:0:0:
64,192,45672,1,0,0:0:0:0:
448,192,45768,1,0,0:0:0:0:
320,192,45865,128,0,46249:0:0:0:0:
64,192,45865,1,0,0:0:0:0:
64,192,45960,1,0,0:0:0:0:
192,192,46056,1,0,0:0:0:0:
448,192,46056,1,0,0:0:0:0:
192,192,46153,1,0,0:0:0:0:
64,192,46249,128,0,46825:0:0:0:0:
448,192,46249,1,0,0:0:0:0:
448,192,46345,1,0,0:0:0:0:
320,192,46441,1,0,0:0:0:0:
192,192,46441,1,0,0:0:0:0:
320,192,46537,1,0,0:0:0:0:
192,192,46634,1,0,0:0:0:0:
448,192,46634,1,0,0:0:0:0:
448,192,46730,1,0,0:0:0:0:
320,192,46825,128,0,47018:0:0:0:0:
192,192,46825,1,0,0:0:0:0:
192,192,46922,1,0,0:0:0:0:
64,192,47018,128,0,47403:0:0:0:0:
448,192,47018,1,0,0:0:0:0:
448,192,47115,1,0,0:0:0:0:
192,192,47210,1,0,0:0:0:0:
320,192,47210,1,0,0:0:0:0:
320,192,47306,1,0,0:0:0:0:
192,192,47403,128,0,47787:0:0:0:0:
448,192,47403,1,0,0:0:0:0:
448,192,47499,1,0,0:0:0:0:
64,192,47595,1,0,0:0:0:0:
320,192,47595,1,0,0:0:0:0:
64,192,47691,1,0,0:0:0:0:
320,192,47787,128,0,48556:0:0:0:0:
448,192,47787,1,0,0:0:0:0:
192,192,47884,1,0,0:0:0:0:
64,192,47980,1,0,0:0:0:0:
448,192,47980,1,0,0:0:0:0:
64,192,48075,1,0,0:0:0:0:
192,192,48172,1,0,0:0:0:0:
448,192,48172,1,0,0:0:0:0:
192,192,48268,1,0,0:0:0:0:
64,192,48365,1,0,0:0:0:0:
448,192,48365,1,0,0:0:0:0:
64,192,48460,1,0,0:0:0:0:
448,192,48556,128,0,49325:0:0:0:0:
192,192,48556,1,0,0:0:0:0:
192,192,48653,1,0,0:0:0:0:
320,192,48749,1,0,0:0:0:0:
64,192,48749,1,0,0:0:0:0:
320,192,48845,1,0,0:0:0:0:
64,192,48941,1,0,0:0:0:0:
192,192,48941,1,0,0:0:0:0:
64,192,49037,1,0,0:0:0:0:
320,192,49134,1,0,0:0:0:0:
192,192,49181,1,0,0:0:0:0:
320,192,49230,1,0,0:0:0:0:
192,192,49278,1,0,0:0:0:0:
64,192,49325,128,0,51249:0:0:0:0:
320,192,49325,1,0,0:0:0:0:
320,192,49615,1,0,0:0:0:0:
192,192,49710,1,0,0:0:0:0:
448,192,49710,1,0,0:0:0:0:
448,192,49999,1,0,0:0:0:0:
192,192,50095,1,0,0:0:0:0:
320,192,50095,1,0,0:0:0:0:
320,192,50287,1,0,0:0:0:0:
448,192,50384,1,0,0:0:0:0:
192,192,50384,1,0,0:0:0:0:
448,192,50768,1,0,0:0:0:0:
192,192,50865,1,0,0:0:0:0:
320,192,50865,1,0,0:0:0:0:
320,192,51056,1,0,0:0:0:0:
192,192,51153,1,0,0:0:0:0:
448,192,51153,1,0,0:0:0:0:
320,192,51345,1,0,0:0:0:0:
192,192,51441,1,0,0:0:0:0:
448,192,51441,1,0,0:0:0:0:
192,192,51634,1,0,0:0:0:0:
64,192,51730,1,0,0:0:0:0:
320,192,51730,1,0,0:0:0:0:
320,192,51922,1,0,0:0:0:0:
192,192,52018,1,0,0:0:0:0:
448,192,52018,1,0,0:0:0:0:
192,192,52210,1,0,0:0:0:0:
64,192,52210,1,0,0:0:0:0:
448,192,52306,1,0,0:0:0:0:
64,192,52403,1,0,0:0:0:0:
192,192,52403,1,0,0:0:0:0:
448,192,52595,1,0,0:0:0:0:
192,192,52691,1,0,0:0:0:0:
64,192,52691,1,0,0:0:0:0:
448,192,52884,1,0,0:0:0:0:
448,192,52980,1,0,0:0:0:0:
64,192,53075,1,0,0:0:0:0:
320,192,53172,1,0,0:0:0:0:
448,192,53172,1,0,0:0:0:0:
64,192,53365,1,0,0:0:0:0:
320,192,53460,1,0,0:0:0:0:
448,192,53460,1,0,0:0:0:0:
64,192,53845,1,0,0:0:0:0:
448,192,53941,1,0,0:0:0:0:
320,192,53941,1,0,0:0:0:0:
192,192,54134,1,0,0:0:0:0:
448,192,54230,1,0,0:0:0:0:
64,192,54230,1,0,0:0:0:0:
320,192,54422,1,0,0:0:0:0:
448,192,54518,1,0,0:0:0:0:
64,192,54518,1,0,0:0:0:0:
192,192,54710,1,0,0:0:0:0:
448,192,54806,1,0,0:0:0:0:
320,192,54806,1,0,0:0:0:0:
64,192,54999,1,0,0:0:0:0:
448,192,55095,1,0,0:0:0:0:
192,192,55095,1,0,0:0:0:0:
448,192,55287,1,0,0:0:0:0:
320,192,55287,1,0,0:0:0:0:
64,192,55384,1,0,0:0:0:0:
448,192,55384,1,0,0:0:0:0:
192,192,55480,1,0,0:0:0:0:
320,192,55480,1,0,0:0:0:0:
64,192,55575,1,0,0:0:0:0:
320,192,55672,1,0,0:0:0:0:
64,192,55768,1,0,0:0:0:0:
192,192,55768,1,0,0:0:0:0:
448,192,55865,1,0,0:0:0:0:
64,192,55960,1,0,0:0:0:0:
320,192,56056,1,0,0:0:0:0:
192,192,56153,1,0,0:0:0:0:
64,192,56249,1,0,0:0:0:0:
320,192,56249,1,0,0:0:0:0:
448,192,56345,1,0,0:0:0:0:
192,192,56441,1,0,0:0:0:0:
320,192,56537,1,0,0:0:0:0:
448,192,56537,1,0,0:0:0:0:
64,192,56634,1,0,0:0:0:0:
320,192,56730,1,0,0:0:0:0:
192,192,56825,1,0,0:0:0:0:
64,192,56922,1,0,0:0:0:0:
320,192,57018,1,0,0:0:0:0:
448,192,57018,1,0,0:0:0:0:
64,192,57115,1,0,0:0:0:0:
320,192,57210,1,0,0:0:0:0:
192,192,57306,1,0,0:0:0:0:
64,192,57306,1,0,0:0:0:0:
448,192,57403,1,0,0:0:0:0:
192,192,57499,1,0,0:0:0:0:
320,192,57595,1,0,0:0:0:0:
64,192,57595,1,0,0:0:0:0:
448,192,57691,1,0,0:0:0:0:
64,192,57787,1,0,0:0:0:0:
448,192,57884,1,0,0:0:0:0:
320,192,57884,1,0,0:0:0:0:
64,192,57980,1,0,0:0:0:0:
192,192,58075,1,0,0:0:0:0:
320,192,58172,1,0,0:0:0:0:
448,192,58172,1,0,0:0:0:0:
64,192,58268,1,0,0:0:0:0:
320,192,58365,1,0,0:0:0:0:
192,192,58365,1,0,0:0:0:0:
448,192,58460,1,0,0:0:0:0:
320,192,58509,1,0,0:0:0:0:
192,192,58556,1,0,0:0:0:0:
64,192,58556,1,0,0:0:0:0:
448,192,58653,1,0,0:0:0:0:
64,192,58749,1,0,0:0:0:0:
320,192,58845,1,0,0:0:0:0:
64,192,58941,1,0,0:0:0:0:
448,192,59037,1,0,0:0:0:0:
192,192,59134,1,0,0:0:0:0:
320,192,59230,1,0,0:0:0:0:
64,192,59325,1,0,0:0:0:0:
448,192,59422,1,0,0:0:0:0:
192,192,59518,1,0,0:0:0:0:
320,192,59615,1,0,0:0:0:0:
64,192,59710,1,0,0:0:0:0:
448,192,59806,1,0,0:0:0:0:
192,192,59903,1,0,0:0:0:0:
320,192,59999,1,0,0:0:0:0:
448,192,60095,1,0,0:0:0:0:
64,192,60191,1,0,0:0:0:0:
320,192,60287,1,0,0:0:0:0:
192,192,60384,1,0,0:0:0:0:
64,192,60480,1,0,0:0:0:0:
448,192,60575,1,0,0:0:0:0:
192,192,60672,5,0,0:0:0:0:
320,192,60768,1,0,0:0:0:0:
64,192,60865,1,0,0:0:0:0:
448,192,60960,1,0,0:0:0:0:
64,192,61056,1,0,0:0:0:0:
192,192,61153,1,0,0:0:0:0:
448,192,61249,128,0,61537:0:0:0:0:
64,192,61345,1,0,0:0:0:0:
320,192,61441,128,0,61537:0:0:0:0:
192,192,61537,1,0,0:0:0:0:
320,192,61585,1,0,0:0:0:0:
64,192,61634,128,0,63365:0:0:0:0:
448,192,61634,1,0,0:0:0:0:
192,192,61730,1,0,0:0:0:0:
320,192,61825,1,0,0:0:0:0:
448,192,61825,1,0,0:0:0:0:
448,192,61922,1,0,0:0:0:0:
320,192,62018,1,0,0:0:0:0:
192,192,62018,1,0,0:0:0:0:
320,192,62115,1,0,0:0:0:0:
192,192,62210,1,0,0:0:0:0:
448,192,62210,1,0,0:0:0:0:
320,192,62306,1,0,0:0:0:0:
448,192,62403,1,0,0:0:0:0:
192,192,62403,1,0,0:0:0:0:
320,192,62499,1,0,0:0:0:0:
320,192,62595,1,0,0:0:0:0:
448,192,62595,1,0,0:0:0:0:
192,192,62691,1,0,0:0:0:0:
448,192,62787,1,0,0:0:0:0:
320,192,62787,1,0,0:0:0:0:
192,192,62884,1,0,0:0:0:0:
448,192,62980,1,0,0:0:0:0:
320,192,62980,1,0,0:0:0:0:
448,192,63075,1,0,0:0:0:0:
320,192,63172,1,0,0:0:0:0:
192,192,63172,1,0,0:0:0:0:
320,192,63268,1,0,0:0:0:0:
192,192,63365,1,0,0:0:0:0:
448,192,63365,1,0,0:0:0:0:
320,192,63460,1,0,0:0:0:0:
192,192,63556,1,0,0:0:0:0:
64,192,63556,1,0,0:0:0:0:
448,192,63653,1,0,0:0:0:0:
320,192,63749,128,0,63845:0:0:0:0:
64,192,63749,1,0,0:0:0:0:
192,192,63845,128,0,63941:0:0:0:0:
64,192,63941,128,0,64134:0:0:0:0:
448,192,63941,1,0,0:0:0:0:
320,192,64037,1,0,0:0:0:0:
448,192,64134,128,0,64325:0:0:0:0:
320,192,64134,1,0,0:0:0:0:
192,192,64230,1,0,0:0:0:0:
192,192,64325,128,0,64518:0:0:0:0:
64,192,64325,1,0,0:0:0:0:
320,192,64518,128,0,64710:0:0:0:0:
448,192,64518,1,0,0:0:0:0:
64,192,64615,1,0,0:0:0:0:
448,192,64710,128,0,66441:0:0:0:0:
192,192,64710,1,0,0:0:0:0:
320,192,64806,1,0,0:0:0:0:
192,192,64903,1,0,0:0:0:0:
64,192,64903,1,0,0:0:0:0:
192,192,64999,1,0,0:0:0:0:
64,192,65095,1,0,0:0:0:0:
320,192,65095,1,0,0:0:0:0:
320,192,65191,1,0,0:0:0:0:
192,192,65287,1,0,0:0:0:0:
64,192,65287,1,0,0:0:0:0:
192,192,65384,1,0,0:0:0:0:
64,192,65480,1,0,0:0:0:0:
320,192,65480,1,0,0:0:0:0:
64,192,65575,1,0,0:0:0:0:
192,192,65672,1,0,0:0:0:0:
320,192,65672,1,0,0:0:0:0:
64,192,65768,1,0,0:0:0:0:
320,192,65865,1,0,0:0:0:0:
192,192,65865,1,0,0:0:0:0:
320,192,65960,1,0,0:0:0:0:
64,192,66056,1,0,0:0:0:0:
192,192,66056,1,0,0:0:0:0:
192,192,66153,1,0,0:0:0:0:
64,192,66249,1,0,0:0:0:0:
320,192,66249,1,0,0:0:0:0:
64,192,66345,1,0,0:0:0:0:
192,192,66441,1,0,0:0:0:0:
320,192,66441,1,0,0:0:0:0:
64,192,66537,1,0,0:0:0:0:
448,192,66634,1,0,0:0:0:0:
320,192,66634,1,0,0:0:0:0:
320,192,66730,1,0,0:0:0:0:
192,192,66825,1,0,0:0:0:0:
64,192,66825,1,0,0:0:0:0:
448,192,66922,1,0,0:0:0:0:
192,192,67018,1,0,0:0:0:0:
320,192,67018,1,0,0:0:0:0:
64,192,67115,1,0,0:0:0:0:
320,192,67210,1,0,0:0:0:0:
448,192,67210,128,0,67403:0:0:0:0:
320,192,67306,1,0,0:0:0:0:
192,192,67403,1,0,0:0:0:0:
64,192,67403,128,0,67595:0:0:0:0:
192,192,67499,1,0,0:0:0:0:
320,192,67595,1,0,0:0:0:0:
448,192,67595,128,0,67740:0:0:0:0:
320,192,67691,1,0,0:0:0:0:
192,192,67740,1,0,0:0:0:0:
64,192,67787,128,0,69518:0:0:0:0:
448,192,67787,1,0,0:0:0:0:
448,192,67884,1,0,0:0:0:0:
320,192,67980,1,0,0:0:0:0:
192,192,67980,1,0,0:0:0:0:
448,192,68075,1,0,0:0:0:0:
320,192,68172,1,0,0:0:0:0:
192,192,68172,1,0,0:0:0:0:
448,192,68268,1,0,0:0:0:0:
320,192,68365,1,0,0:0:0:0:
448,192,68365,1,0,0:0:0:0:
192,192,68460,1,0,0:0:0:0:
320,192,68556,1,0,0:0:0:0:
192,192,68556,1,0,0:0:0:0:
448,192,68653,1,0,0:0:0:0:
320,192,68749,1,0,0:0:0:0:
192,192,68749,1,0,0:0:0:0:
320,192,68845,1,0,0:0:0:0:
448,192,68941,1,0,0:0:0:0:
192,192,68941,1,0,0:0:0:0:
448,192,69037,1,0,0:0:0:0:
320,192,69134,1,0,0:0:0:0:
192,192,69134,1,0,0:0:0:0:
320,192,69230,1,0,0:0:0:0:
192,192,69325,1,0,0:0:0:0:
448,192,69325,1,0,0:0:0:0:
192,192,69422,1,0,0:0:0:0:
320,192,69518,1,0,0:0:0:0:
448,192,69518,1,0,0:0:0:0:
448,192,69615,1,0,0:0:0:0:
320,192,69710,1,0,0:0:0:0:
192,192,69710,1,0,0:0:0:0:
64,192,69806,1,0,0:0:0:0:
192,192,69903,1,0,0:0:0:0:
448,192,69903,1,0,0:0:0:0:
320,192,69999,1,0,0:0:0:0:
64,192,70095,128,0,70287:0:0:0:0:
448,192,70095,1,0,0:0:0:0:
448,192,70191,1,0,0:0:0:0:
192,192,70287,128,0,70480:0:0:0:0:
320,192,70287,1,0,0:0:0:0:
64,192,70384,1,0,0:0:0:0:
320,192,70480,128,0,70672:0:0:0:0:
448,192,70480,1,0,0:0:0:0:
448,192,70575,1,0,0:0:0:0:
64,192,70672,1,0,0:0:0:0:
192,192,70672,128,0,70865:0:0:0:0:
64,192,70768,1,0,0:0:0:0:
320,192,70865,128,0,71634:0:0:0:0:
448,192,70865,1,0,0:0:0:0:
192,192,70960,1,0,0:0:0:0:
64,192,71056,1,0,0:0:0:0:
448,192,71056,1,0,0:0:0:0:
192,192,71153,1,0,0:0:0:0:
448,192,71249,1,0,0:0:0:0:
64,192,71249,1,0,0:0:0:0:
192,192,71345,1,0,0:0:0:0:
448,192,71441,1,0,0:0:0:0:
64,192,71441,1,0,0:0:0:0:
192,192,71537,1,0,0:0:0:0:
192,192,71634,128,0,72403:0:0:0:0:
448,192,71634,1,0,0:0:0:0:
320,192,71730,1,0,0:0:0:0:
64,192,71825,1,0,0:0:0:0:
448,192,71825,1,0,0:0:0:0:
320,192,71922,1,0,0:0:0:0:
448,192,72018,1,0,0:0:0:0:
64,192,72018,1,0,0:0:0:0:
320,192,72115,1,0,0:0:0:0:
64,192,72210,1,0,0:0:0:0:
448,192,72210,1,0,0:0:0:0:
320,192,72306,1,0,0:0:0:0:
448,192,72403,128,0,73172:0:0:0:0:
64,192,72403,1,0,0:0:0:0:
320,192,72403,1,0,0:0:0:0:
192,192,72499,1,0,0:0:0:0:
64,192,72595,1,0,0:0:0:0:
320,192,72595,1,0,0:0:0:0:
192,192,72691,1,0,0:0:0:0:
64,192,72787,1,0,0:0:0:0:
320,192,72787,1,0,0:0:0:0:
192,192,72884,1,0,0:0:0:0:
64,192,72980,1,0,0:0:0:0:
320,192,72980,1,0,0:0:0:0:
192,192,73075,1,0,0:0:0:0:
64,192,73172,128,0,73941:0:0:0:0:
320,192,73172,1,0,0:0:0:0:
192,192,73268,1,0,0:0:0:0:
320,192,73365,1,0,0:0:0:0:
448,192,73365,1,0,0:0:0:0:
192,192,73460,1,0,0:0:0:0:
320,192,73556,1,0,0:0:0:0:
448,192,73556,1,0,0:0:0:0:
192,192,73653,1,0,0:0:0:0:
320,192,73749,1,0,0:0:0:0:
448,192,73749,1,0,0:0:0:0:
320,192,73845,1,0,0:0:0:0:
448,192,73845,1,0,0:0:0:0:
320,192,73941,128,0,75672:0:0:0:0:
448,192,73941,1,0,0:0:0:0:
192,192,74037,1,0,0:0:0:0:
64,192,74134,1,0,0:0:0:0:
192,192,74134,1,0,0:0:0:0:
448,192,74230,1,0,0:0:0:0:
64,192,74325,1,0,0:0:0:0:
448,192,74325,1,0,0:0:0:0:
192,192,74422,1,0,0:0:0:0:
64,192,74518,1,0,0:0:0:0:
192,192,74518,1,0,0:0:0:0:
448,192,74615,1,0,0:0:0:0:
448,192,74710,1,0,0:0:0:0:
192,192,74710,1,0,0:0:0:0:
192,192,74806,1,0,0:0:0:0:
64,192,74903,1,0,0:0:0:0:
448,192,74903,1,0,0:0:0:0:
448,192,74999,1,0,0:0:0:0:
192,192,75095,1,0,0:0:0:0:
64,192,75095,1,0,0:0:0:0:
64,192,75191,1,0,0:0:0:0:
192,192,75287,1,0,0:0:0:0:
448,192,75287,1,0,0:0:0:0:
448,192,75384,1,0,0:0:0:0:
192,192,75480,1,0,0:0:0:0:
64,192,75480,1,0,0:0:0:0:
64,192,75575,1,0,0:0:0:0:
192,192,75672,1,0,0:0:0:0:
448,192,75672,1,0,0:0:0:0:
320,192,75768,1,0,0:0:0:0:
192,192,75865,1,0,0:0:0:0:
64,192,75865,1,0,0:0:0:0:
448,192,75960,1,0,0:0:0:0:
192,192,76056,128,0,76153:0:0:0:0:
64,192,76056,1,0,0:0:0:0:
320,192,76153,128,0,76249:0:0:0:0:
448,192,76249,128,0,76345:0:0:0:0:
192,192,76249,1,0,0:0:0:0:
64,192,76345,128,0,76441:0:0:0:0:
320,192,76441,128,0,76537:0:0:0:0:
448,192,76441,1,0,0:0:0:0:
192,192,76537,128,0,76634:0:0:0:0:
448,192,76634,128,0,76730:0:0:0:0:
64,192,76634,1,0,0:0:0:0:
64,192,76730,128,0,76825:0:0:0:0:
320,192,76825,128,0,76922:0:0:0:0:
448,192,76825,1,0,0:0:0:0:
192,192,76922,128,0,77018:0:0:0:0:
64,192,77018,128,0,78749:0:0:0:0:
448,192,77018,1,0,0:0:0:0:
448,192,77115,1,0,0:0:0:0:
192,192,77210,1,0,0:0:0:0:
320,192,77210,1,0,0:0:0:0:
320,192,77306,1,0,0:0:0:0:
192,192,77403,1,0,0:0:0:0:
448,192,77403,1,0,0:0:0:0:
192,192,77499,1,0,0:0:0:0:
320,192,77595,1,0,0:0:0:0:
448,192,77595,1,0,0:0:0:0:
320,192,77691,1,0,0:0:0:0:
192,192,77787,1,0,0:0:0:0:
448,192,77787,1,0,0:0:0:0:
448,192,77884,1,0,0:0:0:0:
320,192,77980,1,0,0:0:0:0:
192,192,77980,1,0,0:0:0:0:
320,192,78075,1,0,0:0:0:0:
192,192,78172,1,0,0:0:0:0:
448,192,78172,1,0,0:0:0:0:
192,192,78268,1,0,0:0:0:0:
320,192,78365,1,0,0:0:0:0:
448,192,78365,1,0,0:0:0:0:
320,192,78460,1,0,0:0:0:0:
448,192,78556,1,0,0:0:0:0:
192,192,78556,1,0,0:0:0:0:
448,192,78653,1,0,0:0:0:0:
320,192,78749,1,0,0:0:0:0:
192,192,78749,1,0,0:0:0:0:
320,192,78845,1,0,0:0:0:0:
64,192,78941,1,0,0:0:0:0:
448,192,78941,1,0,0:0:0:0:
64,192,79037,1,0,0:0:0:0:
320,192,79134,1,0,0:0:0:0:
192,192,79134,1,0,0:0:0:0:
448,192,79230,1,0,0:0:0:0:
64,192,79325,1,0,0:0:0:0:
320,192,79325,1,0,0:0:0:0:
192,192,79422,1,0,0:0:0:0:
320,192,79518,128,0,79710:0:0:0:0:
64,192,79518,1,0,0:0:0:0:
448,192,79615,1,0,0:0:0:0:
192,192,79710,128,0,79903:0:0:0:0:
448,192,79710,1,0,0:0:0:0:
64,192,79806,1,0,0:0:0:0:
448,192,79903,128,0,80095:0:0:0:0:
320,192,79903,1,0,0:0:0:0:
64,192,79950,1,0,0:0:0:0:
192,192,79999,1,0,0:0:0:0:
320,192,80047,1,0,0:0:0:0:
192,192,80095,1,0,0:0:0:0:
64,192,80095,128,0,82018:0:0:0:0:
320,192,80191,1,0,0:0:0:0:
448,192,80287,1,0,0:0:0:0:
192,192,80287,1,0,0:0:0:0:
320,192,80384,1,0,0:0:0:0:
448,192,80480,1,0,0:0:0:0:
320,192,80480,1,0,0:0:0:0:
192,192,80575,1,0,0:0:0:0:
320,192,80672,1,0,0:0:0:0:
448,192,80672,1,0,0:0:0:0:
448,192,80768,1,0,0:0:0:0:
320,192,80865,1,0,0:0:0:0:
192,192,80865,1,0,0:0:0:0:
192,192,80960,1,0,0:0:0:0:
448,192,81056,1,0,0:0:0:0:
320,192,81056,1,0,0:0:0:0:
192,192,81153,1,0,0:0:0:0:
320,192,81249,1,0,0:0:0:0:
192,192,81249,1,0,0:0:0:0:
448,192,81345,1,0,0:0:0:0:
320,192,81441,1,0,0:0:0:0:
192,192,81441,1,0,0:0:0:0:
192,192,81537,1,0,0:0:0:0:
448,192,81634,1,0,0:0:0:0:
320,192,81634,1,0,0:0:0:0:
448,192,81730,1,0,0:0:0:0:
192,192,81825,1,0,0:0:0:0:
320,192,81825,1,0,0:0:0:0:
448,192,81922,1,0,0:0:0:0:
192,192,82018,1,0,0:0:0:0:
448,192,82018,1,0,0:0:0:0:
320,192,82115,1,0,0:0:0:0:
320,192,82210,128,0,82403:0:0:0:0:
448,192,82210,1,0,0:0:0:0:
64,192,82306,1,0,0:0:0:0:
192,192,82403,128,0,82595:0:0:0:0:
64,192,82403,1,0,0:0:0:0:
448,192,82499,1,0,0:0:0:0:
320,192,82595,128,0,82787:0:0:0:0:
448,192,82595,1,0,0:0:0:0:
192,192,82691,1,0,0:0:0:0:
64,192,82787,128,0,82980:0:0:0:0:
448,192,82787,1,0,0:0:0:0:
192,192,82884,1,0,0:0:0:0:
448,192,82980,128,0,83172:0:0:0:0:
320,192,82980,1,0,0:0:0:0:
192,192,83075,1,0,0:0:0:0:
64,192,83172,128,0,83941:0:0:0:0:
320,192,83172,1,0,0:0:0:0:
192,192,83268,1,0,0:0:0:0:
320,192,83365,1,0,0:0:0:0:
448,192,83365,1,0,0:0:0:0:
448,192,83460,1,0,0:0:0:0:
320,192,83556,1,0,0:0:0:0:
192,192,83556,1,0,0:0:0:0:
448,192,83653,1,0,0:0:0:0:
192,192,83749,1,0,0:0:0:0:
448,192,83749,1,0,0:0:0:0:
320,192,83845,1,0,0:0:0:0:
192,192,83941,128,0,84710:0:0:0:0:
448,192,83941,1,0,0:0:0:0:
320,192,84037,1,0,0:0:0:0:
64,192,84134,1,0,0:0:0:0:
448,192,84134,1,0,0:0:0:0:
320,192,84230,1,0,0:0:0:0:
448,192,84325,1,0,0:0:0:0:
64,192,84325,1,0,0:0:0:0:
320,192,84422,1,0,0:0:0:0:
64,192,84518,1,0,0:0:0:0:
320,192,84518,1,0,0:0:0:0:
448,192,84615,1,0,0:0:0:0:
320,192,84710,128,0,85480:0:0:0:0:
448,192,84710,1,0,0:0:0:0:
448,192,84806,1,0,0:0:0:0:
64,192,84903,1,0,0:0:0:0:
192,192,84903,1,0,0:0:0:0:
64,192,84999,1,0,0:0:0:0:
192,192,85095,1,0,0:0:0:0:
448,192,85095,1,0,0:0:0:0:
448,192,85191,1,0,0:0:0:0:
192,192,85287,1,0,0:0:0:0:
64,192,85287,1,0,0:0:0:0:
64,192,85384,1,0,0:0:0:0:
448,192,85480,128,0,86249:0:0:0:0:
192,192,85480,1,0,0:0:0:0:
320,192,85575,1,0,0:0:0:0:
192,192,85672,1,0,0:0:0:0:
320,192,85672,1,0,0:0:0:0:
64,192,85768,1,0,0:0:0:0:
64,192,85865,1,0,0:0:0:0:
192,192,85865,1,0,0:0:0:0:
320,192,85960,1,0,0:0:0:0:
320,192,86056,1,0,0:0:0:0:
192,192,86056,1,0,0:0:0:0:
64,192,86153,1,0,0:0:0:0:
192,192,86249,1,0,0:0:0:0:
64,192,86249,1,0,0:0:0:0:
320,192,86249,128,0,86634:0:0:0:0:
192,192,86634,128,0,87018:0:0:0:0:
448,192,87018,128,0,87403:0:0:0:0:
64,192,87403,128,0,87787:0:0:0:0:
320,192,87787,128,0,88172:0:0:0:0:
192,192,88172,128,0,88556:0:0:0:0:
448,192,88556,128,0,88941:0:0:0:0:
64,192,88941,128,0,89325:0:0:0:0:
448,192,89325,128,0,90287:0:0:0:0:
192,192,90287,128,0,90480:0:0:0:0:
320,192,90480,128,0,90672:0:0:0:0:
192,192,90672,128,0,90865:0:0:0:0:
448,192,90865,128,0,91441:0:0:0:0:
192,192,91441,128,0,91634:0:0:0:0:
320,192,91634,128,0,91825:0:0:0:0:
64,192,91634,128,0,92018:0:0:0:0:
448,192,92018,128,0,92403:0:0:0:0:
192,192,92018,128,0,92210:0:0:0:0:
64,192,92403,128,0,92787:0:0:0:0:
320,192,92787,128,0,93172:0:0:0:0:
192,192,93172,128,0,93556:0:0:0:0:
448,192,93556,128,0,93941:0:0:0:0:
64,192,93941,128,0,94325:0:0:0:0:
320,192,94325,128,0,94710:0:0:0:0:
192,192,94710,128,0,95095:0:0:0:0:
320,192,95095,128,0,95480:0:0:0:0:
64,192,95480,128,0,95865:0:0:0:0:
448,192,95865,128,0,96249:0:0:0:0:
64,192,96249,128,0,96634:0:0:0:0:
320,192,96634,128,0,97018:0:0:0:0:
448,192,97018,128,0,97403:0:0:0:0:
64,192,97403,128,0,97787:0:0:0:0:
320,192,97787,128,0,97980:0:0:0:0:
64,192,98556,128,0,98941:0:0:0:0:
448,192,98556,1,0,0:0:0:0:
320,192,98653,1,0,0:0:0:0:
448,192,98749,1,0,0:0:0:0:
192,192,98845,1,0,0:0:0:0:
320,192,98941,128,0,99325:0:0:0:0:
448,192,98941,1,0,0:0:0:0:
192,192,99037,1,0,0:0:0:0:
64,192,99134,1,0,0:0:0:0:
448,192,99230,1,0,0:0:0:0:
192,192,99325,128,0,99710:0:0:0:0:
64,192,99325,1,0,0:0:0:0:
320,192,99422,1,0,0:0:0:0:
448,192,99518,1,0,0:0:0:0:
64,192,99615,1,0,0:0:0:0:
448,192,99710,128,0,100095:0:0:0:0:
320,192,99710,1,0,0:0:0:0:
192,192,99806,1,0,0:0:0:0:
64,192,99903,1,0,0:0:0:0:
192,192,99999,1,0,0:0:0:0:
64,192,100095,128,0,100480:0:0:0:0:
320,192,100095,1,0,0:0:0:0:
448,192,100191,1,0,0:0:0:0:
320,192,100287,1,0,0:0:0:0:
192,192,100384,1,0,0:0:0:0:
320,192,100480,128,0,100865:0:0:0:0:
448,192,100480,1,0,0:0:0:0:
64,192,100575,1,0,0:0:0:0:
192,192,100672,1,0,0:0:0:0:
448,192,100768,1,0,0:0:0:0:
192,192,100865,128,0,101249:0:0:0:0:
64,192,100865,1,0,0:0:0:0:
448,192,100960,1,0,0:0:0:0:
320,192,101056,1,0,0:0:0:0:
64,192,101153,1,0,0:0:0:0:
448,192,101249,128,0,101634:0:0:0:0:
320,192,101249,1,0,0:0:0:0:
64,192,101345,1,0,0:0:0:0:
320,192,101441,1,0,0:0:0:0:
192,192,101537,1,0,0:0:0:0:
64,192,101537,1,0,0:0:0:0:
64,192,101634,128,0,102595:0:0:0:0:
320,192,101634,1,0,0:0:0:0:
448,192,101730,1,0,0:0:0:0:
320,192,101825,1,0,0:0:0:0:
192,192,101922,1,0,0:0:0:0:
448,192,102018,1,0,0:0:0:0:
192,192,102115,1,0,0:0:0:0:
320,192,102210,1,0,0:0:0:0:
192,192,102306,1,0,0:0:0:0:
448,192,102403,1,0,0:0:0:0:
320,192,102499,1,0,0:0:0:0:
192,192,102595,1,0,0:0:0:0:
448,192,102595,128,0,102787:0:0:0:0:
320,192,102691,1,0,0:0:0:0:
192,192,102787,1,0,0:0:0:0:
64,192,102787,128,0,102980:0:0:0:0:
448,192,102884,1,0,0:0:0:0:
320,192,102980,1,0,0:0:0:0:
192,192,102980,128,0,103172:0:0:0:0:
448,192,103075,1,0,0:0:0:0:
64,192,103172,1,0,0:0:0:0:
320,192,103172,128,0,103749:0:0:0:0:
448,192,103268,1,0,0:0:0:0:
192,192,103365,1,0,0:0:0:0:
64,192,103365,1,0,0:0:0:0:
448,192,103460,1,0,0:0:0:0:
64,192,103556,1,0,0:0:0:0:
192,192,103556,1,0,0:0:0:0:
448,192,103653,1,0,0:0:0:0:
64,192,103749,128,0,103941:0:0:0:0:
192,192,103749,1,0,0:0:0:0:
320,192,103845,1,0,0:0:0:0:
448,192,103941,128,0,104325:0:0:0:0:
192,192,103941,1,0,0:0:0:0:
64,192,104037,1,0,0:0:0:0:
192,192,104134,1,0,0:0:0:0:
64,192,104230,1,0,0:0:0:0:
192,192,104325,128,0,104710:0:0:0:0:
320,192,104325,1,0,0:0:0:0:
64,192,104422,1,0,0:0:0:0:
320,192,104518,1,0,0:0:0:0:
448,192,104518,1,0,0:0:0:0:
448,192,104615,1,0,0:0:0:0:
320,192,104615,1,0,0:0:0:0:
320,192,104710,1,0,0:0:0:0:
64,192,104710,1,0,0:0:0:0:
448,192,104710,128,0,105095:0:0:0:0:
192,192,104806,1,0,0:0:0:0:
64,192,104903,1,0,0:0:0:0:
320,192,104999,1,0,0:0:0:0:
192,192,105095,128,0,105480:0:0:0:0:
64,192,105095,1,0,0:0:0:0:
448,192,105191,1,0,0:0:0:0:
320,192,105287,1,0,0:0:0:0:
64,192,105384,1,0,0:0:0:0:
320,192,105480,128,0,105865:0:0:0:0:
448,192,105480,1,0,0:0:0:0:
64,192,105575,1,0,0:0:0:0:
192,192,105672,1,0,0:0:0:0:
448,192,105768,1,0,0:0:0:0:
64,192,105865,128,0,106249:0:0:0:0:
192,192,105865,1,0,0:0:0:0:
448,192,105960,1,0,0:0:0:0:
192,192,106056,1,0,0:0:0:0:
320,192,106153,1,0,0:0:0:0:
448,192,106249,128,0,106634:0:0:0:0:
192,192,106249,1,0,0:0:0:0:
320,192,106345,1,0,0:0:0:0:
192,192,106441,1,0,0:0:0:0:
64,192,106537,1,0,0:0:0:0:
192,192,106634,128,0,107018:0:0:0:0:
320,192,106634,1,0,0:0:0:0:
64,192,106730,1,0,0:0:0:0:
448,192,106825,1,0,0:0:0:0:
64,192,106922,1,0,0:0:0:0:
320,192,107018,128,0,107403:0:0:0:0:
448,192,107018,1,0,0:0:0:0:
64,192,107115,1,0,0:0:0:0:
192,192,107210,1,0,0:0:0:0:
64,192,107306,1,0,0:0:0:0:
448,192,107403,128,0,107787:0:0:0:0:
192,192,107403,1,0,0:0:0:0:
320,192,107499,1,0,0:0:0:0:
64,192,107595,1,0,0:0:0:0:
320,192,107691,1,0,0:0:0:0:
192,192,107691,1,0,0:0:0:0:
64,192,107787,128,0,108172:0:0:0:0:
320,192,107787,1,0,0:0:0:0:
448,192,107884,1,0,0:0:0:0:
192,192,107980,1,0,0:0:0:0:
448,192,108075,1,0,0:0:0:0:
320,192,108172,128,0,108556:0:0:0:0:
192,192,108172,1,0,0:0:0:0:
448,192,108268,1,0,0:0:0:0:
64,192,108365,1,0,0:0:0:0:
448,192,108460,1,0,0:0:0:0:
192,192,108556,128,0,108941:0:0:0:0:
64,192,108556,1,0,0:0:0:0:
448,192,108653,1,0,0:0:0:0:
320,192,108749,1,0,0:0:0:0:
64,192,108845,1,0,0:0:0:0:
320,192,108941,128,0,109325:0:0:0:0:
448,192,108941,1,0,0:0:0:0:
64,192,109037,1,0,0:0:0:0:
192,192,109134,1,0,0:0:0:0:
64,192,109230,1,0,0:0:0:0:
448,192,109325,128,0,109710:0:0:0:0:
192,192,109325,1,0,0:0:0:0:
320,192,109422,1,0,0:0:0:0:
192,192,109518,1,0,0:0:0:0:
320,192,109615,1,0,0:0:0:0:
64,192,109710,128,0,110095:0:0:0:0:
192,192,109710,1,0,0:0:0:0:
448,192,109806,1,0,0:0:0:0:
192,192,109903,1,0,0:0:0:0:
320,192,109999,1,0,0:0:0:0:
448,192,110095,128,0,110865:0:0:0:0:
192,192,110095,1,0,0:0:0:0:
320,192,110191,1,0,0:0:0:0:
192,192,110240,1,0,0:0:0:0:
64,192,110287,1,0,0:0:0:0:
320,192,110384,1,0,0:0:0:0:
64,192,110480,1,0,0:0:0:0:
320,192,110575,1,0,0:0:0:0:
64,192,110672,1,0,0:0:0:0:
320,192,110768,1,0,0:0:0:0:
64,192,110865,1,0,0:0:0:0:
192,192,110865,1,0,0:0:0:0:
64,192,110960,1,0,0:0:0:0:
320,192,111056,1,0,0:0:0:0:
448,192,111056,1,0,0:0:0:0:
448,192,111153,1,0,0:0:0:0:
64,192,111249,1,0,0:0:0:0:
192,192,111249,128,0,111634:0:0:0:0:
320,192,111345,1,0,0:0:0:0:
448,192,111441,1,0,0:0:0:0:
320,192,111441,1,0,0:0:0:0:
64,192,111537,1,0,0:0:0:0:
64,192,111634,1,0,0:0:0:0:
448,192,111634,128,0,112018:0:0:0:0:
320,192,111730,1,0,0:0:0:0:
64,192,111825,1,0,0:0:0:0:
192,192,111825,1,0,0:0:0:0:
320,192,111922,1,0,0:0:0:0:
320,192,112018,1,0,0:0:0:0:
64,192,112018,128,0,112403:0:0:0:0:
192,192,112115,1,0,0:0:0:0:
448,192,112210,1,0,0:0:0:0:
320,192,112210,1,0,0:0:0:0:
448,192,112306,1,0,0:0:0:0:
192,192,112403,1,0,0:0:0:0:
320,192,112403,128,0,112787:0:0:0:0:
64,192,112499,1,0,0:0:0:0:
64,192,112595,1,0,0:0:0:0:
448,192,112595,1,0,0:0:0:0:
192,192,112691,1,0,0:0:0:0:
448,192,112787,1,0,0:0:0:0:
64,192,112787,128,0,113172:0:0:0:0:
448,192,112884,1,0,0:0:0:0:
192,192,112980,1,0,0:0:0:0:
320,192,112980,1,0,0:0:0:0:
192,192,113075,1,0,0:0:0:0:
320,192,113172,128,0,113556:0:0:0:0:
448,192,113172,1,0,0:0:0:0:
448,192,113268,1,0,0:0:0:0:
64,192,113365,1,0,0:0:0:0:
192,192,113365,1,0,0:0:0:0:
64,192,113460,1,0,0:0:0:0:
448,192,113556,128,0,113941:0:0:0:0:
192,192,113556,1,0,0:0:0:0:
320,192,113653,1,0,0:0:0:0:
192,192,113749,1,0,0:0:0:0:
64,192,113749,1,0,0:0:0:0:
192,192,113845,1,0,0:0:0:0:
64,192,113845,1,0,0:0:0:0:
64,192,113941,1,0,0:0:0:0:
192,192,113941,1,0,0:0:0:0:
320,192,113941,128,0,114134:0:0:0:0:
64,192,114037,1,0,0:0:0:0:
448,192,114134,1,0,0:0:0:0:
192,192,114134,128,0,114325:0:0:0:0:
448,192,114230,1,0,0:0:0:0:
320,192,114325,128,0,114710:0:0:0:0:
64,192,114325,1,0,0:0:0:0:
64,192,114422,1,0,0:0:0:0:
192,192,114518,1,0,0:0:0:0:
448,192,114518,1,0,0:0:0:0:
448,192,114615,1,0,0:0:0:0:
192,192,114710,1,0,0:0:0:0:
64,192,114710,128,0,115095:0:0:0:0:
192,192,114806,1,0,0:0:0:0:
320,192,114903,1,0,0:0:0:0:
448,192,114903,1,0,0:0:0:0:
448,192,114999,1,0,0:0:0:0:
320,192,115095,1,0,0:0:0:0:
192,192,115095,128,0,115480:0:0:0:0:
320,192,115191,1,0,0:0:0:0:
64,192,115287,1,0,0:0:0:0:
448,192,115287,1,0,0:0:0:0:
64,192,115384,1,0,0:0:0:0:
320,192,115480,128,0,115865:0:0:0:0:
448,192,115480,1,0,0:0:0:0:
448,192,115575,1,0,0:0:0:0:
192,192,115672,1,0,0:0:0:0:
64,192,115672,1,0,0:0:0:0:
64,192,115768,1,0,0:0:0:0:
448,192,115865,1,0,0:0:0:0:
192,192,115865,128,0,116249:0:0:0:0:
448,192,115960,1,0,0:0:0:0:
320,192,116056,1,0,0:0:0:0:
64,192,116056,1,0,0:0:0:0:
320,192,116153,1,0,0:0:0:0:
64,192,116249,128,0,117018:0:0:0:0:
448,192,116249,1,0,0:0:0:0:
448,192,116345,1,0,0:0:0:0:
192,192,116441,1,0,0:0:0:0:
320,192,116441,1,0,0:0:0:0:
192,192,116537,1,0,0:0:0:0:
320,192,116634,1,0,0:0:0:0:
448,192,116634,1,0,0:0:0:0:
192,192,116730,1,0,0:0:0:0:
320,192,116825,1,0,0:0:0:0:
448,192,116825,1,0,0:0:0:0:
320,192,116922,1,0,0:0:0:0:
448,192,116922,1,0,0:0:0:0:
320,192,117018,1,0,0:0:0:0:
192,192,117018,1,0,0:0:0:0:
448,192,117018,1,0,0:0:0:0:
192,192,117115,1,0,0:0:0:0:
64,192,117210,1,0,0:0:0:0:
448,192,117210,1,0,0:0:0:0:
448,192,117306,1,0,0:0:0:0:
64,192,117403,1,0,0:0:0:0:
192,192,117403,128,0,117787:0:0:0:0:
64,192,117499,1,0,0:0:0:0:
448,192,117595,1,0,0:0:0:0:
320,192,117595,1,0,0:0:0:0:
448,192,117691,1,0,0:0:0:0:
320,192,117787,1,0,0:0:0:0:
64,192,117787,128,0,118172:0:0:0:0:
320,192,117884,1,0,0:0:0:0:
448,192,117980,1,0,0:0:0:0:
192,192,117980,1,0,0:0:0:0:
448,192,118075,1,0,0:0:0:0:
320,192,118172,1,0,0:0:0:0:
192,192,118172,128,0,118556:0:0:0:0:
320,192,118268,1,0,0:0:0:0:
64,192,118365,1,0,0:0:0:0:
448,192,118365,1,0,0:0:0:0:
448,192,118460,1,0,0:0:0:0:
64,192,118556,1,0,0:0:0:0:
320,192,118556,128,0,118941:0:0:0:0:
64,192,118653,1,0,0:0:0:0:
448,192,118749,1,0,0:0:0:0:
192,192,118749,1,0,0:0:0:0:
192,192,118845,1,0,0:0:0:0:
448,192,118941,128,0,119325:0:0:0:0:
64,192,118941,1,0,0:0:0:0:
320,192,119037,1,0,0:0:0:0:
64,192,119134,1,0,0:0:0:0:
192,192,119134,1,0,0:0:0:0:
64,192,119230,1,0,0:0:0:0:
320,192,119325,1,0,0:0:0:0:
192,192,119325,128,0,119710:0:0:0:0:
320,192,119422,1,0,0:0:0:0:
64,192,119518,1,0,0:0:0:0:
448,192,119518,1,0,0:0:0:0:
448,192,119615,1,0,0:0:0:0:
320,192,119710,128,0,120095:0:0:0:0:
64,192,119806,1,0,0:0:0:0:
448,192,119806,1,0,0:0:0:0:
64,192,119903,1,0,0:0:0:0:
192,192,119999,1,0,0:0:0:0:
448,192,119999,1,0,0:0:0:0:
448,192,120095,1,0,0:0:0:0:
64,192,120095,128,0,120575:0:0:0:0:
192,192,120191,1,0,0:0:0:0:
320,192,120191,1,0,0:0:0:0:
192,192,120287,1,0,0:0:0:0:
448,192,120384,1,0,0:0:0:0:
320,192,120384,1,0,0:0:0:0:
448,192,120480,1,0,0:0:0:0:
192,192,120575,1,0,0:0:0:0:
64,192,120672,1,0,0:0:0:0:
448,192,120672,128,0,120768:0:0:0:0:
64,192,120768,128,0,120865:0:0:0:0:
320,192,120865,128,0,122018:0:0:0:0:
448,192,120865,1,0,0:0:0:0:
192,192,120960,1,0,0:0:0:0:
64,192,121056,1,0,0:0:0:0:
448,192,121056,1,0,0:0:0:0:
448,192,121153,1,0,0:0:0:0:
192,192,121249,1,0,0:0:0:0:
64,192,121249,1,0,0:0:0:0:
192,192,121345,1,0,0:0:0:0:
64,192,121441,1,0,0:0:0:0:
448,192,121441,1,0,0:0:0:0:
448,192,121537,1,0,0:0:0:0:
192,192,121634,1,0,0:0:0:0:
64,192,121634,1,0,0:0:0:0:
64,192,121730,1,0,0:0:0:0:
192,192,121825,1,0,0:0:0:0:
448,192,121825,1,0,0:0:0:0:
448,192,121922,1,0,0:0:0:0:
64,192,122018,1,0,0:0:0:0:
192,192,122018,1,0,0:0:0:0:
64,192,122115,1,0,0:0:0:0:
320,192,122210,5,0,0:0:0:0:
448,192,122210,1,0,0:0:0:0:
448,192,122306,1,0,0:0:0:0:
320,192,122403,1,0,0:0:0:0:
64,192,122403,128,0,122787:0:0:0:0:
192,192,122499,1,0,0:0:0:0:
448,192,122595,1,0,0:0:0:0:
320,192,122595,1,0,0:0:0:0:
448,192,122691,1,0,0:0:0:0:
192,192,122787,128,0,123172:0:0:0:0:
320,192,122787,1,0,0:0:0:0:
64,192,122884,1,0,0:0:0:0:
448,192,122980,1,0,0:0:0:0:
320,192,122980,1,0,0:0:0:0:
448,192,123075,1,0,0:0:0:0:
320,192,123075,1,0,0:0:0:0:
64,192,123075,1,0,0:0:0:0:
320,192,123172,1,0,0:0:0:0:
64,192,123172,1,0,0:0:0:0:
448,192,123172,128,0,123749:0:0:0:0:
320,192,123268,1,0,0:0:0:0:
64,192,123365,1,0,0:0:0:0:
192,192,123365,1,0,0:0:0:0:
192,192,123460,1,0,0:0:0:0:
64,192,123556,1,0,0:0:0:0:
320,192,123556,1,0,0:0:0:0:
320,192,123653,1,0,0:0:0:0:
64,192,123749,1,0,0:0:0:0:
192,192,123749,128,0,124325:0:0:0:0:
64,192,123845,1,0,0:0:0:0:
448,192,123941,1,0,0:0:0:0:
320,192,123941,1,0,0:0:0:0:
320,192,124037,1,0,0:0:0:0:
448,192,124134,1,0,0:0:0:0:
64,192,124134,1,0,0:0:0:0:
448,192,124230,1,0,0:0:0:0:
64,192,124325,1,0,0:0:0:0:
320,192,124325,128,0,124710:0:0:0:0:
64,192,124422,1,0,0:0:0:0:
448,192,124518,1,0,0:0:0:0:
192,192,124518,1,0,0:0:0:0:
192,192,124615,1,0,0:0:0:0:
448,192,124710,128,0,125480:0:0:0:0:
64,192,124710,1,0,0:0:0:0:
320,192,124806,1,0,0:0:0:0:
64,192,124903,1,0,0:0:0:0:
192,192,124903,1,0,0:0:0:0:
64,192,124999,1,0,0:0:0:0:
320,192,125095,1,0,0:0:0:0:
192,192,125095,1,0,0:0:0:0:
320,192,125191,1,0,0:0:0:0:
64,192,125287,1,0,0:0:0:0:
192,192,125287,1,0,0:0:0:0:
64,192,125384,1,0,0:0:0:0:
320,192,125480,1,0,0:0:0:0:
192,192,125480,128,0,126249:0:0:0:0:
320,192,125575,1,0,0:0:0:0:
64,192,125672,1,0,0:0:0:0:
448,192,125672,1,0,0:0:0:0:
64,192,125768,1,0,0:0:0:0:
320,192,125865,1,0,0:0:0:0:
448,192,125865,1,0,0:0:0:0:
320,192,125960,1,0,0:0:0:0:
64,192,126056,1,0,0:0:0:0:
448,192,126056,1,0,0:0:0:0:
448,192,126153,1,0,0:0:0:0:
64,192,126249,128,0,126825:0:0:0:0:
320,192,126249,1,0,0:0:0:0:
320,192,126345,1,0,0:0:0:0:
192,192,126441,1,0,0:0:0:0:
448,192,126441,1,0,0:0:0:0:
192,192,126537,1,0,0:0:0:0:
320,192,126634,1,0,0:0:0:0:
448,192,126634,1,0,0:0:0:0:
320,192,126730,1,0,0:0:0:0:
448,192,126825,128,0,127018:0:0:0:0:
192,192,126825,1,0,0:0:0:0:
192,192,126922,1,0,0:0:0:0:
320,192,127018,128,0,127403:0:0:0:0:
64,192,127018,1,0,0:0:0:0:
64,192,127115,1,0,0:0:0:0:
448,192,127210,1,0,0:0:0:0:
192,192,127210,1,0,0:0:0:0:
448,192,127306,1,0,0:0:0:0:
192,192,127403,128,0,127787:0:0:0:0:
64,192,127403,1,0,0:0:0:0:
320,192,127499,1,0,0:0:0:0:
64,192,127595,1,0,0:0:0:0:
448,192,127595,1,0,0:0:0:0:
64,192,127691,1,0,0:0:0:0:
448,192,127787,128,0,128556:0:0:0:0:
320,192,127787,1,0,0:0:0:0:
320,192,127884,1,0,0:0:0:0:
64,192,127980,1,0,0:0:0:0:
192,192,127980,1,0,0:0:0:0:
64,192,128075,1,0,0:0:0:0:
192,192,128172,1,0,0:0:0:0:
320,192,128172,1,0,0:0:0:0:
192,192,128268,1,0,0:0:0:0:
64,192,128365,1,0,0:0:0:0:
320,192,128365,1,0,0:0:0:0:
320,192,128460,1,0,0:0:0:0:
192,192,128556,128,0,128941:0:0:0:0:
64,192,128556,1,0,0:0:0:0:
64,192,128653,1,0,0:0:0:0:
448,192,128749,1,0,0:0:0:0:
320,192,128749,1,0,0:0:0:0:
448,192,128845,1,0,0:0:0:0:
320,192,128941,128,0,129325:0:0:0:0:
64,192,128941,1,0,0:0:0:0:
64,192,129037,1,0,0:0:0:0:
448,192,129134,1,0,0:0:0:0:
192,192,129181,1,0,0:0:0:0:
64,192,129230,1,0,0:0:0:0:
192,192,129278,1,0,0:0:0:0:
64,192,129325,128,0,129903:0:0:0:0:
448,192,129325,1,0,0:0:0:0:
448,192,129422,1,0,0:0:0:0:
320,192,129518,1,0,0:0:0:0:
192,192,129518,1,0,0:0:0:0:
320,192,129615,1,0,0:0:0:0:
192,192,129710,1,0,0:0:0:0:
448,192,129710,1,0,0:0:0:0:
448,192,129806,1,0,0:0:0:0:
320,192,129903,128,0,130095:0:0:0:0:
192,192,129903,1,0,0:0:0:0:
64,192,129999,1,0,0:0:0:0:
192,192,130095,128,0,130480:0:0:0:0:
448,192,130095,1,0,0:0:0:0:
448,192,130191,1,0,0:0:0:0:
64,192,130287,1,0,0:0:0:0:
320,192,130287,1,0,0:0:0:0:
64,192,130384,1,0,0:0:0:0:
320,192,130480,128,0,130865:0:0:0:0:
448,192,130480,1,0,0:0:0:0:
448,192,130575,1,0,0:0:0:0:
64,192,130672,1,0,0:0:0:0:
192,192,130672,1,0,0:0:0:0:
192,192,130768,1,0,0:0:0:0:
64,192,130865,128,0,131249:0:0:0:0:
448,192,130865,1,0,0:0:0:0:
448,192,130960,1,0,0:0:0:0:
320,192,131056,1,0,0:0:0:0:
192,192,131056,1,0,0:0:0:0:
320,192,131153,1,0,0:0:0:0:
192,192,131249,1,0,0:0:0:0:
448,192,131249,128,0,131634:0:0:0:0:
192,192,131345,1,0,0:0:0:0:
64,192,131441,1,0,0:0:0:0:
320,192,131441,1,0,0:0:0:0:
64,192,131537,1,0,0:0:0:0:
192,192,131634,128,0,132018:0:0:0:0:
320,192,131634,1,0,0:0:0:0:
320,192,131730,1,0,0:0:0:0:
448,192,131825,1,0,0:0:0:0:
64,192,131825,1,0,0:0:0:0:
448,192,131922,1,0,0:0:0:0:
320,192,132018,128,0,132403:0:0:0:0:
64,192,132018,1,0,0:0:0:0:
64,192,132115,1,0,0:0:0:0:
192,192,132210,1,0,0:0:0:0:
448,192,132210,1,0,0:0:0:0:
192,192,132306,1,0,0:0:0:0:
64,192,132403,128,0,132980:0:0:0:0:
448,192,132403,1,0,0:0:0:0:
448,192,132499,1,0,0:0:0:0:
320,192,132595,1,0,0:0:0:0:
192,192,132595,1,0,0:0:0:0:
320,192,132691,1,0,0:0:0:0:
192,192,132787,1,0,0:0:0:0:
448,192,132787,1,0,0:0:0:0:
448,192,132884,1,0,0:0:0:0:
320,192,132980,128,0,133172:0:0:0:0:
192,192,132980,1,0,0:0:0:0:
192,192,133075,1,0,0:0:0:0:
64,192,133172,128,0,133556:0:0:0:0:
448,192,133172,1,0,0:0:0:0:
448,192,133268,1,0,0:0:0:0:
192,192,133365,1,0,0:0:0:0:
320,192,133365,1,0,0:0:0:0:
320,192,133460,1,0,0:0:0:0:
192,192,133556,128,0,133941:0:0:0:0:
448,192,133556,1,0,0:0:0:0:
448,192,133653,1,0,0:0:0:0:
64,192,133749,1,0,0:0:0:0:
320,192,133749,1,0,0:0:0:0:
64,192,133845,1,0,0:0:0:0:
320,192,133941,128,0,134710:0:0:0:0:
448,192,133941,1,0,0:0:0:0:
192,192,134037,1,0,0:0:0:0:
64,192,134134,1,0,0:0:0:0:
448,192,134134,1,0,0:0:0:0:
64,192,134230,1,0,0:0:0:0:
192,192,134325,1,0,0:0:0:0:
448,192,134325,1,0,0:0:0:0:
192,192,134422,1,0,0:0:0:0:
64,192,134518,1,0,0:0:0:0:
448,192,134518,1,0,0:0:0:0:
64,192,134615,1,0,0:0:0:0:
448,192,134710,128,0,135480:0:0:0:0:
192,192,134710,1,0,0:0:0:0:
192,192,134806,1,0,0:0:0:0:
320,192,134903,1,0,0:0:0:0:
64,192,134903,1,0,0:0:0:0:
320,192,134999,1,0,0:0:0:0:
64,192,135095,1,0,0:0:0:0:
192,192,135095,1,0,0:0:0:0:
64,192,135191,1,0,0:0:0:0:
320,192,135287,1,0,0:0:0:0:
192,192,135335,1,0,0:0:0:0:
320,192,135384,1,0,0:0:0:0:
192,192,135431,1,0,0:0:0:0:
64,192,135480,128,0,137403:0:0:0:0:
320,192,135480,1,0,0:0:0:0:
320,192,135768,1,0,0:0:0:0:
192,192,135865,1,0,0:0:0:0:
448,192,135865,1,0,0:0:0:0:
448,192,136153,1,0,0:0:0:0:
192,192,136249,1,0,0:0:0:0:
320,192,136249,1,0,0:0:0:0:
320,192,136441,1,0,0:0:0:0:
448,192,136537,1,0,0:0:0:0:
192,192,136537,1,0,0:0:0:0:
448,192,136922,1,0,0:0:0:0:
192,192,137018,1,0,0:0:0:0:
320,192,137018,1,0,0:0:0:0:
320,192,137210,1,0,0:0:0:0:
192,192,137306,1,0,0:0:0:0:
448,192,137306,1,0,0:0:0:0:
320,192,137499,1,0,0:0:0:0:
192,192,137595,1,0,0:0:0:0:
448,192,137595,1,0,0:0:0:0:
192,192,137787,1,0,0:0:0:0:
64,192,137884,1,0,0:0:0:0:
320,192,137884,1,0,0:0:0:0:
320,192,138075,1,0,0:0:0:0:
192,192,138172,1,0,0:0:0:0:
448,192,138172,1,0,0:0:0:0:
192,192,138365,1,0,0:0:0:0:
64,192,138365,1,0,0:0:0:0:
448,192,138460,1,0,0:0:0:0:
64,192,138556,1,0,0:0:0:0:
192,192,138556,1,0,0:0:0:0:
448,192,138749,1,0,0:0:0:0:
192,192,138845,1,0,0:0:0:0:
64,192,138845,1,0,0:0:0:0:
448,192,139037,1,0,0:0:0:0:
448,192,139134,1,0,0:0:0:0:
64,192,139230,1,0,0:0:0:0:
320,192,139325,1,0,0:0:0:0:
448,192,139325,1,0,0:0:0:0:
64,192,139518,1,0,0:0:0:0:
320,192,139615,1,0,0:0:0:0:
448,192,139615,1,0,0:0:0:0:
64,192,139999,1,0,0:0:0:0:
448,192,140095,1,0,0:0:0:0:
320,192,140095,1,0,0:0:0:0:
192,192,140287,1,0,0:0:0:0:
448,192,140384,1,0,0:0:0:0:
64,192,140384,1,0,0:0:0:0:
320,192,140575,1,0,0:0:0:0:
448,192,140672,1,0,0:0:0:0:
64,192,140672,1,0,0:0:0:0:
192,192,140865,1,0,0:0:0:0:
448,192,140960,1,0,0:0:0:0:
320,192,140960,1,0,0:0:0:0:
64,192,141153,1,0,0:0:0:0:
448,192,141249,1,0,0:0:0:0:
192,192,141249,1,0,0:0:0:0:
448,192,141441,1,0,0:0:0:0:
320,192,141441,1,0,0:0:0:0:
64,192,141537,1,0,0:0:0:0:
448,192,141537,1,0,0:0:0:0:
192,192,141634,1,0,0:0:0:0:
320,192,141634,1,0,0:0:0:0:
64,192,141730,1,0,0:0:0:0:
320,192,141825,1,0,0:0:0:0:
64,192,141922,1,0,0:0:0:0:
192,192,141922,1,0,0:0:0:0:
448,192,142018,1,0,0:0:0:0:
64,192,142115,1,0,0:0:0:0:
320,192,142210,1,0,0:0:0:0:
192,192,142306,1,0,0:0:0:0:
64,192,142403,1,0,0:0:0:0:
320,192,142403,1,0,0:0:0:0:
448,192,142499,1,0,0:0:0:0:
192,192,142595,1,0,0:0:0:0:
320,192,142691,1,0,0:0:0:0:
448,192,142691,1,0,0:0:0:0:
64,192,142787,1,0,0:0:0:0:
320,192,142884,1,0,0:0:0:0:
192,192,142980,1,0,0:0:0:0:
64,192,143075,1,0,0:0:0:0:
320,192,143172,1,0,0:0:0:0:
448,192,143172,1,0,0:0:0:0:
64,192,143268,1,0,0:0:0:0:
320,192,143365,1,0,0:0:0:0:
192,192,143460,1,0,0:0:0:0:
64,192,143460,1,0,0:0:0:0:
448,192,143556,1,0,0:0:0:0:
192,192,143653,1,0,0:0:0:0:
320,192,143749,1,0,0:0:0:0:
64,192,143749,1,0,0:0:0:0:
448,192,143845,1,0,0:0:0:0:
64,192,143941,1,0,0:0:0:0:
448,192,144037,1,0,0:0:0:0:
320,192,144037,1,0,0:0:0:0:
64,192,144134,1,0,0:0:0:0:
192,192,144230,1,0,0:0:0:0:
320,192,144325,1,0,0:0:0:0:
448,192,144325,1,0,0:0:0:0:
64,192,144422,1,0,0:0:0:0:
320,192,144518,1,0,0:0:0:0:
192,192,144518,1,0,0:0:0:0:
448,192,144615,1,0,0:0:0:0:
320,192,144662,1,0,0:0:0:0:
192,192,144710,1,0,0:0:0:0:
64,192,144710,1,0,0:0:0:0:
448,192,144806,1,0,0:0:0:0:
64,192,144903,1,0,0:0:0:0:
320,192,144999,1,0,0:0:0:0:
64,192,145095,1,0,0:0:0:0:
448,192,145191,1,0,0:0:0:0:
192,192,145287,1,0,0:0:0:0:
320,192,145384,1,0,0:0:0:0:
64,192,145480,1,0,0:0:0:0:
448,192,145575,1,0,0:0:0:0:
192,192,145672,1,0,0:0:0:0:
320,192,145768,1,0,0:0:0:0:
64,192,145865,1,0,0:0:0:0:
448,192,145960,1,0,0:0:0:0:
192,192,146056,1,0,0:0:0:0:
320,192,146153,1,0,0:0:0:0:
448,192,146249,1,0,0:0:0:0:
64,192,146345,1,0,0:0:0:0:
320,192,146441,1,0,0:0:0:0:
192,192,146537,1,0,0:0:0:0:
64,192,146634,1,0,0:0:0:0:
448,192,146730,1,0,0:0:0:0:
192,192,146825,5,0,0:0:0:0:
320,192,146922,1,0,0:0:0:0:
64,192,147018,1,0,0:0:0:0:
448,192,147115,1,0,0:0:0:0:
64,192,147210,1,0,0:0:0:0:
192,192,147306,1,0,0:0:0:0:
448,192,147403,128,0,147691:0:0:0:0:
64,192,147499,1,0,0:0:0:0:
320,192,147595,128,0,147691:0:0:0:0:
192,192,147691,1,0,0:0:0:0:
320,192,147740,1,0,0:0:0:0:
64,192,147787,128,0,149518:0:0:0:0:
448,192,147787,1,0,0:0:0:0:
192,192,147884,1,0,0:0:0:0:
320,192,147980,1,0,0:0:0:0:
448,192,147980,1,0,0:0:0:0:
448,192,148075,1,0,0:0:0:0:
320,192,148172,1,0,0:0:0:0:
192,192,148172,1,0,0:0:0:0:
320,192,148268,1,0,0:0:0:0:
192,192,148365,1,0,0:0:0:0:
448,192,148365,1,0,0:0:0:0:
320,192,148460,1,0,0:0:0:0:
448,192,148556,1,0,0:0:0:0:
192,192,148556,1,0,0:0:0:0:
320,192,148653,1,0,0:0:0:0:
320,192,148749,1,0,0:0:0:0:
448,192,148749,1,0,0:0:0:0:
192,192,148845,1,0,0:0:0:0:
448,192,148941,1,0,0:0:0:0:
320,192,148941,1,0,0:0:0:0:
192,192,149037,1,0,0:0:0:0:
448,192,149134,1,0,0:0:0:0:
320,192,149134,1,0,0:0:0:0:
448,192,149230,1,0,0:0:0:0:
320,192,149325,1,0,0:0:0:0:
192,192,149325,1,0,0:0:0:0:
320,192,149422,1,0,0:0:0:0:
192,192,149518,1,0,0:0:0:0:
448,192,149518,1,0,0:0:0:0:
320,192,149615,1,0,0:0:0:0:
192,192,149710,1,0,0:0:0:0:
64,192,149710,1,0,0:0:0:0:
448,192,149806,1,0,0:0:0:0:
320,192,149903,128,0,149999:0:0:0:0:
64,192,149903,1,0,0:0:0:0:
192,192,149999,128,0,150095:0:0:0:0:
64,192,150095,128,0,150287:0:0:0:0:
448,192,150095,1,0,0:0:0:0:
320,192,150191,1,0,0:0:0:0:
448,192,150287,128,0,150480:0:0:0:0:
320,192,150287,1,0,0:0:0:0:
192,192,150384,1,0,0:0:0:0:
192,192,150480,128,0,150672:0:0:0:0:
64,192,150480,1,0,0:0:0:0:
320,192,150672,128,0,150865:0:0:0:0:
448,192,150672,1,0,0:0:0:0:
64,192,150768,1,0,0:0:0:0:
448,192,150865,128,0,152595:0:0:0:0:
192,192,150865,1,0,0:0:0:0:
320,192,150960,1,0,0:0:0:0:
192,192,151056,1,0,0:0:0:0:
64,192,151056,1,0,0:0:0:0:
192,192,151153,1,0,0:0:0:0:
64,192,151249,1,0,0:0:0:0:
320,192,151249,1,0,0:0:0:0:
320,192,151345,1,0,0:0:0:0:
192,192,151441,1,0,0:0:0:0:
64,192,151441,1,0,0:0:0:0:
192,192,151537,1,0,0:0:0:0:
64,192,151634,1,0,0:0:0:0:
320,192,151634,1,0,0:0:0:0:
64,192,151730,1,0,0:0:0:0:
192,192,151825,1,0,0:0:0:0:
320,192,151825,1,0,0:0:0:0:
64,192,151922,1,0,0:0:0:0:
320,192,152018,1,0,0:0:0:0:
192,192,152018,1,0,0:0:0:0:
320,192,152115,1,0,0:0:0:0:
64,192,152210,1,0,0:0:0:0:
192,192,152210,1,0,0:0:0:0:
192,192,152306,1,0,0:0:0:0:
64,192,152403,1,0,0:0:0:0:
320,192,152403,1,0,0:0:0:0:
64,192,152499,1,0,0:0:0:0:
192,192,152595,1,0,0:0:0:0:
320,192,152595,1,0,0:0:0:0:
64,192,152691,1,0,0:0:0:0:
448,192,152787,1,0,0:0:0:0:
320,192,152787,1,0,0:0:0:0:
320,192,152884,1,0,0:0:0:0:
192,192,152980,1,0,0:0:0:0:
64,192,152980,1,0,0:0:0:0:
448,192,153075,1,0,0:0:0:0:
192,192,153172,1,0,0:0:0:0:
320,192,153172,1,0,0:0:0:0:
64,192,153268,1,0,0:0:0:0:
320,192,153365,1,0,0:0:0:0:
448,192,153365,128,0,153556:0:0:0:0:
320,192,153460,1,0,0:0:0:0:
192,192,153556,1,0,0:0:0:0:
64,192,153556,128,0,153749:0:0:0:0:
192,192,153653,1,0,0:0:0:0:
320,192,153749,1,0,0:0:0:0:
448,192,153749,128,0,153893:0:0:0:0:
320,192,153845,1,0,0:0:0:0:
192,192,153893,1,0,0:0:0:0:
64,192,153941,128,0,155672:0:0:0:0:
448,192,153941,1,0,0:0:0:0:
448,192,154037,1,0,0:0:0:0:
320,192,154134,1,0,0:0:0:0:
192,192,154134,1,0,0:0:0:0:
448,192,154230,1,0,0:0:0:0:
320,192,154325,1,0,0:0:0:0:
192,192,154325,1,0,0:0:0:0:
448,192,154422,1,0,0:0:0:0:
320,192,154518,1,0,0:0:0:0:
448,192,154518,1,0,0:0:0:0:
192,192,154615,1,0,0:0:0:0:
320,192,154710,1,0,0:0:0:0:
192,192,154710,1,0,0:0:0:0:
448,192,154806,1,0,0:0:0:0:
320,192,154903,1,0,0:0:0:0:
192,192,154903,1,0,0:0:0:0:
320,192,154999,1,0,0:0:0:0:
448,192,155095,1,0,0:0:0:0:
192,192,155095,1,0,0:0:0:0:
448,192,155191,1,0,0:0:0:0:
320,192,155287,1,0,0:0:0:0:
192,192,155287,1,0,0:0:0:0:
320,192,155384,1,0,0:0:0:0:
192,192,155480,1,0,0:0:0:0:
448,192,155480,1,0,0:0:0:0:
192,192,155575,1,0,0:0:0:0:
320,192,155672,1,0,0:0:0:0:
448,192,155672,1,0,0:0:0:0:
448,192,155768,1,0,0:0:0:0:
320,192,155865,1,0,0:0:0:0:
192,192,155865,1,0,0:0:0:0:
64,192,155960,1,0,0:0:0:0:
192,192,156056,1,0,0:0:0:0:
448,192,156056,1,0,0:0:0:0:
320,192,156153,1,0,0:0:0:0:
64,192,156249,128,0,156441:0:0:0:0:
448,192,156249,1,0,0:0:0:0:
448,192,156345,1,0,0:0:0:0:
192,192,156441,128,0,156634:0:0:0:0:
320,192,156441,1,0,0:0:0:0:
64,192,156537,1,0,0:0:0:0:
320,192,156634,128,0,156825:0:0:0:0:
448,192,156634,1,0,0:0:0:0:
448,192,156730,1,0,0:0:0:0:
64,192,156825,1,0,0:0:0:0:
192,192,156825,128,0,157018:0:0:0:0:
64,192,156922,1,0,0:0:0:0:
320,192,157018,128,0,157787:0:0:0:0:
448,192,157018,1,0,0:0:0:0:
192,192,157115,1,0,0:0:0:0:
64,192,157210,1,0,0:0:0:0:
448,192,157210,1,0,0:0:0:0:
192,192,157306,1,0,0:0:0:0:
448,192,157403,1,0,0:0:0:0:
64,192,157403,1,0,0:0:0:0:
192,192,157499,1,0,0:0:0:0:
448,192,157595,1,0,0:0:0:0:
64,192,157595,1,0,0:0:0:0:
192,192,157691,1,0,0:0:0:0:
192,192,157787,128,0,158556:0:0:0:0:
448,192,157787,1,0,0:0:0:0:
320,192,157884,1,0,0:0:0:0:
64,192,157980,1,0,0:0:0:0:
448,192,157980,1,0,0:0:0:0:
320,192,158075,1,0,0:0:0:0:
448,192,158172,1,0,0:0:0:0:
64,192,158172,1,0,0:0:0:0:
320,192,158268,1,0,0:0:0:0:
64,192,158365,1,0,0:0:0:0:
448,192,158365,1,0,0:0:0:0:
320,192,158460,1,0,0:0:0:0:
448,192,158556,128,0,159325:0:0:0:0:
64,192,158556,1,0,0:0:0:0:
320,192,158556,1,0,0:0:0:0:
192,192,158653,1,0,0:0:0:0:
64,192,158749,1,0,0:0:0:0:
320,192,158749,1,0,0:0:0:0:
192,192,158845,1,0,0:0:0:0:
64,192,158941,1,0,0:0:0:0:
320,192,158941,1,0,0:0:0:0:
192,192,159037,1,0,0:0:0:0:
64,192,159134,1,0,0:0:0:0:
320,192,159134,1,0,0:0:0:0:
192,192,159230,1,0,0:0:0:0:
64,192,159325,128,0,160095:0:0:0:0:
320,192,159325,1,0,0:0:0:0:
192,192,159422,1,0,0:0:0:0:
320,192,159518,1,0,0:0:0:0:
448,192,159518,1,0,0:0:0:0:
192,192,159615,1,0,0:0:0:0:
320,192,159710,1,0,0:0:0:0:
448,192,159710,1,0,0:0:0:0:
192,192,159806,1,0,0:0:0:0:
320,192,159903,1,0,0:0:0:0:
448,192,159903,1,0,0:0:0:0:
320,192,159999,1,0,0:0:0:0:
448,192,159999,1,0,0:0:0:0:
320,192,160095,128,0,161825:0:0:0:0:
448,192,160095,1,0,0:0:0:0:
192,192,160191,1,0,0:0:0:0:
64,192,160287,1,0,0:0:0:0:
192,192,160287,1,0,0:0:0:0:
448,192,160384,1,0,0:0:0:0:
64,192,160480,1,0,0:0:0:0:
448,192,160480,1,0,0:0:0:0:
192,192,160575,1,0,0:0:0:0:
64,192,160672,1,0,0:0:0:0:
192,192,160672,1,0,0:0:0:0:
448,192,160768,1,0,0:0:0:0:
448,192,160865,1,0,0:0:0:0:
192,192,160865,1,0,0:0:0:0:
192,192,160960,1,0,0:0:0:0:
64,192,161056,1,0,0:0:0:0:
448,192,161056,1,0,0:0:0:0:
448,192,161153,1,0,0:0:0:0:
192,192,161249,1,0,0:0:0:0:
64,192,161249,1,0,0:0:0:0:
64,192,161345,1,0,0:0:0:0:
192,192,161441,1,0,0:0:0:0:
448,192,161441,1,0,0:0:0:0:
448,192,161537,1,0,0:0:0:0:
192,192,161634,1,0,0:0:0:0:
64,192,161634,1,0,0:0:0:0:
64,192,161730,1,0,0:0:0:0:
192,192,161825,1,0,0:0:0:0:
448,192,161825,1,0,0:0:0:0:
320,192,161922,1,0,0:0:0:0:
192,192,162018,1,0,0:0:0:0:
64,192,162018,1,0,0:0:0:0:
448,192,162115,1,0,0:0:0:0:
192,192,162210,128,0,162306:0:0:0:0:
64,192,162210,1,0,0:0:0:0:
320,192,162306,128,0,162403:0:0:0:0:
448,192,162403,128,0,162499:0:0:0:0:
192,192,162403,1,0,0:0:0:0:
64,192,162499,128,0,162595:0:0:0:0:
320,192,162595,128,0,162691:0:0:0:0:
448,192,162595,1,0,0:0:0:0:
192,192,162691,128,0,162787:0:0:0:0:
448,192,162787,128,0,162884:0:0:0:0:
64,192,162787,1,0,0:0:0:0:
64,192,162884,128,0,162980:0:0:0:0:
320,192,162980,128,0,163075:0:0:0:0:
448,192,162980,1,0,0:0:0:0:
192,192,163075,128,0,163172:0:0:0:0:
64,192,163172,128,0,164903:0:0:0:0:
448,192,163172,1,0,0:0:0:0:
448,192,163268,1,0,0:0:0:0:
192,192,163365,1,0,0:0:0:0:
320,192,163365,1,0,0:0:0:0:
320,192,163460,1,0,0:0:0:0:
192,192,163556,1,0,0:0:0:0:
448,192,163556,1,0,0:0:0:0:
192,192,163653,1,0,0:0:0:0:
320,192,163749,1,0,0:0:0:0:
448,192,163749,1,0,0:0:0:0:
320,192,163845,1,0,0:0:0:0:
192,192,163941,1,0,0:0:0:0:
448,192,163941,1,0,0:0:0:0:
448,192,164037,1,0,0:0:0:0:
320,192,164134,1,0,0:0:0:0:
192,192,164134,1,0,0:0:0:0:
320,192,164230,1,0,0:0:0:0:
192,192,164325,1,0,0:0:0:0:
448,192,164325,1,0,0:0:0:0:
192,192,164422,1,0,0:0:0:0:
320,192,164518,1,0,0:0:0:0:
448,192,164518,1,0,0:0:0:0:
320,192,164615,1,0,0:0:0:0:
448,192,164710,1,0,0:0:0:0:
192,192,164710,1,0,0:0:0:0:
448,192,164806,1,0,0:0:0:0:
320,192,164903,1,0,0:0:0:0:
192,192,164903,1,0,0:0:0:0:
320,192,164999,1,0,0:0:0:0:
64,192,165095,1,0,0:0:0:0:
448,192,165095,1,0,0:0:0:0:
64,192,165191,1,0,0:0:0:0:
320,192,165287,1,0,0:0:0:0:
192,192,165287,1,0,0:0:0:0:
448,192,165384,1,0,0:0:0:0:
64,192,165480,1,0,0:0:0:0:
320,192,165480,1,0,0:0:0:0:
192,192,165575,1,0,0:0:0:0:
320,192,165672,128,0,165865:0:0:0:0:
64,192,165672,1,0,0:0:0:0:
448,192,165768,1,0,0:0:0:0:
192,192,165865,128,0,166056:0:0:0:0:
448,192,165865,1,0,0:0:0:0:
64,192,165960,1,0,0:0:0:0:
448,192,166056,128,0,166249:0:0:0:0:
320,192,166056,1,0,0:0:0:0:
64,192,166105,1,0,0:0:0:0:
192,192,166153,1,0,0:0:0:0:
320,192,166200,1,0,0:0:0:0:
192,192,166249,1,0,0:0:0:0:
64,192,166249,128,0,168172:0:0:0:0:
320,192,166345,1,0,0:0:0:0:
448,192,166441,1,0,0:0:0:0:
192,192,166441,1,0,0:0:0:0:
320,192,166537,1,0,0:0:0:0:
448,192,166634,1,0,0:0:0:0:
320,192,166634,1,0,0:0:0:0:
192,192,166730,1,0,0:0:0:0:
320,192,166825,1,0,0:0:0:0:
448,192,166825,1,0,0:0:0:0:
448,192,166922,1,0,0:0:0:0:
320,192,167018,1,0,0:0:0:0:
192,192,167018,1,0,0:0:0:0:
192,192,167115,1,0,0:0:0:0:
448,192,167210,1,0,0:0:0:0:
320,192,167210,1,0,0:0:0:0:
192,192,167306,1,0,0:0:0:0:
320,192,167403,1,0,0:0:0:0:
192,192,167403,1,0,0:0:0:0:
448,192,167499,1,0,0:0:0:0:
320,192,167595,1,0,0:0:0:0:
192,192,167595,1,0,0:0:0:0:
192,192,167691,1,0,0:0:0:0:
448,192,167787,1,0,0:0:0:0:
320,192,167787,1,0,0:0:0:0:
448,192,167884,1,0,0:0:0:0:
192,192,167980,1,0,0:0:0:0:
320,192,167980,1,0,0:0:0:0:
448,192,168075,1,0,0:0:0:0:
192,192,168172,1,0,0:0:0:0:
448,192,168172,1,0,0:0:0:0:
320,192,168268,1,0,0:0:0:0:
320,192,168365,128,0,168556:0:0:0:0:
448,192,168365,1,0,0:0:0:0:
64,192,168460,1,0,0:0:0:0:
192,192,168556,128,0,168749:0:0:0:0:
64,192,168556,1,0,0:0:0:0:
448,192,168653,1,0,0:0:0:0:
320,192,168749,128,0,168941:0:0:0:0:
448,192,168749,1,0,0:0:0:0:
192,192,168845,1,0,0:0:0:0:
64,192,168941,128,0,169134:0:0:0:0:
448,192,168941,1,0,0:0:0:0:
192,192,169037,1,0,0:0:0:0:
448,192,169134,128,0,169325:0:0:0:0:
320,192,169134,1,0,0:0:0:0:
192,192,169230,1,0,0:0:0:0:
64,192,169325,128,0,170095:0:0:0:0:
320,192,169325,1,0,0:0:0:0:
192,192,169422,1,0,0:0:0:0:
320,192,169518,1,0,0:0:0:0:
448,192,169518,1,0,0:0:0:0:
448,192,169615,1,0,0:0:0:0:
320,192,169710,1,0,0:0:0:0:
192,192,169710,1,0,0:0:0:0:
448,192,169806,1,0,0:0:0:0:
192,192,169903,1,0,0:0:0:0:
448,192,169903,1,0,0:0:0:0:
320,192,169999,1,0,0:0:0:0:
192,192,170095,128,0,170865:0:0:0:0:
448,192,170095,1,0,0:0:0:0:
320,192,170191,1,0,0:0:0:0:
64,192,170287,1,0,0:0:0:0:
448,192,170287,1,0,0:0:0:0:
320,192,170384,1,0,0:0:0:0:
448,192,170480,1,0,0:0:0:0:
64,192,170480,1,0,0:0:0:0:
320,192,170575,1,0,0:0:0:0:
64,192,170672,1,0,0:0:0:0:
320,192,170672,1,0,0:0:0:0:
448,192,170768,1,0,0:0:0:0:
320,192,170865,128,0,171634:0:0:0:0:
448,192,170865,1,0,0:0:0:0:
448,192,170960,1,0,0:0:0:0:
64,192,171056,1,0,0:0:0:0:
192,192,171056,1,0,0:0:0:0:
64,192,171153,1,0,0:0:0:0:
192,192,171249,1,0,0:0:0:0:
448,192,171249,1,0,0:0:0:0:
448,192,171345,1,0,0:0:0:0:
192,192,171441,1,0,0:0:0:0:
64,192,171441,1,0,0:0:0:0:
64,192,171537,1,0,0:0:0:0:
448,192,171634,128,0,172403:0:0:0:0:
192,192,171634,1,0,0:0:0:0:
320,192,171730,1,0,0:0:0:0:
192,192,171825,1,0,0:0:0:0:
320,192,171825,1,0,0:0:0:0:
64,192,171922,1,0,0:0:0:0:
64,192,172018,1,0,0:0:0:0:
192,192,172018,1,0,0:0:0:0:
320,192,172115,1,0,0:0:0:0:
320,192,172210,1,0,0:0:0:0:
192,192,172210,1,0,0:0:0:0:
64,192,172306,1,0,0:0:0:0:
192,192,172403,1,0,0:0:0:0:
64,192,172403,1,0,0:0:0:0:
320,192,172403,128,0,172787:0:0:0:0:
192,192,172787,128,0,173172:0:0:0:0:
448,192,173172,128,0,173556:0:0:0:0:
64,192,173556,128,0,173941:0:0:0:0:
320,192,173941,128,0,174325:0:0:0:0:
192,192,174325,128,0,174710:0:0:0:0:
448,192,174710,128,0,175095:0:0:0:0:
64,192,175095,128,0,175480:0:0:0:0:
448,192,175480,128,0,176441:0:0:0:0:
192,192,176441,128,0,176634:0:0:0:0:
320,192,176634,128,0,176825:0:0:0:0:
192,192,176825,128,0,177018:0:0:0:0:
448,192,177018,128,0,177595:0:0:0:0:
192,192,177595,128,0,177787:0:0:0:0:
320,192,177787,128,0,177980:0:0:0:0:
64,192,177787,128,0,178172:0:0:0:0:
448,192,178172,128,0,178556:0:0:0:0:
192,192,178172,128,0,178365:0:0:0:0:
64,192,178556,128,0,178941:0:0:0:0:
320,192,178941,128,0,179325:0:0:0:0:
192,192,179325,128,0,179710:0:0:0:0:
448,192,179710,128,0,180095:0:0:0:0:
64,192,180095,128,0,180480:0:0:0:0:
320,192,180480,128,0,180865:0:0:0:0:
192,192,180865,128,0,181249:0:0:0:0:
320,192,181249,128,0,181634:0:0:0:0:
64,192,181634,128,0,182018:0:0:0:0:
448,192,182018,128,0,182403:0:0:0:0:
64,192,182403,128,0,182787:0:0:0:0:
320,192,182787,128,0,183172:0:0:0:0:
448,192,183172,128,0,183556:0:0:0:0:
64,192,183556,128,0,183941:0:0:0:0:
320,192,183941,128,0,184134:0:0:0:0:
64,192,184710,1,0,0:0:0:0:
192,192,184710,1,0,0:0:0:0:
320,192,184710,1,0,0:0:0:0:
448,192,184710,1,0,0:0:0:0:
