osu file format v14

[General]
AudioFilename: DM DOKURO - UNDERTALE- The Underground Radio - 12 COMMON CORE.mp3
AudioLeadIn: 0
PreviewTime: 22700
Countdown: 0
SampleSet: Normal
StackLeniency: 0.7
Mode: 0
LetterboxInBreaks: 0
WidescreenStoryboard: 0

[Editor]
Bookmarks: 11347,42925,93441
DistanceSpacing: 0.8
BeatDivisor: 4
GridSize: 4
TimelineZoom: 1.8

[Metadata]
Title:COMMON CORE
TitleUnicode:COMMON CORE
Artist:DM DOKURO
ArtistUnicode:DM DOKURO
Creator:CookieBite
Version:STANDARD
Source:UNDERTALE
Tags:The Underground Radio toby fox hotland soul mettaton remix another medium estellia-
BeatmapID:935054
BeatmapSetID:433843

[Difficulty]
HPDrainRate:4
CircleSize:3.5
OverallDifficulty:4
ApproachRate:5
SliderMultiplier:1.2
SliderTickRate:1

[Events]
//Background and Video events
0,0,"COREENTRANCE.png",0,0
//Break Periods
2,83535,92240
//Storyboard Layer 0 (Background)
//Storyboard Layer 1 (Fail)
//Storyboard Layer 2 (Pass)
//Storyboard Layer 3 (Foreground)
//Storyboard Sound Samples

[TimingPoints]
1230,315.789473684211,4,1,1,60,1,0
21439,-100,4,2,0,5,0,0
22702,-100,4,1,1,60,0,0
63124,-100,4,1,1,60,0,1
83335,-100,4,1,1,60,0,0
98492,-100,4,1,1,40,0,0
102281,-100,4,2,0,5,0,0
103545,-100,4,1,1,60,0,1
123756,-100,4,2,0,60,0,0

[Colours]
Combo1 : 221,11,16
Combo2 : 157,79,124
Combo3 : 77,77,244
Combo4 : 163,45,187

[HitObjects]
348,80,1229,6,0,P|428:76|476:92,2,120,0|8|0,0:0|0:0|0:0,0:0:0:0:
272,136,2177,1,8,0:0:0:0:
184,100,2493,2,0,P|100:80|52:96,1,120,0|8,0:0|0:0,0:0:0:0:
32,116,2966,2,0,P|20:236|48:300,1,180,0|8,0:0|0:0,0:0:0:0:
120,348,3756,6,0,L|264:352,1,120,0|8,0:0|0:0,0:0:0:0:
325,308,4387,2,0,L|469:304,1,120,0|8,0:0|0:0,0:0:0:0:
496,224,5019,2,0,P|512:164|476:100,1,120,0|8,0:0|0:0,0:0:0:0:
452,80,5493,2,0,B|412:64|364:80|364:80|316:96|268:80,1,180,0|8,0:0|0:0,0:0:0:0:
236,112,6124,1,8,0:0:0:0:
204,148,6282,6,0,P|192:236|208:276,1,120,4|8,0:0|0:0,0:0:0:0:
284,328,6914,2,0,L|416:332,1,120,0|8,0:0|0:0,0:0:0:0:
476,264,7545,2,0,P|492:192|484:140,1,120,0|8,0:0|0:0,0:0:0:0:
464,104,8019,2,0,P|360:68|284:88,1,180,0|8,0:0|0:0,0:0:0:0:
200,116,8808,6,0,P|124:128|72:116,2,120,0|8|0,0:0|0:0|0:0,0:0:0:0:
280,172,9756,1,8,0:0:0:0:
376,152,10072,2,0,P|352:240|312:264,1,120,0|8,0:0|0:0,0:0:0:0:
288,276,10545,2,0,B|224:292|224:292|160:276|160:276|96:292,1,180,0|4,0:0|0:0,0:0:0:0:
56,208,11335,6,0,P|32:132|48:76,1,120,4|8,0:0|0:0,0:0:0:0:
124,48,11966,2,0,P|181:35|233:63,1,120,0|8,0:0|0:0,0:0:0:0:
312,120,12598,2,0,P|320:184|304:240,1,120,0|8,0:0|0:0,0:0:0:0:
280,280,13072,2,0,L|88:288,1,180,0|8,0:0|0:0,0:0:0:0:
44,208,13861,6,0,P|31:150|47:92,1,120,0|8,0:0|0:0,0:0:0:0:
132,48,14493,2,0,P|189:32|247:45,1,120,0|8,0:0|0:0,0:0:0:0:
324,104,15124,2,0,P|334:191|292:269,1,180,0|8,0:0|0:0,0:0:0:0:
176,356,16072,1,0,0:0:0:0:
124,276,16387,6,0,L|4:260,2,120,4|8|0,0:0|0:0|0:0,0:0:0:0:
204,220,17335,1,8,0:0:0:0:
276,284,17651,2,0,L|394:299,2,120,0|8|0,0:0|0:0|0:0,0:0:0:0:
200,344,18598,1,8,0:0:0:0:
256,192,18914,12,0,21440,0:0:0:0:
176,264,22703,6,0,P|128:292|44:272,2,120,0|8|0,0:0|0:0|0:0,0:0:0:0:
200,172,23651,1,8,0:0:0:0:
104,188,23966,2,0,P|112:128|160:84,1,120,0|8,0:0|0:0,0:0:0:0:
196,72,24440,2,0,P|296:68|368:104,1,180,0|8,0:0|0:0,0:0:0:0:
424,180,25230,6,0,L|428:312,1,120,0|8,0:0|0:0,0:0:0:0:
348,356,25861,2,0,L|216:360,1,120,0|8,0:0|0:0,0:0:0:0:
152,300,26493,2,0,P|128:176|152:120,1,180,0|8,0:0|0:0,0:0:0:0:
224,76,27282,2,0,L|308:72,1,60,0|8,0:0|0:0,0:0:0:0:
360,132,27756,6,0,P|381:79|360:12,2,120,0|8|0,0:0|0:0|0:0,0:0:0:0:
308,208,28703,1,8,0:0:0:0:
240,256,29019,2,0,P|128:272|64:252,1,180,0|8,0:0|0:0,0:0:0:0:
36,172,29808,2,0,L|44:104,1,60,0|8,0:0|0:0,0:0:0:0:
116,48,30282,6,0,L|256:56,1,120,0|8,0:0|0:0,0:0:0:0:
312,112,30914,2,0,P|316:184|296:252,1,120,0|8,0:0|0:0,0:0:0:0:
236,296,31545,2,0,P|320:324|396:256,1,180,0|8,0:0|0:0,0:0:0:0:
444,196,32335,2,0,L|436:128,1,60,0|8,0:0|0:0,0:0:0:0:
360,80,32808,6,0,L|220:84,1,120,4|8,0:0|0:0,0:0:0:0:
208,184,33440,2,0,L|348:188,1,120,0|8,0:0|0:0,0:0:0:0:
408,240,34072,2,0,P|412:308|296:372,1,180,0|8,0:0|0:0,0:0:0:0:
324,280,34861,2,0,L|248:276,1,60,0|8,0:0|0:0,0:0:0:0:
168,264,35335,6,0,P|176:320|220:364,2,120,0|8|0,0:0|0:0|0:0,0:0:0:0:
220,180,36282,1,8,0:0:0:0:
300,128,36598,2,0,P|394:114|452:176,1,180,0|8,0:0|0:0,0:0:0:0:
360,204,37387,2,0,L|368:268,1,60,0|8,0:0|0:0,0:0:0:0:
340,356,37861,6,0,P|408:352|460:296,2,120,0|8|0,0:0|0:0|0:0,0:0:0:0:
276,284,38808,1,8,0:0:0:0:
188,324,39124,2,0,P|184:260|240:192,1,120,0|8,0:0|0:0,0:0:0:0:
248,184,39598,2,0,P|266:104|206:33,1,180,0|8,0:0|0:0,0:0:0:0:
172,124,40387,6,0,L|52:132,1,120,0|8,0:0|0:0,0:0:0:0:
24,224,41019,2,0,P|20:296|36:344,1,120,0|8,0:0|0:0,0:0:0:0:
124,372,41651,2,0,B|188:388|252:372|252:372|316:356|380:372,1,240,0|8,0:0|0:0,0:0:0:0:
436,308,42598,1,8,0:0:0:0:
412,216,42914,6,0,L|340:212,2,60
448,184,43387,2,0,P|480:112|424:24,1,180
384,112,44177,2,0,P|320:124|240:108,2,120,8|0|0,0:0|0:0|0:0,0:0:0:0:
433,29,45124,1,0,0:0:0:0:
496,104,45440,6,0,P|512:176|492:232,1,120,0|8,0:0|0:0,0:0:0:0:
468,256,45914,2,0,P|383:284|295:268,1,180,0|8,0:0|0:0,0:0:0:0:
228,200,46703,1,0,0:0:0:0:
260,108,47019,1,0,0:0:0:0:
180,56,47335,2,0,P|128:40|67:61,1,120
128,136,47966,6,8,B|76:164|92:216|92:216|112:264|52:300|52:300|88:324|84:372|84:372|144:364|144:364|196:376|196:376|236:360|296:388|296:388|316:352|288:296|288:296|236:248|260:184,1,720
400,212,50177,1,8,0:0:0:0:
456,288,50493,6,0,P|492:236|484:172,1,120,0|8,0:0|0:0,0:0:0:0:
428,108,51124,1,0,0:0:0:0:
340,148,51440,1,0,0:0:0:0:
252,112,51756,2,0,P|204:216|292:304,1,240,0|8,0:0|0:0,0:0:0:0:
360,348,52703,2,8,L|419:345,1,60
460,320,53019,6,0,P|469:261|457:202,1,120,4|8,0:0|0:0,0:0:0:0:
432,164,53493,2,0,P|340:144|248:164,1,180,0|8,0:0|0:0,0:0:0:0:
180,216,54282,2,0,P|156:276|176:340,1,120,0|8,0:0|0:0,0:0:0:0:
252,380,54914,1,0,0:0:0:0:
332,324,55230,1,0,0:0:0:0:
424,352,55545,6,0,L|488:356,2,60,0|0|8,0:0|0:0|0:0,0:0:0:0:
416,304,56019,2,0,P|400:224|488:152,1,180,0|8,0:0|0:0,0:0:0:0:
392,88,56808,2,0,P|332:76|288:28,1,120,0|8,0:0|0:0,0:0:0:0:
196,56,57440,1,0,0:0:0:0:
104,28,57756,1,0,0:0:0:0:
100,124,58072,6,0,B|89:228|89:228|165:236|201:292|184:364|184:364|268:260|373:340|373:340|340:288|356:256|356:256|372:228|372:184|316:160,1,720,0|8,0:0|0:0,0:0:0:0:
236,208,60282,1,8,0:0:0:0:
248,112,60598,2,0,B|288:24|384:8|444:60|484:120|444:216,1,360
432,304,61861,5,0,0:0:0:0:
388,328,62019,2,0,L|328:318,1,60,8|0,0:0|0:0,0:0:0:0:
288,344,62335,2,0,L|228:334,1,60
196,300,62651,2,0,P|184:224|204:172,1,120
232,152,63124,6,0,P|296:128|348:136,1,120,4|8,0:0|0:0,0:0:0:0:
416,200,63756,2,0,P|444:288|428:336,1,120,0|8,0:0|0:0,0:0:0:0:
396,336,64230,2,0,P|308:376|204:356,1,180,0|8,0:0|0:0,0:0:0:0:
136,336,65019,1,0,0:0:0:0:
100,248,65335,1,8,0:0:0:0:
128,156,65651,6,0,B|208:124|304:156|304:156|400:188|496:156,1,360,0|8,0:0|0:0,0:0:0:0:
500,256,66914,2,0,L|489:375,1,120,0|8,0:0|0:0,0:0:0:0:
392,380,67545,2,0,L|272:369,1,120,0|8,0:0|0:0,0:0:0:0:
192,312,68177,2,0,B|236:264|284:264|320:284|320:284|324:232|324:232|376:204|388:152|376:112|348:72,1,360
284,148,69440,2,0,L|148:136,1,120,0|8,0:0|0:0,0:0:0:0:
108,216,70072,2,0,L|96:352,1,120,0|8,0:0|0:0,0:0:0:0:
192,360,70703,6,0,B|248:356|280:292|260:248|244:224|244:224|336:232|336:232|352:176|384:160|412:164,1,360,0|8,0:0|0:0,0:0:0:0:
332,88,71966,2,0,L|216:60,1,120,0|8,0:0|0:0,0:0:0:0:
132,112,72598,2,0,L|104:228,1,120,0|8,0:0|0:0,0:0:0:0:
144,316,73230,6,0,B|184:288|204:256|196:208|196:208|244:232|244:232|284:196|372:232|364:312,1,360,0|8,0:0|0:0,0:0:0:0:
460,304,74493,2,0,P|468:246|439:194,1,120,0|8,0:0|0:0,0:0:0:0:
372,124,75124,1,0,0:0:0:0:
288,168,75440,1,8,0:0:0:0:
216,104,75756,6,0,B|176:156|188:212|224:248|260:260|260:260|216:308|216:308|284:328|276:384,1,360,0|8,0:0|0:0,0:0:0:0:
364,344,77019,2,0,P|428:356|496:336,1,120,0|8,0:0|0:0,0:0:0:0:
500,248,77651,2,0,P|512:184|492:116,1,120,0|8,0:0|0:0,0:0:0:0:
428,68,78282,6,0,B|356:72|316:140|340:200|340:200|296:180|296:180|264:212|232:220|192:212|156:188,1,360,0|8,0:0|0:0,0:0:0:0:
136,284,79545,2,0,B|216:324|304:284|304:284|284:348|284:348|332:320|384:292|416:328|456:364|512:288,1,480,0|8,0:0|0:0,0:0:0:0:
256,192,80887,12,4,83335,0:0:0:0:
312,104,93440,6,0,P|392:112|452:92,2,120,4|8|0,0:0|0:0|0:0,0:0:0:0:
224,144,94387,1,8,0:0:0:0:
140,96,94703,2,0,P|128:160|172:228,1,120,0|8,0:0|0:0,0:0:0:0:
188,236,95177,2,0,P|328:252|384:232,1,180,0|8,0:0|0:0,0:0:0:0:
428,172,95966,6,0,L|440:32,2,120,0|8|0,0:0|0:0|0:0,0:0:0:0:
460,264,96914,1,8,0:0:0:0:
400,340,97230,2,0,P|320:356|276:348,1,120,0|8,0:0|0:0,0:0:0:0:
236,332,97703,2,0,P|144:300|48:328,1,180,0|8,0:0|0:0,0:0:0:0:
36,228,98493,6,0,P|24:192|24:160,1,60
56,132,98808,2,0,L|192:116,1,120
256,64,99440,1,0,0:0:0:0:
336,116,99756,2,0,L|404:124,1,60
436,152,100072,2,0,P|444:192|432:232,1,60
416,252,100387,2,0,B|376:260|376:260|336:252|336:252|288:260,1,120
256,192,101019,12,0,102282,0:0:0:0:
32,264,103230,5,0,0:0:0:0:
88,336,103545,6,0,P|148:344|212:328,1,120,0|8,0:0|0:0,0:0:0:0:
288,280,104177,2,0,P|296:220|280:156,1,120,0|8,0:0|0:0,0:0:0:0:
252,124,104651,2,0,L|60:116,1,180,0|8,0:0|0:0,0:0:0:0:
44,208,105440,2,0,P|36:280|60:332,1,120,0|8,0:0|0:0,0:0:0:0:
144,360,106072,6,0,B|216:372|272:324|272:324|308:348|308:348|352:328|384:332|428:348|428:348|488:304,1,360,0|8,0:0|0:0,0:0:0:0:
492,220,107335,2,0,P|504:168|492:96,1,120,0|8,0:0|0:0,0:0:0:0:
420,40,107966,1,0,0:0:0:0:
340,96,108282,1,0,0:0:0:0:
244,88,108598,6,0,B|180:124|112:100|112:100|124:148|124:148|92:208|92:256|128:320,1,360,0|8,0:0|0:0,0:0:0:0:
212,352,109861,2,0,P|292:368|352:352,1,120,0|8,0:0|0:0,0:0:0:0:
380,280,110493,2,0,P|439:273|496:289,1,120,0|8,0:0|0:0,0:0:0:0:
476,196,111124,6,0,B|500:60|500:60|432:76|432:76|396:32|332:32|288:72,1,360,0|8,0:0|0:0,0:0:0:0:
360,136,112387,2,0,P|352:212|300:256,1,120,0|8,0:0|0:0,0:0:0:0:
248,184,113019,2,0,L|120:168,1,120,0|8,0:0|0:0,0:0:0:0:
108,76,113651,6,0,B|24:104|12:184|44:232|92:256|92:256|80:308|80:308|136:360,1,360,4|8,0:0|0:0,0:0:0:0:
224,372,114914,2,0,L|364:372,1,120,0|8,0:0|0:0,0:0:0:0:
408,300,115545,1,0,0:0:0:0:
424,204,115861,1,0,0:0:0:0:
472,120,116177,6,0,B|412:76|324:128|320:184|332:232|332:232|292:220|260:212|224:220|192:236,1,360,0|8,0:0|0:0,0:0:0:0:
116,252,117440,2,0,P|100:312|124:376,1,120,0|8,0:0|0:0,0:0:0:0:
196,308,118072,2,0,L|348:312,1,120,0|8,0:0|0:0,0:0:0:0:
392,252,118703,6,0,B|408:204|412:160|392:124|356:104|356:104|320:120|320:120|276:84|252:76|208:72|156:96,1,360,0|8,0:0|0:0,0:0:0:0:
92,132,119966,2,0,P|80:192|96:272,1,120,0|8,0:0|0:0,0:0:0:0:
160,312,120598,2,0,L|300:324,1,120,0|8,0:0|0:0,0:0:0:0:
256,192,121230,12,4,123756,0:0:0:0:
