osu file format v14

[General]
AudioFilename: 15C5.mp3
AudioLeadIn: 0
PreviewTime: -1
Countdown: 0
SampleSet: None
StackLeniency: 0.7
Mode: 3
LetterboxInBreaks: 0
SpecialStyle: 0
WidescreenStoryboard: 0

[Editor]
DistanceSpacing: 0.8
BeatDivisor: 2
GridSize: 32
TimelineZoom: 1

[Metadata]
Title:Fallen Angel
TitleUnicode:Fallen Angel
Artist:DM Ashura ft. Ariel
ArtistUnicode:DM Ashura ft. Ariel
Creator:Arnon
Version:d24 ucs
Source:Pump It Up: Prime 2
Tags:
BeatmapID:1852140
BeatmapSetID:885972

[Difficulty]
HPDrainRate:5
CircleSize:10
OverallDifficulty:10
ApproachRate:5
SliderMultiplier:1.4
SliderTickRate:1

[Events]
//Background and Video events
0,0,"15C5-wide.png",0,0
Video,0,"video.mp4"
//Break Periods
//Storyboard Layer 0 (Background)
//Storyboard Layer 1 (Fail)
//Storyboard Layer 2 (Pass)
//Storyboard Layer 3 (Foreground)
//Storyboard Sound Samples

[TimingPoints]
1516,382.165605,4,1,0,0,1,0
116165,382.165605,4,1,0,0,1,0
116165,0.0006,4,1,0,0,1,0

[HitObjects]
229,192,5911,1,0,0:0:0:0:
382,192,6102,128,0,7439:0:0:0:0:
280,192,6293,1,0,0:0:0:0:
280,192,6675,1,0,0:0:0:0:
280,192,7057,1,0,0:0:0:0:
280,192,7439,1,0,0:0:0:0:
127,192,7630,128,0,8968:0:0:0:0:
229,192,7821,1,0,0:0:0:0:
229,192,8204,1,0,0:0:0:0:
229,192,8586,1,0,0:0:0:0:
229,192,8968,1,0,0:0:0:0:
331,192,9159,128,0,10497:0:0:0:0:
280,192,9350,1,0,0:0:0:0:
280,192,9732,1,0,0:0:0:0:
280,192,10114,1,0,0:0:0:0:
280,192,10497,1,0,0:0:0:0:
178,192,10688,128,0,12025:0:0:0:0:
229,192,10879,1,0,0:0:0:0:
229,192,11261,1,0,0:0:0:0:
229,192,11643,1,0,0:0:0:0:
229,192,12025,1,0,0:0:0:0:
127,192,12216,1,0,0:0:0:0:
178,192,12216,1,0,0:0:0:0:
229,192,12216,1,0,0:0:0:0:
280,192,12216,1,0,0:0:0:0:
178,192,12790,1,0,0:0:0:0:
280,192,12885,1,0,0:0:0:0:
229,192,12981,1,0,0:0:0:0:
178,192,13076,1,0,0:0:0:0:
280,192,13172,1,0,0:0:0:0:
178,192,13267,1,0,0:0:0:0:
229,192,13363,1,0,0:0:0:0:
280,192,13458,1,0,0:0:0:0:
178,192,13554,1,0,0:0:0:0:
229,192,13649,1,0,0:0:0:0:
127,192,13745,1,0,0:0:0:0:
178,192,13841,1,0,0:0:0:0:
25,192,13936,1,0,0:0:0:0:
76,192,14032,1,0,0:0:0:0:
127,192,14127,1,0,0:0:0:0:
178,192,14223,1,0,0:0:0:0:
229,192,14318,1,0,0:0:0:0:
331,192,14414,1,0,0:0:0:0:
382,192,14509,1,0,0:0:0:0:
433,192,14605,1,0,0:0:0:0:
331,192,14700,1,0,0:0:0:0:
280,192,14796,1,0,0:0:0:0:
382,192,14891,1,0,0:0:0:0:
484,192,14987,1,0,0:0:0:0:
433,192,15083,1,0,0:0:0:0:
382,192,15178,1,0,0:0:0:0:
331,192,15274,1,0,0:0:0:0:
229,192,15369,1,0,0:0:0:0:
178,192,15465,1,0,0:0:0:0:
280,192,15560,1,0,0:0:0:0:
229,192,15656,1,0,0:0:0:0:
331,192,15751,1,0,0:0:0:0:
280,192,15847,1,0,0:0:0:0:
178,192,15942,1,0,0:0:0:0:
229,192,16038,1,0,0:0:0:0:
382,192,16133,1,0,0:0:0:0:
280,192,16229,1,0,0:0:0:0:
178,192,16325,1,0,0:0:0:0:
127,192,16420,1,0,0:0:0:0:
280,192,16516,1,0,0:0:0:0:
382,192,16611,1,0,0:0:0:0:
280,192,16707,1,0,0:0:0:0:
127,192,16802,1,0,0:0:0:0:
178,192,16802,1,0,0:0:0:0:
280,192,16898,1,0,0:0:0:0:
382,192,16898,1,0,0:0:0:0:
127,192,16993,1,0,0:0:0:0:
178,192,16993,1,0,0:0:0:0:
280,192,17089,1,0,0:0:0:0:
382,192,17089,1,0,0:0:0:0:
127,192,17184,1,0,0:0:0:0:
178,192,17184,1,0,0:0:0:0:
280,192,17280,1,0,0:0:0:0:
382,192,17280,1,0,0:0:0:0:
127,192,17376,1,0,0:0:0:0:
178,192,17376,1,0,0:0:0:0:
280,192,17471,1,0,0:0:0:0:
382,192,17471,1,0,0:0:0:0:
178,192,17567,1,0,0:0:0:0:
127,192,17614,1,0,0:0:0:0:
280,192,17662,1,0,0:0:0:0:
382,192,17710,1,0,0:0:0:0:
178,192,17758,1,0,0:0:0:0:
127,192,17805,1,0,0:0:0:0:
280,192,17853,1,0,0:0:0:0:
382,192,17901,1,0,0:0:0:0:
178,192,17949,1,0,0:0:0:0:
127,192,17997,1,0,0:0:0:0:
280,192,18044,1,0,0:0:0:0:
382,192,18092,1,0,0:0:0:0:
178,192,18140,1,0,0:0:0:0:
127,192,18188,1,0,0:0:0:0:
280,192,18235,1,0,0:0:0:0:
382,192,18283,1,0,0:0:0:0:
178,192,18331,128,0,19669:0:0:0:0:
229,192,18713,1,0,0:0:0:0:
127,192,19095,1,0,0:0:0:0:
280,192,19477,1,0,0:0:0:0:
127,192,19860,1,0,0:0:0:0:
178,192,19860,1,0,0:0:0:0:
229,192,19860,1,0,0:0:0:0:
127,192,20242,1,0,0:0:0:0:
178,192,20242,1,0,0:0:0:0:
280,192,20242,1,0,0:0:0:0:
280,192,21388,128,0,22726:0:0:0:0:
331,192,21770,1,0,0:0:0:0:
382,192,22153,1,0,0:0:0:0:
178,192,22535,1,0,0:0:0:0:
280,192,22917,1,0,0:0:0:0:
331,192,22917,1,0,0:0:0:0:
382,192,22917,1,0,0:0:0:0:
178,192,23299,1,0,0:0:0:0:
280,192,23299,1,0,0:0:0:0:
382,192,23299,1,0,0:0:0:0:
178,192,24063,1,0,0:0:0:0:
280,192,24063,1,0,0:0:0:0:
382,192,24063,1,0,0:0:0:0:
178,192,24255,1,0,0:0:0:0:
280,192,24255,1,0,0:0:0:0:
382,192,24255,1,0,0:0:0:0:
229,192,24446,1,0,0:0:0:0:
280,192,24446,1,0,0:0:0:0:
382,192,24446,1,0,0:0:0:0:
127,192,24828,1,0,0:0:0:0:
229,192,24828,1,0,0:0:0:0:
280,192,24828,1,0,0:0:0:0:
127,192,25592,1,0,0:0:0:0:
229,192,25592,1,0,0:0:0:0:
331,192,25592,1,0,0:0:0:0:
127,192,25783,1,0,0:0:0:0:
229,192,25783,1,0,0:0:0:0:
331,192,25783,1,0,0:0:0:0:
127,192,25974,1,0,0:0:0:0:
229,192,25974,1,0,0:0:0:0:
280,192,25974,1,0,0:0:0:0:
229,192,26356,1,0,0:0:0:0:
280,192,26356,1,0,0:0:0:0:
382,192,26356,1,0,0:0:0:0:
127,192,27121,1,0,0:0:0:0:
229,192,27121,1,0,0:0:0:0:
331,192,27121,1,0,0:0:0:0:
229,192,27312,1,0,0:0:0:0:
331,192,27312,1,0,0:0:0:0:
382,192,27312,1,0,0:0:0:0:
127,192,27503,1,0,0:0:0:0:
229,192,27503,1,0,0:0:0:0:
331,192,27503,1,0,0:0:0:0:
382,192,27503,1,0,0:0:0:0:
127,192,27885,1,0,0:0:0:0:
178,192,27885,1,0,0:0:0:0:
280,192,27885,1,0,0:0:0:0:
382,192,27885,1,0,0:0:0:0:
127,192,28267,1,0,0:0:0:0:
229,192,28267,1,0,0:0:0:0:
280,192,28267,1,0,0:0:0:0:
382,192,28267,1,0,0:0:0:0:
127,192,28649,1,0,0:0:0:0:
178,192,28649,1,0,0:0:0:0:
331,192,28649,1,0,0:0:0:0:
382,192,28649,1,0,0:0:0:0:
229,192,29032,1,0,0:0:0:0:
280,192,29032,1,0,0:0:0:0:
331,192,29032,1,0,0:0:0:0:
382,192,29032,1,0,0:0:0:0:
178,192,29414,128,0,29796:0:0:0:0:
229,192,29414,128,0,29987:0:0:0:0:
280,192,29414,128,0,30178:0:0:0:0:
331,192,29414,128,0,29605:0:0:0:0:
331,192,30560,1,0,0:0:0:0:
229,192,30751,1,0,0:0:0:0:
382,192,30942,1,0,0:0:0:0:
331,192,31133,1,0,0:0:0:0:
280,192,31325,1,0,0:0:0:0:
229,192,31420,1,0,0:0:0:0:
178,192,31516,1,0,0:0:0:0:
127,192,31611,1,0,0:0:0:0:
76,192,31707,1,0,0:0:0:0:
25,192,31802,1,0,0:0:0:0:
127,192,31898,1,0,0:0:0:0:
76,192,31993,1,0,0:0:0:0:
178,192,32089,1,0,0:0:0:0:
127,192,32184,1,0,0:0:0:0:
229,192,32280,1,0,0:0:0:0:
178,192,32376,1,0,0:0:0:0:
280,192,32471,128,0,32567:0:0:0:0:
229,192,32662,1,0,0:0:0:0:
178,192,32758,1,0,0:0:0:0:
127,192,32853,1,0,0:0:0:0:
229,192,32949,1,0,0:0:0:0:
25,192,33044,1,0,0:0:0:0:
127,192,33140,1,0,0:0:0:0:
76,192,33235,128,0,33331:0:0:0:0:
178,192,33426,1,0,0:0:0:0:
127,192,33522,1,0,0:0:0:0:
229,192,33618,1,0,0:0:0:0:
178,192,33713,1,0,0:0:0:0:
280,192,33809,1,0,0:0:0:0:
229,192,33904,1,0,0:0:0:0:
178,192,34000,1,0,0:0:0:0:
280,192,34095,1,0,0:0:0:0:
127,192,34191,1,0,0:0:0:0:
229,192,34286,1,0,0:0:0:0:
178,192,34382,128,0,34764:0:0:0:0:
229,192,34764,1,0,0:0:0:0:
280,192,34764,1,0,0:0:0:0:
229,192,34955,128,0,35051:0:0:0:0:
331,192,35146,128,0,35242:0:0:0:0:
178,192,35337,128,0,35433:0:0:0:0:
229,192,35528,128,0,35624:0:0:0:0:
127,192,35719,128,0,35815:0:0:0:0:
25,192,35911,128,0,36006:0:0:0:0:
76,192,36102,128,0,36197:0:0:0:0:
127,192,36293,128,0,36388:0:0:0:0:
25,192,36484,128,0,36579:0:0:0:0:
178,192,36675,128,0,36770:0:0:0:0:
229,192,36866,128,0,36962:0:0:0:0:
280,192,37057,128,0,37153:0:0:0:0:
178,192,37248,128,0,37344:0:0:0:0:
229,192,37439,128,0,37821:0:0:0:0:
178,192,37821,1,0,0:0:0:0:
280,192,37821,1,0,0:0:0:0:
178,192,38012,1,0,0:0:0:0:
229,192,38108,1,0,0:0:0:0:
127,192,38204,1,0,0:0:0:0:
178,192,38299,1,0,0:0:0:0:
76,192,38395,1,0,0:0:0:0:
127,192,38490,1,0,0:0:0:0:
25,192,38586,128,0,38681:0:0:0:0:
76,192,38777,1,0,0:0:0:0:
127,192,38872,1,0,0:0:0:0:
229,192,38968,1,0,0:0:0:0:
178,192,39063,1,0,0:0:0:0:
280,192,39159,1,0,0:0:0:0:
229,192,39255,1,0,0:0:0:0:
178,192,39350,128,0,39446:0:0:0:0:
127,192,39541,1,0,0:0:0:0:
76,192,39637,1,0,0:0:0:0:
25,192,39732,1,0,0:0:0:0:
229,192,39828,1,0,0:0:0:0:
76,192,39923,1,0,0:0:0:0:
229,192,40019,1,0,0:0:0:0:
178,192,40114,1,0,0:0:0:0:
127,192,40210,1,0,0:0:0:0:
178,192,40305,1,0,0:0:0:0:
280,192,40401,1,0,0:0:0:0:
229,192,40497,128,0,40879:0:0:0:0:
127,192,40879,1,0,0:0:0:0:
178,192,40879,1,0,0:0:0:0:
178,192,41070,128,0,41165:0:0:0:0:
127,192,41261,128,0,41356:0:0:0:0:
229,192,41452,128,0,41548:0:0:0:0:
178,192,41643,128,0,41739:0:0:0:0:
280,192,41834,128,0,41930:0:0:0:0:
229,192,42025,128,0,42121:0:0:0:0:
127,192,42216,128,0,42312:0:0:0:0:
280,192,42407,128,0,42503:0:0:0:0:
178,192,42598,128,0,42694:0:0:0:0:
229,192,42790,128,0,42885:0:0:0:0:
280,192,42981,128,0,43076:0:0:0:0:
127,192,43172,128,0,43267:0:0:0:0:
229,192,43363,128,0,43458:0:0:0:0:
25,192,43554,128,0,43936:0:0:0:0:
76,192,43936,1,0,0:0:0:0:
127,192,43936,1,0,0:0:0:0:
25,192,44318,1,0,0:0:0:0:
76,192,44414,1,0,0:0:0:0:
127,192,44509,1,0,0:0:0:0:
178,192,44605,1,0,0:0:0:0:
25,192,44700,1,0,0:0:0:0:
127,192,44796,1,0,0:0:0:0:
229,192,44891,1,0,0:0:0:0:
178,192,44987,1,0,0:0:0:0:
25,192,45083,1,0,0:0:0:0:
76,192,45178,1,0,0:0:0:0:
127,192,45274,1,0,0:0:0:0:
178,192,45369,1,0,0:0:0:0:
229,192,45465,1,0,0:0:0:0:
76,192,45560,1,0,0:0:0:0:
127,192,45656,1,0,0:0:0:0:
178,192,45751,1,0,0:0:0:0:
25,192,45847,1,0,0:0:0:0:
76,192,45942,1,0,0:0:0:0:
127,192,46038,1,0,0:0:0:0:
178,192,46133,1,0,0:0:0:0:
25,192,46229,1,0,0:0:0:0:
127,192,46325,1,0,0:0:0:0:
229,192,46420,1,0,0:0:0:0:
178,192,46516,1,0,0:0:0:0:
127,192,46611,1,0,0:0:0:0:
76,192,46707,1,0,0:0:0:0:
25,192,46802,1,0,0:0:0:0:
127,192,46898,1,0,0:0:0:0:
76,192,46993,1,0,0:0:0:0:
178,192,47089,1,0,0:0:0:0:
229,192,47184,1,0,0:0:0:0:
127,192,47280,1,0,0:0:0:0:
25,192,47376,128,0,47471:0:0:0:0:
127,192,47567,128,0,47662:0:0:0:0:
229,192,47758,128,0,47853:0:0:0:0:
280,192,47949,128,0,48044:0:0:0:0:
331,192,48140,128,0,48235:0:0:0:0:
229,192,48331,128,0,48426:0:0:0:0:
127,192,48522,128,0,48618:0:0:0:0:
178,192,48713,128,0,48809:0:0:0:0:
280,192,48904,128,0,49000:0:0:0:0:
382,192,49095,128,0,49191:0:0:0:0:
331,192,49286,128,0,49382:0:0:0:0:
280,192,49477,128,0,49573:0:0:0:0:
382,192,49669,128,0,49764:0:0:0:0:
484,192,49860,128,0,50051:0:0:0:0:
382,192,50051,1,0,0:0:0:0:
433,192,50051,1,0,0:0:0:0:
484,192,50433,1,0,0:0:0:0:
433,192,50528,1,0,0:0:0:0:
382,192,50624,1,0,0:0:0:0:
331,192,50719,1,0,0:0:0:0:
484,192,50815,1,0,0:0:0:0:
382,192,50911,1,0,0:0:0:0:
280,192,51006,1,0,0:0:0:0:
331,192,51102,1,0,0:0:0:0:
484,192,51197,1,0,0:0:0:0:
433,192,51293,1,0,0:0:0:0:
382,192,51388,1,0,0:0:0:0:
331,192,51484,1,0,0:0:0:0:
280,192,51579,1,0,0:0:0:0:
433,192,51675,1,0,0:0:0:0:
382,192,51770,1,0,0:0:0:0:
331,192,51866,1,0,0:0:0:0:
484,192,51962,1,0,0:0:0:0:
433,192,52057,1,0,0:0:0:0:
382,192,52153,1,0,0:0:0:0:
331,192,52248,1,0,0:0:0:0:
484,192,52344,1,0,0:0:0:0:
382,192,52439,1,0,0:0:0:0:
280,192,52535,1,0,0:0:0:0:
331,192,52630,1,0,0:0:0:0:
484,192,52726,1,0,0:0:0:0:
433,192,52821,1,0,0:0:0:0:
382,192,52917,1,0,0:0:0:0:
331,192,53012,1,0,0:0:0:0:
280,192,53108,1,0,0:0:0:0:
433,192,53204,1,0,0:0:0:0:
382,192,53299,1,0,0:0:0:0:
331,192,53395,1,0,0:0:0:0:
280,192,53490,128,0,53586:0:0:0:0:
229,192,53681,128,0,53777:0:0:0:0:
178,192,53872,128,0,53968:0:0:0:0:
280,192,54063,128,0,54159:0:0:0:0:
331,192,54255,128,0,54350:0:0:0:0:
229,192,54446,128,0,54541:0:0:0:0:
178,192,54637,128,0,54732:0:0:0:0:
127,192,54828,128,0,54923:0:0:0:0:
127,192,55019,1,0,0:0:0:0:
229,192,55019,1,0,0:0:0:0:
280,192,55019,1,0,0:0:0:0:
178,192,55210,1,0,0:0:0:0:
229,192,55210,1,0,0:0:0:0:
280,192,55210,1,0,0:0:0:0:
178,192,55401,1,0,0:0:0:0:
280,192,55401,1,0,0:0:0:0:
382,192,55401,1,0,0:0:0:0:
280,192,55592,1,0,0:0:0:0:
331,192,55592,1,0,0:0:0:0:
382,192,55592,1,0,0:0:0:0:
229,192,55783,1,0,0:0:0:0:
280,192,55783,1,0,0:0:0:0:
382,192,55879,1,0,0:0:0:0:
229,192,55974,1,0,0:0:0:0:
280,192,55974,1,0,0:0:0:0:
331,192,56070,1,0,0:0:0:0:
229,192,56165,1,0,0:0:0:0:
280,192,56165,1,0,0:0:0:0:
178,192,56261,1,0,0:0:0:0:
229,192,56356,1,0,0:0:0:0:
280,192,56356,1,0,0:0:0:0:
331,192,56452,1,0,0:0:0:0:
178,192,56548,1,0,0:0:0:0:
229,192,56548,1,0,0:0:0:0:
280,192,56548,1,0,0:0:0:0:
331,192,56548,1,0,0:0:0:0:
229,192,57312,1,0,0:0:0:0:
280,192,57407,1,0,0:0:0:0:
229,192,57503,1,0,0:0:0:0:
280,192,57598,1,0,0:0:0:0:
229,192,57694,1,0,0:0:0:0:
280,192,57790,1,0,0:0:0:0:
229,192,57885,1,0,0:0:0:0:
280,192,57981,1,0,0:0:0:0:
229,192,58076,1,0,0:0:0:0:
178,192,58172,1,0,0:0:0:0:
127,192,58267,1,0,0:0:0:0:
76,192,58363,1,0,0:0:0:0:
25,192,58458,1,0,0:0:0:0:
127,192,58554,1,0,0:0:0:0:
76,192,58649,1,0,0:0:0:0:
25,192,58745,1,0,0:0:0:0:
127,192,58841,1,0,0:0:0:0:
25,192,58936,1,0,0:0:0:0:
76,192,59032,1,0,0:0:0:0:
127,192,59127,1,0,0:0:0:0:
178,192,59223,1,0,0:0:0:0:
229,192,59318,1,0,0:0:0:0:
127,192,59414,1,0,0:0:0:0:
178,192,59509,1,0,0:0:0:0:
229,192,59605,1,0,0:0:0:0:
127,192,59700,1,0,0:0:0:0:
25,192,59796,1,0,0:0:0:0:
76,192,59891,1,0,0:0:0:0:
127,192,59987,1,0,0:0:0:0:
178,192,60083,1,0,0:0:0:0:
229,192,60178,1,0,0:0:0:0:
280,192,60274,1,0,0:0:0:0:
178,192,60369,1,0,0:0:0:0:
229,192,60465,1,0,0:0:0:0:
331,192,60560,1,0,0:0:0:0:
280,192,60656,1,0,0:0:0:0:
229,192,60751,1,0,0:0:0:0:
382,192,60847,1,0,0:0:0:0:
280,192,60942,1,0,0:0:0:0:
331,192,61038,1,0,0:0:0:0:
382,192,61133,1,0,0:0:0:0:
484,192,61229,1,0,0:0:0:0:
433,192,61325,1,0,0:0:0:0:
382,192,61420,1,0,0:0:0:0:
331,192,61516,1,0,0:0:0:0:
280,192,61611,1,0,0:0:0:0:
382,192,61707,1,0,0:0:0:0:
484,192,61802,1,0,0:0:0:0:
280,192,61898,1,0,0:0:0:0:
382,192,61993,1,0,0:0:0:0:
280,192,62089,1,0,0:0:0:0:
433,192,62184,1,0,0:0:0:0:
382,192,62280,1,0,0:0:0:0:
433,192,62376,1,0,0:0:0:0:
484,192,62471,1,0,0:0:0:0:
382,192,62567,1,0,0:0:0:0:
280,192,62662,1,0,0:0:0:0:
331,192,62758,1,0,0:0:0:0:
382,192,62853,1,0,0:0:0:0:
331,192,62949,1,0,0:0:0:0:
229,192,63044,1,0,0:0:0:0:
382,192,63140,1,0,0:0:0:0:
331,192,63235,1,0,0:0:0:0:
229,192,63331,1,0,0:0:0:0:
331,192,63426,1,0,0:0:0:0:
229,192,63522,1,0,0:0:0:0:
127,192,63618,1,0,0:0:0:0:
178,192,63713,1,0,0:0:0:0:
280,192,63809,1,0,0:0:0:0:
178,192,63904,1,0,0:0:0:0:
127,192,64000,1,0,0:0:0:0:
280,192,64095,1,0,0:0:0:0:
178,192,64191,1,0,0:0:0:0:
280,192,64286,1,0,0:0:0:0:
178,192,64382,1,0,0:0:0:0:
127,192,64477,1,0,0:0:0:0:
178,192,64573,1,0,0:0:0:0:
280,192,64669,1,0,0:0:0:0:
229,192,64764,1,0,0:0:0:0:
331,192,64860,1,0,0:0:0:0:
280,192,64955,1,0,0:0:0:0:
382,192,65051,1,0,0:0:0:0:
331,192,65146,1,0,0:0:0:0:
433,192,65242,1,0,0:0:0:0:
382,192,65337,1,0,0:0:0:0:
484,192,65433,1,0,0:0:0:0:
280,192,65528,1,0,0:0:0:0:
331,192,65624,1,0,0:0:0:0:
229,192,65719,1,0,0:0:0:0:
280,192,65815,1,0,0:0:0:0:
178,192,65911,1,0,0:0:0:0:
229,192,66006,1,0,0:0:0:0:
127,192,66102,1,0,0:0:0:0:
178,192,66197,1,0,0:0:0:0:
76,192,66293,1,0,0:0:0:0:
127,192,66388,1,0,0:0:0:0:
25,192,66484,1,0,0:0:0:0:
76,192,66579,1,0,0:0:0:0:
127,192,66675,1,0,0:0:0:0:
178,192,66770,1,0,0:0:0:0:
229,192,66866,1,0,0:0:0:0:
331,192,66962,1,0,0:0:0:0:
280,192,67057,1,0,0:0:0:0:
382,192,67153,1,0,0:0:0:0:
331,192,67248,1,0,0:0:0:0:
433,192,67344,1,0,0:0:0:0:
382,192,67439,1,0,0:0:0:0:
484,192,67535,1,0,0:0:0:0:
280,192,67630,1,0,0:0:0:0:
331,192,67726,1,0,0:0:0:0:
178,192,67821,1,0,0:0:0:0:
229,192,67917,1,0,0:0:0:0:
127,192,68012,1,0,0:0:0:0:
178,192,68108,1,0,0:0:0:0:
280,192,68204,1,0,0:0:0:0:
382,192,68299,1,0,0:0:0:0:
331,192,68395,1,0,0:0:0:0:
229,192,68490,1,0,0:0:0:0:
127,192,68586,1,0,0:0:0:0:
280,192,68681,1,0,0:0:0:0:
382,192,68777,1,0,0:0:0:0:
280,192,68872,1,0,0:0:0:0:
178,192,68968,1,0,0:0:0:0:
331,192,69063,1,0,0:0:0:0:
229,192,69159,1,0,0:0:0:0:
127,192,69255,1,0,0:0:0:0:
229,192,69350,1,0,0:0:0:0:
382,192,69446,1,0,0:0:0:0:
280,192,69541,1,0,0:0:0:0:
178,192,69637,1,0,0:0:0:0:
127,192,69732,1,0,0:0:0:0:
229,192,69828,1,0,0:0:0:0:
331,192,69923,1,0,0:0:0:0:
382,192,70019,1,0,0:0:0:0:
280,192,70114,1,0,0:0:0:0:
331,192,70210,1,0,0:0:0:0:
127,192,70305,1,0,0:0:0:0:
178,192,70401,1,0,0:0:0:0:
280,192,70497,1,0,0:0:0:0:
382,192,70592,1,0,0:0:0:0:
331,192,70688,1,0,0:0:0:0:
280,192,70783,1,0,0:0:0:0:
229,192,70879,1,0,0:0:0:0:
178,192,70974,1,0,0:0:0:0:
127,192,71070,1,0,0:0:0:0:
229,192,71165,1,0,0:0:0:0:
178,192,71261,1,0,0:0:0:0:
280,192,71356,1,0,0:0:0:0:
229,192,71452,1,0,0:0:0:0:
331,192,71548,1,0,0:0:0:0:
280,192,71643,1,0,0:0:0:0:
229,192,71739,1,0,0:0:0:0:
280,192,71834,1,0,0:0:0:0:
331,192,71930,1,0,0:0:0:0:
229,192,72025,1,0,0:0:0:0:
178,192,72121,1,0,0:0:0:0:
127,192,72216,1,0,0:0:0:0:
229,192,72312,1,0,0:0:0:0:
178,192,72407,1,0,0:0:0:0:
280,192,72503,1,0,0:0:0:0:
331,192,72598,1,0,0:0:0:0:
127,192,72694,1,0,0:0:0:0:
331,192,72790,1,0,0:0:0:0:
229,192,72885,1,0,0:0:0:0:
178,192,72981,1,0,0:0:0:0:
280,192,73076,1,0,0:0:0:0:
229,192,73172,1,0,0:0:0:0:
331,192,73267,1,0,0:0:0:0:
280,192,73363,1,0,0:0:0:0:
178,192,73458,1,0,0:0:0:0:
229,192,73554,1,0,0:0:0:0:
280,192,73649,1,0,0:0:0:0:
127,192,73745,1,0,0:0:0:0:
178,192,73841,1,0,0:0:0:0:
229,192,73936,1,0,0:0:0:0:
280,192,74032,1,0,0:0:0:0:
178,192,74127,1,0,0:0:0:0:
229,192,74223,1,0,0:0:0:0:
280,192,74318,1,0,0:0:0:0:
229,192,74414,1,0,0:0:0:0:
178,192,74509,1,0,0:0:0:0:
127,192,74605,1,0,0:0:0:0:
76,192,74700,1,0,0:0:0:0:
229,192,74796,1,0,0:0:0:0:
127,192,74891,1,0,0:0:0:0:
178,192,74987,1,0,0:0:0:0:
76,192,75083,1,0,0:0:0:0:
127,192,75178,1,0,0:0:0:0:
25,192,75274,1,0,0:0:0:0:
76,192,75369,1,0,0:0:0:0:
127,192,75465,1,0,0:0:0:0:
229,192,75560,1,0,0:0:0:0:
178,192,75656,1,0,0:0:0:0:
280,192,75751,1,0,0:0:0:0:
331,192,75847,1,0,0:0:0:0:
382,192,75942,1,0,0:0:0:0:
280,192,76038,1,0,0:0:0:0:
433,192,76133,1,0,0:0:0:0:
331,192,76229,1,0,0:0:0:0:
484,192,76325,1,0,0:0:0:0:
382,192,76420,1,0,0:0:0:0:
331,192,76516,1,0,0:0:0:0:
280,192,76611,1,0,0:0:0:0:
178,192,76707,1,0,0:0:0:0:
229,192,76802,1,0,0:0:0:0:
127,192,76898,1,0,0:0:0:0:
25,192,76993,1,0,0:0:0:0:
76,192,77089,1,0,0:0:0:0:
127,192,77184,1,0,0:0:0:0:
178,192,77280,1,0,0:0:0:0:
280,192,77376,1,0,0:0:0:0:
331,192,77471,1,0,0:0:0:0:
178,192,77567,1,0,0:0:0:0:
280,192,77662,1,0,0:0:0:0:
382,192,77758,1,0,0:0:0:0:
484,192,77853,1,0,0:0:0:0:
433,192,77949,1,0,0:0:0:0:
382,192,78044,1,0,0:0:0:0:
280,192,78140,1,0,0:0:0:0:
331,192,78235,1,0,0:0:0:0:
382,192,78331,1,0,0:0:0:0:
178,192,78426,1,0,0:0:0:0:
280,192,78522,1,0,0:0:0:0:
229,192,78618,1,0,0:0:0:0:
280,192,78713,1,0,0:0:0:0:
331,192,78809,1,0,0:0:0:0:
229,192,78904,1,0,0:0:0:0:
382,192,79000,1,0,0:0:0:0:
331,192,79095,1,0,0:0:0:0:
229,192,79191,1,0,0:0:0:0:
331,192,79286,1,0,0:0:0:0:
178,192,79382,1,0,0:0:0:0:
280,192,79477,1,0,0:0:0:0:
127,192,79573,1,0,0:0:0:0:
178,192,79669,1,0,0:0:0:0:
280,192,79764,1,0,0:0:0:0:
178,192,79860,1,0,0:0:0:0:
280,192,79955,1,0,0:0:0:0:
178,192,80051,1,0,0:0:0:0:
127,192,80146,1,0,0:0:0:0:
280,192,80242,1,0,0:0:0:0:
178,192,80337,1,0,0:0:0:0:
127,192,80433,1,0,0:0:0:0:
178,192,80528,1,0,0:0:0:0:
280,192,80624,1,0,0:0:0:0:
127,192,80719,1,0,0:0:0:0:
178,192,80815,1,0,0:0:0:0:
229,192,80911,1,0,0:0:0:0:
331,192,81006,1,0,0:0:0:0:
382,192,81006,1,0,0:0:0:0:
127,192,81102,1,0,0:0:0:0:
229,192,81102,1,0,0:0:0:0:
331,192,81197,1,0,0:0:0:0:
382,192,81197,1,0,0:0:0:0:
127,192,81293,1,0,0:0:0:0:
229,192,81293,1,0,0:0:0:0:
331,192,81388,1,0,0:0:0:0:
382,192,81388,1,0,0:0:0:0:
127,192,81484,1,0,0:0:0:0:
229,192,81484,1,0,0:0:0:0:
331,192,81579,1,0,0:0:0:0:
382,192,81579,1,0,0:0:0:0:
127,192,81675,1,0,0:0:0:0:
229,192,81675,1,0,0:0:0:0:
331,192,81770,1,0,0:0:0:0:
382,192,81818,1,0,0:0:0:0:
229,192,81866,1,0,0:0:0:0:
127,192,81914,1,0,0:0:0:0:
331,192,81962,1,0,0:0:0:0:
382,192,82009,1,0,0:0:0:0:
229,192,82057,1,0,0:0:0:0:
127,192,82105,1,0,0:0:0:0:
331,192,82153,1,0,0:0:0:0:
382,192,82200,1,0,0:0:0:0:
229,192,82248,1,0,0:0:0:0:
127,192,82296,1,0,0:0:0:0:
331,192,82344,1,0,0:0:0:0:
382,192,82391,1,0,0:0:0:0:
229,192,82439,1,0,0:0:0:0:
127,192,82487,1,0,0:0:0:0:
331,192,82535,1,0,0:0:0:0:
280,192,82630,1,0,0:0:0:0:
382,192,82726,1,0,0:0:0:0:
331,192,82821,1,0,0:0:0:0:
280,192,82917,1,0,0:0:0:0:
331,192,83012,1,0,0:0:0:0:
382,192,83108,1,0,0:0:0:0:
280,192,83204,1,0,0:0:0:0:
331,192,83299,1,0,0:0:0:0:
280,192,83395,1,0,0:0:0:0:
382,192,83490,1,0,0:0:0:0:
331,192,83586,1,0,0:0:0:0:
280,192,83681,1,0,0:0:0:0:
331,192,83777,1,0,0:0:0:0:
382,192,83872,1,0,0:0:0:0:
229,192,83968,1,0,0:0:0:0:
280,192,84063,1,0,0:0:0:0:
382,192,84063,1,0,0:0:0:0:
178,192,84159,1,0,0:0:0:0:
229,192,84255,1,0,0:0:0:0:
127,192,84350,1,0,0:0:0:0:
229,192,84446,1,0,0:0:0:0:
280,192,84446,128,0,85019:0:0:0:0:
178,192,85592,1,0,0:0:0:0:
229,192,85688,1,0,0:0:0:0:
127,192,85783,1,0,0:0:0:0:
178,192,85879,1,0,0:0:0:0:
229,192,85974,1,0,0:0:0:0:
178,192,86070,1,0,0:0:0:0:
127,192,86165,1,0,0:0:0:0:
229,192,86261,1,0,0:0:0:0:
178,192,86356,1,0,0:0:0:0:
229,192,86452,1,0,0:0:0:0:
127,192,86548,1,0,0:0:0:0:
178,192,86643,1,0,0:0:0:0:
229,192,86739,1,0,0:0:0:0:
127,192,86834,1,0,0:0:0:0:
229,192,86930,1,0,0:0:0:0:
331,192,87025,1,0,0:0:0:0:
229,192,87121,1,0,0:0:0:0:
280,192,87121,1,0,0:0:0:0:
382,192,87216,1,0,0:0:0:0:
178,192,87312,1,0,0:0:0:0:
280,192,87407,1,0,0:0:0:0:
178,192,87503,128,0,87885:0:0:0:0:
331,192,87503,1,0,0:0:0:0:
280,192,88267,1,0,0:0:0:0:
382,192,88267,1,0,0:0:0:0:
331,192,88363,1,0,0:0:0:0:
280,192,88458,1,0,0:0:0:0:
382,192,88458,1,0,0:0:0:0:
178,192,88554,1,0,0:0:0:0:
280,192,88649,1,0,0:0:0:0:
382,192,88649,1,0,0:0:0:0:
127,192,88745,1,0,0:0:0:0:
280,192,88841,1,0,0:0:0:0:
382,192,88841,1,0,0:0:0:0:
229,192,88936,1,0,0:0:0:0:
229,192,89032,1,0,0:0:0:0:
280,192,89032,1,0,0:0:0:0:
382,192,89032,1,0,0:0:0:0:
127,192,89796,1,0,0:0:0:0:
178,192,89796,1,0,0:0:0:0:
229,192,89891,1,0,0:0:0:0:
127,192,89987,1,0,0:0:0:0:
178,192,89987,1,0,0:0:0:0:
280,192,90083,1,0,0:0:0:0:
127,192,90178,1,0,0:0:0:0:
178,192,90178,1,0,0:0:0:0:
382,192,90274,1,0,0:0:0:0:
127,192,90369,1,0,0:0:0:0:
178,192,90369,1,0,0:0:0:0:
280,192,90465,1,0,0:0:0:0:
127,192,90560,1,0,0:0:0:0:
178,192,90560,1,0,0:0:0:0:
280,192,90560,1,0,0:0:0:0:
127,192,91325,1,0,0:0:0:0:
229,192,91325,1,0,0:0:0:0:
280,192,91420,1,0,0:0:0:0:
127,192,91516,1,0,0:0:0:0:
229,192,91516,1,0,0:0:0:0:
331,192,91611,1,0,0:0:0:0:
229,192,91707,1,0,0:0:0:0:
280,192,91707,1,0,0:0:0:0:
382,192,91802,1,0,0:0:0:0:
229,192,91898,1,0,0:0:0:0:
280,192,91898,1,0,0:0:0:0:
331,192,91993,1,0,0:0:0:0:
127,192,92089,1,0,0:0:0:0:
229,192,92089,1,0,0:0:0:0:
382,192,92184,1,0,0:0:0:0:
127,192,92280,1,0,0:0:0:0:
229,192,92280,1,0,0:0:0:0:
280,192,92376,1,0,0:0:0:0:
127,192,92471,1,0,0:0:0:0:
178,192,92471,1,0,0:0:0:0:
229,192,92567,1,0,0:0:0:0:
127,192,92662,1,0,0:0:0:0:
178,192,92662,1,0,0:0:0:0:
280,192,92758,1,0,0:0:0:0:
127,192,92853,1,0,0:0:0:0:
229,192,92853,1,0,0:0:0:0:
280,192,92949,1,0,0:0:0:0:
127,192,93044,1,0,0:0:0:0:
229,192,93044,1,0,0:0:0:0:
178,192,93140,1,0,0:0:0:0:
229,192,93235,1,0,0:0:0:0:
280,192,93235,1,0,0:0:0:0:
331,192,93331,1,0,0:0:0:0:
229,192,93426,1,0,0:0:0:0:
280,192,93426,1,0,0:0:0:0:
382,192,93522,1,0,0:0:0:0:
229,192,93618,1,0,0:0:0:0:
280,192,93618,1,0,0:0:0:0:
229,192,94764,1,0,0:0:0:0:
331,192,94955,1,0,0:0:0:0:
280,192,95146,1,0,0:0:0:0:
382,192,95337,1,0,0:0:0:0:
331,192,95528,1,0,0:0:0:0:
280,192,95624,1,0,0:0:0:0:
229,192,95719,1,0,0:0:0:0:
178,192,95815,1,0,0:0:0:0:
127,192,95911,1,0,0:0:0:0:
76,192,96006,1,0,0:0:0:0:
25,192,96102,1,0,0:0:0:0:
127,192,96197,1,0,0:0:0:0:
229,192,96293,1,0,0:0:0:0:
280,192,96388,1,0,0:0:0:0:
229,192,96484,1,0,0:0:0:0:
280,192,96579,1,0,0:0:0:0:
229,192,96675,1,0,0:0:0:0:
280,192,96770,1,0,0:0:0:0:
229,192,96866,1,0,0:0:0:0:
280,192,96962,1,0,0:0:0:0:
229,192,97057,1,0,0:0:0:0:
280,192,97153,1,0,0:0:0:0:
229,192,97248,1,0,0:0:0:0:
280,192,97344,1,0,0:0:0:0:
229,192,97439,1,0,0:0:0:0:
280,192,97535,1,0,0:0:0:0:
229,192,97630,1,0,0:0:0:0:
280,192,97726,1,0,0:0:0:0:
229,192,97821,1,0,0:0:0:0:
178,192,97917,1,0,0:0:0:0:
229,192,98012,1,0,0:0:0:0:
178,192,98108,1,0,0:0:0:0:
229,192,98204,1,0,0:0:0:0:
178,192,98299,1,0,0:0:0:0:
229,192,98395,1,0,0:0:0:0:
178,192,98490,1,0,0:0:0:0:
229,192,98586,1,0,0:0:0:0:
178,192,98681,1,0,0:0:0:0:
229,192,98777,1,0,0:0:0:0:
178,192,98872,1,0,0:0:0:0:
229,192,98968,1,0,0:0:0:0:
178,192,99063,1,0,0:0:0:0:
229,192,99159,1,0,0:0:0:0:
178,192,99255,1,0,0:0:0:0:
229,192,99350,1,0,0:0:0:0:
331,192,99446,1,0,0:0:0:0:
280,192,99541,1,0,0:0:0:0:
331,192,99637,1,0,0:0:0:0:
280,192,99732,1,0,0:0:0:0:
331,192,99828,1,0,0:0:0:0:
280,192,99923,1,0,0:0:0:0:
331,192,100019,1,0,0:0:0:0:
280,192,100114,1,0,0:0:0:0:
382,192,100210,1,0,0:0:0:0:
331,192,100305,1,0,0:0:0:0:
382,192,100401,1,0,0:0:0:0:
331,192,100497,1,0,0:0:0:0:
382,192,100592,1,0,0:0:0:0:
331,192,100688,1,0,0:0:0:0:
382,192,100783,1,0,0:0:0:0:
331,192,100879,1,0,0:0:0:0:
382,192,100974,1,0,0:0:0:0:
331,192,101070,1,0,0:0:0:0:
382,192,101165,1,0,0:0:0:0:
280,192,101261,1,0,0:0:0:0:
484,192,101356,1,0,0:0:0:0:
382,192,101452,1,0,0:0:0:0:
484,192,101548,1,0,0:0:0:0:
382,192,101643,1,0,0:0:0:0:
484,192,101739,1,0,0:0:0:0:
331,192,101834,1,0,0:0:0:0:
280,192,101930,1,0,0:0:0:0:
331,192,102025,1,0,0:0:0:0:
280,192,102121,1,0,0:0:0:0:
331,192,102216,1,0,0:0:0:0:
280,192,102312,1,0,0:0:0:0:
331,192,102407,1,0,0:0:0:0:
229,192,102503,1,0,0:0:0:0:
178,192,102598,1,0,0:0:0:0:
280,192,102694,1,0,0:0:0:0:
229,192,102790,1,0,0:0:0:0:
331,192,102885,1,0,0:0:0:0:
280,192,102981,1,0,0:0:0:0:
178,192,103076,1,0,0:0:0:0:
229,192,103172,1,0,0:0:0:0:
280,192,103267,1,0,0:0:0:0:
331,192,103363,1,0,0:0:0:0:
382,192,103458,1,0,0:0:0:0:
178,192,103554,1,0,0:0:0:0:
229,192,103649,1,0,0:0:0:0:
127,192,103745,1,0,0:0:0:0:
280,192,103841,1,0,0:0:0:0:
331,192,103936,1,0,0:0:0:0:
382,192,104032,1,0,0:0:0:0:
178,192,104127,1,0,0:0:0:0:
280,192,104223,1,0,0:0:0:0:
229,192,104318,1,0,0:0:0:0:
331,192,104414,1,0,0:0:0:0:
280,192,104509,1,0,0:0:0:0:
382,192,104605,1,0,0:0:0:0:
229,192,104700,1,0,0:0:0:0:
178,192,104796,1,0,0:0:0:0:
127,192,104891,1,0,0:0:0:0:
280,192,104987,1,0,0:0:0:0:
229,192,105083,1,0,0:0:0:0:
331,192,105178,1,0,0:0:0:0:
382,192,105274,1,0,0:0:0:0:
331,192,105369,1,0,0:0:0:0:
280,192,105465,1,0,0:0:0:0:
178,192,105560,1,0,0:0:0:0:
229,192,105656,1,0,0:0:0:0:
127,192,105751,1,0,0:0:0:0:
229,192,105847,1,0,0:0:0:0:
178,192,105942,1,0,0:0:0:0:
280,192,106038,1,0,0:0:0:0:
331,192,106133,1,0,0:0:0:0:
229,192,106229,1,0,0:0:0:0:
280,192,106325,1,0,0:0:0:0:
178,192,106420,1,0,0:0:0:0:
229,192,106516,1,0,0:0:0:0:
127,192,106611,1,0,0:0:0:0:
280,192,106707,1,0,0:0:0:0:
229,192,106802,1,0,0:0:0:0:
331,192,106898,1,0,0:0:0:0:
280,192,106993,1,0,0:0:0:0:
382,192,107089,1,0,0:0:0:0:
331,192,107184,1,0,0:0:0:0:
280,192,107280,1,0,0:0:0:0:
229,192,107376,1,0,0:0:0:0:
127,192,107471,1,0,0:0:0:0:
25,192,107567,1,0,0:0:0:0:
76,192,107662,1,0,0:0:0:0:
127,192,107758,1,0,0:0:0:0:
178,192,107853,1,0,0:0:0:0:
280,192,107949,1,0,0:0:0:0:
331,192,108044,1,0,0:0:0:0:
382,192,108140,1,0,0:0:0:0:
433,192,108235,1,0,0:0:0:0:
280,192,108331,1,0,0:0:0:0:
331,192,108426,1,0,0:0:0:0:
229,192,108522,1,0,0:0:0:0:
280,192,108522,1,0,0:0:0:0:
229,192,109095,1,0,0:0:0:0:
280,192,109095,1,0,0:0:0:0:
331,192,109191,1,0,0:0:0:0:
229,192,109286,1,0,0:0:0:0:
280,192,109286,1,0,0:0:0:0:
382,192,109382,1,0,0:0:0:0:
127,192,109477,1,0,0:0:0:0:
229,192,109477,1,0,0:0:0:0:
280,192,109573,1,0,0:0:0:0:
127,192,109669,1,0,0:0:0:0:
229,192,109669,1,0,0:0:0:0:
178,192,109764,1,0,0:0:0:0:
76,192,109860,1,0,0:0:0:0:
127,192,109860,1,0,0:0:0:0:
229,192,109955,1,0,0:0:0:0:
127,192,110051,1,0,0:0:0:0:
229,192,110146,1,0,0:0:0:0:
280,192,110146,1,0,0:0:0:0:
178,192,110242,1,0,0:0:0:0:
280,192,110337,1,0,0:0:0:0:
382,192,110337,1,0,0:0:0:0:
229,192,110433,1,0,0:0:0:0:
280,192,110528,1,0,0:0:0:0:
382,192,110528,1,0,0:0:0:0:
178,192,110624,1,0,0:0:0:0:
229,192,110719,1,0,0:0:0:0:
280,192,110719,1,0,0:0:0:0:
127,192,110815,1,0,0:0:0:0:
382,192,110911,1,0,0:0:0:0:
229,192,111006,1,0,0:0:0:0:
280,192,111006,1,0,0:0:0:0:
331,192,111102,1,0,0:0:0:0:
127,192,111197,1,0,0:0:0:0:
229,192,111197,1,0,0:0:0:0:
331,192,111293,1,0,0:0:0:0:
382,192,111293,1,0,0:0:0:0:
229,192,111388,1,0,0:0:0:0:
280,192,111388,1,0,0:0:0:0:
178,192,111484,1,0,0:0:0:0:
229,192,111579,1,0,0:0:0:0:
280,192,111579,1,0,0:0:0:0:
331,192,111675,1,0,0:0:0:0:
382,192,111675,1,0,0:0:0:0:
127,192,111770,1,0,0:0:0:0:
229,192,111770,1,0,0:0:0:0:
280,192,111866,1,0,0:0:0:0:
382,192,111866,1,0,0:0:0:0:
178,192,111962,1,0,0:0:0:0:
229,192,112057,1,0,0:0:0:0:
280,192,112057,1,0,0:0:0:0:
127,192,112153,1,0,0:0:0:0:
229,192,112248,1,0,0:0:0:0:
280,192,112248,1,0,0:0:0:0:
76,192,112344,1,0,0:0:0:0:
229,192,112439,1,0,0:0:0:0:
280,192,112439,1,0,0:0:0:0:
127,192,112535,1,0,0:0:0:0:
229,192,112630,1,0,0:0:0:0:
280,192,112630,1,0,0:0:0:0:
178,192,112726,1,0,0:0:0:0:
280,192,112821,1,0,0:0:0:0:
382,192,112821,1,0,0:0:0:0:
127,192,112917,1,0,0:0:0:0:
229,192,112917,1,0,0:0:0:0:
331,192,113012,1,0,0:0:0:0:
382,192,113012,1,0,0:0:0:0:
229,192,113108,1,0,0:0:0:0:
280,192,113108,1,0,0:0:0:0:
76,192,113490,128,0,116165:0:0:0:0:
127,192,113490,128,0,116165:0:0:0:0:
229,192,113490,128,0,116165:0:0:0:0:
280,192,113490,128,0,116165:0:0:0:0:
