osu file format v14

[General]
AudioFilename: 15C5.mp3
AudioLeadIn: 0
PreviewTime: -1
Countdown: 0
SampleSet: None
StackLeniency: 0.7
Mode: 3
LetterboxInBreaks: 0
SpecialStyle: 0
WidescreenStoryboard: 0

[Editor]
DistanceSpacing: 0.8
BeatDivisor: 2
GridSize: 32
TimelineZoom: 1

[Metadata]
Title:Fallen Angel
TitleUnicode:Fallen Angel
Artist:DM Ashura ft. Ariel
ArtistUnicode:DM Ashura ft. Ariel
Creator:Arnon
Version:DP 03 New
Source:Pump It Up: Prime 2
Tags:
BeatmapID:1852141
BeatmapSetID:885972

[Difficulty]
HPDrainRate:5
CircleSize:10
OverallDifficulty:3
ApproachRate:5
SliderMultiplier:1.4
SliderTickRate:1

[Events]
//Background and Video events
0,0,"15C5-wide.png",0,0
Video,0,"video.mp4"
//Break Periods
//Storyboard Layer 0 (Background)
//Storyboard Layer 1 (Fail)
//Storyboard Layer 2 (Pass)
//Storyboard Layer 3 (Foreground)
//Storyboard Sound Samples

[TimingPoints]
0,382.165605,4,1,0,0,1,0

[HitObjects]
382,192,12038,5,0,0:0:0:0:
280,192,12229,1,0,0:0:0:0:
484,192,12994,1,0,0:0:0:0:
280,192,13758,1,0,0:0:0:0:
229,192,14522,1,0,0:0:0:0:
25,192,15287,1,0,0:0:0:0:
127,192,16051,1,0,0:0:0:0:
127,192,16815,128,0,17197:0:0:0:0:
229,192,18344,1,0,0:0:0:0:
229,192,19108,1,0,0:0:0:0:
229,192,19873,1,0,0:0:0:0:
25,192,20255,1,0,0:0:0:0:
280,192,21401,1,0,0:0:0:0:
280,192,22166,1,0,0:0:0:0:
280,192,22930,1,0,0:0:0:0:
484,192,23312,1,0,0:0:0:0:
229,192,24076,1,0,0:0:0:0:
280,192,24459,1,0,0:0:0:0:
127,192,24841,1,0,0:0:0:0:
280,192,25605,1,0,0:0:0:0:
229,192,25987,1,0,0:0:0:0:
382,192,26369,1,0,0:0:0:0:
127,192,27134,1,0,0:0:0:0:
280,192,27516,1,0,0:0:0:0:
229,192,27898,1,0,0:0:0:0:
331,192,28280,1,0,0:0:0:0:
178,192,28662,1,0,0:0:0:0:
280,192,29045,1,0,0:0:0:0:
382,192,29427,1,0,0:0:0:0:
229,192,32102,1,0,0:0:0:0:
25,192,33631,1,0,0:0:0:0:
127,192,35159,1,0,0:0:0:0:
76,192,36688,1,0,0:0:0:0:
280,192,38217,1,0,0:0:0:0:
484,192,39745,1,0,0:0:0:0:
382,192,41274,1,0,0:0:0:0:
433,192,42803,1,0,0:0:0:0:
484,192,44331,1,0,0:0:0:0:
433,192,45096,1,0,0:0:0:0:
484,192,45860,1,0,0:0:0:0:
331,192,46624,1,0,0:0:0:0:
382,192,47389,1,0,0:0:0:0:
280,192,48153,1,0,0:0:0:0:
178,192,48917,1,0,0:0:0:0:
127,192,49299,1,0,0:0:0:0:
229,192,49682,1,0,0:0:0:0:
25,192,50446,1,0,0:0:0:0:
76,192,51210,1,0,0:0:0:0:
25,192,51975,1,0,0:0:0:0:
178,192,52739,1,0,0:0:0:0:
127,192,53503,1,0,0:0:0:0:
229,192,54268,1,0,0:0:0:0:
331,192,55032,1,0,0:0:0:0:
382,192,55414,1,0,0:0:0:0:
280,192,55796,1,0,0:0:0:0:
331,192,56178,1,0,0:0:0:0:
178,192,56561,1,0,0:0:0:0:
127,192,57707,1,0,0:0:0:0:
25,192,58089,128,0,58280:0:0:0:0:
229,192,58854,128,0,59045:0:0:0:0:
25,192,59618,128,0,59809:0:0:0:0:
280,192,60764,1,0,0:0:0:0:
178,192,61146,128,0,61338:0:0:0:0:
331,192,61911,128,0,62102:0:0:0:0:
178,192,62675,128,0,62866:0:0:0:0:
382,192,63822,1,0,0:0:0:0:
229,192,64204,1,0,0:0:0:0:
229,192,64777,128,0,64968:0:0:0:0:
331,192,65350,1,0,0:0:0:0:
127,192,66879,1,0,0:0:0:0:
280,192,67261,1,0,0:0:0:0:
280,192,67834,128,0,68025:0:0:0:0:
178,192,68408,1,0,0:0:0:0:
382,192,69936,1,0,0:0:0:0:
433,192,70318,128,0,70510:0:0:0:0:
331,192,71083,128,0,71274:0:0:0:0:
433,192,71847,128,0,72038:0:0:0:0:
178,192,72994,1,0,0:0:0:0:
280,192,73376,128,0,73567:0:0:0:0:
229,192,74140,128,0,74331:0:0:0:0:
280,192,74904,128,0,75096:0:0:0:0:
127,192,76051,1,0,0:0:0:0:
280,192,76433,1,0,0:0:0:0:
229,192,77580,1,0,0:0:0:0:
331,192,77962,1,0,0:0:0:0:
280,192,78726,1,0,0:0:0:0:
382,192,79490,1,0,0:0:0:0:
331,192,80255,1,0,0:0:0:0:
229,192,81019,1,0,0:0:0:0:
127,192,81783,1,0,0:0:0:0:
178,192,82548,1,0,0:0:0:0:
178,192,83312,1,0,0:0:0:0:
178,192,84076,1,0,0:0:0:0:
25,192,84459,1,0,0:0:0:0:
331,192,85605,1,0,0:0:0:0:
331,192,86369,1,0,0:0:0:0:
331,192,87134,1,0,0:0:0:0:
484,192,87516,1,0,0:0:0:0:
178,192,88280,1,0,0:0:0:0:
331,192,88662,1,0,0:0:0:0:
382,192,89045,1,0,0:0:0:0:
331,192,89809,1,0,0:0:0:0:
178,192,90191,1,0,0:0:0:0:
127,192,90573,1,0,0:0:0:0:
382,192,91338,1,0,0:0:0:0:
178,192,91720,1,0,0:0:0:0:
331,192,92102,1,0,0:0:0:0:
229,192,92484,1,0,0:0:0:0:
280,192,92866,1,0,0:0:0:0:
178,192,93248,1,0,0:0:0:0:
127,192,93631,1,0,0:0:0:0:
25,192,96306,1,0,0:0:0:0:
127,192,97834,1,0,0:0:0:0:
280,192,99363,1,0,0:0:0:0:
382,192,100892,1,0,0:0:0:0:
433,192,102420,1,0,0:0:0:0:
382,192,103949,1,0,0:0:0:0:
178,192,105478,1,0,0:0:0:0:
127,192,107006,1,0,0:0:0:0:
127,192,108344,1,0,0:0:0:0:
178,192,108535,1,0,0:0:0:0:
76,192,109299,1,0,0:0:0:0:
178,192,110064,1,0,0:0:0:0:
331,192,110828,1,0,0:0:0:0:
433,192,111592,1,0,0:0:0:0:
382,192,112357,1,0,0:0:0:0:
178,192,113503,128,0,114076:0:0:0:0:
280,192,113503,128,0,114076:0:0:0:0:
