osu file format v14

[General]
AudioFilename: DM Ashura (ft. Hanna and Skizzo) - Move That Body [PIU Prime].mp3
AudioLeadIn: 0
PreviewTime: 94787
Countdown: 0
SampleSet: Soft
StackLeniency: 0.7
Mode: 3
LetterboxInBreaks: 0
SpecialStyle: 0
WidescreenStoryboard: 0

[Editor]
DistanceSpacing: 1.2
BeatDivisor: 4
GridSize: 4
TimelineZoom: 1.2

[Metadata]
Title:Move That Body!
TitleUnicode:Move That Body!
Artist:DM Ashura feat. Skizzo & Hanna
ArtistUnicode:DM Ashura feat. Skizzo & Hanna
Creator:AJIekceu
Version:NM
Source:Pump It Up 2015 Prime
Tags:alexey arcade dance andamiro piu eurodance allezard
BeatmapID:732830
BeatmapSetID:330717

[Difficulty]
HPDrainRate:7
CircleSize:4
OverallDifficulty:7.5
ApproachRate:5
SliderMultiplier:1.4
SliderTickRate:1

[Events]
//Background and Video events
Video,620,"Move That Body.avi"
0,0,"1428-wide Edited.png",0,0
//Break Periods
//Storyboard Layer 0 (Background)
//Storyboard Layer 1 (Fail)
//Storyboard Layer 2 (Pass)
//Storyboard Layer 3 (Foreground)
//Storyboard Sound Samples

[TimingPoints]
650,413.793103448276,4,2,1,50,1,0
13891,-100,4,2,1,50,0,1
27132,-100,4,2,1,50,0,0
70167,-100,4,2,1,50,0,1
83408,-100,4,2,1,50,0,0
96650,-100,4,2,1,50,0,1
109891,-100,4,2,1,50,0,0

[HitObjects]
192,192,650,5,8,0:2:0:0:
448,192,650,1,4,0:2:0:0:
64,192,856,1,2,0:2:0:0:
320,192,1063,1,8,0:2:0:0:
192,192,1270,1,2,0:2:0:0:
448,192,1477,128,0,1891:0:0:0:0:
64,192,1477,1,0,0:0:0:0:
192,192,1684,1,2,0:2:0:0:
64,192,1891,1,8,0:2:0:0:
320,192,2098,1,2,0:2:0:0:
192,192,2305,1,8,0:2:0:0:
64,192,2512,1,2,0:2:0:0:
448,192,2718,1,0,0:2:0:0:
320,192,2718,1,8,0:2:0:0:
192,192,2925,1,2,0:2:0:0:
320,192,3132,1,8,0:2:0:0:
192,192,3339,1,2,0:2:0:0:
64,192,3546,1,8,0:2:0:0:
448,192,3546,1,0,0:2:0:0:
320,192,3753,1,2,0:2:0:0:
448,192,3960,128,8,4167:0:2:0:0:
192,192,4167,1,2,0:2:0:0:
448,192,4374,1,0,0:2:0:0:
64,192,4374,128,8,4581:0:2:0:0:
320,192,4581,1,2,0:2:0:0:
192,192,4787,1,8,0:2:0:0:
64,192,4994,1,2,0:2:0:0:
320,192,5201,1,8,0:2:0:0:
448,192,5201,1,0,0:0:0:0:
192,192,5408,1,2,0:2:0:0:
64,192,5615,1,8,0:2:0:0:
192,192,5822,1,2,0:2:0:0:
448,192,5925,1,0,0:2:0:0:
320,192,6029,1,8,0:2:0:0:
64,192,6029,1,0,0:0:0:0:
192,192,6236,1,2,0:2:0:0:
320,192,6443,1,8,0:2:0:0:
64,192,6650,1,2,0:2:0:0:
320,192,6753,1,0,0:2:0:0:
192,192,6856,1,8,0:2:0:0:
448,192,6856,1,0,0:0:0:0:
64,192,7063,1,10,0:2:0:0:
192,192,7167,1,6,0:2:0:0:
320,192,7270,1,8,0:2:0:0:
448,192,7270,1,4,0:2:0:0:
192,192,7477,1,2,0:2:0:0:
64,192,7684,1,8,0:2:0:0:
320,192,7684,1,0,0:2:0:0:
448,192,7891,1,2,0:2:0:0:
192,192,8098,1,8,0:2:0:0:
64,192,8098,128,0,8512:0:2:0:0:
448,192,8305,1,2,0:0:0:0:
320,192,8512,1,8,0:2:0:0:
448,192,8718,1,2,0:2:0:0:
192,192,8925,1,0,0:2:0:0:
64,192,8925,1,8,0:2:0:0:
320,192,9132,1,2,0:2:0:0:
64,192,9236,1,0,0:2:0:0:
192,192,9339,1,8,0:2:0:0:
448,192,9339,1,0,0:0:0:0:
320,192,9546,1,2,0:2:0:0:
192,192,9753,1,8,0:2:0:0:
64,192,9960,1,2,0:2:0:0:
192,192,10063,1,0,0:2:0:0:
320,192,10167,1,8,0:2:0:0:
448,192,10167,1,0,0:2:0:0:
64,192,10374,1,2,0:2:0:0:
320,192,10581,1,12,0:2:0:0:
192,192,10787,1,10,0:2:0:0:
448,192,10994,1,4,0:2:0:0:
320,192,10994,1,8,0:0:0:0:
64,192,11201,1,10,0:2:0:0:
448,192,11408,1,12,0:2:0:0:
192,192,11615,1,10,0:2:0:0:
320,192,11822,1,4,0:2:0:0:
64,192,11822,1,8,0:0:0:0:
448,192,12029,1,10,0:2:0:0:
320,192,12236,1,12,0:2:0:0:
64,192,12443,1,0,0:2:0:0:
64,192,12650,1,0,0:2:0:0:
448,192,12856,1,0,0:2:0:0:
320,192,13063,1,12,0:2:0:0:
64,192,13167,1,12,0:2:0:0:
192,192,13374,1,12,0:2:0:0:
448,192,13477,1,12,0:2:0:0:
320,192,13684,1,12,0:2:0:0:
192,192,13787,1,12,0:0:0:0:
448,192,13891,1,8,0:2:0:0:
64,192,13891,1,6,0:2:0:0:
192,192,14098,1,0,0:2:0:0:
320,192,14305,1,8,0:2:0:0:
448,192,14305,1,0,0:2:0:0:
192,192,14512,1,0,0:2:0:0:
64,192,14718,1,8,0:2:0:0:
448,192,14718,1,0,0:2:0:0:
320,192,14925,1,0,0:2:0:0:
192,192,15132,1,8,0:2:0:0:
64,192,15132,1,0,0:2:0:0:
320,192,15339,1,0,0:2:0:0:
192,192,15546,1,2,0:2:0:0:
448,192,15546,1,8,0:2:0:0:
320,192,15753,1,2,0:2:0:0:
448,192,15960,1,2,0:2:0:0:
64,192,15960,1,8,0:2:0:0:
320,192,16167,1,2,0:2:0:0:
64,192,16270,1,2,0:2:0:0:
64,192,16477,1,2,0:2:0:0:
448,192,16581,1,2,0:2:0:0:
320,192,16787,128,10,16994:0:2:0:0:
192,192,16994,1,2,0:2:0:0:
64,192,17201,1,8,0:2:0:0:
448,192,17201,1,0,0:2:0:0:
320,192,17408,1,0,0:2:0:0:
192,192,17615,1,8,0:2:0:0:
448,192,17615,1,0,0:2:0:0:
320,192,17822,1,0,0:2:0:0:
64,192,18029,1,8,0:2:0:0:
448,192,18029,1,0,0:2:0:0:
192,192,18236,1,0,0:2:0:0:
64,192,18443,1,8,0:2:0:0:
320,192,18443,1,0,0:2:0:0:
448,192,18650,1,0,0:2:0:0:
320,192,18753,1,0,0:0:0:0:
192,192,18856,1,8,0:2:0:0:
64,192,18856,1,2,0:2:0:0:
320,192,19270,1,2,0:2:0:0:
448,192,19270,1,8,0:2:0:0:
64,192,19477,1,0,0:0:0:0:
320,192,19581,1,2,0:0:0:0:
448,192,19787,1,2,0:2:0:0:
192,192,19891,1,2,0:2:0:0:
64,192,20098,1,2,0:2:0:0:
448,192,20098,128,8,20305:0:2:0:0:
192,192,20305,1,10,0:2:0:0:
320,192,20512,1,8,0:2:0:0:
64,192,20512,1,6,0:2:0:0:
192,192,20718,1,0,0:2:0:0:
448,192,20925,1,0,0:2:0:0:
320,192,20925,1,8,0:2:0:0:
192,192,21132,1,0,0:2:0:0:
64,192,21339,1,8,0:2:0:0:
448,192,21339,1,0,0:2:0:0:
192,192,21546,1,0,0:2:0:0:
320,192,21753,1,8,0:2:0:0:
448,192,21753,1,0,0:2:0:0:
192,192,21960,1,0,0:2:0:0:
320,192,22167,1,8,0:2:0:0:
64,192,22167,1,2,0:0:0:0:
448,192,22374,1,2,0:2:0:0:
64,192,22581,1,2,0:2:0:0:
320,192,22581,1,8,0:0:0:0:
192,192,22787,1,2,0:2:0:0:
448,192,22891,1,2,0:2:0:0:
448,192,23098,1,2,0:2:0:0:
64,192,23201,1,2,0:2:0:0:
192,192,23408,128,2,23615:0:2:0:0:
448,192,23408,1,8,0:2:0:0:
64,192,23615,1,2,0:2:0:0:
320,192,23822,1,0,0:2:0:0:
448,192,23822,1,8,0:2:0:0:
192,192,24029,1,0,0:2:0:0:
320,192,24236,1,8,0:2:0:0:
64,192,24236,1,0,0:0:0:0:
448,192,24443,1,0,0:2:0:0:
192,192,24650,1,8,0:2:0:0:
320,192,24650,1,0,0:2:0:0:
64,192,24856,1,0,0:2:0:0:
448,192,25063,1,0,0:2:0:0:
192,192,25063,1,8,0:2:0:0:
320,192,25270,1,0,0:2:0:0:
448,192,25477,1,2,0:2:0:0:
64,192,25477,1,8,0:2:0:0:
320,192,25891,1,2,0:2:0:0:
64,192,25891,1,8,0:2:0:0:
448,192,26098,1,0,0:0:0:0:
192,192,26201,1,2,0:0:0:0:
64,192,26408,1,2,0:2:0:0:
320,192,26512,1,10,0:2:0:0:
448,192,26718,1,8,0:2:0:0:
64,192,26925,1,12,0:2:0:0:
192,192,27029,1,12,0:2:0:0:
320,192,27132,1,6,0:2:0:0:
448,192,27132,1,8,0:2:0:0:
64,192,27339,1,0,0:2:0:0:
320,192,27546,1,8,0:2:0:0:
448,192,27753,1,0,0:2:0:0:
64,192,27856,1,0,0:2:0:0:
192,192,27960,1,8,0:2:0:0:
320,192,28063,1,0,0:2:0:0:
448,192,28167,1,0,0:2:0:0:
192,192,28374,1,8,0:2:0:0:
320,192,28581,1,0,0:2:0:0:
64,192,28787,1,4,0:2:0:0:
448,192,28787,1,8,0:2:0:0:
192,192,29098,1,12,0:2:0:0:
64,192,29201,1,12,0:0:0:0:
448,192,29408,1,8,0:2:0:0:
320,192,29408,1,2,0:2:0:0:
192,192,29615,128,10,29822:0:2:0:0:
64,192,29822,128,2,30029:0:2:0:0:
320,192,30029,128,2,30236:0:2:0:0:
448,192,30236,128,6,30443:0:2:0:0:
320,192,30443,1,8,0:2:0:0:
192,192,30443,1,2,0:2:0:0:
64,192,30650,1,0,0:2:0:0:
448,192,30856,1,8,0:2:0:0:
192,192,30856,1,2,0:2:0:0:
320,192,31063,1,0,0:2:0:0:
64,192,31270,1,8,0:2:0:0:
192,192,31270,1,0,0:2:0:0:
448,192,31477,1,0,0:2:0:0:
320,192,31684,1,0,0:2:0:0:
64,192,31684,1,8,0:2:0:0:
192,192,31891,1,0,0:2:0:0:
64,192,32098,1,8,0:2:0:0:
448,192,32098,1,0,0:2:0:0:
320,192,32305,1,0,0:2:0:0:
192,192,32512,1,8,0:2:0:0:
448,192,32512,1,0,0:2:0:0:
64,192,32718,1,0,0:2:0:0:
320,192,32925,1,0,0:2:0:0:
448,192,32925,1,8,0:2:0:0:
64,192,33132,1,0,0:2:0:0:
192,192,33339,1,8,0:2:0:0:
320,192,33339,1,0,0:2:0:0:
448,192,33546,1,0,0:2:0:0:
320,192,33753,1,2,0:2:0:0:
192,192,33753,128,8,34167:0:2:0:0:
448,192,33960,1,0,0:2:0:0:
64,192,34167,128,2,34581:0:2:0:0:
320,192,34167,1,8,0:2:0:0:
192,192,34374,1,0,0:2:0:0:
448,192,34581,1,8,0:2:0:0:
320,192,34581,1,0,0:2:0:0:
64,192,34787,1,0,0:2:0:0:
192,192,34994,1,8,0:2:0:0:
320,192,34994,1,0,0:2:0:0:
448,192,35201,1,0,0:2:0:0:
64,192,35408,1,8,0:2:0:0:
192,192,35408,1,0,0:2:0:0:
320,192,35615,1,0,0:2:0:0:
64,192,35822,1,8,0:2:0:0:
448,192,35822,1,0,0:2:0:0:
192,192,36029,1,0,0:2:0:0:
448,192,36236,1,2,0:2:0:0:
64,192,36236,1,8,0:2:0:0:
320,192,36339,1,2,0:2:0:0:
192,192,36443,1,0,0:2:0:0:
320,192,36650,1,2,0:2:0:0:
64,192,36650,1,8,0:2:0:0:
192,192,36856,1,2,0:2:0:0:
448,192,36856,1,8,0:2:0:0:
320,192,37063,1,8,0:2:0:0:
64,192,37063,128,2,37477:0:2:0:0:
192,192,37270,1,0,0:2:0:0:
320,192,37477,1,2,0:2:0:0:
448,192,37477,128,8,37891:0:2:0:0:
64,192,37684,1,0,0:2:0:0:
320,192,37891,1,8,0:2:0:0:
192,192,37891,1,0,0:2:0:0:
64,192,38098,1,0,0:2:0:0:
192,192,38305,1,8,0:2:0:0:
448,192,38305,1,0,0:2:0:0:
320,192,38512,1,0,0:2:0:0:
64,192,38718,1,8,0:2:0:0:
448,192,38718,1,0,0:2:0:0:
192,192,38925,1,0,0:2:0:0:
448,192,39132,1,0,0:2:0:0:
320,192,39132,1,8,0:2:0:0:
192,192,39339,1,0,0:2:0:0:
64,192,39546,1,8,0:2:0:0:
320,192,39546,1,0,0:2:0:0:
192,192,39753,1,0,0:2:0:0:
448,192,39960,1,8,0:2:0:0:
64,192,39960,1,0,0:2:0:0:
192,192,40167,1,0,0:2:0:0:
448,192,40374,128,8,40787:0:2:0:0:
320,192,40374,1,2,0:2:0:0:
64,192,40581,1,0,0:2:0:0:
320,192,40787,128,2,41201:0:2:0:0:
192,192,40787,1,8,0:2:0:0:
64,192,40994,1,0,0:2:0:0:
192,192,41201,1,8,0:2:0:0:
448,192,41201,1,0,0:2:0:0:
64,192,41408,1,0,0:2:0:0:
192,192,41615,1,8,0:2:0:0:
448,192,41615,1,0,0:2:0:0:
320,192,41822,1,0,0:2:0:0:
448,192,42029,1,8,0:2:0:0:
64,192,42029,1,8,0:2:0:0:
192,192,42236,1,0,0:2:0:0:
64,192,42443,1,8,0:2:0:0:
448,192,42443,1,0,0:2:0:0:
320,192,42650,1,0,0:2:0:0:
448,192,42856,1,8,0:2:0:0:
192,192,42856,1,0,0:2:0:0:
64,192,43063,1,8,0:2:0:0:
320,192,43063,1,0,0:0:0:0:
192,192,43270,1,8,0:2:0:0:
64,192,43270,1,2,0:2:0:0:
448,192,43477,1,12,0:2:0:0:
320,192,43581,1,12,0:2:0:0:
192,192,43684,1,10,0:2:0:0:
64,192,43684,128,4,44098:0:2:0:0:
448,192,43891,1,0,0:2:0:0:
192,192,44098,128,2,44512:0:2:0:0:
320,192,44098,1,8,0:2:0:0:
448,192,44305,1,0,0:2:0:0:
64,192,44512,1,8,0:2:0:0:
320,192,44512,1,0,0:2:0:0:
448,192,44718,1,0,0:2:0:0:
64,192,44925,1,8,0:2:0:0:
192,192,44925,1,0,0:2:0:0:
320,192,45132,1,0,0:2:0:0:
64,192,45339,1,8,0:2:0:0:
448,192,45339,1,0,0:2:0:0:
192,192,45546,1,0,0:2:0:0:
448,192,45753,1,0,0:2:0:0:
320,192,45753,1,8,0:2:0:0:
192,192,45960,1,0,0:2:0:0:
64,192,46167,1,8,0:2:0:0:
448,192,46167,1,0,0:2:0:0:
320,192,46374,1,0,0:2:0:0:
192,192,46581,1,0,0:2:0:0:
64,192,46581,1,8,0:2:0:0:
320,192,46787,1,0,0:2:0:0:
64,192,46994,128,8,47408:0:2:0:0:
448,192,46994,1,2,0:2:0:0:
192,192,47201,1,0,0:2:0:0:
448,192,47408,128,8,47822:0:2:0:0:
320,192,47408,1,2,0:2:0:0:
64,192,47615,1,0,0:2:0:0:
192,192,47822,1,8,0:2:0:0:
320,192,47822,1,0,0:2:0:0:
64,192,48029,1,0,0:2:0:0:
320,192,48236,1,8,0:2:0:0:
448,192,48236,1,0,0:2:0:0:
192,192,48443,1,0,0:2:0:0:
64,192,48650,1,8,0:2:0:0:
448,192,48650,1,0,0:2:0:0:
320,192,48856,1,0,0:2:0:0:
64,192,49063,1,8,0:2:0:0:
448,192,49063,1,0,0:2:0:0:
192,192,49270,1,0,0:2:0:0:
64,192,49477,1,8,0:2:0:0:
320,192,49477,1,0,0:2:0:0:
448,192,49684,1,0,0:2:0:0:
192,192,49891,1,8,0:2:0:0:
64,192,49891,1,0,0:2:0:0:
192,192,50098,1,8,0:2:0:0:
64,192,50098,1,0,0:0:0:0:
320,192,50305,1,8,0:2:0:0:
448,192,50305,128,2,50718:0:2:0:0:
192,192,50512,1,0,0:2:0:0:
64,192,50718,1,2,0:2:0:0:
320,192,50718,128,8,51132:0:2:0:0:
448,192,50925,1,0,0:2:0:0:
192,192,51132,1,8,0:2:0:0:
64,192,51132,1,0,0:2:0:0:
320,192,51339,1,0,0:2:0:0:
64,192,51546,1,8,0:2:0:0:
448,192,51546,1,0,0:2:0:0:
320,192,51753,1,0,0:2:0:0:
192,192,51960,1,8,0:2:0:0:
448,192,51960,1,0,0:2:0:0:
320,192,52167,1,0,0:2:0:0:
64,192,52374,1,8,0:2:0:0:
192,192,52374,1,0,0:2:0:0:
448,192,52581,1,0,0:2:0:0:
192,192,52787,1,8,0:2:0:0:
320,192,52787,1,0,0:2:0:0:
64,192,52994,1,0,0:2:0:0:
320,192,53201,1,0,0:2:0:0:
448,192,53201,1,8,0:2:0:0:
192,192,53408,1,0,0:2:0:0:
320,192,53615,1,2,0:2:0:0:
64,192,53615,128,8,54029:0:2:0:0:
448,192,53822,1,0,0:2:0:0:
320,192,54029,1,2,0:2:0:0:
192,192,54029,128,8,54443:0:2:0:0:
448,192,54236,1,0,0:2:0:0:
64,192,54443,1,8,0:2:0:0:
320,192,54443,1,0,0:2:0:0:
448,192,54650,1,0,0:2:0:0:
64,192,54856,1,8,0:2:0:0:
192,192,54856,1,0,0:2:0:0:
320,192,55063,1,0,0:2:0:0:
448,192,55270,1,8,0:2:0:0:
192,192,55270,1,0,0:2:0:0:
320,192,55477,1,0,0:2:0:0:
64,192,55684,1,8,0:2:0:0:
448,192,55684,1,0,0:2:0:0:
192,192,55891,1,0,0:2:0:0:
448,192,56098,1,8,0:2:0:0:
320,192,56098,1,0,0:2:0:0:
192,192,56305,1,0,0:0:0:0:
64,192,56305,1,8,0:2:0:0:
448,192,56512,1,8,0:2:0:0:
320,192,56512,1,0,0:2:0:0:
64,192,56718,1,12,0:2:0:0:
192,192,56822,1,12,0:2:0:0:
320,192,56925,1,6,0:2:0:0:
448,192,56925,1,8,0:2:0:0:
192,192,57339,1,4,0:2:0:0:
448,192,57339,1,2,0:2:0:0:
64,192,57753,1,8,0:2:0:0:
320,192,57753,1,2,0:2:0:0:
64,192,58167,1,4,0:2:0:0:
448,192,58167,1,2,0:2:0:0:
192,192,58581,1,2,0:2:0:0:
448,192,58581,1,8,0:2:0:0:
192,192,58994,1,4,0:2:0:0:
64,192,58994,1,2,0:2:0:0:
448,192,59408,1,8,0:2:0:0:
320,192,59408,1,2,0:2:0:0:
192,192,59822,1,4,0:2:0:0:
320,192,59822,1,2,0:2:0:0:
64,192,60029,1,6,0:2:0:0:
448,192,60029,1,8,0:2:0:0:
192,192,60236,1,8,0:2:0:0:
320,192,60236,1,2,0:2:0:0:
64,192,60650,1,4,0:2:0:0:
192,192,60650,1,2,0:2:0:0:
64,192,61063,1,8,0:2:0:0:
320,192,61063,1,2,0:2:0:0:
448,192,61477,1,2,0:2:0:0:
64,192,61477,1,4,0:2:0:0:
448,192,61891,1,8,0:2:0:0:
192,192,61891,1,2,0:2:0:0:
320,192,62305,1,2,0:2:0:0:
448,192,62305,1,4,0:2:0:0:
192,192,62718,1,8,0:2:0:0:
448,192,62718,1,2,0:2:0:0:
64,192,63132,1,4,0:2:0:0:
320,192,63132,1,2,0:2:0:0:
192,192,63339,1,8,0:2:0:0:
448,192,63339,1,6,0:2:0:0:
320,192,63546,1,2,0:2:0:0:
64,192,63546,1,8,0:2:0:0:
448,192,63753,1,0,0:2:0:0:
320,192,63960,1,2,0:2:0:0:
192,192,63960,1,4,0:2:0:0:
64,192,64167,1,0,0:2:0:0:
192,192,64374,1,8,0:2:0:0:
448,192,64374,1,2,0:2:0:0:
320,192,64581,1,0,0:2:0:0:
64,192,64787,1,4,0:2:0:0:
448,192,64787,1,2,0:2:0:0:
192,192,64994,1,0,0:2:0:0:
320,192,65201,1,8,0:2:0:0:
448,192,65201,1,2,0:2:0:0:
320,192,65408,1,0,0:2:0:0:
64,192,65615,1,2,0:2:0:0:
448,192,65615,1,4,0:2:0:0:
64,192,65822,1,0,0:2:0:0:
192,192,66029,1,8,0:2:0:0:
448,192,66029,1,2,0:2:0:0:
448,192,66236,1,0,0:2:0:0:
320,192,66443,1,2,0:2:0:0:
64,192,66443,1,4,0:2:0:0:
192,192,66650,1,10,0:2:0:0:
448,192,66650,1,4,0:2:0:0:
64,192,66856,1,8,0:2:0:0:
320,192,66856,1,2,0:2:0:0:
192,192,67063,1,0,0:2:0:0:
320,192,67270,1,4,0:2:0:0:
448,192,67270,1,2,0:2:0:0:
64,192,67477,1,0,0:2:0:0:
192,192,67684,1,8,0:2:0:0:
448,192,67684,1,2,0:2:0:0:
320,192,67891,1,0,0:2:0:0:
192,192,68098,1,4,0:2:0:0:
64,192,68098,1,2,0:2:0:0:
448,192,68305,1,0,0:2:0:0:
64,192,68512,1,8,0:2:0:0:
320,192,68718,1,2,0:2:0:0:
192,192,68925,1,2,0:2:0:0:
448,192,69132,1,2,0:2:0:0:
64,192,69339,1,10,0:2:0:0:
320,192,69443,1,2,0:0:0:0:
192,192,69546,1,6,0:2:0:0:
448,192,69650,1,2,0:0:0:0:
64,192,69753,1,10,0:2:0:0:
320,192,69856,1,2,0:2:0:0:
192,192,69960,1,6,0:2:0:0:
448,192,70063,1,2,0:2:0:0:
64,192,70167,1,8,0:2:0:0:
320,192,70167,1,6,0:2:0:0:
320,192,70374,1,0,0:2:0:0:
192,192,70581,1,2,0:2:0:0:
448,192,70581,1,8,0:2:0:0:
320,192,70787,1,2,0:2:0:0:
64,192,70994,1,8,0:2:0:0:
448,192,70994,128,2,71408:0:2:0:0:
192,192,71408,1,8,0:2:0:0:
64,192,71408,1,0,0:2:0:0:
320,192,71615,1,0,0:2:0:0:
192,192,71822,1,2,0:2:0:0:
64,192,71822,1,8,0:2:0:0:
320,192,72029,1,2,0:2:0:0:
64,192,72236,1,2,0:2:0:0:
448,192,72236,1,8,0:2:0:0:
320,192,72443,1,2,0:2:0:0:
448,192,72650,1,8,0:2:0:0:
192,192,72650,1,0,0:2:0:0:
64,192,72856,1,2,0:2:0:0:
320,192,73063,1,2,0:2:0:0:
448,192,73063,1,8,0:2:0:0:
192,192,73270,1,2,0:2:0:0:
64,192,73477,1,2,0:2:0:0:
320,192,73477,1,8,0:2:0:0:
192,192,73684,1,2,0:2:0:0:
320,192,73891,1,2,0:2:0:0:
448,192,73891,1,8,0:2:0:0:
192,192,74098,1,2,0:2:0:0:
64,192,74305,128,8,74718:0:2:0:0:
448,192,74305,1,2,0:2:0:0:
320,192,74718,1,0,0:2:0:0:
448,192,74718,1,8,0:2:0:0:
192,192,74925,1,0,0:2:0:0:
448,192,75132,1,2,0:2:0:0:
64,192,75132,1,8,0:2:0:0:
320,192,75339,1,0,0:2:0:0:
192,192,75546,1,2,0:2:0:0:
64,192,75546,1,0,0:2:0:0:
448,192,75753,1,0,0:2:0:0:
64,192,75960,1,8,0:2:0:0:
320,192,75960,1,0,0:2:0:0:
192,192,76167,1,2,0:2:0:0:
64,192,76374,1,8,0:2:0:0:
448,192,76374,1,0,0:2:0:0:
320,192,76581,1,8,0:2:0:0:
192,192,76787,1,8,0:2:0:0:
448,192,76787,1,2,0:2:0:0:
64,192,76994,1,2,0:2:0:0:
448,192,77201,1,8,0:2:0:0:
320,192,77201,1,2,0:2:0:0:
192,192,77408,1,2,0:2:0:0:
320,192,77615,128,8,78029:0:2:0:0:
448,192,77615,1,2,0:2:0:0:
192,192,78029,1,0,0:2:0:0:
64,192,78029,1,8,0:2:0:0:
448,192,78236,1,0,0:2:0:0:
192,192,78443,1,2,0:2:0:0:
64,192,78443,1,8,0:2:0:0:
320,192,78650,1,2,0:2:0:0:
192,192,78856,1,2,0:2:0:0:
448,192,78856,1,8,0:2:0:0:
64,192,79063,1,2,0:2:0:0:
320,192,79270,1,8,0:2:0:0:
448,192,79270,1,0,0:2:0:0:
192,192,79477,1,2,0:2:0:0:
320,192,79684,1,2,0:2:0:0:
64,192,79684,1,8,0:2:0:0:
448,192,79891,1,2,0:2:0:0:
192,192,80098,1,2,0:2:0:0:
320,192,80098,1,8,0:2:0:0:
64,192,80305,1,2,0:2:0:0:
320,192,80512,1,8,0:2:0:0:
448,192,80512,1,2,0:2:0:0:
64,192,80718,1,2,0:2:0:0:
192,192,80925,128,2,81339:0:2:0:0:
448,192,80925,1,8,0:2:0:0:
320,192,81339,1,8,0:2:0:0:
448,192,81339,1,0,0:2:0:0:
64,192,81546,1,0,0:2:0:0:
192,192,81753,1,8,0:2:0:0:
320,192,81753,1,2,0:2:0:0:
64,192,81960,1,0,0:2:0:0:
192,192,82167,1,8,0:2:0:0:
448,192,82167,1,2,0:2:0:0:
320,192,82374,1,0,0:2:0:0:
64,192,82581,1,8,0:2:0:0:
448,192,82581,1,0,0:2:0:0:
192,192,82787,1,10,0:2:0:0:
448,192,82994,1,8,0:2:0:0:
320,192,82994,1,2,0:2:0:0:
192,192,83201,1,12,0:2:0:0:
320,192,83305,1,12,0:2:0:0:
64,192,83408,1,10,0:2:0:0:
448,192,83408,1,4,0:2:0:0:
192,192,83615,1,0,0:2:0:0:
448,192,83822,1,8,0:2:0:0:
320,192,84029,1,4,0:2:0:0:
64,192,84132,1,4,0:2:0:0:
448,192,84339,1,4,0:2:0:0:
192,192,84443,1,4,0:2:0:0:
320,192,84650,1,8,0:2:0:0:
64,192,84856,1,0,0:2:0:0:
448,192,85063,1,8,0:2:0:0:
320,192,85063,1,4,0:2:0:0:
192,192,85270,1,0,0:2:0:0:
448,192,85477,1,8,0:2:0:0:
64,192,85684,1,4,0:2:0:0:
320,192,85787,1,4,0:2:0:0:
448,192,85994,1,4,0:2:0:0:
192,192,86098,1,4,0:2:0:0:
64,192,86305,1,8,0:2:0:0:
448,192,86512,1,4,0:2:0:0:
192,192,86718,1,8,0:2:0:0:
64,192,86718,1,4,0:2:0:0:
320,192,86925,1,0,0:2:0:0:
448,192,87132,1,8,0:2:0:0:
320,192,87339,1,4,0:2:0:0:
192,192,87443,1,4,0:2:0:0:
64,192,87650,1,4,0:2:0:0:
448,192,87753,1,4,0:2:0:0:
192,192,87960,1,8,0:2:0:0:
320,192,88167,1,0,0:2:0:0:
448,192,88374,1,4,0:2:0:0:
192,192,88374,1,8,0:2:0:0:
64,192,88581,1,0,0:2:0:0:
448,192,88787,1,8,0:2:0:0:
64,192,88994,1,4,0:2:0:0:
192,192,89098,1,4,0:2:0:0:
448,192,89305,1,4,0:2:0:0:
320,192,89408,1,4,0:0:0:0:
64,192,89615,1,8,0:2:0:0:
448,192,89822,1,12,0:2:0:0:
320,192,89925,1,12,0:2:0:0:
64,192,90029,1,8,0:2:0:0:
192,192,90029,1,6,0:2:0:0:
320,192,90236,1,2,0:2:0:0:
448,192,90443,1,8,0:2:0:0:
320,192,90650,1,4,0:2:0:0:
64,192,90753,1,4,0:2:0:0:
192,192,90960,1,4,0:2:0:0:
448,192,91063,1,4,0:2:0:0:
64,192,91270,1,8,0:2:0:0:
320,192,91477,1,2,0:2:0:0:
192,192,91684,1,8,0:2:0:0:
448,192,91684,1,0,0:2:0:0:
64,192,91891,1,2,0:2:0:0:
320,192,92098,1,8,0:2:0:0:
448,192,92305,1,4,0:2:0:0:
192,192,92408,1,4,0:2:0:0:
64,192,92615,1,4,0:2:0:0:
320,192,92718,1,4,0:2:0:0:
448,192,92925,1,8,0:2:0:0:
64,192,93132,1,6,0:2:0:0:
192,192,93339,1,4,0:2:0:0:
320,192,93339,1,8,0:2:0:0:
192,192,93650,1,0,0:2:0:0:
64,192,93856,1,2,0:2:0:0:
320,192,93960,1,0,0:2:0:0:
448,192,94167,1,2,0:2:0:0:
64,192,94477,1,2,0:2:0:0:
192,192,94581,1,0,0:2:0:0:
448,192,94787,1,2,0:2:0:0:
320,192,94891,1,0,0:2:0:0:
64,192,94994,1,2,0:2:0:0:
192,192,95201,1,2,0:2:0:0:
448,192,95408,1,12,0:2:0:0:
320,192,95615,1,0,0:2:0:0:
64,192,95822,1,12,0:2:0:0:
192,192,95925,1,2,0:2:0:0:
320,192,96029,1,12,0:2:0:0:
448,192,96132,1,2,0:2:0:0:
64,192,96236,1,12,0:2:0:0:
192,192,96339,1,2,0:2:0:0:
320,192,96443,1,12,0:2:0:0:
448,192,96546,1,2,0:2:0:0:
64,192,96650,1,8,0:2:0:0:
192,192,96650,1,6,0:2:0:0:
448,192,96856,1,2,0:2:0:0:
320,192,97063,1,4,0:2:0:0:
64,192,97063,1,8,0:2:0:0:
192,192,97270,1,2,0:2:0:0:
448,192,97477,1,8,0:2:0:0:
64,192,97477,1,0,0:2:0:0:
320,192,97684,1,2,0:2:0:0:
448,192,97891,1,8,0:2:0:0:
64,192,97891,1,4,0:2:0:0:
192,192,98098,1,2,0:2:0:0:
320,192,98305,1,0,0:2:0:0:
448,192,98305,1,8,0:2:0:0:
64,192,98512,1,2,0:2:0:0:
448,192,98718,1,4,0:2:0:0:
192,192,98718,1,8,0:2:0:0:
320,192,98925,1,2,0:2:0:0:
64,192,99132,1,8,0:2:0:0:
192,192,99132,1,0,0:2:0:0:
320,192,99339,1,2,0:2:0:0:
64,192,99546,1,4,0:2:0:0:
448,192,99546,1,8,0:2:0:0:
320,192,99753,1,2,0:2:0:0:
64,192,99960,1,8,0:2:0:0:
448,192,99960,1,0,0:2:0:0:
192,192,100167,1,2,0:2:0:0:
448,192,100374,1,4,0:2:0:0:
320,192,100374,1,8,0:2:0:0:
192,192,100581,1,2,0:2:0:0:
64,192,100787,1,8,0:2:0:0:
320,192,100787,1,0,0:2:0:0:
448,192,100994,1,2,0:2:0:0:
192,192,101201,1,4,0:2:0:0:
64,192,101201,1,8,0:2:0:0:
320,192,101408,1,2,0:2:0:0:
64,192,101615,1,8,0:2:0:0:
448,192,101615,1,0,0:2:0:0:
320,192,101822,1,2,0:2:0:0:
448,192,102029,1,8,0:2:0:0:
192,192,102029,1,4,0:2:0:0:
64,192,102236,1,2,0:2:0:0:
192,192,102443,1,8,0:2:0:0:
448,192,102443,1,0,0:2:0:0:
320,192,102650,1,2,0:2:0:0:
448,192,102856,1,8,0:2:0:0:
64,192,102856,1,4,0:2:0:0:
192,192,103063,1,12,0:2:0:0:
64,192,103270,1,4,0:2:0:0:
320,192,103270,1,10,0:2:0:0:
448,192,103477,1,2,0:2:0:0:
192,192,103684,1,4,0:2:0:0:
320,192,103684,1,8,0:2:0:0:
64,192,103891,1,2,0:2:0:0:
320,192,104098,1,0,0:2:0:0:
448,192,104098,1,8,0:2:0:0:
64,192,104305,1,2,0:2:0:0:
320,192,104512,1,4,0:2:0:0:
448,192,104512,1,8,0:2:0:0:
192,192,104718,1,2,0:2:0:0:
64,192,104925,1,8,0:2:0:0:
448,192,104925,1,0,0:2:0:0:
320,192,105132,1,2,0:2:0:0:
192,192,105339,1,4,0:2:0:0:
64,192,105339,1,8,0:2:0:0:
320,192,105546,1,2,0:2:0:0:
448,192,105753,1,0,0:2:0:0:
64,192,105753,1,8,0:2:0:0:
192,192,105960,1,2,0:2:0:0:
320,192,106167,1,8,0:2:0:0:
448,192,106167,1,4,0:2:0:0:
192,192,106374,1,2,0:2:0:0:
320,192,106581,1,0,0:2:0:0:
64,192,106581,1,8,0:2:0:0:
448,192,106787,1,2,0:2:0:0:
64,192,106994,1,4,0:2:0:0:
192,192,106994,1,8,0:2:0:0:
320,192,107201,1,2,0:2:0:0:
64,192,107408,1,8,0:2:0:0:
448,192,107408,1,0,0:2:0:0:
320,192,107615,1,2,0:2:0:0:
192,192,107822,1,8,0:2:0:0:
448,192,107822,1,4,0:2:0:0:
64,192,108029,1,2,0:2:0:0:
320,192,108236,1,10,0:2:0:0:
192,192,108443,1,10,0:2:0:0:
448,192,108650,1,10,0:2:0:0:
64,192,108856,1,10,0:2:0:0:
448,192,109063,1,10,0:2:0:0:
192,192,109167,1,6,0:2:0:0:
320,192,109270,1,10,0:2:0:0:
64,192,109374,1,6,0:2:0:0:
448,192,109477,1,10,0:2:0:0:
192,192,109581,1,6,0:2:0:0:
448,192,109684,1,10,0:2:0:0:
320,192,109787,1,6,0:2:0:0:
192,192,109891,128,8,114029:0:2:0:0:
64,192,109891,128,4,114029:0:2:0:0:
